osu file format v14

[General]
AudioFilename: audio.mp3
AudioLeadIn: 0
PreviewTime: 30293
Countdown: 0
SampleSet: Normal
StackLeniency: 0.7
Mode: 1
LetterboxInBreaks: 0
WidescreenStoryboard: 1

[Editor]
DistanceSpacing: 0.8
BeatDivisor: 4
GridSize: 32
TimelineZoom: 2.900002

[Metadata]
Title:Lamp feat. PLUIE (7_7 bootleg) (Cut Ver.)
TitleUnicode:ランプ feat. PLUIE (7_7 bootleg) (Cut Ver.)
Artist:Atelier LadyBird
ArtistUnicode:Atelier LadyBird
Creator:iloveyou4ever
Version:Futsuu
Source:
Tags:カワサキヤスヒロ Kawasaki Yasuhiro - Life is so good - speedcore japanese electronic short version
BeatmapID:4035729
BeatmapSetID:1901201

[Difficulty]
HPDrainRate:7
CircleSize:5
OverallDifficulty:4
ApproachRate:5
SliderMultiplier:1.2
SliderTickRate:1

[Events]
//Background and Video events
0,0,"1146894.jpg",0,0
//Break Periods
//Storyboard Layer 0 (Background)
//Storyboard Layer 1 (Fail)
//Storyboard Layer 2 (Pass)
//Storyboard Layer 3 (Foreground)
//Storyboard Layer 4 (Overlay)
//Storyboard Sound Samples

[TimingPoints]
6,230.769230769231,4,1,0,100,1,0
698,-100,4,1,0,100,0,0
929,230.769230769231,4,1,0,100,1,0
929,-100,4,1,0,100,0,0
7502,-100,4,1,0,100,0,0
7618,-100,4,1,0,100,0,0
7733,-100,4,1,0,100,0,0
7791,-100,4,1,0,100,0,0
7849,-100,4,1,0,100,0,0
7906,-100,4,1,0,100,0,0
7964,-100,4,1,0,100,0,0
8022,-100,4,1,0,100,0,0
8079,-100,4,1,0,100,0,0
8313,-100,4,1,0,100,0,0
15002,-100,4,1,0,100,0,0
15118,-100,4,1,0,100,0,0
15233,-103.455410717981,4,1,0,100,0,0
15291,-100,4,1,0,100,0,0
15349,-100,4,1,0,100,0,0
15464,-107.146683810136,4,1,0,100,0,0
15579,-100,4,1,0,100,0,0
15695,-111.111111111111,4,1,0,100,0,0
21929,-105.263157894737,4,1,0,100,0,0
22159,-100,4,1,0,100,0,0
22621,-100,4,1,0,90,0,0
22852,-100,4,1,0,80,0,0
22967,-100,4,1,0,60,0,0
23079,-100,4,1,0,60,0,0
23310,-100,4,1,0,60,0,0
23541,-100,4,1,0,60,0,0
23656,-100,4,1,0,60,0,0
23772,-100,4,1,0,60,0,0
23887,-100,4,1,0,60,0,0
24002,-100,4,1,0,70,0,0
24118,-100,4,1,0,70,0,0
24233,-100,4,1,0,70,0,0
24464,-100,4,1,0,70,0,0
24695,-100,4,1,0,70,0,0
24810,-100,4,1,0,70,0,0
24926,-100,4,1,0,80,0,0
25156,-100,4,1,0,80,0,0
25272,-100,4,1,0,80,0,0
25387,-100,4,1,0,80,0,0
25502,-100,4,1,0,80,0,0
25618,-100,4,1,0,80,0,0
25733,-100,4,1,0,80,0,0
25849,-100,4,1,0,90,0,0
26079,-100,4,1,0,90,0,0
26195,-100,4,1,0,90,0,0
26310,-100,4,1,0,90,0,0
26426,-100,4,1,0,90,0,0
26541,-100,4,1,0,90,0,0
26775,-100,4,1,0,100,0,0
28676,-100,4,1,0,100,0,0
28733,-100,4,1,0,100,0,0
28791,-100,4,1,0,100,0,0
28849,-100,4,1,0,100,0,0
28964,-100,4,1,0,100,0,0
29022,-100,4,1,0,100,0,0
29079,-100,4,1,0,100,0,0
29137,-100,4,1,0,100,0,0
29195,-100,4,1,0,100,0,0
29252,-100,4,1,0,100,0,0
29310,-100,4,1,0,100,0,0
29426,-100,4,1,0,100,0,0
29541,-100,4,1,0,100,0,0
29656,-100,4,1,0,100,0,0
29772,-100,4,1,0,100,0,0
29887,-100,4,1,0,100,0,0
30002,-100,4,1,0,100,0,0
30118,-100,4,1,0,100,0,0
30233,-100,4,1,0,100,0,0
30467,-100,4,1,0,100,0,1
36005,-100,4,1,0,100,0,0
36352,-100,4,1,0,100,0,0
36467,-100,4,1,0,100,0,0
36698,-100,4,1,0,100,0,0
36813,-100,4,1,0,100,0,0
36929,-100,4,1,0,100,0,0
37852,-100,4,1,0,100,0,1
39698,-100,4,1,0,100,0,0
39813,-100,4,1,0,100,0,0
40849,-100,4,1,0,100,0,0
40964,-100,4,1,0,100,0,0
41079,-100,4,1,0,100,0,0
41310,-100,4,1,0,100,0,0
41426,-100,4,1,0,100,0,0
41544,-100,4,1,0,100,0,1
43390,-100,4,1,0,90,0,0
43736,-111.111111111111,4,1,0,80,0,0
45236,-125,4,1,0,70,0,0
50079,-121.654501216545,4,1,0,85,0,0
50195,-121.654501216545,4,1,0,85,0,0
50310,-118.483412322275,4,1,0,85,0,0
50426,-116.144018583043,4,1,0,85,0,0
50541,-113.895216400911,4,1,0,85,0,0
50656,-113.895216400911,4,1,0,85,0,0
50772,-111.111111111111,4,1,0,95,0,0
58159,-111.111111111111,4,1,0,95,0,0
69236,-107.146683810136,4,1,0,95,0,0
70159,-103.455410717981,4,1,0,95,0,0
71082,-100,4,1,0,95,0,0
72698,-100,4,1,0,70,0,0
72929,-100,4,1,0,60,0,0
73156,-100,4,1,0,60,0,0
73387,-100,4,1,0,60,0,0
73502,-100,4,1,0,60,0,0
73618,-100,4,1,0,60,0,0
73849,-100,4,1,0,75,0,0
74079,-100,4,1,0,75,0,0
74195,-100,4,1,0,75,0,0
74310,-100,4,1,0,75,0,0
74426,-100,4,1,0,75,0,0
74541,-100,4,1,0,75,0,0
74772,-100,4,1,0,90,0,0
75698,-100,4,1,0,100,0,0
76621,-100,4,1,0,100,0,1
90579,-100,4,1,0,100,0,1
90695,-100,4,1,0,100,0,1
90926,-100,4,1,0,100,0,1
90983,-100,4,1,0,100,0,1
91041,-100,4,1,0,100,0,1
91099,-100,4,1,0,100,0,1
91156,-100,4,1,0,100,0,1
91272,-100,4,1,0,100,0,1
91387,-100,4,1,0,100,0,1
91621,-100,4,1,0,100,0,0
92772,-100,4,1,0,100,0,0
92829,-100,4,1,0,100,0,0
92887,-100,4,1,0,100,0,0
92945,-100,4,1,0,100,0,0
93002,-100,4,1,0,100,0,0
93118,-100,4,1,0,100,0,0
93233,-100,4,1,0,100,0,0
93467,-100,4,1,0,100,0,0
94618,-100,4,1,0,100,0,0
94791,-100,4,1,0,100,0,0
94849,-100,4,1,0,90,0,0
94964,-100,4,1,0,85,0,0
95079,-100,4,1,0,80,0,0
95310,-100,4,1,0,80,0,0
95426,-100,4,1,0,80,0,0
95541,-100,4,1,0,80,0,0
95656,-100,4,1,0,80,0,0
95772,-100,4,1,0,80,0,0
95887,-100,4,1,0,80,0,0
96002,-100,4,1,0,90,0,0
96233,-100,4,1,0,90,0,0
96349,-100,4,1,0,90,0,0
96464,-100,4,1,0,90,0,0
96579,-100,4,1,0,90,0,0
96695,-100,4,1,0,90,0,0
96752,-100,4,1,0,90,0,0
96810,-100,4,1,0,90,0,0
96868,-100,4,1,0,90,0,0
96926,-100,4,1,0,90,0,0
97275,-100,4,1,0,90,0,0
97390,-100,4,1,0,90,0,0
97621,-100,4,1,0,90,0,0
97736,-100,4,1,0,90,0,0
97852,-100,4,1,0,90,0,0
98775,-100,4,1,0,100,0,1
100621,-100,4,1,0,100,0,0
100736,-100,4,1,0,100,0,0
101775,-100,4,1,0,100,0,0
101890,-100,4,1,0,100,0,0
102005,-100,4,1,0,100,0,0
102236,-100,4,1,0,100,0,0
102352,-100,4,1,0,100,0,0
102467,-100,4,1,0,100,0,1
104313,-100,4,1,0,100,0,0
104544,-100,4,1,0,100,0,1
109852,-100,4,1,0,100,0,0
110198,-100,4,1,0,90,0,0
110313,-100,4,1,0,90,0,0
110544,-100,4,1,0,90,0,0
110659,-100,4,1,0,90,0,0
110775,-100,4,1,0,90,0,0
111698,-100,4,1,0,100,0,1
113544,-100,4,1,0,100,0,0
113659,-100,4,1,0,100,0,0
114698,-100,4,1,0,100,0,0
114813,-100,4,1,0,100,0,0
114928,-100,4,1,0,100,0,0
115044,-100,4,1,0,100,0,0
115159,-100,4,1,0,100,0,0
115275,-100,4,1,0,100,0,0
115390,-100,4,1,0,100,0,1
117236,-100,4,1,0,100,0,0
117467,-111.111111111111,4,1,0,95,0,0
124041,-111.111111111111,4,1,0,95,0,0
124099,-111.111111111111,4,1,0,95,0,0
124156,-111.111111111111,4,1,0,95,0,0
124272,-111.111111111111,4,1,0,95,0,0
124387,-111.111111111111,4,1,0,95,0,0
124445,-111.111111111111,4,1,0,95,0,0
124502,-111.111111111111,4,1,0,95,0,0
124618,-111.111111111111,4,1,0,95,0,0
124736,-111.111111111111,4,1,0,95,0,0
128313,-100,4,1,0,100,0,1
129121,-100,4,1,0,100,0,0

[HitObjects]
398,225,698,5,0,0:0:0:0:
383,205,929,5,4,0:0:0:0:
372,203,1275,1,8,0:0:0:0:
457,177,1621,1,8,0:0:0:0:
406,159,2082,1,0,0:0:0:0:
461,203,2313,1,0,0:0:0:0:
387,170,2544,1,8,0:0:0:0:
481,172,2775,1,0,0:0:0:0:
320,192,3121,1,8,0:0:0:0:
343,155,3467,1,0,0:0:0:0:
392,167,4390,1,0,0:0:0:0:
435,167,4621,1,8,0:0:0:0:
381,164,4967,1,8,0:0:0:0:
464,168,5313,1,0,0:0:0:0:
432,168,5775,1,0,0:0:0:0:
439,163,6005,1,8,0:0:0:0:
473,163,6236,1,8,0:0:0:0:
448,192,6467,1,0,0:0:0:0:
448,192,6813,1,8,0:0:0:0:
444,199,7159,1,0,0:0:0:0:
448,192,7390,1,8,0:0:0:0:
438,181,7621,1,8,0:0:0:0:
384,192,7852,1,0,0:0:0:0:
512,160,7967,1,0,0:0:0:0:
512,160,8082,1,8,0:0:0:0:
448,160,8313,1,4,0:0:0:0:
443,174,8659,1,8,0:0:0:0:
443,174,8890,1,8,0:0:0:0:
423,161,9121,1,0,0:0:0:0:
416,160,9467,1,8,0:0:0:0:
448,160,9698,1,0,0:0:0:0:
448,160,9929,1,8,0:0:0:0:
417,167,10159,1,0,0:0:0:0:
440,186,10505,1,0,0:0:0:0:
461,169,10852,1,8,0:0:0:0:
416,160,11082,1,0,0:0:0:0:
384,160,11544,1,8,0:0:0:0:
416,160,12005,1,0,0:0:0:0:
416,160,12352,1,8,0:0:0:0:
341,163,12582,1,0,0:0:0:0:
452,164,12813,1,0,0:0:0:0:
480,192,13159,1,8,0:0:0:0:
448,160,13390,1,8,0:0:0:0:
416,160,13621,1,0,0:0:0:0:
448,160,13852,1,8,0:0:0:0:
480,160,14198,1,8,0:0:0:0:
448,160,14544,1,0,0:0:0:0:
448,160,14775,1,12,0:0:0:0:
404,164,15236,1,0,0:0:0:0:
448,160,15467,1,8,0:0:0:0:
384,224,15698,1,4,0:0:0:0:
398,196,16044,1,8,0:0:0:0:
418,170,16390,1,0,0:0:0:0:
448,160,16852,1,0,0:0:0:0:
448,192,17082,1,8,0:0:0:0:
416,188,17544,1,8,0:0:0:0:
401,169,17775,1,0,0:0:0:0:
466,187,18236,1,8,0:0:0:0:
448,192,18698,1,0,0:0:0:0:
448,160,18929,1,8,0:0:0:0:
480,192,19390,1,4,0:0:0:0:
448,192,19621,1,8,0:0:0:0:
398,180,19852,1,8,0:0:0:0:
480,192,20198,1,0,0:0:0:0:
448,192,20544,1,0,0:0:0:0:
448,192,20775,1,8,0:0:0:0:
448,224,21236,1,8,0:0:0:0:
485,218,21582,1,0,0:0:0:0:
459,173,21929,1,8,0:0:0:0:
427,179,22159,1,0,0:0:0:0:
439,181,22621,1,8,0:0:0:0:
448,177,22852,1,8,0:0:0:0:
468,183,23082,1,0,0:0:0:0:
448,224,23544,1,0,0:0:0:0:
448,192,23890,1,8,0:0:0:0:
448,288,24236,1,0,0:0:0:0:
444,167,24698,1,8,0:0:0:0:
477,157,24929,1,0,0:0:0:0:
392,190,25390,1,8,0:0:0:0:
435,241,25621,1,0,0:0:0:0:
398,190,25852,1,8,0:0:0:0:
462,177,26082,1,8,0:0:0:0:
499,171,26544,1,8,0:0:0:0:
473,196,26775,1,0,0:0:0:0:
433,178,27005,1,8,0:0:0:0:
416,160,27236,1,0,0:0:0:0:
416,160,27352,1,0,0:0:0:0:
455,175,27467,1,8,0:0:0:0:
393,185,27698,1,0,0:0:0:0:
448,192,27929,1,8,0:0:0:0:
452,185,28159,1,8,0:0:0:0:
416,160,28275,1,0,0:0:0:0:
406,172,28390,1,8,0:0:0:0:
256,192,28621,12,0,30236,0:0:0:0:
448,192,30467,5,4,0:0:0:0:
416,160,30698,1,8,0:0:0:0:
387,159,30929,1,0,0:0:0:0:
448,160,31159,1,8,0:0:0:0:
416,160,31852,1,8,0:0:0:0:
414,181,32082,1,8,0:0:0:0:
448,160,32198,1,8,0:0:0:0:
416,160,32313,1,0,0:0:0:0:
448,160,32544,1,8,0:0:0:0:
416,160,32775,1,0,0:0:0:0:
448,160,33005,1,8,0:0:0:0:
512,160,33467,1,8,0:0:0:0:
352,192,33582,1,0,0:0:0:0:
398,225,33698,1,0,0:0:0:0:
480,160,33929,1,8,0:0:0:0:
410,171,34159,1,8,0:0:0:0:
435,180,34390,1,0,0:0:0:0:
435,180,34505,1,0,0:0:0:0:
442,269,34852,1,0,0:0:0:0:
416,192,34967,1,8,0:0:0:0:
402,211,35082,1,0,0:0:0:0:
450,211,35313,1,8,0:0:0:0:
399,208,35544,1,0,0:0:0:0:
448,160,35775,1,8,0:0:0:0:
429,256,35890,1,8,0:0:0:0:
480,192,36005,1,0,0:0:0:0:
416,160,36467,1,8,0:0:0:0:
480,192,36929,1,0,0:0:0:0:
448,288,37159,1,0,0:0:0:0:
448,160,37390,1,8,0:0:0:0:
448,160,37621,1,8,0:0:0:0:
416,160,37852,1,4,0:0:0:0:
352,160,38082,1,8,0:0:0:0:
448,160,38313,1,8,0:0:0:0:
350,168,38429,1,8,0:0:0:0:
384,192,38659,1,0,0:0:0:0:
416,160,39005,1,8,0:0:0:0:
448,224,39236,1,0,0:0:0:0:
64,64,39352,1,0,0:0:0:0:
416,160,39467,1,8,0:0:0:0:
400,173,39698,1,4,0:0:0:0:
448,160,40159,1,8,0:0:0:0:
416,160,40390,1,8,0:0:0:0:
369,165,40621,1,0,0:0:0:0:
416,192,40852,1,0,0:0:0:0:
459,169,41082,1,8,0:0:0:0:
449,154,41313,1,8,0:0:0:0:
440,154,41429,1,8,0:0:0:0:
381,161,41544,1,0,0:0:0:0:
448,256,41775,1,0,0:0:0:0:
448,160,42005,1,8,0:0:0:0:
416,160,42121,1,8,0:0:0:0:
448,256,42352,1,12,0:0:0:0:
416,192,42698,1,8,0:0:0:0:
416,192,42929,1,0,0:0:0:0:
480,160,43159,1,8,0:0:0:0:
448,192,43390,1,4,0:0:0:0:
480,192,43852,1,8,0:0:0:0:
352,256,45236,1,0,0:0:0:0:
448,192,45929,1,8,0:0:0:0:
416,192,47082,1,8,0:0:0:0:
416,192,47775,1,0,0:0:0:0:
416,256,48929,1,0,0:0:0:0:
480,160,50082,1,8,0:0:0:0:
416,256,50313,1,0,0:0:0:0:
416,224,50429,1,0,0:0:0:0:
416,224,50544,1,0,0:0:0:0:
352,192,50775,1,12,0:0:0:0:
448,192,51121,1,8,0:0:0:0:
416,256,51467,1,0,0:0:0:0:
384,160,51929,1,0,0:0:0:0:
448,192,52159,1,8,0:0:0:0:
416,160,52621,1,8,0:0:0:0:
448,192,52967,1,8,0:0:0:0:
416,192,53313,1,8,0:0:0:0:
416,160,53775,1,0,0:0:0:0:
448,160,54005,1,8,0:0:0:0:
448,160,54467,1,8,0:0:0:0:
448,160,54813,1,8,0:0:0:0:
448,160,55159,1,0,0:0:0:0:
480,192,55621,1,0,0:0:0:0:
448,192,55852,1,8,0:0:0:0:
480,192,56313,1,8,0:0:0:0:
416,160,56659,1,0,0:0:0:0:
480,192,57005,1,8,0:0:0:0:
384,224,57467,1,0,0:0:0:0:
416,160,57698,1,8,0:0:0:0:
352,160,58159,1,12,0:0:0:0:
320,160,58505,1,0,0:0:0:0:
416,192,58852,1,0,0:0:0:0:
416,192,58967,1,0,0:0:0:0:
416,192,59313,1,8,0:0:0:0:
384,160,59775,1,8,0:0:0:0:
480,160,60005,1,0,0:0:0:0:
480,160,60236,1,0,0:0:0:0:
256,192,60352,1,8,0:0:0:0:
452,172,60698,1,8,0:0:0:0:
474,168,60929,1,0,0:0:0:0:
503,173,61390,1,8,0:0:0:0:
503,173,61852,1,8,0:0:0:0:
487,166,62082,1,8,0:0:0:0:
448,160,62198,1,0,0:0:0:0:
448,192,62544,1,0,0:0:0:0:
481,163,62775,1,0,0:0:0:0:
416,192,63005,1,8,0:0:0:0:
473,158,63467,1,8,0:0:0:0:
450,171,63698,1,0,0:0:0:0:
453,147,63929,1,0,0:0:0:0:
480,160,64044,1,8,0:0:0:0:
426,160,64390,1,8,0:0:0:0:
430,163,64621,1,0,0:0:0:0:
480,152,65082,1,8,0:0:0:0:
480,152,65313,1,8,0:0:0:0:
452,175,65544,1,4,0:0:0:0:
463,156,65775,1,8,0:0:0:0:
451,157,66005,1,0,0:0:0:0:
509,164,66236,1,8,0:0:0:0:
320,160,66698,1,0,0:0:0:0:
448,192,66929,1,8,0:0:0:0:
448,192,67390,1,8,0:0:0:0:
416,192,67621,1,8,0:0:0:0:
416,160,67736,1,0,0:0:0:0:
480,192,68082,1,0,0:0:0:0:
480,192,68313,1,8,0:0:0:0:
446,175,68775,1,8,0:0:0:0:
446,176,69005,1,8,0:0:0:0:
421,182,69236,1,4,0:0:0:0:
467,183,69467,1,8,0:0:0:0:
467,183,69698,1,8,0:0:0:0:
430,178,69929,1,0,0:0:0:0:
466,166,70159,1,12,0:0:0:0:
459,178,70621,1,8,0:0:0:0:
490,167,71082,1,4,0:0:0:0:
464,177,71313,1,8,0:0:0:0:
471,170,71775,1,8,0:0:0:0:
467,207,72005,1,0,0:0:0:0:
417,181,72236,1,0,0:0:0:0:
501,189,72467,1,8,0:0:0:0:
457,180,72698,1,0,0:0:0:0:
442,214,72929,1,0,0:0:0:0:
501,164,73390,1,0,0:0:0:0:
488,168,73621,1,8,0:0:0:0:
493,165,74082,1,8,0:0:0:0:
477,165,74313,1,0,0:0:0:0:
448,224,74544,1,0,0:0:0:0:
467,139,74775,1,8,0:0:0:0:
456,159,75005,1,8,0:0:0:0:
444,161,75236,1,0,0:0:0:0:
416,224,75352,1,0,0:0:0:0:
510,157,75467,1,8,0:0:0:0:
448,288,75698,1,0,0:0:0:0:
416,192,75929,1,8,0:0:0:0:
416,192,76159,1,8,0:0:0:0:
487,163,76621,1,4,0:0:0:0:
416,192,76967,1,0,0:0:0:0:
484,175,77082,1,8,0:0:0:0:
416,192,77313,1,8,0:0:0:0:
416,192,77429,1,8,0:0:0:0:
480,192,77544,1,0,0:0:0:0:
448,256,77775,1,0,0:0:0:0:
438,162,78005,1,8,0:0:0:0:
452,173,78467,1,8,0:0:0:0:
480,160,78813,1,0,0:0:0:0:
480,160,78929,1,8,0:0:0:0:
480,160,79159,1,8,0:0:0:0:
448,192,79275,1,8,0:0:0:0:
480,192,79390,1,0,0:0:0:0:
448,192,79621,1,0,0:0:0:0:
480,192,79852,1,8,0:0:0:0:
480,192,79967,1,8,0:0:0:0:
416,160,80082,1,8,0:0:0:0:
448,271,80313,1,0,0:0:0:0:
480,192,80659,1,8,0:0:0:0:
448,160,80775,1,0,0:0:0:0:
492,175,81005,1,8,0:0:0:0:
440,185,81121,1,8,0:0:0:0:
409,190,81236,1,0,0:0:0:0:
457,175,81467,1,0,0:0:0:0:
450,168,81698,1,8,0:0:0:0:
365,172,82159,1,0,0:0:0:0:
416,160,82505,1,8,0:0:0:0:
416,192,82621,1,0,0:0:0:0:
432,171,82852,1,8,0:0:0:0:
473,172,82967,1,8,0:0:0:0:
464,164,83082,1,0,0:0:0:0:
416,224,83313,1,0,0:0:0:0:
485,174,83544,1,8,0:0:0:0:
416,160,83775,1,0,0:0:0:0:
416,160,83890,1,0,0:0:0:0:
448,160,84005,1,8,0:0:0:0:
448,160,84352,1,0,0:0:0:0:
480,192,84467,1,8,0:0:0:0:
448,160,84698,1,8,0:0:0:0:
500,182,84813,1,8,0:0:0:0:
450,185,84929,1,0,0:0:0:0:
416,160,85159,1,0,0:0:0:0:
433,173,85390,1,8,0:0:0:0:
455,170,85852,1,8,0:0:0:0:
448,160,86198,1,0,0:0:0:0:
448,160,86313,1,8,0:0:0:0:
480,160,86544,1,8,0:0:0:0:
416,192,86659,1,8,0:0:0:0:
448,192,86775,1,0,0:0:0:0:
448,128,87005,1,0,0:0:0:0:
448,192,87236,1,8,0:0:0:0:
445,168,87352,1,8,0:0:0:0:
480,192,87467,1,8,0:0:0:0:
480,160,87698,1,0,0:0:0:0:
480,192,88044,1,8,0:0:0:0:
448,160,88159,1,0,0:0:0:0:
480,160,88390,1,8,0:0:0:0:
480,160,88505,1,8,0:0:0:0:
480,160,88621,1,0,0:0:0:0:
416,224,88852,1,0,0:0:0:0:
473,156,89082,1,8,0:0:0:0:
480,192,89313,1,8,0:0:0:0:
448,192,89659,1,12,0:0:0:0:
416,224,90005,1,12,0:0:0:0:
433,168,90352,1,4,0:0:0:0:
448,256,90929,1,8,0:0:0:0:
448,192,91275,1,0,0:0:0:0:
448,192,91390,1,0,0:0:0:0:
450,259,91621,1,12,0:0:0:0:
419,256,92198,1,12,0:0:0:0:
448,192,93121,1,0,0:0:0:0:
448,192,93236,1,0,0:0:0:0:
405,171,93467,1,4,0:0:0:0:
408,160,94044,1,12,0:0:0:0:
484,166,94621,1,0,0:0:0:0:
458,147,94852,1,8,0:0:0:0:
459,163,95082,1,0,0:0:0:0:
434,174,95313,1,0,0:0:0:0:
414,158,95429,1,8,0:0:0:0:
448,192,95775,1,8,0:0:0:0:
448,158,96005,1,0,0:0:0:0:
472,164,96236,1,8,0:0:0:0:
461,168,96698,1,8,0:0:0:0:
457,180,96813,1,8,0:0:0:0:
395,178,96929,1,0,0:0:0:0:
361,182,97390,1,8,0:0:0:0:
409,205,97852,1,0,0:0:0:0:
406,177,98082,1,0,0:0:0:0:
458,175,98313,1,8,0:0:0:0:
423,175,98544,1,8,0:0:0:0:
407,157,98775,1,4,0:0:0:0:
427,167,99005,1,8,0:0:0:0:
495,162,99236,1,8,0:0:0:0:
473,192,99467,1,0,0:0:0:0:
447,151,99929,1,8,0:0:0:0:
384,160,100159,1,0,0:0:0:0:
64,64,100275,1,0,0:0:0:0:
509,170,100390,1,8,0:0:0:0:
390,184,100621,1,4,0:0:0:0:
374,169,101082,1,8,0:0:0:0:
416,160,101313,1,8,0:0:0:0:
369,165,101544,1,0,0:0:0:0:
446,184,101775,1,0,0:0:0:0:
421,150,102005,1,8,0:0:0:0:
449,154,102236,1,8,0:0:0:0:
440,154,102352,1,8,0:0:0:0:
381,161,102467,1,0,0:0:0:0:
462,166,102698,1,8,0:0:0:0:
475,162,102929,1,0,0:0:0:0:
417,199,103275,1,4,0:0:0:0:
464,174,103621,1,8,0:0:0:0:
470,188,103852,1,8,0:0:0:0:
416,192,104082,1,8,0:0:0:0:
379,157,104544,1,12,0:0:0:0:
387,159,104775,1,0,0:0:0:0:
448,160,105005,1,8,0:0:0:0:
416,160,105698,1,8,0:0:0:0:
414,181,105929,1,8,0:0:0:0:
448,160,106044,1,8,0:0:0:0:
416,160,106159,1,0,0:0:0:0:
448,160,106390,1,8,0:0:0:0:
416,160,106621,1,0,0:0:0:0:
448,160,106852,1,8,0:0:0:0:
512,160,107313,1,8,0:0:0:0:
352,192,107429,1,0,0:0:0:0:
399,238,107544,1,0,0:0:0:0:
480,160,107775,1,8,0:0:0:0:
442,173,108005,1,8,0:0:0:0:
435,180,108236,1,0,0:0:0:0:
435,180,108352,1,0,0:0:0:0:
427,186,108698,1,0,0:0:0:0:
416,192,108813,1,8,0:0:0:0:
480,192,108929,1,0,0:0:0:0:
441,181,109159,1,8,0:0:0:0:
448,160,109390,1,0,0:0:0:0:
448,160,109621,1,8,0:0:0:0:
429,256,109736,1,8,0:0:0:0:
480,192,109852,1,0,0:0:0:0:
416,160,110313,1,8,0:0:0:0:
480,192,110775,1,0,0:0:0:0:
448,288,111005,1,0,0:0:0:0:
448,160,111236,1,8,0:0:0:0:
448,160,111467,1,8,0:0:0:0:
416,160,111698,1,4,0:0:0:0:
352,160,111929,1,8,0:0:0:0:
384,192,112159,1,0,0:0:0:0:
416,192,112390,1,8,0:0:0:0:
416,160,112852,1,8,0:0:0:0:
448,224,113082,1,0,0:0:0:0:
64,64,113198,1,0,0:0:0:0:
416,160,113313,1,8,0:0:0:0:
400,173,113544,1,4,0:0:0:0:
448,160,114005,1,8,0:0:0:0:
416,160,114236,1,8,0:0:0:0:
369,165,114467,1,0,0:0:0:0:
416,192,114698,1,0,0:0:0:0:
459,169,114929,1,8,0:0:0:0:
449,154,115159,1,8,0:0:0:0:
440,154,115275,1,8,0:0:0:0:
381,161,115390,1,0,0:0:0:0:
448,256,115621,1,0,0:0:0:0:
448,160,115852,1,8,0:0:0:0:
448,256,116198,5,12,0:0:0:0:
416,192,116544,1,8,0:0:0:0:
416,192,116775,1,0,0:0:0:0:
448,224,116890,1,0,0:0:0:0:
480,160,117005,1,8,0:0:0:0:
448,192,117236,1,4,0:0:0:0:
448,160,117698,1,8,0:0:0:0:
448,160,118390,1,0,0:0:0:0:
448,192,118621,1,8,0:0:0:0:
424,189,119082,1,4,0:0:0:0:
448,160,119544,1,8,0:0:0:0:
480,192,119890,1,0,0:0:0:0:
480,192,120467,1,0,0:0:0:0:
435,186,120698,1,8,0:0:0:0:
467,192,120929,1,4,0:0:0:0:
448,192,121390,1,8,0:0:0:0:
448,320,122082,1,0,0:0:0:0:
463,167,122313,1,8,0:0:0:0:
473,158,122775,1,12,0:0:0:0:
475,168,123121,1,8,0:0:0:0:
384,160,123467,1,0,0:0:0:0:
479,177,123929,1,8,0:0:0:0:
448,170,124159,1,0,0:0:0:0:
454,164,124390,1,8,0:0:0:0:
441,159,124621,1,4,0:0:0:0:
461,168,125082,1,8,0:0:0:0:
480,224,125775,1,0,0:0:0:0:
384,168,126005,1,8,0:0:0:0:
448,224,126236,1,8,0:0:0:0:
438,192,126467,1,0,0:0:0:0:
448,160,126698,1,8,0:0:0:0:
448,192,127390,1,0,0:0:0:0:
449,225,127621,1,0,0:0:0:0:
399,170,127852,1,8,0:0:0:0:
448,192,128082,1,8,0:0:0:0:
459,163,128313,1,4,0:0:0:0:
411,153,128544,1,0,0:0:0:0:
64,64,128659,1,0,0:0:0:0:
411,153,128775,1,0,0:0:0:0:
352,160,128890,1,0,0:0:0:0:
387,200,129121,1,4,0:0:0:0:
