osu file format v14

[General]
AudioFilename: audio.mp3
AudioLeadIn: 0
PreviewTime: 826
Countdown: 0
SampleSet: Soft
StackLeniency: 0.4
Mode: 0
LetterboxInBreaks: 0
WidescreenStoryboard: 1

[Editor]
Bookmarks: 95297
DistanceSpacing: 1.1
BeatDivisor: 6
GridSize: 32
TimelineZoom: 2.3

[Metadata]
Title:outcry
TitleUnicode:outcry
Artist:Atarayo
ArtistUnicode:あたらよ
Creator:Shurelia
Version:fuyu's hard
Source:メメントモリ
Tags:mementomori mememori rock japanese video game gacha bank of innovation amleth アムレート 極夜において月は語らず pnky kuro fuyusaki midorijeon
BeatmapID:4131864
BeatmapSetID:1974195

[Difficulty]
HPDrainRate:4
CircleSize:3.5
OverallDifficulty:6
ApproachRate:8
SliderMultiplier:1.5
SliderTickRate:1

[Events]
//Background and Video events
0,0,"HD-Player_pCMLEi4BUO.jpg",0,0
//Break Periods
2,12603,14448
//Storyboard Layer 0 (Background)
//Storyboard Layer 1 (Fail)
//Storyboard Layer 2 (Pass)
//Storyboard Layer 3 (Foreground)
//Storyboard Layer 4 (Overlay)
//Storyboard Sound Samples

[TimingPoints]
1226,798.403193612774,4,2,1,40,1,0
1226,-83.3333333333333,4,2,1,40,0,0
15198,-83.3333333333333,4,2,1,55,0,0
15597,800,4,2,1,75,1,0
15597,-50,4,2,1,75,0,0
18797,794.701986754967,4,2,1,75,1,0
18797,-50,4,2,1,75,0,0
21975,800,4,2,1,75,1,0
21975,-50,4,2,1,75,0,0
25175,805.369127516779,4,2,1,75,1,0
25577,-50,4,2,1,75,0,0
27389,-50,4,2,2,70,0,0
27993,-50,4,2,2,70,0,0
28397,800,4,2,2,70,1,0
28597,-50,4,2,2,70,0,0
29197,-50,4,2,2,70,0,0
29797,-50,4,2,2,70,0,0
29997,800,4,2,1,55,1,0
32397,-100,4,2,3,55,0,0
33197,-62.5,4,2,3,55,0,0
42797,-62.5,4,2,2,60,0,0
45197,-62.5,4,2,3,60,0,0
45997,805.369127516779,4,2,3,60,1,0
45997,-62.5,4,2,3,60,0,0
49218,794.701986754967,4,2,3,60,1,0
49218,-62.5,4,2,3,60,0,0
52396,789.473684210526,4,2,3,60,1,0
52593,-62.5,4,2,3,60,0,0
53975,827.586206896552,4,2,3,60,1,0
55216,722.89156626506,4,2,3,60,1,0
55575,805.369127516779,4,2,1,65,1,0
55575,-55.5555555555555,4,2,1,65,0,0
58797,794.701986754967,4,2,1,65,1,0
58797,-55.5555555555555,4,2,1,65,0,0
61975,800,4,2,1,65,1,0
62375,-55.5555555555555,4,2,1,65,0,0
65175,805.369127516779,4,2,2,65,1,0
65175,-71.4285714285715,4,2,2,65,0,0
68397,800,4,2,1,75,1,1
68397,-45.4545454545455,4,2,1,75,0,1
80997,-45.4545454545455,4,2,2,75,0,1
81197,789.473684210526,4,2,1,75,1,1
81197,-45.4545454545455,4,2,1,75,0,1
82775,810.810810810811,4,2,1,75,1,1
82775,-45.4545454545455,4,2,1,75,0,1
84396,800,4,2,1,75,1,1
84396,-45.4545454545455,4,2,1,75,0,1
87396,-45.4545454545455,4,2,2,75,0,1
87996,-45.4545454545455,4,2,2,75,0,0
89196,-45.4545454545455,4,2,2,75,0,1
89596,-45.4545454545455,4,2,2,75,0,0
90396,-50,4,2,2,75,0,1
90797,805.369127516779,4,2,1,70,1,0
90797,-45.4545454545455,4,2,1,70,0,0
94018,794.701986754967,4,2,1,70,1,0
94018,-45.4545454545455,4,2,1,70,0,0
97197,800,4,2,1,70,1,0
97197,-45.4545454545455,4,2,1,70,0,0
102597,-45.4545454545455,4,2,2,70,0,0
103197,-45.4545454545455,4,2,2,70,0,0
103797,-45.4545454545455,4,2,2,70,0,0
104397,-45.4545454545455,4,2,2,70,0,0
104997,-45.4545454545455,4,2,2,70,0,0
105197,800,4,2,1,55,1,0
108397,-62.5,4,2,1,55,0,0
117997,-62.5,4,2,2,60,0,0
124397,794.701986754967,4,2,2,60,1,0
124397,-62.5,4,2,2,60,0,0
127575,805.369127516779,4,2,2,60,1,0
127776,-62.5,4,2,2,60,0,0
129991,-52.6315789473685,4,2,2,60,0,0
130797,800,4,2,1,75,1,0
130797,-45.4545454545455,4,2,1,75,0,0
137197,-45.4545454545455,4,3,1,75,0,0
143397,-45.4545454545455,4,3,2,75,0,0
143597,-45.4545454545455,4,2,1,75,0,1
156197,-45.4545454545455,4,2,2,75,0,1
156397,-45.4545454545455,4,2,1,75,0,1
162530,-45.4545454545455,4,2,2,75,0,1
162797,-41.6666666666667,4,2,1,65,0,0
165997,805.369127516779,4,2,1,65,1,0
166131,-41.6666666666667,4,2,1,65,0,0
169218,794.701986754967,4,2,1,65,1,0
169218,-41.6666666666667,4,2,1,65,0,0
172396,800,4,2,1,65,1,0
172396,-41.6666666666667,4,2,1,65,0,0
175596,-41.6666666666667,4,2,3,65,0,0
176396,-41.6666666666667,4,2,1,65,0,0
183596,-41.6666666666667,4,2,3,65,0,0
184396,-41.6666666666667,4,2,1,65,0,0
185196,794.701986754967,4,2,1,65,1,0
185196,-41.6666666666667,4,2,1,65,0,0
186785,784.313725490196,4,2,1,65,1,0
187177,-100,4,2,1,65,0,0
188157,-100,4,2,2,65,0,0
188397,800,4,2,2,65,1,0
189997,805.369127516779,4,2,1,75,1,1
189997,-45.4545454545455,4,2,1,75,0,1
193218,794.701986754967,4,2,1,75,1,1
193218,-45.4545454545455,4,2,1,75,0,1
196396,789.473684210526,4,2,1,75,1,1
196396,-45.4545454545455,4,2,1,75,0,1
197974,810.810810810811,4,2,1,75,1,1
197974,-45.4545454545455,4,2,1,75,0,1
199597,800,4,2,1,75,1,1
199597,-45.4545454545455,4,2,1,75,0,1
202597,-45.4545454545455,4,2,2,75,0,1
202797,-45.4545454545455,4,2,1,75,0,1
205997,794.701986754967,4,2,1,75,1,1
205997,-45.4545454545455,4,2,1,75,0,1
209175,805.369127516779,4,2,1,75,1,1
209175,-45.4545454545455,4,2,1,75,0,1
212397,794.701986754967,4,2,1,75,1,1
212397,-45.4545454545455,4,2,1,75,0,1
215310,-45.4545454545455,4,2,2,75,0,1
215575,800,4,2,2,70,1,0
215575,-45.4545454545455,4,2,2,70,0,0
218775,805.369127516779,4,2,1,70,1,0
218775,-45.4545454545455,4,2,1,70,0,0
221997,800,4,2,1,70,1,0
221997,-45.4545454545455,4,2,1,70,0,0
225197,794.701986754967,4,2,1,70,1,0
225197,-45.4545454545455,4,2,1,70,0,0
228177,-45.4545454545455,4,2,1,70,0,0
228197,-45.4545454545455,4,2,2,70,0,0
228375,805.369127516779,4,2,2,70,1,0
228375,-45.4545454545455,4,2,2,70,0,0
228397,-45.4545454545455,4,2,1,70,0,0
231597,800,4,2,1,70,1,0
231597,-45.4545454545455,4,2,1,70,0,0
234597,-45.4545454545455,4,2,2,70,0,0
234797,794.701986754967,4,2,1,45,1,0
234797,-55.5555555555555,4,2,1,45,0,0
237975,800,4,2,1,45,1,0
237975,-55.5555555555555,4,2,1,45,0,0
240175,-62.5,4,2,1,45,0,0
240775,-71.4285714285715,4,2,1,45,0,0
241375,-83.3333333333335,4,2,1,45,0,0
241975,-100,4,2,1,45,0,0
250475,-62.5,4,2,1,60,0,0

[Colours]
Combo1 : 233,227,222
Combo2 : 78,80,101
Combo3 : 144,98,107
Combo4 : 186,127,105

[HitObjects]
69,245,1226,6,0,L|60:179,2,45,2|2|0,0:2|0:2|0:0,0:0:0:0:
118,312,1824,2,0,P|161:308|183:271,1,90,2|2,0:2|0:2,0:0:0:0:
331,207,2822,6,0,L|397:216,2,45,2|2|0,0:2|0:2|0:0,0:0:0:0:
271,141,3421,2,0,P|293:103|336:100,1,90,2|2,0:2|0:2,0:0:0:0:
495,49,4419,6,0,L|508:-7,2,45,2|2|0,0:2|0:2|0:0,0:0:0:0:
428,103,5018,2,0,L|443:228,1,90,2|2,0:2|0:2,0:0:0:0:
408,342,5816,5,2,0:2:0:0:
479,384,6016,2,0,P|507:377|513:358,2,45,2|2|2,0:2|0:2|0:2,0:0:0:0:
414,327,6615,2,0,P|442:291|510:299,1,90,2|2,0:2|0:2,0:0:0:0:
398,75,7613,5,2,0:2:0:0:
255,16,8012,1,2,0:2:0:0:
156,131,8411,1,2,0:2:0:0:
90,193,8611,6,0,L|40:200,2,45,2|2|2,0:2|0:2|0:2,0:0:0:0:
166,230,9210,2,0,P|182:287|42:271,1,270,2|2,0:2|0:2,0:0:0:0:
165,148,10806,6,0,L|263:172,2,90,2|2|2,0:2|0:2|0:2,0:0:0:0:
0,78,12004,1,2,0:2:0:0:
143,0,12403,1,2,0:2:0:0:
103,347,15198,6,0,L|139:354,3,22.5,2|2|2|2,0:2|0:2|0:2|0:2,0:0:0:0:
155,343,15597,2,0,P|173:275|108:237,1,150,14|0,0:1|0:0,0:0:0:0:
59,171,16197,1,2,0:2:0:0:
101,98,16397,2,0,P|159:80|193:69,1,75,10|2,0:2|0:2,0:0:0:0:
238,17,16797,2,0,P|302:39|327:48,1,75,0|10,0:0|0:1,0:0:0:0:
391,74,17197,1,10,0:1:0:0:
378,255,17597,6,0,P|318:278|296:260,1,75,0|10,0:0|0:1,0:0:0:0:
462,221,17997,2,0,P|511:261|507:289,1,75,10|2,0:2|0:2,0:0:0:0:
391,166,18397,2,0,P|401:102|427:92,1,75,2|10,0:2|0:1,0:0:0:0:
453,23,18797,6,0,P|409:69|315:40,1,150,10|0,0:1|0:0,0:0:0:0:
256,9,19393,1,10,0:1:0:0:
176,51,19591,2,0,P|161:104|149:142,1,75,10|2,0:2|0:2,0:0:0:0:
219,190,19989,2,0,P|272:175|310:163,1,75,2|10,0:2|0:1,0:0:0:0:
377,141,20386,1,10,0:1:0:0:
298,322,20783,6,0,P|246:296|210:276,1,75,2|8,0:2|0:1,0:0:0:0:
144,306,21181,2,0,P|118:254|99:217,1,75,10|2,0:2|0:2,0:0:0:0:
35,184,21578,2,0,P|43:127|51:86,1,75,2|10,0:2|0:1,0:0:0:0:
114,48,21975,6,0,P|200:66|206:141,1,150,14|0,0:1|0:0,0:0:0:0:
180,195,22575,1,10,0:1:0:0:
180,195,22775,1,10,0:2:0:0:
278,370,23175,2,0,P|314:361|351:353,1,75,0|10,0:0|0:1,0:0:0:0:
378,276,23575,2,0,P|262:247|206:353,1,225,10|10,0:1|0:1,0:0:0:0:
131,368,24375,2,0,P|44:359|45:222,1,225,10|8,0:2|0:1,0:0:0:0:
102,197,25175,5,10,0:1:0:0:
238,92,25577,2,0,L|261:2,2,75,0|10|10,0:0|0:1|0:2,0:0:0:0:
347,255,26383,2,0,L|442:237,1,75,2|8,0:2|0:1,0:0:0:0:
479,174,26785,5,14,0:2:0:0:
417,77,26987,1,10,0:1:0:0:
322,143,27188,1,8,0:1:0:0:
234,74,27389,2,0,L|215:-10,2,75,14|10|8,0:2|0:1|0:1,0:0:0:0:
150,142,27993,5,14,0:2:0:0:
226,223,28195,1,10,0:1:0:0:
134,291,28397,1,8,0:1:0:0:
216,356,28597,2,0,L|301:370,2,75,14|10|8,0:2|0:1|0:1,0:0:0:0:
134,291,29197,5,14,0:2:0:0:
89,196,29397,1,10,0:3:0:0:
165,117,29597,1,6,0:3:0:0:
260,166,29797,1,6,0:3:0:0:
241,278,29997,5,14,0:1:0:0:
241,278,30597,1,10,0:1:0:0:
66,354,33197,6,0,P|30:360|6:380,2,60,10|0|0,0:1|0:0|0:0,0:0:0:0:
137,309,33797,2,0,P|137:232|90:215,1,120,10|2,0:1|0:2,0:0:0:0:
11,56,36397,6,0,P|22:10|38:-14,2,60,10|0|0,0:1|0:0|0:0,0:0:0:0:
55,128,36997,1,10,0:1:0:0:
194,54,37397,1,2,0:2:0:0:
328,232,39597,6,0,L|386:247,2,60,10|0|0,0:1|0:0|0:0,0:0:0:0:
247,211,40197,1,10,0:1:0:0:
454,52,42797,6,0,L|531:30,2,60,14|0|0,0:1|0:0|0:0,0:0:0:0:
386,106,43397,2,0,P|321:82|258:68,1,120,10|2,0:1|0:2,0:0:0:0:
191,34,43997,2,0,L|165:101,1,60,8|0,0:1|0:0,0:0:0:0:
94,127,44397,1,2,0:2:0:0:
284,254,45197,1,8,0:2:0:0:
94,127,45997,6,0,L|81:55,2,60,10|0|0,0:1|0:0|0:0,0:0:0:0:
162,183,46601,2,0,P|129:276|117:320,1,120,10|2,0:1|0:2,0:0:0:0:
42,336,47205,2,0,P|23:292|5:266,1,60,0|2,0:0|0:2,0:0:0:0:
59,210,47607,1,2,0:2:0:0:
238,141,48413,1,0,0:0:0:0:
59,210,49218,6,0,P|17:192|-15:181,2,60,10|0|0,0:1|0:0|0:0,0:0:0:0:
114,269,49814,2,0,P|164:272|186:216,1,120,10|0,0:1|0:0,0:0:0:0:
226,147,50410,2,0,P|266:133|299:124,1,60,0|2,0:0|0:2,0:0:0:0:
364,108,50807,1,2,0:2:0:0:
512,277,51602,1,8,0:2:0:0:
364,108,52396,5,10,0:1:0:0:
364,108,52593,2,0,P|353:52|344:26,1,60
420,2,52988,2,0,P|484:29|487:80,1,120
444,139,53580,1,10,0:1:0:0:
444,139,55575,6,0,P|378:122|313:107,1,135,14|2,0:1|0:2,0:0:0:0:
244,51,56179,1,0,0:0:0:0:
244,51,56380,2,0,P|215:85|210:112,1,67.5000000000001,10|2,0:2|0:2,0:0:0:0:
137,159,56783,2,0,P|87:138|72:114,1,67.5000000000001,2|10,0:2|0:1,0:0:0:0:
0,91,57185,2,0,P|16:29|96:12,1,135,10|2,0:1|0:2,0:0:0:0:
158,32,57789,1,2,0:0:0:0:
272,153,58192,1,2,0:2:0:0:
272,153,58393,2,0,P|259:189|251:230,1,67.5000000000001,2|8,0:2|0:1,0:0:0:0:
216,294,58797,6,0,P|267:255|357:251,1,135,8|2,0:1|0:2,0:0:0:0:
402,185,59393,1,2,0:2:0:0:
402,185,59591,2,0,P|452:197|483:203,1,67.5000000000001,10|2,0:2|0:2,0:0:0:0:
512,273,59989,2,0,P|500:318|496:346,1,67.5000000000001,2|10,0:2|0:1,0:0:0:0:
418,375,60386,2,0,P|360:351|369:284,1,135,10|2,0:1|0:2,0:0:0:0:
310,220,60982,2,0,P|264:220|225:302,1,135,2|2,0:2|0:2,0:0:0:0:
160,347,61578,2,0,L|73:361,1,67.5000000000001,2|8,0:2|0:1,0:0:0:0:
14,369,61975,1,8,0:1:0:0:
132,259,62375,6,0,P|141:218|159:183,1,67.5000000000001,2|2,0:2|0:2,0:0:0:0:
141,113,62775,2,0,P|100:104|65:86,1,67.5000000000001,10|2,0:2|0:2,0:0:0:0:
19,154,63175,2,0,P|10:195|-8:230,1,67.5000000000001,2|10,0:2|0:1,0:0:0:0:
65,278,63575,2,0,P|128:255|194:240,1,135,10|2,0:1|0:2,0:0:0:0:
253,182,64175,1,2,0:2:0:0:
385,296,64575,2,0,L|397:371,2,67.5000000000001,2|0|10,0:2|0:0|0:1,0:0:0:0:
455,245,65175,6,0,B|583:226|508:23|385:56|364:253|300:167|278:93|293:68|351:67,1,419.999999999999,12|2,0:1|0:2,0:0:0:0:
344,67,68397,6,0,P|333:106|323:146,1,82.4999999999999,14|2,0:1|0:2,0:0:0:0:
245,189,68797,1,2,0:2:0:0:
159,156,68997,2,0,P|140:119|147:77,1,82.4999999999999,2|8,0:2|0:2,0:0:0:0:
223,25,69397,2,0,B|314:27|275:80|373:90,1,165,2|10,0:2|0:1,0:0:0:0:
415,172,69997,6,0,P|472:146|523:138,1,82.4999999999999,10|2,0:1|0:2,0:0:0:0:
512,55,70397,1,2,0:2:0:0:
512,55,70597,2,0,L|421:25,1,82.4999999999999,10|8,0:1|0:2,0:0:0:0:
351,0,70997,1,2,0:2:0:0:
206,132,71397,5,10,0:1:0:0:
206,132,71597,2,0,L|236:223,1,82.4999999999999,10|2,0:1|0:2,0:0:0:0:
314,251,71997,1,2,0:2:0:0:
314,251,72197,2,0,L|284:342,1,82.4999999999999,10|8,0:1|0:2,0:0:0:0:
206,384,72597,2,0,B|114:381|153:328|55:318,1,165,2|10,0:2|0:1,0:0:0:0:
11,242,73197,5,10,0:1:0:0:
73,174,73397,2,0,L|162:204,1,82.4999999999999,2|2,0:2|0:2,0:0:0:0:
204,273,73797,1,10,0:1:0:0:
364,157,74197,1,2,0:2:0:0:
181,80,74597,5,10,0:1:0:0:
181,80,74797,2,0,L|161:-3,2,82.4999999999999,14|2|2,0:1|0:2|0:2,0:0:0:0:
255,147,75397,2,0,P|243:182|232:242,1,82.4999999999999,10|8,0:1|0:2,0:0:0:0:
153,281,75797,2,0,P|44:258|47:193,1,165,2|10,0:2|0:1,0:0:0:0:
95,144,76397,6,0,L|189:119,1,82.4999999999999,10|2,0:1|0:2,0:0:0:0:
225,45,76797,1,2,0:2:0:0:
139,0,76997,1,10,0:1:0:0:
7,164,77397,2,0,L|32:255,2,82.4999999999999,2|2|10,0:2|0:2|0:1,0:0:0:0:
70,97,77997,6,0,P|134:119|161:218,1,165,10|2,0:1|0:2,0:0:0:0:
232,269,78597,1,10,0:1:0:0:
315,220,78797,1,10,0:2:0:0:
393,279,78997,2,0,L|416:367,2,82.4999999999999,2|2|10,0:2|0:2|0:1,0:0:0:0:
315,220,79597,5,10,0:1:0:0:
360,134,79797,2,0,L|448:111,1,82.4999999999999,2|0,0:2|0:0,0:0:0:0:
484,29,80197,2,0,L|404:8,1,82.4999999999999,10|8,0:1|0:2,0:0:0:0:
305,23,80597,5,10,0:3:0:0:
265,110,80797,1,4,0:3:0:0:
310,201,80997,1,6,0:3:0:0:
310,201,81097,1,4,0:3:0:0:
310,201,81197,6,0,P|316:254|215:295,1,165,14|0,0:1|0:0,0:0:0:0:
182,374,81789,1,8,0:1:0:0:
182,374,81986,2,0,P|103:343|23:325,1,165,10|0,0:2|0:0,0:0:0:0:
4,242,82578,1,8,0:1:0:0:
4,242,82775,1,10,0:1:0:0:
86,83,83180,6,0,L|187:60,1,82.4999999999999,2|8,0:2|0:1,0:0:0:0:
237,13,83585,2,0,L|314:64,1,82.4999999999999,10|0,0:2|0:0,0:0:0:0:
390,76,83991,2,0,L|405:177,1,82.4999999999999,2|8,0:2|0:1,0:0:0:0:
444,234,84396,6,0,L|487:43,1,165,10|0,0:1|0:0,0:0:0:0:
420,0,84996,1,8,0:1:0:0:
336,49,85196,1,10,0:2:0:0:
268,211,85596,1,2,0:2:0:0:
183,174,85796,1,10,0:1:0:0:
183,174,85996,6,0,P|174:133|157:96,1,82.4999999999999,8|0,0:1|0:0,0:0:0:0:
228,26,86396,1,2,0:2:0:0:
391,143,86796,1,10,0:2:0:0:
489,161,86996,1,8,0:3:0:0:
456,66,87196,1,6,0:3:0:0:
285,220,87596,5,10,0:2:0:0:
60,142,87996,1,10,0:2:0:0:
60,142,89196,5,10,0:2:0:0:
285,64,89596,1,10,0:2:0:0:
285,64,90396,6,0,L|299:29,3,37.5,2|2|2|2,0:2|0:2|0:2|0:2,0:0:0:0:
318,17,90797,6,0,P|396:33|432:105,1,165,14|0,0:1|0:0,0:0:0:0:
366,179,91401,1,10,0:1:0:0:
291,232,91602,2,0,P|233:214|194:203,1,82.4999999999999,10|2,0:2|0:2,0:0:0:0:
142,151,92005,2,0,P|78:173|50:184,1,82.4999999999999,0|10,0:0|0:1,0:0:0:0:
23,260,92407,1,10,0:1:0:0:
131,373,92810,6,0,P|167:375|204:340,1,82.4999999999999,0|10,0:0|0:1,0:0:0:0:
261,277,93213,2,0,P|263:240|228:204,1,82.4999999999999,10|2,0:2|0:2,0:0:0:0:
305,353,93615,2,0,P|362:364|404:375,1,82.4999999999999,2|10,0:2|0:1,0:0:0:0:
468,328,94018,6,0,P|491:256|436:183,1,165,10|0,0:1|0:0,0:0:0:0:
361,149,94614,1,10,0:1:0:0:
286,205,94812,2,0,P|233:190|191:180,1,82.4999999999999,10|2,0:2|0:2,0:0:0:0:
144,111,95210,2,0,P|154:75|168:30,1,82.4999999999999,2|10,0:2|0:1,0:0:0:0:
256,0,95607,1,10,0:1:0:0:
361,149,96004,6,0,P|397:132|445:115,1,82.4999999999999,2|8,0:2|0:1,0:0:0:0:
470,40,96402,2,0,P|436:23|395:4,1,82.4999999999999,10|2,0:2|0:2,0:0:0:0:
312,28,96799,2,0,P|298:62|280:110,1,82.4999999999999,2|10,0:2|0:1,0:0:0:0:
211,162,97197,6,0,P|125:144|118:50,1,165,14|0,0:1|0:0,0:0:0:0:
47,16,97797,1,10,0:1:0:0:
47,16,97997,1,10,0:2:0:0:
0,205,98397,2,0,P|36:225|78:260,1,82.4999999999999,0|10,0:0|0:1,0:0:0:0:
137,308,98797,2,0,P|246:314|304:204,1,247.5,10|10,0:1|0:1,0:0:0:0:
366,141,99597,2,0,P|470:143|500:275,1,247.5,10|8,0:2|0:1,0:0:0:0:
437,318,100397,5,10,0:1:0:0:
232,195,100797,2,0,L|138:173,2,82.4999999999999,0|10|10,0:0|0:1|0:2,0:0:0:0:
363,40,101597,2,0,L|464:23,1,82.4999999999999,2|8,0:2|0:1,0:0:0:0:
512,91,101997,5,14,0:2:0:0:
437,154,102197,1,10,0:1:0:0:
502,230,102397,1,8,0:1:0:0:
419,283,102597,2,0,L|398:372,2,82.4999999999999,14|10|8,0:2|0:1|0:1,0:0:0:0:
357,210,103197,5,14,0:2:0:0:
267,244,103397,1,10,0:1:0:0:
197,320,103597,1,8,0:1:0:0:
117,266,103797,2,0,L|27:251,2,82.4999999999999,14|10|8,0:2|0:1|0:1,0:0:0:0:
192,212,104397,5,14,0:2:0:0:
150,130,104597,1,10,0:3:0:0:
58,147,104797,1,6,0:3:0:0:
0,67,104997,1,6,0:3:0:0:
61,0,105197,5,14,0:1:0:0:
61,0,105797,1,10,0:1:0:0:
209,219,108397,6,0,P|245:225|269:245,2,60,10|0|0,0:1|0:0|0:0,0:0:0:0:
162,137,108997,2,0,P|200:94|256:107,1,120,10|2,0:1|0:2,0:0:0:0:
491,57,111597,6,0,P|502:11|518:-13,2,60,10|0|0,0:1|0:0|0:0,0:0:0:0:
416,108,112197,1,10,0:1:0:0:
512,230,112597,1,2,0:2:0:0:
250,326,114797,6,0,L|235:384,2,60,10|0|0,0:1|0:0|0:0,0:0:0:0:
214,243,115397,2,0,P|137:225|86:309,1,180,10|2,0:1|0:2,0:0:0:0:
85,299,117997,6,0,L|162:321,2,60,14|0|0,0:1|0:0|0:0,0:0:0:0:
26,229,118597,2,0,P|84:214|140:193,1,120,10|2,0:1|0:2,0:0:0:0:
218,223,119197,2,0,L|244:290,1,60,8|0,0:1|0:0,0:0:0:0:
319,304,119597,1,2,0:2:0:0:
506,196,120397,1,8,0:2:0:0:
319,304,121197,6,0,L|306:376,2,60,10|0|0,0:1|0:0|0:0,0:0:0:0:
249,253,121797,2,0,P|231:195|210:139,1,120,10|2,0:1|0:2,0:0:0:0:
273,83,122397,2,0,P|299:98|328:109,1,60,0|2,0:0|0:2,0:0:0:0:
386,169,122797,1,2,0:2:0:0:
265,331,123597,1,0,0:0:0:0:
386,169,124397,6,0,P|428:151|460:140,2,60,10|0|0,0:1|0:0|0:0,0:0:0:0:
308,208,124993,2,0,P|265:167|207:167,1,120,10|2,0:1|0:2,0:0:0:0:
124,145,125589,2,0,P|116:117|106:89,1,60,0|2,0:0|0:2,0:0:0:0:
156,18,125986,1,2,0:2:0:0:
358,121,126781,1,8,0:2:0:0:
156,18,127575,5,10,0:1:0:0:
156,18,127776,2,0,P|145:46|138:75,1,60
201,136,128179,2,0,P|265:109|268:58,1,120
341,21,128783,1,10,0:1:0:0:
461,113,129185,2,0,P|447:168|418:294,1,180,2|2,0:2|0:2,0:0:0:0:
342,340,129991,6,0,P|284:319|269:317,1,71.2499999999999,0|8,0:0|0:1,0:0:0:0:
213,251,130393,2,0,P|170:268|129:277,1,71.2499999999999,6|8,0:3|0:1,0:0:0:0:
94,353,130797,6,0,P|5:293|60:177,1,247.712499999999,14|0,0:1|0:0,0:0:0:0:
129,138,131597,1,8,0:2:0:0:
237,286,131997,1,2,0:2:0:0:
237,286,132197,1,8,0:1:0:0:
237,286,132397,2,0,P|387:235|481:213,1,247.5,8|8,0:1|0:1,0:0:0:0:
512,132,133197,1,8,0:2:0:0:
257,39,133797,1,8,0:1:0:0:
257,39,133997,6,0,P|272:88|325:299,1,247.5,10|8,0:1|0:1,0:0:0:0:
407,309,134797,1,8,0:2:0:0:
242,384,135197,1,2,0:2:0:0:
242,384,135397,1,8,0:1:0:0:
242,384,135597,2,0,P|105:302|18:261,1,247.5,8|8,0:1|0:1,0:0:0:0:
0,179,136397,1,10,0:2:0:0:
154,82,136797,2,0,P|170:129|179:167,1,82.4999999999999,0|8,0:0|0:1,0:0:0:0:
240,231,137197,6,0,P|345:237|376:110,1,247.5,14|8,0:1|0:1,0:0:0:0:
321,49,137997,1,8,0:2:0:0:
177,160,138397,2,0,P|136:169|99:185,1,82.4999999999999,2|8,0:2|0:1,0:0:0:0:
19,135,138797,2,0,P|85:38|198:64,1,247.5,8|8,0:1|0:1,0:0:0:0:
265,129,139597,1,8,0:2:0:0:
343,270,139997,2,0,P|323:332|317:371,1,82.4999999999999,0|8,0:0|0:1,0:0:0:0:
241,379,140397,6,0,L|214:371,17,27.5,10|0|0|0|0|0|0|0|0|8|0|0|8|0|0|0|0|0,0:1|0:0|0:0|0:0|0:0|0:0|0:0|0:0|0:0|0:1|0:0|0:0|0:2|0:0|0:0|0:0|0:0|0:0,0:0:0:0:
183,367,141597,2,0,L|175:340,17,27.5,2|0|0|8|0|0|8|0|0|8|0|0|8|0|0|10|0|0,0:2|0:0|0:0|0:1|0:0|0:0|0:1|0:0|0:0|0:2|0:0|0:0|0:2|0:0|0:0|0:1|0:0|0:0,0:0:0:0:
144,318,142797,2,0,L|155:292,11,27.5,10|0|0|10|0|0|6|0|0|6|0|0,0:2|0:0|0:0|0:3|0:0|0:0|0:3|0:0|0:0|0:3|0:0|0:0,0:0:0:0:
178,271,143597,6,0,L|347:232,1,165,12|2,0:1|0:2,0:0:0:0:
403,167,144197,1,0,0:0:0:0:
403,167,144397,2,0,L|503:184,1,82.4999999999999,10|2,0:2|0:2,0:0:0:0:
511,271,144797,1,2,0:2:0:0:
354,377,145197,2,0,L|261:363,2,82.4999999999999,10|2|2,0:1|0:2|0:2,0:0:0:0:
417,301,145797,1,10,0:1:0:0:
336,246,145997,1,10,0:2:0:0:
336,246,146197,1,2,0:2:0:0:
446,117,146597,1,10,0:1:0:0:
286,0,146997,5,2,0:2:0:0:
286,0,147197,2,0,P|244:20|232:67,1,82.4999999999999,2|10,0:2|0:1,0:0:0:0:
152,103,147597,2,0,P|155:143|186:176,1,82.4999999999999,10|2,0:2|0:2,0:0:0:0:
225,259,147997,2,0,P|180:204|72:229,1,165,2|10,0:2|0:1,0:0:0:0:
18,267,148597,1,0,0:0:0:0:
18,267,148797,1,2,0:2:0:0:
182,378,149197,1,10,0:2:0:0:
182,378,149397,1,2,0:2:0:0:
316,232,149797,1,10,0:1:0:0:
454,374,150197,5,2,0:2:0:0:
454,374,150397,2,0,P|472:314|492:275,1,82.4999999999999,2|10,0:2|0:1,0:0:0:0:
385,268,150797,2,0,P|367:328|347:367,1,82.4999999999999,8|2,0:2|0:2,0:0:0:0:
267,384,151197,2,0,P|234:308|194:236,1,165,2|10,0:2|0:1,0:0:0:0:
253,159,151797,1,2,0:2:0:0:
330,210,151997,1,0,0:0:0:0:
330,210,152197,1,10,0:1:0:0:
502,111,152597,1,2,0:2:0:0:
442,37,152797,2,0,L|359:56,1,82.4999999999999,2|10,0:2|0:1,0:0:0:0:
286,112,153197,6,0,P|207:119|162:55,1,165,10|2,0:1|0:2,0:0:0:0:
82,16,153797,1,10,0:1:0:0:
82,16,153997,2,0,P|67:71|57:116,1,82.4999999999999,10|2,0:2|0:2,0:0:0:0:
2,171,154397,1,2,0:2:0:0:
72,241,154597,2,0,P|130:224|248:196,1,165,10|2,0:1|0:2,0:0:0:0:
297,130,155197,1,2,0:2:0:0:
381,169,155397,1,10,0:1:0:0:
427,364,155797,5,10,0:3:0:0:
512,335,155997,1,6,0:3:0:0:
488,246,156197,1,6,0:3:0:0:
401,274,156397,1,12,0:1:0:0:
229,178,156797,6,0,P|211:117|197:75,1,82.4999999999999,2|8,0:2|0:1,0:0:0:0:
267,31,157197,2,0,P|316:38|341:89,1,82.4999999999999,14|2,0:2|0:2,0:0:0:0:
391,138,157597,1,2,0:2:0:0:
391,138,157797,2,0,P|430:125|469:114,1,82.4999999999999,10|10,0:1|0:1,0:0:0:0:
490,33,158197,1,2,0:2:0:0:
307,108,158597,1,10,0:1:0:0:
118,168,158997,1,2,0:2:0:0:
118,168,159197,1,2,0:2:0:0:
118,168,159397,1,10,0:1:0:0:
203,350,159797,5,2,0:2:0:0:
203,350,159997,2,0,P|242:337|281:326,1,82.4999999999999,2|10,0:2|0:1,0:0:0:0:
329,238,160397,2,0,P|342:199|357:160,1,82.4999999999999,10|2,0:2|0:2,0:0:0:0:
302,73,160797,1,2,0:2:0:0:
302,73,160997,1,10,0:1:0:0:
219,28,161197,6,0,P|167:56|168:115,1,123.75,10|2,0:1|0:2,0:0:0:0:
177,127,161597,2,0,L|256:149,1,82.4999999999999,2|10,0:0|0:1,0:0:0:0:
296,219,161997,5,10,0:2:0:0:
168,237,162263,1,10,0:3:0:0:
104,340,162530,2,0,L|44:357,1,54.9999999999999,6|4,0:3|0:3,0:0:0:0:
52,355,162797,6,0,P|6:317|1:259,1,120,14|0,0:1|0:0,0:0:0:0:
13,183,163197,2,0,P|50:138|108:134,1,120
183,155,163597,1,8,0:2:0:0:
284,282,163863,1,0,0:0:0:0:
397,177,164130,1,8,0:1:0:0:
492,308,164397,6,0,L|504:380,2,59.9999999999999,8|0|0,0:1|0:0|0:0,0:0:0:0:
429,267,164797,2,0,P|365:305|368:365,1,120
295,383,165197,1,10,0:2:0:0:
168,300,165463,1,0,0:0:0:0:
300,192,165730,1,8,0:1:0:0:
169,113,165997,5,10,0:1:0:0:
169,113,166131,2,0,L|180:54,1,59.9999999999999,2|2,0:2|0:2,0:0:0:0:
249,17,166399,2,0,L|391:39,1,120
442,51,166802,1,8,0:2:0:0:
505,197,167070,1,0,0:0:0:0:
359,278,167339,2,0,L|293:266,1,59.9999999999999,10|0,0:1|0:0,0:0:0:0:
247,215,167607,6,0,L|238:141,2,59.9999999999999,10|2|2,0:1|0:2|0:2,0:0:0:0:
183,254,168010,2,0,L|149:412,1,120
82,384,168413,1,10,0:2:0:0:
7,233,168681,1,8,0:1:0:0:
165,166,168950,1,10,0:1:0:0:
230,328,169218,6,0,P|314:326|322:258,1,120,14|0,0:1|0:0,0:0:0:0:
395,268,169615,2,0,P|407:201|441:133,1,120
488,107,170012,1,8,0:2:0:0:
356,8,170277,1,0,0:0:0:0:
262,152,170542,1,8,0:1:0:0:
98,192,170807,6,0,P|31:151|36:97,1,120,8|2,0:1|0:2,0:0:0:0:
61,45,171204,1,2,0:2:0:0:
61,45,171337,2,0,L|145:20,1,60,10|2,0:1|0:2,0:0:0:0:
192,8,171602,1,10,0:2:0:0:
317,146,171867,2,0,L|401:163,2,60,2|0|10,0:2|0:0|0:1,0:0:0:0:
255,190,172264,1,2,0:2:0:0:
255,190,172396,6,0,P|263:247|315:272,1,120,10|0,0:1|0:0,0:0:0:0:
345,343,172796,2,0,P|404:326|483:319,1,120
492,249,173196,2,0,L|516:108,2,120,8|0|10,0:2|0:0|0:1,0:0:0:0:
345,343,173996,6,0,P|278:308|193:305,1,120,10|0,0:1|0:0,0:0:0:0:
167,265,174396,1,0,0:0:0:0:
167,265,174529,2,0,P|121:285|99:304,1,59.9999999999999,10|0,0:1|0:0,0:0:0:0:
46,326,174796,2,0,L|79:181,1,120,10|10,0:2|0:1,0:0:0:0:
90,135,175196,1,2,0:2:0:0:
228,42,175462,1,2,0:2:0:0:
228,42,175596,6,0,L|261:187,1,120,14|0,0:1|0:0,0:0:0:0:
305,218,175996,2,0,L|373:240,2,59.9999999999999,2|0|2,0:2|0:0|0:2,0:0:0:0:
231,232,176396,2,0,L|133:327,2,120,10|8|8,0:2|0:1|0:1,0:0:0:0:
356,129,177196,6,0,P|347:71|296:43,1,120,10|0,0:1|0:0,0:0:0:0:
231,5,177596,2,0,P|173:13|145:64,1,120,2|2,0:2|0:2,0:0:0:0:
78,102,177996,2,0,P|93:180|95:207,1,59.9999999999999,10|0,0:2|0:0,0:0:0:0:
163,186,178262,1,10,0:1:0:0:
12,285,178529,1,10,0:1:0:0:
163,186,178796,6,0,P|220:194|248:245,1,120,10|0,0:1|0:0,0:0:0:0:
301,300,179196,2,0,P|292:333|287:375,2,59.9999999999999,2|0|2,0:2|0:0|0:2,0:0:0:0:
364,256,179596,2,0,P|445:234|490:225,2,120,10|10|10,0:2|0:1|0:1,0:0:0:0:
267,107,180396,6,0,P|275:49|326:21,1,120,10|0,0:1|0:0,0:0:0:0:
385,70,180796,2,0,P|380:99|377:139,2,59.9999999999999,10|10|0,0:2|0:1|0:0,0:0:0:0:
445,21,181196,1,10,0:2:0:0:
512,151,181462,1,10,0:1:0:0:
380,235,181729,1,10,0:2:0:0:
238,310,181996,6,0,P|163:283|103:271,1,120,14|0,0:1|0:0,0:0:0:0:
61,229,182396,2,0,P|51:170|36:112,1,120,2|2,0:2|0:2,0:0:0:0:
73,45,182796,1,10,0:2:0:0:
250,121,183062,1,10,0:1:0:0:
321,291,183329,1,10,0:1:0:0:
482,192,183596,6,0,P|494:133|509:73,1,120,14|2,0:1|0:2,0:0:0:0:
448,21,183996,2,0,P|373:46|373:125,1,120,2|2,0:2|0:2,0:0:0:0:
299,144,184396,2,0,P|229:135|211:85,1,120,10|10,0:2|0:1,0:0:0:0:
152,22,184796,2,0,P|87:47|97:118,1,120,2|2,0:2|0:2,0:0:0:0:
24,168,185196,6,0,P|53:241|71:310,1,120,10|2,0:1|0:2,0:0:0:0:
148,341,185593,2,0,P|170:274|212:193,1,120,2|2,0:2|0:2,0:0:0:0:
284,180,185990,2,0,P|309:253|320:325,1,120,10|10,0:2|0:1,0:0:0:0:
426,340,186388,2,0,P|465:271|479:215,1,120,2|0,0:2|0:0,0:0:0:0:
416,130,186785,5,14,0:1:0:0:
330,198,186981,1,2,0:2:0:0:
214,193,187177,1,10,0:3:0:0:
143,96,187373,1,10,0:3:0:0:
240,23,187569,1,10,0:3:0:0:
312,124,187765,1,10,0:3:0:0:
284,239,187961,1,10,0:3:0:0:
357,331,188157,1,6,0:3:0:0:
168,67,189997,6,0,P|179:106|189:146,1,82.4999999999999,14|2,0:1|0:2,0:0:0:0:
267,189,190399,1,2,0:2:0:0:
353,156,190601,2,0,P|372:119|365:77,1,82.4999999999999,2|8,0:2|0:2,0:0:0:0:
289,25,191003,2,0,B|198:27|237:80|139:90,1,165,2|10,0:2|0:1,0:0:0:0:
97,172,191607,6,0,P|40:146|-11:138,1,82.4999999999999,10|2,0:1|0:2,0:0:0:0:
0,55,192010,1,2,0:2:0:0:
0,55,192211,2,0,L|91:25,1,82.4999999999999,10|8,0:1|0:2,0:0:0:0:
161,0,192614,1,2,0:2:0:0:
306,132,193017,5,10,0:1:0:0:
306,132,193218,2,0,L|276:223,1,82.4999999999999,10|2,0:1|0:2,0:0:0:0:
198,251,193615,1,2,0:2:0:0:
198,251,193814,2,0,L|228:342,1,82.4999999999999,10|8,0:1|0:2,0:0:0:0:
306,384,194211,2,0,B|398:381|359:328|457:318,1,165,2|10,0:2|0:1,0:0:0:0:
501,242,194807,5,10,0:1:0:0:
436,173,195006,2,0,L|347:203,1,82.4999999999999,2|2,0:2|0:2,0:0:0:0:
308,273,195403,1,10,0:1:0:0:
148,157,195800,1,2,0:2:0:0:
331,80,196198,5,10,0:1:0:0:
331,80,196396,2,0,L|351:-3,2,82.4999999999999,14|2|2,0:1|0:2|0:2,0:0:0:0:
257,147,196988,2,0,P|269:182|280:242,1,82.4999999999999,10|8,0:1|0:2,0:0:0:0:
359,281,197382,2,0,P|468:258|465:193,1,165,2|10,0:2|0:1,0:0:0:0:
417,144,197974,6,0,L|323:119,1,82.4999999999999,10|2,0:1|0:2,0:0:0:0:
287,45,198379,1,2,0:2:0:0:
373,0,198582,1,10,0:1:0:0:
505,164,198987,2,0,L|480:255,2,82.4999999999999,2|2|10,0:2|0:2|0:1,0:0:0:0:
442,96,199597,6,0,P|378:118|351:217,1,165,10|2,0:1|0:2,0:0:0:0:
280,269,200197,1,10,0:1:0:0:
197,220,200397,1,10,0:2:0:0:
119,279,200597,2,0,L|96:367,2,82.4999999999999,2|2|10,0:2|0:2|0:1,0:0:0:0:
197,220,201197,5,10,0:1:0:0:
152,134,201397,2,0,L|64:111,1,82.4999999999999,2|0,0:2|0:0,0:0:0:0:
28,29,201797,2,0,L|108:8,1,82.4999999999999,10|8,0:1|0:2,0:0:0:0:
207,23,202197,5,10,0:3:0:0:
247,110,202397,1,4,0:3:0:0:
190,199,202597,1,6,0:3:0:0:
190,199,202697,1,4,0:3:0:0:
190,199,202797,2,0,P|114:175|103:172,2,82.4999999999999,14|2|2,0:1|0:2|0:2,0:0:0:0:
273,254,203397,2,0,P|297:330|300:341,1,82.4999999999999,10|8,0:1|0:2,0:0:0:0:
381,384,203797,2,0,P|405:303|439:199,1,165,0|10,0:0|0:1,0:0:0:0:
506,164,204397,5,10,0:1:0:0:
455,71,204597,1,2,0:2:0:0:
355,86,204797,1,2,0:2:0:0:
313,0,204997,1,10,0:1:0:0:
116,74,205397,1,2,0:2:0:0:
116,74,205597,2,0,P|103:136|94:178,1,82.4999999999999,2|10,0:2|0:1,0:0:0:0:
20,202,205997,6,0,P|43:263|53:308,1,82.4999999999999,10|2,0:1|0:2,0:0:0:0:
130,328,206394,1,2,0:2:0:0:
210,263,206593,1,10,0:1:0:0:
184,166,206791,1,10,0:2:0:0:
257,94,206990,2,0,P|311:106|355:115,2,82.4999999999999,2|2|10,0:2|0:2|0:1,0:0:0:0:
206,10,207586,5,10,0:1:0:0:
206,10,207785,1,2,0:2:0:0:
402,38,208182,1,10,0:1:0:0:
276,191,208579,1,2,0:2:0:0:
356,374,208977,1,10,0:1:0:0:
426,306,209175,6,0,P|476:292|515:283,2,82.4999999999999,14|2|2,0:1|0:2|0:2,0:0:0:0:
370,230,209779,1,10,0:1:0:0:
433,155,209980,2,0,P|472:166|512:174,1,82.4999999999999,10|0,0:2|0:0,0:0:0:0:
370,230,210383,2,0,P|330:218|290:210,1,82.4999999999999,2|8,0:2|0:1,0:0:0:0:
219,143,210785,6,0,P|263:32|392:56,1,247.5,10|8,0:1|0:1,0:0:0:0:
431,117,211591,1,10,0:2:0:0:
292,258,211993,1,0,0:0:0:0:
292,258,212195,1,8,0:1:0:0:
292,258,212397,6,0,B|164:281|213:149|75:175,1,247.5,10|8,0:1|0:1,0:0:0:0:
12,245,213191,2,0,P|51:354|177:319,1,247.5,10|8,0:2|0:1,0:0:0:0:
220,268,213986,5,10,0:1:0:0:
59,116,214383,1,14,0:2:0:0:
273,52,214781,2,0,L|293:-18,2,54.9999999999999,10|8|8,0:3|0:3|0:3,0:0:0:0:
321,118,215178,2,0,L|337:199,2,54.9999999999999,14|10|8,0:3|0:3|0:3,0:0:0:0:
373,57,215575,6,0,P|451:57|494:153,1,165,14|0,0:1|0:0,0:0:0:0:
468,211,216175,1,8,0:1:0:0:
468,211,216375,1,12,0:2:0:0:
279,250,216775,2,0,L|257:349,1,82.4999999999999,2|8,0:2|0:1,0:0:0:0:
345,384,217175,2,0,L|380:214,1,165,8|2,0:1|0:2,0:0:0:0:
312,157,217775,5,8,0:1:0:0:
312,157,217975,2,0,P|247:190|239:215,1,82.4999999999999,10|0,0:2|0:0,0:0:0:0:
153,211,218375,2,0,P|135:267|146:307,1,82.4999999999999,2|8,0:2|0:1,0:0:0:0:
212,351,218775,6,0,P|321:305|465:268,1,247.5,10|8,0:1|0:1,0:0:0:0:
499,199,219580,1,8,0:2:0:0:
274,47,220184,1,8,0:1:0:0:
274,47,220385,1,8,0:1:0:0:
154,183,220788,6,0,P|117:185|74:154,1,82.4999999999999,2|8,0:2|0:1,0:0:0:0:
245,219,221191,2,0,P|265:249|260:301,1,82.4999999999999,10|0,0:2|0:0,0:0:0:0:
231,123,221593,2,0,P|246:90|294:68,1,82.4999999999999,2|10,0:2|0:1,0:0:0:0:
361,16,221997,6,0,P|402:85|481:96,1,165.000005035401,14|2,0:1|0:2,0:0:0:0:
511,187,222597,1,8,0:1:0:0:
511,187,222797,1,10,0:2:0:0:
401,329,223197,2,0,P|360:338|323:356,1,82.4999999999999,2|10,0:2|0:1,0:0:0:0:
234,384,223597,2,0,P|126:302|179:212,1,247.5,10|8,0:1|0:1,0:0:0:0:
233,154,224397,2,0,P|228:56|87:51,1,247.5,8|10,0:2|0:1,0:0:0:0:
33,102,225197,6,0,P|34:152|97:159,1,123.75,10|0,0:1|0:0,0:0:0:0:
125,147,225594,2,0,P|111:210|100:267,1,82.4999999999999,2|8,0:2|0:1,0:0:0:0:
192,285,225991,2,0,P|200:244|209:204,1,82.4999999999999,10|0,0:2|0:0,0:0:0:0:
281,141,226389,2,0,P|366:128|417:263,1,247.5,2|2,0:2|0:2,0:0:0:0:
361,338,227183,5,2,0:2:0:0:
262,349,227382,1,10,0:1:0:0:
176,299,227581,1,10,0:2:0:0:
153,202,227779,1,10,0:3:0:0:
192,111,227978,1,6,0:3:0:0:
125,37,228177,1,6,0:3:0:0:
33,75,228375,6,0,P|14:197|0:320,1,247.5,14|8,0:1|0:1,0:0:0:0:
71,382,229180,1,8,0:2:0:0:
255,307,229583,1,2,0:2:0:0:
255,307,229784,1,10,0:1:0:0:
255,307,229985,2,0,P|307:331|346:354,1,82.4999999999999,8|0,0:1|0:0,0:0:0:0:
406,290,230388,6,0,P|377:232|355:193,1,82.4999999999999,2|8,0:2|0:1,0:0:0:0:
389,120,230791,2,0,P|331:91|291:70,1,82.4999999999999,10|0,0:2|0:0,0:0:0:0:
255,0,231193,2,0,P|192:8|147:17,1,82.4999999999999,2|8,0:2|0:1,0:0:0:0:
134,108,231597,2,0,L|395:71,1,247.5,10|8,0:1|0:1,0:0:0:0:
444,3,232397,1,8,0:2:0:0:
512,266,232997,1,8,0:1:0:0:
512,266,233197,2,0,P|500:305|491:345,1,82.4999999999999,8|0,0:1|0:0,0:0:0:0:
405,384,233597,6,0,P|395:343|384:304,1,82.4999999999999,2|8,0:2|0:1,0:0:0:0:
317,230,233997,1,10,0:2:0:0:
232,282,234197,1,8,0:3:0:0:
143,237,234397,1,6,0:3:0:0:
128,139,234597,1,4,0:3:0:0:
204,72,234797,6,0,L|307:96,2,101.25,14|2|2,0:1|0:2|0:2,0:0:0:0:
142,17,235591,2,0,L|72:37,1,67.5000000000001,2|2,0:2|0:2,0:0:0:0:
17,86,235989,2,0,L|-3:161,1,67.5000000000001,0|2,0:0|0:2,0:0:0:0:
62,211,236386,6,0,L|146:192,1,67.5000000000001,2|2,0:2|0:0,0:0:0:0:
140,181,236684,2,0,L|253:203,1,101.25,2|2,0:2|0:2,0:0:0:0:
305,250,237181,2,0,L|325:325,1,67.5000000000001,2|2,0:2|0:2,0:0:0:0:
391,366,237578,2,0,L|411:291,1,67.5000000000001,2|2,0:2|0:2,0:0:0:0:
482,263,237975,6,0,L|503:177,1,67.5000000000001,2|2,0:2|0:0,0:0:0:0:
489,184,238275,2,0,L|372:212,1,101.25,2|2,0:2|0:2,0:0:0:0:
320,250,238775,2,0,L|256:222,1,67.5000000000001,2|2,0:2|0:2,0:0:0:0:
175,220,239175,2,0,L|143:158,1,67.5000000000001,2|0,0:2|0:0,0:0:0:0:
189,92,239575,6,0,L|208:13,2,67.5000000000001,2|2|0,0:2|0:2|0:0,0:0:0:0:
244,161,240175,6,0,L|262:230,2,60,2|2|0,0:2|0:2|0:0,0:0:0:0:
300,97,240775,6,0,L|316:40,2,52.4999999999999,2|2|0,0:2|0:2|0:0,0:0:0:0:
352,165,241375,6,0,L|363:210,2,44.9999999999999,2|2|0,0:2|0:2|0:0,0:0:0:0:
396,100,241975,6,0,L|438:90,1,37.5,2|2,0:2|0:2,0:0:0:0:
470,160,242375,2,0,L|508:170,1,37.5,2|0,0:2|0:0,0:0:0:0:
512,248,242775,5,2,0:2:0:0:
496,268,242975,1,2,0:2:0:0:
467,286,243175,1,2,0:2:0:0:
423,286,243375,1,2,0:2:0:0:
381,265,243575,1,2,0:2:0:0:
351,219,243775,1,2,0:2:0:0:
355,159,243975,1,2,0:2:0:0:
397,108,244175,1,2,0:2:0:0:
256,192,244375,12,2,249175,0:0:0:0:
282,264,250475,6,0,L|216:248,1,60,2|2,0:2|0:2,0:0:0:0:
