osu file format v14

[General]
AudioFilename: audio.ogg
AudioLeadIn: 0
PreviewTime: 59193
Countdown: 0
SampleSet: Soft
StackLeniency: 0.4
Mode: 0
LetterboxInBreaks: 0
WidescreenStoryboard: 1

[Editor]
DistanceSpacing: 1.2
BeatDivisor: 4
GridSize: 32
TimelineZoom: 5.099997

[Metadata]
Title:"Boku wa..." (TV Size)
TitleUnicode:「僕は…」 (TV Size)
Artist:Atarayo
ArtistUnicode:あたらよ
Creator:maot
Version:sharpay's Hard
Source:僕の心のヤバイやつ
Tags:anime japanese rock j-rock the dangers in my heart boku no kokoro yabai yatsu 第2期 second 2 ii season op opening yamada akino anna dasdwqdf niii_san nisan sharpay bokuyaba terakomari lafayla
BeatmapID:4443140
BeatmapSetID:2115769

[Difficulty]
HPDrainRate:5
CircleSize:3.7
OverallDifficulty:6
ApproachRate:8
SliderMultiplier:1.4
SliderTickRate:1

[Events]
//Background and Video events
Video,0,"video.mp4"
0,0,"tudo.png",0,0
//Break Periods
//Storyboard Layer 0 (Background)
//Storyboard Layer 1 (Fail)
//Storyboard Layer 2 (Pass)
//Storyboard Layer 3 (Foreground)
//Storyboard Layer 4 (Overlay)
//Storyboard Sound Samples

[TimingPoints]
1211,333.333333333333,4,2,0,50,1,0
1211,-125,4,2,0,50,0,0
6544,-111.111111111111,4,2,0,65,0,0
11710,-100,4,2,0,75,0,0
22377,-111.111111111111,4,2,0,70,0,0
43710,-111.111111111111,4,2,0,65,0,0
44210,-125,4,2,0,65,0,0
51710,-111.111111111111,4,2,0,65,0,0
59877,-90.9090909090909,4,2,0,80,0,0
81210,-90.9090909090909,4,2,0,50,0,0
88877,-90.9090909090909,4,2,0,20,0,0

[Colours]
Combo1 : 116,158,205
Combo2 : 159,117,74
Combo3 : 218,209,109
Combo4 : 104,86,126

[HitObjects]
0,97,1211,6,0,P|49:82|129:55,1,112,2|0,2:0|2:0,2:0:0:0:
162,0,1710,2,0,P|204:31|273:29,1,112,2|0,2:0|2:0,2:0:0:0:
321,99,2210,1,2,2:0:0:0:
321,99,2544,2,0,P|327:130|329:163,1,56,2|0,2:0|2:0,2:0:0:0:
393,208,2877,6,0,P|435:217|494:269,2,112,2|2|2,2:0|2:0|2:0,2:0:0:0:
251,299,3877,2,0,B|180:313|193:331|73:348,2,168,2|2|2,2:0|2:0|2:0,2:0:0:0:
88,255,5210,2,0,P|75:223|101:147,1,112,2|0,2:0|2:0,2:0:0:0:
27,73,5710,1,0,2:0:0:0:
27,73,5877,2,0,P|70:65|104:56,1,56,2|0,2:0|2:0,2:0:0:0:
162,87,6210,2,0,P|204:96|256:100,1,84,2|0,2:0|2:0,2:0:0:0:
282,74,6544,6,0,P|286:49|275:2,1,63.0000000000001,4|0,3:2|2:0,2:0:0:0:
374,16,6877,2,0,P|370:41|381:88,1,63.0000000000001,2|0,3:2|2:0,2:0:0:0:
448,128,7210,2,0,P|453:167|462:201,1,63.0000000000001,2|0,3:2|2:0,2:0:0:0:
403,258,7544,2,0,P|375:265|326:285,1,63.0000000000001,2|0,3:2|2:0,2:0:0:0:
279,214,7877,6,0,P|245:209|137:183,1,126,2|0,3:2|3:0,2:0:0:0:
99,120,8377,1,2,2:0:0:0:
99,120,8544,2,0,P|54:128|21:132,1,63.0000000000001,0|0,3:0|2:0,2:0:0:0:
4,213,8877,2,0,P|11:262|16:278,1,63.0000000000001,2|0,3:2|2:0,2:0:0:0:
60,350,9210,6,0,P|115:340|177:384,1,126,2|0,3:2|3:0,2:0:0:0:
245,326,9710,1,2,2:0:0:0:
245,326,9877,2,0,P|276:336|307:339,1,63.0000000000001,0|0,3:0|2:0,2:0:0:0:
189,258,10210,2,0,P|158:267|129:278,1,63.0000000000001,2|0,3:2|2:0,2:0:0:0:
251,196,10544,2,0,P|277:147|236:78,1,126,2|0,3:2|2:0,2:0:0:0:
175,39,11044,1,0,1:0:0:0:
175,39,11710,6,0,P|231:58|321:74,1,140,4|0,3:2|2:0,2:0:0:0:
376,124,12210,2,0,P|405:112|443:104,1,70,0|0,1:0|2:0,2:0:0:0:
501,171,12544,1,0,3:0:0:0:
501,171,12710,1,0,3:0:0:0:
488,254,12877,1,0,1:0:0:0:
401,281,13044,6,0,P|366:267|241:244,1,140,4|0,3:2|2:0,2:0:0:0:
217,315,13544,2,0,P|224:346|232:392,2,70,0|0|0,1:0|2:0|3:0,2:0:0:0:
155,257,14044,1,0,3:0:0:0:
155,257,14210,1,0,1:0:0:0:
236,198,14377,6,0,P|270:158|240:53,1,140,2|0,3:2|2:0,2:0:0:0:
207,10,14877,2,0,P|153:28|126:30,1,70,4|0,1:2|2:0,2:0:0:0:
91,97,15210,1,0,3:0:0:0:
91,97,15377,1,2,3:2:0:0:
17,57,15544,1,2,1:2:0:0:
4,146,15710,6,0,P|9:208|23:288,1,140,4|0,3:2|3:0,2:0:0:0:
64,357,16210,1,0,1:0:0:0:
124,294,16377,1,0,3:0:0:0:
124,294,16460,1,0,1:0:0:0:
124,294,16544,2,0,P|173:309|219:320,1,70,0|4,3:0|3:0,2:0:0:0:
246,249,16877,1,8,3:0:0:0:
308,334,17044,6,0,P|387:350|462:376,1,140,6|2,3:2|3:2,2:0:0:0:
507,313,17544,1,0,1:0:0:0:
507,313,17710,2,0,P|495:280|488:245,1,70,2|0,2:0|3:0,3:0:0:0:
420,195,18044,2,0,P|436:163|444:129,1,70,2|0,3:2|1:0,3:0:0:0:
352,244,18377,6,0,B|276:225|306:207|201:193,1,140,4|0,3:2|3:0,2:0:0:0:
159,253,18877,1,0,1:0:0:0:
102,190,19044,2,0,P|67:197|33:204,1,70,0|0,3:0|3:0,2:0:0:0:
158,126,19377,2,0,P|145:80|140:50,1,70,0|0,3:0|1:0,2:0:0:0:
226,0,19710,6,0,B|274:19|292:56|292:56|336:33|362:33,1,140,4|0,3:2|3:0,2:0:0:0:
377,111,20210,1,0,1:0:0:0:
450,69,20377,2,0,P|455:34|462:1,1,70,0|0,2:0|3:0,2:0:0:0:
385,122,20710,2,0,P|346:133|302:147,1,70,0|0,3:0|1:0,2:0:0:0:
228,193,21044,6,0,P|219:230|248:337,1,140,4|0,3:2|3:0,2:0:0:0:
303,383,21544,2,0,P|339:373|385:364,1,70,0|0,1:0|3:0,2:0:0:0:
425,303,21877,1,0,1:2:0:0:
425,303,21960,1,0,1:2:0:0:
425,303,22044,1,0,1:2:0:0:
470,373,22210,1,0,1:0:0:0:
511,288,22377,6,0,P|523:232|488:154,1,126,4|0,3:2|3:0,2:0:0:0:
432,123,22877,1,2,1:2:0:0:
291,53,23210,1,2,3:2:0:0:
291,53,23377,1,0,3:0:0:0:
237,114,23544,2,0,P|245:145|254:175,1,63.0000000000001,2|0,1:2|2:0,2:0:0:0:
180,56,23877,6,0,P|139:74|97:85,1,63.0000000000001,2|0,3:2|3:0,2:0:0:0:
1,109,24210,2,0,P|31:119|60:133,1,63.0000000000001,2|2,1:2|2:0,2:0:0:0:
113,202,24544,1,0,3:0:0:0:
113,202,24710,1,2,3:2:0:0:
150,361,25044,6,0,P|182:343|279:316,1,126,2|0,3:2|2:0,2:0:0:0:
343,287,25544,1,2,1:2:0:0:
482,384,25877,1,2,3:2:0:0:
482,384,26044,1,0,3:0:0:0:
512,307,26210,2,0,P|505:274|502:224,1,63.0000000000001,2|0,1:2|2:0,2:0:0:0:
436,187,26544,6,0,P|448:147|453:110,1,63.0000000000001,2|0,3:2|3:0,2:0:0:0:
510,67,26877,1,2,1:2:0:0:
510,67,27044,1,2,2:0:0:0:
437,29,27210,2,0,P|405:24|375:15,2,63.0000000000001,0|2|0,3:0|3:2|1:0,2:0:0:0:
315,80,27710,6,0,B|233:99|264:107|195:119,1,126,2|0,3:2|2:0,2:0:0:0:
114,104,28210,1,2,1:2:0:0:
86,265,28544,2,0,P|121:253|153:245,1,63.0000000000001,2|0,3:2|3:0,2:0:0:0:
210,195,28877,2,0,P|245:207|277:215,1,63.0000000000001,2|0,1:2|2:0,2:0:0:0:
343,178,29210,2,0,P|380:177|478:152,1,126,2|2,3:2|1:2,2:0:0:0:
511,235,29710,1,2,2:0:0:0:
449,298,29877,2,0,P|461:331|472:363,2,63.0000000000001,0|2|0,3:0|3:2|1:0,2:0:0:0:
348,322,30377,6,0,B|276:309|294:291|206:283,1,126,2|0,3:2|2:0,2:0:0:0:
172,346,30877,2,0,P|139:356|97:359,1,63.0000000000001,0|0,1:0|2:0,2:0:0:0:
32,337,31210,2,0,P|19:302|3:266,1,63.0000000000001,2|0,3:2|3:0,2:0:0:0:
37,201,31544,1,0,1:0:0:0:
110,253,31710,2,0,P|160:239|246:218,1,126,0|0,3:0|3:0,2:0:0:0:
289,162,32210,1,0,1:0:0:0:
352,229,32377,1,0,2:0:0:0:
352,229,32460,1,0,1:0:0:0:
352,229,32544,2,0,L|386:221,3,31.5,2|0|0|0,3:2|2:0|3:0|2:0,2:0:0:0:
419,239,32877,2,0,L|450:229,1,31.5,0|0,1:0|1:0,2:0:0:0:
469,194,33044,6,0,P|495:157|457:73,1,126,4|0,3:2|2:0,2:0:0:0:
410,33,33544,2,0,P|375:49|335:57,1,63.0000000000001,2|0,1:2|2:0,2:0:0:0:
278,93,33877,2,0,P|238:82|156:59,1,126,2|2,3:2|1:2,2:0:0:0:
88,12,34377,1,0,2:0:0:0:
23,61,34544,6,0,P|29:98|39:149,1,63.0000000000001,2|0,3:2|3:0,2:0:0:0:
104,164,34877,2,0,P|98:201|88:252,1,63.0000000000001,2|2,1:2|2:0,2:0:0:0:
28,275,35210,1,0,3:0:0:0:
28,275,35377,1,2,3:2:0:0:
163,366,35710,6,0,B|217:356|208:344|294:334,1,126,2|0,3:2|2:0,2:0:0:0:
328,266,36210,2,0,P|320:236|311:196,1,63.0000000000001,2|0,1:2|2:0,2:0:0:0:
235,175,36544,2,0,P|243:145|252:105,1,63.0000000000001,2|0,3:2|3:0,2:0:0:0:
239,25,36877,1,2,1:2:0:0:
239,25,37210,6,0,P|272:22|306:17,1,63.0000000000001,2|0,3:2|3:0,2:0:0:0:
355,79,37544,2,0,P|388:82|422:87,1,63.0000000000001,2|2,1:2|2:0,2:0:0:0:
463,19,37877,1,0,3:0:0:0:
463,19,38044,1,2,3:2:0:0:
442,181,38377,6,0,P|395:193|292:222,1,126,2|0,3:2|2:0,2:0:0:0:
271,279,38877,2,0,P|244:272|197:258,1,63.0000000000001,2|0,1:2|2:0,2:0:0:0:
145,221,39210,1,2,3:2:0:0:
145,221,39377,1,0,3:0:0:0:
85,276,39544,2,0,P|54:284|24:292,1,63.0000000000001,2|0,1:2|2:0,2:0:0:0:
153,321,39877,6,0,P|156:352|162:383,1,63.0000000000001,2|0,3:2|3:0,2:0:0:0:
218,272,40210,2,0,P|252:278|281:282,1,63.0000000000001,2|2,1:2|2:0,2:0:0:0:
353,329,40544,1,0,3:0:0:0:
353,329,40710,1,2,3:2:0:0:
496,247,41044,6,0,P|488:195|477:94,1,126,2|0,3:2|2:0,2:0:0:0:
435,52,41544,2,0,P|408:46|364:29,1,63.0000000000001,0|0,1:0|2:0,2:0:0:0:
299,68,41877,2,0,P|269:78|238:85,1,63.0000000000001,2|0,3:2|3:0,2:0:0:0:
172,37,42210,1,0,1:0:0:0:
115,96,42377,1,0,1:0:0:0:
115,96,42460,1,0,1:0:0:0:
115,96,42544,6,0,P|120:144|125:186,1,63.0000000000001,6|0,1:2|3:0,2:0:0:0:
141,238,42877,2,0,P|182:230|231:228,1,63.0000000000001,0|2,1:0|3:2,2:0:0:0:
268,178,43210,1,10,3:0:0:0:
268,178,43377,1,8,3:0:0:0:
336,222,43544,1,0,1:0:0:0:
347,311,43710,1,4,3:2:0:0:
205,377,44044,5,2,1:2:0:0:
139,333,44210,2,0,P|133:312|117:199,1,112,2|2,3:2|3:2,2:0:0:0:
59,178,44710,1,2,2:0:0:0:
59,178,44877,1,2,3:2:0:0:
114,122,45044,6,0,B|176:109|159:104|239:83,1,112,2|2,3:2|1:2,2:0:0:0:
267,26,45544,1,2,3:2:0:0:
267,26,45710,1,2,2:0:0:0:
318,85,45877,2,0,B|346:98|380:84|380:84|390:103|436:126,1,112,0|2,1:0|3:2,2:0:0:0:
493,99,46377,1,2,3:2:0:0:
507,258,46710,5,0,1:0:0:0:
451,314,46877,2,0,P|420:308|380:298,1,56,0|0,3:0|2:0,2:0:0:0:
345,242,47210,2,0,P|314:248|274:258,1,56,0|0,1:0|2:0,2:0:0:0:
215,228,47544,1,2,1:2:0:0:
151,182,47710,2,0,P|129:133|148:66,1,112,0|2,3:0|1:2,2:0:0:0:
188,15,48210,1,0,3:0:0:0:
188,15,48544,1,2,1:2:0:0:
251,70,48710,1,2,3:2:0:0:
251,70,48877,1,2,1:2:0:0:
304,126,49044,6,0,P|289:161|278:238,1,112,4|2,3:2|1:2,2:0:0:0:
227,294,49544,1,2,2:0:0:0:
360,377,49877,2,0,P|396:368|433:359,1,56,2|2,1:2|2:0,2:0:0:0:
480,321,50210,1,2,1:2:0:0:
421,268,50377,2,0,P|380:260|343:248,2,56,2|2|2,3:2|2:0|1:2,2:0:0:0:
486,222,50877,1,2,3:2:0:0:
486,222,51044,2,0,P|505:166|472:105,1,112,2|0,3:2|3:0,2:0:0:0:
430,64,51544,1,0,1:0:0:0:
430,64,51627,1,0,3:0:0:0:
430,64,51710,6,0,P|382:80|308:99,1,126,6|0,3:2|3:0,2:0:0:0:
245,160,52210,2,0,P|216:147|176:142,1,63.0000000000001,0|2,1:0|3:2,2:0:0:0:
185,143,52460,1,0,1:0:0:0:
185,143,52544,1,0,2:0:0:0:
115,88,52710,1,0,3:0:0:0:
35,131,52877,6,2,P|29:165|22:210,1,63.0000000000001,2|2,1:2|3:2,2:0:0:0:
42,231,53127,1,0,1:0:0:0:
42,231,53210,2,0,P|52:273|60:311,1,63.0000000000001,0|0,3:0|3:0,2:0:0:0:
105,365,53544,2,0,P|134:377|177:364,1,63.0000000000001,0|0,1:0|2:0,2:0:0:0:
199,350,53794,1,0,1:0:0:0:
199,350,53877,2,0,P|217:313|221:285,1,63.0000000000001,2|8,3:2|3:0,2:0:0:0:
174,216,54210,1,0,1:0:0:0:
234,137,54377,6,0,B|302:153|282:157|361:172,1,126,4|0,3:2|3:0,2:0:0:0:
418,109,54877,2,0,P|446:123|484:132,1,63.0000000000001,0|0,1:0|2:0,2:0:0:0:
502,215,55210,2,0,P|488:243|479:281,1,63.0000000000001,0|0,1:0|3:2,2:0:0:0:
425,343,55544,1,0,1:0:0:0:
425,343,55627,1,0,1:2:0:0:
425,343,55710,1,4,1:2:0:0:
425,343,56377,6,0,P|392:334|344:319,1,63.0000000000001,4|0,1:2|2:0,2:0:0:0:
256,192,57210,12,0,59544,2:0:0:0:
366,284,59877,6,2,P|299:296|202:320,1,154,4|0,3:2|1:0,2:1:0:0:
152,384,60377,2,0,P|120:372|64:363,1,77,2|0,2:1|3:0,2:0:0:0:
8,302,60710,1,0,3:0:0:0:
8,302,60877,1,2,1:0:0:0:
88,256,61044,6,0,B|114:184|114:184|63:117,1,154,4|0,3:2|3:0,2:0:0:0:
1,56,61544,2,0,P|37:47|82:27,1,77,2|0,1:0|2:0,2:0:0:0:
156,85,61877,1,2,3:1:0:0:
156,85,62044,1,0,3:0:0:0:
217,16,62210,2,0,P|262:25|301:32,1,77,2|0,1:1|2:0,2:0:0:0:
362,91,62544,2,0,P|409:101|502:56,1,154,2|0,3:1|2:0,2:0:0:0:
512,156,63044,2,0,P|501:194|494:231,1,77,2|0,2:1|3:0,2:0:0:0:
419,185,63377,1,0,3:0:0:0:
419,185,63544,1,2,1:0:0:0:
355,117,63710,6,2,P|302:114|239:192,1,154,0|0,3:0|3:0,2:1:0:0:
312,241,64210,2,0,P|305:277|300:343,1,77,0|0,1:0|2:0,2:0:0:0:
233,378,64544,1,2,3:1:0:0:
233,378,64710,1,0,3:0:0:0:
162,316,64877,2,0,P|134:328|74:340,1,77,2|2,1:0|3:1,2:0:0:0:
8,282,65210,6,2,P|-8:236|37:143,1,154,4|2,3:2|1:0,2:1:0:0:
93,74,65710,1,0,2:0:0:0:
149,147,65877,2,0,P|209:162|231:168,1,77,2|0,3:1|3:0,2:0:0:0:
281,238,66210,2,0,P|341:223|363:217,1,77,2|0,1:0|2:0,2:0:0:0:
426,278,66544,6,2,P|388:186|429:137,1,154,0|0,3:0|1:0,2:1:0:0:
470,74,67044,2,0,P|495:120|502:153,2,77,2|0|0,2:1|3:0|3:0,3:0:0:0:
402,10,67544,2,0,P|369:27|298:34,1,77,2|0,1:0|2:0,2:0:0:0:
296,121,67877,6,2,B|202:98|241:84|140:63,1,154,2|0,3:2|1:0,2:1:0:0:
64,72,68377,1,2,3:1:0:0:
112,149,68544,2,0,P|149:156|193:174,2,77,0|0|2,3:0|3:0|1:0,2:0:0:0:
23,176,69044,2,2,P|-2:219|23:322,1,154,4|0,3:2|2:0,2:1:0:0:
106,349,69544,2,0,P|149:353|193:365,1,77,0|0,1:0|3:0,3:0:0:0:
266,322,69877,1,0,1:0:0:0:
339,377,70044,1,0,1:0:0:0:
339,377,70127,1,0,1:0:0:0:
339,377,70210,2,0,L|390:368,3,38.5,0|0|0|0,1:0|1:0|1:0|1:0,2:0:0:0:
409,337,70544,6,2,B|394:301|409:248|440:269|463:234|456:178,1,154,4|0,3:2|1:0,2:1:0:0:
508,122,71044,2,0,P|470:115|434:101,1,77,2|0,2:1|3:0,2:0:0:0:
377,35,71377,1,0,3:0:0:0:
377,35,71544,1,2,1:0:0:0:
332,116,71710,6,2,P|295:79|197:99,1,154,0|0,3:2|3:0,2:1:0:0:
169,180,72210,2,0,P|136:172|83:160,1,77,2|0,1:0|2:0,2:0:0:0:
16,122,72544,1,2,3:1:0:0:
16,122,72710,1,0,3:0:0:0:
2,213,72877,1,2,1:0:0:0:
2,213,73210,6,2,P|64:229|172:268,1,154,4|0,3:2|1:0,2:1:0:0:
223,312,73710,2,0,P|261:301|298:294,1,77,2|0,2:1|3:0,3:0:0:0:
375,353,74044,1,2,3:1:0:0:
375,353,74210,1,0,1:0:0:0:
457,310,74377,6,2,P|485:283|466:163,1,154,2|0,3:1|3:2,2:1:0:0:
399,130,74877,2,0,P|359:139|322:147,1,77,0|0,1:0|2:0,2:0:0:0:
294,236,75210,1,2,3:1:0:0:
294,236,75377,1,0,3:0:0:0:
207,201,75544,1,2,1:0:0:0:
207,201,75627,1,0,1:0:0:0:
207,201,75710,2,0,L|196:148,1,38.5,0|0,1:0|1:0,2:0:0:0:
222,122,75877,6,2,P|205:89|75:95,1,154,4|0,3:2|1:0,2:1:0:0:
17,30,76377,1,2,2:1:0:0:
1,121,76544,2,0,P|16:181|22:203,1,77,0|0,3:0|3:0,2:0:0:0:
101,240,76877,1,2,1:0:0:0:
28,296,77044,6,0,P|49:347|158:361,1,154,0|0,3:0|3:0,2:0:0:0:
209,311,77544,2,0,P|253:308|304:297,1,77,2|0,1:0|2:0,2:0:0:0:
353,365,77877,1,2,3:1:0:0:
353,365,78044,1,0,3:0:0:0:
430,314,78210,1,2,1:0:0:0:
430,314,78544,6,2,B|416:281|400:250|400:250|419:209|420:168,1,154,0|2,3:0|1:0,2:1:0:0:
480,99,79044,1,2,2:1:0:0:
391,72,79210,2,0,P|377:28|358:-14,2,77,0|2|0,3:0|3:1|1:0,2:0:0:0:
359,159,79710,2,2,P|316:157|189:120,1,154,6|0,3:2|3:0,2:1:0:0:
151,56,80210,2,0,P|115:72|78:82,1,77,2|0,1:0|1:0,2:0:0:0:
42,109,80460,1,0,1:0:0:0:
42,109,80544,6,0,P|31:146|49:189,1,77,2|0,3:1|3:0,2:0:0:0:
91,260,80877,1,2,1:0:0:0:
162,202,81044,1,0,1:0:0:0:
162,202,81127,1,0,1:0:0:0:
162,202,81210,1,4,1:2:0:0:
512,320,82377,5,4,1:2:0:0:
66,379,83210,5,0,1:0:0:0:
12,303,83377,1,2,1:0:0:0:
166,201,83710,5,6,3:2:0:0:
256,192,83877,12,0,88877,2:0:0:0:
