osu file format v14

[General]
AudioFilename: audio.ogg
AudioLeadIn: 0
PreviewTime: 59193
Countdown: 0
SampleSet: Soft
StackLeniency: 0.7
Mode: 0
LetterboxInBreaks: 0
WidescreenStoryboard: 1

[Editor]
DistanceSpacing: 0.9
BeatDivisor: 2
GridSize: 32
TimelineZoom: 2.3

[Metadata]
Title:"Boku wa..." (TV Size)
TitleUnicode:「僕は…」 (TV Size)
Artist:Atarayo
ArtistUnicode:あたらよ
Creator:maot
Version:Komarin's Easy
Source:僕の心のヤバイやつ
Tags:anime japanese rock j-rock the dangers in my heart boku no kokoro yabai yatsu 第2期 second 2 ii season op opening yamada akino anna dasdwqdf niii_san nisan sharpay bokuyaba terakomari lafayla
BeatmapID:4444159
BeatmapSetID:2115769

[Difficulty]
HPDrainRate:2
CircleSize:2.7
OverallDifficulty:3
ApproachRate:4.5
SliderMultiplier:0.999999999999999
SliderTickRate:1

[Events]
//Background and Video events
Video,0,"video.mp4"
0,0,"tudo.png",0,0
//Break Periods
//Storyboard Layer 0 (Background)
//Storyboard Layer 1 (Fail)
//Storyboard Layer 2 (Pass)
//Storyboard Layer 3 (Foreground)
//Storyboard Layer 4 (Overlay)
//Storyboard Sound Samples

[TimingPoints]
1211,333.333333333333,4,2,0,50,1,0
6544,-100,4,2,0,65,0,0
11710,-100,4,2,0,75,0,0
22377,-100,4,2,0,70,0,0
43710,-100,4,2,0,65,0,0
59877,-100,4,2,0,80,0,1
81210,-100,4,2,0,50,0,0
88877,-100,4,2,0,20,0,0

[Colours]
Combo1 : 177,59,138
Combo2 : 68,66,113
Combo3 : 175,101,34
Combo4 : 97,135,73

[HitObjects]
503,147,6544,6,0,L|391:136,1,99.9999999999999,4|2,3:2|3:2,2:0:0:0:
340,74,7210,1,2,3:2:0:0:
260,115,7544,1,2,3:2:0:0:
258,205,7877,2,0,B|272:290|248:369,2,150,2|2|2,3:2|2:0|3:2,2:0:0:0:
168,193,9210,2,0,B|139:111|149:29,2,150,2|2|2,3:2|2:0|3:2,2:0:0:0:
258,205,10544,1,2,3:2:0:0:
334,93,11044,1,0,1:0:0:0:
512,118,11710,6,0,B|515:183|504:195|508:276,1,150,4|0,3:2|1:0,2:0:0:0:
452,339,12544,1,0,3:0:0:0:
321,305,13044,2,0,L|160:318,2,150,4|0|0,3:2|1:0|3:0,2:0:0:0:
380,237,14377,1,2,3:2:0:0:
312,121,14877,2,0,B|230:92|148:102,1,150,4|2,1:2|3:2,2:0:0:0:
80,70,15710,2,0,B|37:145|32:228,1,150,4|0,3:2|1:0,2:0:0:0:
41,301,16544,1,0,3:0:0:0:
156,370,17044,6,0,B|225:348|254:268|198:190,1,200,6|2,3:2|2:0,2:0:0:0:
203,116,18044,1,2,3:2:0:0:
114,99,18377,2,0,B|60:105|-17:109,2,99.9999999999999,4|0|0,3:2|3:0|3:0,2:0:0:0:
173,30,19377,1,0,3:0:0:0:
262,29,19710,2,0,B|272:97|273:203,1,150,4|0,3:2|1:0,2:0:0:0:
254,266,20544,1,0,3:0:0:0:
382,308,21044,2,0,B|477:296|475:193,1,150,4|0,3:2|1:0,2:0:0:0:
488,120,21877,1,0,1:2:0:0:
380,38,22377,5,4,3:2:0:0:
260,100,22877,2,0,B|160:109,2,99.9999999999999,2|2|2,1:2|3:2|1:2,2:0:0:0:
325,162,23877,2,0,L|309:311,1,150,2|2,3:2|2:0,2:0:0:0:
247,376,24710,1,2,3:2:0:0:
157,380,25044,2,0,B|91:380|58:318|79:266,1,150,2|2,3:2|1:2,2:0:0:0:
48,192,25877,2,0,B|98:185|152:212,1,99.9999999999999,2|2,3:2|1:2,2:0:0:0:
208,272,26544,2,0,B|274:272|307:210|286:158,1,150,2|2,3:2|2:0,2:0:0:0:
236,99,27377,1,2,3:2:0:0:
281,21,27710,6,0,B|334:-12|426:-1,1,150,2|2,3:2|1:2,2:0:0:0:
509,32,28544,1,2,3:2:0:0:
507,122,28877,1,2,1:2:0:0:
417,109,29210,2,0,B|324:106|272:145,1,150,2|2,3:2|2:0,2:0:0:0:
221,216,30044,1,2,3:2:0:0:
131,226,30377,2,0,B|109:60,1,150,2|0,3:2|1:0,2:0:0:0:
29,114,31210,2,0,B|42:213,1,99.9999999999999,2|0,3:2|1:0,2:0:0:0:
4,295,31877,1,2,2:0:0:0:
59,365,32210,1,0,1:0:0:0:
142,331,32544,1,2,3:2:0:0:
226,225,33044,6,0,B|294:220|318:234|393:226,1,150,4|2,3:2|1:2,2:0:0:0:
439,291,33877,1,2,3:2:0:0:
508,234,34210,1,2,1:2:0:0:
501,144,34544,2,0,B|483:49|384:65,1,150,2|2,3:2|2:0,2:0:0:0:
322,9,35377,1,2,3:2:0:0:
241,48,35710,2,0,B|193:131|280:183,1,150,2|2,3:2|1:2,2:0:0:0:
361,180,36544,2,0,B|373:223|375:278,1,99.9999999999999,2|2,3:2|1:2,2:0:0:0:
311,342,37210,2,0,B|235:334|161:338,1,150,2|2,3:2|2:0,2:0:0:0:
75,366,38044,1,2,3:2:0:0:
7,306,38377,1,2,3:2:0:0:
85,196,38877,6,0,B|76:96,2,99.9999999999999,2|2|2,1:2|3:2|1:2,2:0:0:0:
151,257,39877,2,0,B|300:270,1,150,2|2,3:2|2:0,2:0:0:0:
378,225,40710,1,2,3:2:0:0:
467,234,41044,2,0,B|488:155|470:78,1,150,2|0,3:2|1:0,2:0:0:0:
418,12,41877,1,2,3:2:0:0:
343,62,42210,1,0,1:0:0:0:
261,23,42544,2,0,B|202:22|159:28,1,99.9999999999999,6|0,1:2|1:0,2:0:0:0:
117,106,43210,1,10,3:0:0:0:
162,233,43710,6,0,B|236:251|236:251|305:222,1,150,4|2,3:2|3:2,2:0:0:0:
350,145,44544,2,0,B|499:155,2,150,2|2|2,3:2|3:2|3:2,2:0:0:0:
290,77,45877,1,0,1:0:0:0:
155,93,46377,2,0,B|84:146|107:248,2,150,2|0|0,3:2|3:0|2:0,2:0:0:0:
231,139,47710,2,0,B|265:220|194:297,1,150,0|0,3:0|3:0,2:0:0:0:
139,336,48544,1,2,1:2:0:0:
10,293,49044,6,0,B|0:229|31:215|12:129,1,150,4|2,3:2|2:0,2:0:0:0:
104,157,49877,2,0,B|167:179|252:168,2,150,2|2|2,1:2|3:2|3:2,2:0:0:0:
128,69,51210,1,0,1:0:0:0:
262,66,51710,2,0,B|335:80|383:33|383:33|404:67|446:67,1,200,6|2,3:2|3:2,2:0:0:0:
503,130,52710,1,0,3:0:0:0:
504,219,53044,2,0,B|494:299|418:333|344:294,1,200,2|0,3:2|2:0,2:0:0:0:
276,254,54044,1,8,3:0:0:0:
208,313,54377,5,4,3:2:0:0:
101,229,54877,1,0,1:0:0:0:
16,259,55210,2,0,B|26:110,1,150,0|4,1:0|1:2,2:0:0:0:
189,33,56377,1,4,1:2:0:0:
189,33,59877,6,0,B|256:20|272:70|343:58,2,150,4|2|2,3:2|2:1|1:0,2:1:0:0:
137,107,61210,1,2,2:3:0:0:
47,113,61544,2,0,L|40:212,1,99.9999999999999,2|2,1:0|3:1,2:0:0:0:
46,302,62210,1,2,1:0:0:0:
129,334,62544,2,2,B|218:363|263:276,1,150,0|2,3:0|2:0,2:1:0:0:
333,175,63544,2,2,B|402:136|484:166|504:250,1,200,2|0,1:0|1:0,2:1:0:0:
494,321,64544,1,2,3:1:0:0:
417,368,64877,1,2,1:0:0:0:
327,356,65210,6,2,B|306:298|310:239,1,99.9999999999999,4|0,3:2|1:0,2:1:0:0:
222,233,65877,2,0,B|211:173|225:115,1,99.9999999999999,2|2,3:1|1:0,2:0:0:0:
150,78,66544,2,0,B|75:81|-12:99,2,150,2|2|2,3:1|2:1|1:0,2:0:0:0:
221,133,67877,2,2,B|316:161|363:68,1,150,2|2,3:2|3:2,2:1:0:0:
418,26,68710,1,0,3:0:0:0:
507,26,69044,2,2,B|515:94|498:191,1,150,4|0,3:2|1:0,2:1:0:0:
438,240,69877,1,0,1:0:0:0:
355,205,70210,1,0,1:0:0:0:
284,260,70544,6,0,B|230:289|166:288|131:233,2,150,4|2|2,3:2|2:1|1:0,2:0:0:0:
355,205,71877,1,2,3:0:0:0:
322,121,72210,2,0,L|329:22,2,99.9999999999999,2|2|2,1:0|3:1|1:0,2:0:0:0:
236,90,73210,2,2,L|64:106,1,150,4|2,3:2|2:0,2:1:0:0:
41,181,74044,1,2,3:1:0:0:
123,217,74377,2,2,L|295:231,1,150,2|0,3:1|1:0,2:1:0:0:
345,282,75210,1,2,3:1:0:0:
398,209,75544,1,2,1:0:0:0:
486,193,75877,6,0,B|533:259|494:336,2,150,4|2|2,3:2|2:1|1:0,2:1:0:0:
425,126,77210,1,2,2:3:0:0:
338,148,77544,2,0,B|297:151|240:130,1,99.9999999999999,2|2,1:0|3:1,2:0:0:0:
192,54,78210,1,2,1:0:0:0:
105,30,78544,2,2,B|46:47|19:96|52:163,1,150,0|2,3:0|2:0,2:1:0:0:
126,184,79377,1,2,3:1:0:0:
214,168,79710,2,2,B|273:185|300:234|267:301,1,150,6|2,3:2|1:0,2:1:0:0:
212,349,80544,1,2,3:1:0:0:
138,296,80877,1,2,1:0:0:0:
67,351,81210,5,4,1:2:0:0:
372,274,82377,1,4,1:2:0:0:
119,178,83377,2,0,B|120:125|129:78,1,99.9999999999999,2|6,1:0|3:2,2:0:0:0:
256,192,84044,12,0,88877,2:0:0:0:
