osu file format v14

[General]
AudioFilename: audio.ogg
AudioLeadIn: 0
PreviewTime: 59193
Countdown: 0
SampleSet: Soft
StackLeniency: 0.7
Mode: 0
LetterboxInBreaks: 0
WidescreenStoryboard: 0

[Editor]
DistanceSpacing: 1.2
BeatDivisor: 4
GridSize: 32
TimelineZoom: 5.099997

[Metadata]
Title:"Boku wa..." (TV Size)
TitleUnicode:「僕は…」 (TV Size)
Artist:Atarayo
ArtistUnicode:あたらよ
Creator:maot
Version:Insane
Source:僕の心のヤバイやつ
Tags:anime japanese rock j-rock the dangers in my heart boku no kokoro yabai yatsu 第2期 second 2 ii season op opening yamada akino anna dasdwqdf niii_san nisan sharpay bokuyaba terakomari lafayla
BeatmapID:4443139
BeatmapSetID:2115769

[Difficulty]
HPDrainRate:6
CircleSize:4
OverallDifficulty:8
ApproachRate:9
SliderMultiplier:1.7
SliderTickRate:1

[Events]
//Background and Video events
Video,0,"video.mp4"
0,0,"tudo.png",0,0
//Break Periods
//Storyboard Layer 0 (Background)
//Storyboard Layer 1 (Fail)
//Storyboard Layer 2 (Pass)
//Storyboard Layer 3 (Foreground)
//Storyboard Layer 4 (Overlay)
//Storyboard Sound Samples

[TimingPoints]
1211,333.333333333333,4,2,0,50,1,0
1211,-142.857142857143,4,2,0,50,0,0
6544,-100,4,2,0,65,0,0
11710,-100,4,2,0,75,0,0
22377,-111.111111111111,4,2,0,70,0,0
43710,-111.111111111111,4,2,0,65,0,0
59877,-100,4,2,0,80,0,1
81210,-100,4,2,0,50,0,0
88877,-100,4,2,0,20,0,0

[Colours]
Combo1 : 116,158,205
Combo2 : 159,117,74
Combo3 : 218,209,109
Combo4 : 104,86,126

[HitObjects]
264,237,1211,6,0,B|346:298|427:220,2,178.5,2|2|2,2:0|2:0|2:0,2:0:0:0:
169,231,2544,1,2,2:0:0:0:
169,231,2877,2,0,P|143:176|141:115,2,119,2|2|2,2:0|2:0|2:0,2:0:0:0:
31,346,3877,6,0,B|147:303|101:355|208:319,2,178.5,2|2|2,2:0|2:0|2:0,2:0:0:0:
193,225,5210,2,0,P|252:240|320:256,1,119,2|0,2:0|2:0,2:0:0:0:
308,253,5877,6,0,L|372:237,1,59.4999999999999,2|0,2:0|2:0,2:0:0:0:
428,169,6210,2,0,L|371:154,1,59.4999999999999,2|0,2:0|2:0,2:0:0:0:
356,323,6544,6,0,P|408:260|487:275,1,170,4|2,3:2|3:2,2:0:0:0:
445,369,7044,1,0,2:0:0:0:
266,336,7210,2,0,P|276:294|282:252,1,85,2|0,3:2|2:0,2:0:0:0:
205,141,7544,2,0,P|194:182|188:224,1,85,2|0,3:2|2:0,2:0:0:0:
115,286,7877,6,0,P|50:286|-2:200,1,170,2|0,3:2|3:0,2:0:0:0:
55,126,8377,1,2,2:0:0:0:
123,161,8544,2,0,L|221:138,1,85,0|0,3:0|2:0,2:0:0:0:
301,35,8877,2,0,L|218:54,1,85,2|0,3:2|2:0,2:0:0:0:
348,179,9210,6,0,P|416:190|501:141,1,170,2|0,3:2|3:0,2:0:0:0:
231,294,9710,2,0,P|163:283|78:332,1,170,2|0,2:0|2:0,2:0:0:0:
279,374,10210,6,0,P|271:281|260:201,1,170,2|2,3:2|3:2,2:0:0:0:
260,205,11044,2,0,B|210:215,1,42.5,0|0,1:0|2:0,2:0:0:0:
218,213,11710,6,0,P|306:249|377:204,1,170,4|0,3:2|2:0,2:0:0:0:
469,340,12210,2,0,P|402:328|357:317,1,85,0|0,1:0|2:0,2:0:0:0:
292,166,12544,1,0,3:0:0:0:
434,116,12710,1,0,3:0:0:0:
291,264,12877,1,0,1:0:0:0:
205,116,13044,6,0,B|98:95|145:147|18:101,1,170,4|0,3:2|2:0,2:0:0:0:
10,215,13544,2,0,P|72:203|116:196,1,85,0|0,1:0|2:0,2:0:0:0:
191,270,13877,2,0,B|201:312|201:312|188:366,1,85,0|0,3:0|3:0,2:0:0:0:
105,310,14210,5,0,1:0:0:0:
260,212,14377,2,0,B|378:252|310:197|442:244,1,170,2|0,3:2|2:0,2:0:0:0:
506,196,14877,2,0,P|419:204|369:128,1,170,4|0,1:2|3:0,2:0:0:0:
237,75,15377,1,2,3:2:0:0:
395,45,15544,1,2,1:2:0:0:
205,155,15710,6,0,P|116:186|8:170,1,170,4|0,3:2|3:0,2:0:0:0:
218,239,16210,1,0,1:0:0:0:
86,110,16377,1,0,3:0:0:0:
86,110,16460,1,0,1:0:0:0:
86,110,16544,1,0,3:0:0:0:
284,191,16710,1,4,3:0:0:0:
103,317,16877,1,8,3:0:0:0:
284,191,17044,6,0,P|373:222|481:206,1,170,6|2,3:2|3:2,2:0:0:0:
275,288,17544,1,0,1:0:0:0:
429,133,17710,2,0,P|470:140|513:151,1,85,2|0,2:0|3:0,3:0:0:0:
279,98,18044,2,0,P|268:56|261:14,1,85,2|0,3:2|1:0,3:0:0:0:
199,231,18377,6,0,P|117:215|30:250,1,170,4|0,3:2|3:0,2:0:0:0:
208,378,18877,2,0,P|250:372|292:367,1,85,0|0,1:0|3:0,2:0:0:0:
292,367,19127,1,0,1:0:0:0:
292,367,19210,1,0,3:0:0:0:
142,306,19377,1,0,3:0:0:0:
291,170,19544,1,0,1:0:0:0:
235,263,19710,6,0,B|293:253|293:253|339:270|339:270|399:256,1,170,4|0,3:2|3:0,2:0:0:0:
493,369,20210,2,0,L|409:351,1,85,0|0,1:0|2:0,2:0:0:0:
314,186,20544,1,0,3:0:0:0:
471,278,20710,1,0,3:0:0:0:
302,368,20877,1,0,1:0:0:0:
374,258,21044,6,0,P|358:149|349:51,1,170,4|0,3:2|3:0,2:0:0:0:
499,30,21544,1,0,1:0:0:0:
389,163,21710,1,0,3:0:0:0:
248,24,21877,1,0,1:2:0:0:
248,24,21960,1,0,1:2:0:0:
248,24,22044,1,0,1:2:0:0:
432,91,22210,1,0,1:0:0:0:
232,232,22377,6,0,B|130:198|181:246|70:205,1,153,4|0,3:2|3:0,2:0:0:0:
0,331,22877,2,0,P|35:321|94:310,1,76.5000000000001,2|0,1:2|2:0,2:0:0:0:
154,369,23210,2,0,B|163:330|163:330|152:290,1,76.5000000000001,2|0,3:2|3:0,2:0:0:0:
253,153,23544,1,2,1:2:0:0:
253,153,23877,6,0,P|288:163|347:174,1,76.5000000000001,2|0,3:2|3:0,2:0:0:0:
440,233,24210,1,2,1:2:0:0:
364,350,24377,2,0,P|353:313|345:275,1,76.5000000000001,2|0,2:0|3:0,2:0:0:0:
417,125,24710,2,0,P|453:135|491:143,1,76.5000000000001,2|0,3:2|1:0,2:0:0:0:
310,180,25044,6,0,B|283:95|332:3,1,153,2|0,3:2|2:0,2:0:0:0:
200,146,25544,2,0,P|209:183|213:221,1,76.5000000000001,2|0,1:2|2:0,2:0:0:0:
104,173,25877,2,0,P|94:135|90:97,1,76.5000000000001,2|0,3:2|3:0,2:0:0:0:
9,285,26210,1,2,1:2:0:0:
9,285,26544,6,0,B|45:271|45:271|95:274,1,76.5000000000001,2|0,3:2|3:0,2:0:0:0:
86,377,26877,1,2,1:2:0:0:
247,337,27044,2,0,L|156:321,1,76.5000000000001,2|0,2:0|3:0,2:0:0:0:
65,172,27377,2,0,P|97:189|141:192,1,76.5000000000001,2|0,3:2|1:0,2:0:0:0:
256,84,27710,6,0,P|242:160|229:249,1,153,2|0,3:2|2:0,2:0:0:0:
358,363,28210,2,0,P|350:325|344:287,1,76.5000000000001,2|0,1:2|2:0,2:0:0:0:
477,161,28544,1,2,3:2:0:0:
425,244,28710,1,0,3:0:0:0:
342,195,28877,1,2,1:2:0:0:
342,195,29210,6,0,P|353:150|349:102,1,76.5000000000001,2|0,3:2|3:0,2:0:0:0:
252,60,29544,1,2,1:2:0:0:
128,175,29710,2,0,L|217:157,1,76.5000000000001,2|0,2:0|3:0,2:0:0:0:
341,33,30044,1,2,3:2:0:0:
158,8,30210,1,0,1:0:0:0:
324,127,30377,6,0,P|391:134|480:89,1,153,2|0,3:2|2:0,2:0:0:0:
343,247,30877,2,0,P|308:234|262:226,1,76.5000000000001,0|0,1:0|2:0,2:0:0:0:
196,274,31210,1,2,3:2:0:0:
322,155,31377,1,0,3:0:0:0:
314,330,31544,1,0,1:0:0:0:
196,195,31710,1,0,3:0:0:0:
325,339,31877,6,0,P|360:325|398:318,1,76.5000000000001,2|0,2:0|3:0,2:0:0:0:
479,135,32210,2,0,P|441:127|405:114,1,76.5000000000001,0|0,1:0|2:0,2:0:0:0:
405,114,32460,1,0,1:0:0:0:
405,114,32544,1,2,3:2:0:0:
476,259,32710,1,0,3:0:0:0:
348,214,32877,5,0,1:0:0:0:
348,214,32960,1,0,1:0:0:0:
348,214,33044,2,0,P|415:207|485:294,1,153,4|0,3:2|2:0,2:0:0:0:
365,375,33544,2,0,P|375:340|386:281,1,76.5000000000001,2|0,1:2|2:0,2:0:0:0:
278,267,33877,2,0,P|268:302|257:361,1,76.5000000000001,2|0,3:2|3:0,2:0:0:0:
178,268,34210,1,2,1:2:0:0:
178,268,34544,6,0,L|96:254,1,76.5000000000001,2|0,3:2|3:0,2:0:0:0:
21,159,34877,1,2,1:2:0:0:
137,76,35044,2,0,P|134:112|127:151,1,76.5000000000001,2|0,2:0|3:0,2:0:0:0:
0,337,35377,2,0,P|2:298|11:261,1,76.5000000000001,2|0,3:2|1:0,2:0:0:0:
117,336,35710,6,0,P|188:356|253:319,1,153,2|0,3:2|2:0,2:0:0:0:
364,342,36210,2,0,P|354:304|350:266,1,76.5000000000001,2|0,1:2|2:0,2:0:0:0:
451,181,36544,2,0,P|460:218|464:256,1,76.5000000000001,2|0,3:2|3:0,2:0:0:0:
343,145,36877,1,2,1:2:0:0:
343,145,37210,6,0,L|250:163,1,76.5000000000001,2|0,3:2|3:0,2:0:0:0:
110,222,37544,1,2,1:2:0:0:
204,88,37710,2,0,B|188:122|188:122|188:179,1,76.5000000000001,2|0,2:0|3:0,2:0:0:0:
323,320,38044,2,0,B|339:286|339:286|339:229,1,76.5000000000001,2|0,3:2|1:0,2:0:0:0:
191,262,38377,6,0,P|115:273|40:287,1,153,2|0,3:2|2:0,2:0:0:0:
0,166,38877,2,0,P|37:173|75:179,1,76.5000000000001,2|0,1:2|2:0,2:0:0:0:
225,89,39210,1,2,3:2:0:0:
56,27,39377,1,0,3:0:0:0:
137,107,39544,1,2,1:2:0:0:
137,107,39877,6,0,P|141:56|152:13,1,76.5000000000001,2|0,3:2|3:0,2:0:0:0:
290,178,40210,1,2,1:2:0:0:
204,256,40377,2,0,P|196:218|194:180,1,76.5000000000001,2|0,2:0|3:0,2:0:0:0:
245,86,40710,1,2,3:2:0:0:
87,189,40877,1,0,1:0:0:0:
245,86,41044,6,0,B|348:62|302:96|401:72,1,153,2|0,3:2|2:0,2:0:0:0:
503,182,41544,2,0,P|472:174|416:163,1,76.5000000000001,0|0,1:0|2:0,2:0:0:0:
352,236,41877,1,2,3:2:0:0:
476,344,42044,1,0,3:0:0:0:
303,360,42210,1,0,1:0:0:0:
448,263,42377,5,0,1:0:0:0:
448,263,42460,1,0,1:0:0:0:
448,263,42544,1,6,1:2:0:0:
268,282,42710,1,0,3:0:0:0:
384,320,42877,1,0,1:0:0:0:
260,195,43044,1,2,3:2:0:0:
303,360,43210,1,10,3:0:0:0:
183,256,43377,1,8,3:0:0:0:
350,233,43544,1,0,1:0:0:0:
144,361,43710,6,0,P|138:296|113:183,1,153,4|2,3:2|1:2,2:0:0:0:
28,179,44210,2,0,P|30:224|41:266,1,76.5000000000001,2|2,3:2|2:0,2:0:0:0:
194,145,44544,2,0,P|154:124|112:112,1,76.5000000000001,2|2,3:2|2:0,2:0:0:0:
167,289,44877,1,2,3:2:0:0:
167,289,45044,2,0,P|204:264|235:234,1,76.5000000000001,2|2,3:2|2:0,2:0:0:0:
277,83,45377,1,2,1:2:0:0:
277,83,45544,2,0,P|279:128|290:170,1,76.5000000000001,2|2,3:2|2:0,2:0:0:0:
400,281,45877,2,0,P|360:260|318:248,1,76.5000000000001,0|2,1:0|2:0,2:0:0:0:
347,359,46210,1,2,3:2:0:0:
440,365,46377,6,0,P|451:289|482:220,1,153,2|0,3:2|1:0,2:0:0:0:
316,129,46877,1,0,3:0:0:0:
316,129,47210,2,0,P|321:91|333:55,1,76.5000000000001,0|0,1:0|2:0,2:0:0:0:
411,61,47544,1,2,1:2:0:0:
225,152,47710,2,0,P|247:226|236:337,1,153,0|2,3:0|1:2,2:0:0:0:
178,360,48210,2,0,P|163:307|168:274,1,76.5000000000001,0|0,3:0|2:0,2:0:0:0:
82,343,48544,1,2,1:2:0:0:
225,225,48710,1,2,3:2:0:0:
49,172,48877,1,2,1:2:0:0:
225,225,49044,6,0,P|312:221|371:169,1,153,4|2,3:2|1:2,2:0:0:0:
417,275,49544,2,0,L|329:251,1,76.5000000000001,2|2,2:0|2:0,2:0:0:0:
262,362,49877,2,0,L|335:341,1,76.5000000000001,2|2,1:2|2:0,2:0:0:0:
477,211,50210,1,2,1:2:0:0:
477,211,50377,2,0,B|499:244|499:244|507:306,1,76.5000000000001,2|2,3:2|2:0,2:0:0:0:
378,178,50710,1,2,1:2:0:0:
418,38,50877,2,0,L|434:113,1,76.5000000000001,2|2,3:2|3:2,3:0:0:0:
311,227,51210,1,0,1:0:0:0:
165,133,51377,5,0,3:0:0:0:
134,150,51460,1,0,3:0:0:0:
95,147,51544,1,0,1:0:0:0:
65,136,51627,1,0,3:0:0:0:
34,149,51710,2,0,P|44:232|48:323,1,153,6|0,3:2|3:0,2:0:0:0:
177,366,52210,2,0,B|166:324|166:324|179:271,1,76.5000000000001,0|2,1:0|3:2,2:0:0:0:
185,292,52460,1,0,1:0:0:0:
192,296,52544,2,0,L|242:310,1,38.25,0|0,2:0|1:0,2:0:0:0:
273,243,52710,2,0,L|323:235,1,38.25,0|0,3:0|2:0,2:0:0:0:
432,360,52877,2,2,L|349:342,1,76.5000000000001,2|2,1:2|3:2,2:0:0:0:
357,343,53127,5,0,1:0:0:0:
357,343,53210,2,0,L|348:276,1,38.25,0|0,3:0|1:0,2:0:0:0:
421,221,53377,2,0,L|415:258,1,38.25,0|0,3:0|2:0,2:0:0:0:
282,163,53544,2,0,L|292:70,1,76.5000000000001,0|0,1:0|2:0,2:0:0:0:
290,86,53794,1,0,1:0:0:0:
290,86,53877,1,2,3:2:0:0:
375,147,54044,1,8,3:0:0:0:
205,217,54210,1,0,1:0:0:0:
375,147,54377,6,0,P|438:178|524:153,1,153,4|0,3:2|3:0,2:0:0:0:
250,9,54877,2,0,P|215:24|177:23,1,76.5000000000001,0|0,1:0|2:0,2:0:0:0:
103,0,55210,1,0,1:0:0:0:
14,141,55377,1,0,3:2:0:0:
60,145,55460,1,0,3:2:0:0:
100,122,55544,1,0,1:0:0:0:
137,130,55627,2,0,L|175:122,1,38.25,0|4,1:2|1:2,2:0:0:0:
207,206,56377,6,0,L|245:214,1,38.25,4|0,1:2|2:0,2:0:0:0:
256,192,57377,12,2,59210,2:0:0:0:
12,208,59877,6,2,B|121:183|71:230|184:201,1,170,4|0,3:2|1:0,2:1:0:0:
299,314,60377,2,0,B|259:301|194:289,1,85,2|0,2:1|3:0,2:0:0:0:
142,121,60710,1,0,3:0:0:0:
64,287,60877,1,2,1:0:0:0:
275,204,61044,6,0,B|340:268|447:226,1,170,4|0,3:2|3:0,2:0:0:0:
502,377,61544,2,0,B|473:335|407:332,1,85,2|0,1:0|2:0,2:0:0:0:
377,164,61877,2,0,B|375:122|409:65,1,85,2|0,3:1|3:0,2:0:0:0:
188,228,62210,2,0,B|211:321|202:358,1,127.5,2|0,1:0|2:0,2:0:0:0:
193,370,62544,6,2,B|88:401|48:298,1,170,0|0,3:0|1:0,2:1:0:0:
186,150,63044,1,2,2:1:0:0:
24,82,63210,1,0,3:0:0:0:
98,211,63377,1,0,3:0:0:0:
243,73,63544,1,2,1:0:0:0:
98,211,63710,6,2,B|226:223|288:187,1,170,0|0,3:0|3:0,2:1:0:0:
455,305,64210,2,0,L|371:291,1,85,0|0,1:0|2:0,2:0:0:0:
264,341,64544,1,2,3:1:0:0:
378,176,64710,1,0,3:0:0:0:
189,257,64877,1,2,1:0:0:0:
318,94,65044,1,2,3:1:0:0:
258,25,65210,6,2,L|275:198,1,170,4|2,3:2|1:0,2:1:0:0:
138,338,65710,1,0,2:0:0:0:
18,210,65877,2,0,B|67:218|124:234,1,85,2|0,3:1|3:0,2:0:0:0:
250,382,66210,2,0,B|237:312|239:292,1,85,2|0,1:0|2:0,2:0:0:0:
394,115,66544,6,2,B|404:170|405:205,1,85,0|0,3:0|3:0,2:1:0:0:
340,353,66877,1,0,1:0:0:0:
504,322,67044,2,0,B|482:313|420:304,1,85,2|0,2:1|3:0,3:0:0:0:
208,223,67377,1,0,3:0:0:0:
327,59,67544,1,2,1:0:0:0:
327,59,67877,6,2,B|380:147|501:85,1,170,2|0,3:2|1:0,2:1:0:0:
209,308,68377,2,2,B|156:220|35:282,1,170,2|0,3:2|3:0,2:1:0:0:
259,114,68877,5,2,1:0:0:0:
293,370,69044,2,2,B|308:276|316:201,1,170,4|0,3:2|2:0,2:1:0:0:
197,51,69544,2,0,B|146:70|150:120,1,85,0|0,1:0|3:0,3:0:0:0:
325,284,69877,5,0,1:0:0:0:
371,276,69960,1,0,1:0:0:0:
403,248,70044,1,0,1:0:0:0:
407,201,70127,1,0,1:0:0:0:
393,168,70210,2,0,L|345:178,1,42.5,0|0,1:0|1:0,2:0:0:0:
344,98,70377,2,0,L|302:107,1,42.5,0|0,1:0|1:0,2:0:0:0:
81,232,70544,6,2,B|151:291|240:253,1,170,4|0,3:2|1:0,2:1:0:0:
193,130,71044,2,0,B|155:140|110:151,1,85,2|0,2:1|3:0,2:0:0:0:
286,338,71377,1,0,3:0:0:0:
404,187,71544,1,2,1:0:0:0:
286,338,71710,6,2,B|267:299|274:158,1,170,0|0,3:2|3:0,2:1:0:0:
436,21,72210,2,0,B|448:42|444:119,1,85,2|0,1:0|2:0,2:0:0:0:
268,74,72544,1,2,3:1:0:0:
351,13,72710,1,0,3:0:0:0:
258,189,72877,1,2,1:0:0:0:
258,189,73210,6,2,B|148:156|194:198|79:163,1,170,4|0,3:2|1:0,2:1:0:0:
0,314,73710,2,0,L|90:293,1,85,2|0,2:1|3:0,3:0:0:0:
207,265,74044,1,2,3:1:0:0:
331,363,74210,1,0,1:0:0:0:
207,265,74377,6,2,B|172:176|238:66,1,170,2|0,3:1|3:2,2:1:0:0:
378,155,74877,2,0,B|385:198|367:238,1,85,0|0,1:0|2:0,2:0:0:0:
367,239,75127,1,0,1:0:0:0:
367,239,75210,1,2,3:1:0:0:
282,187,75377,1,0,3:0:0:0:
351,55,75544,5,2,1:0:0:0:
387,73,75627,1,0,1:0:0:0:
430,82,75710,1,0,1:0:0:0:
469,72,75794,1,0,1:0:0:0:
512,89,75877,2,2,B|496:127|492:270,1,170,4|0,3:2|1:0,2:1:0:0:
299,341,76377,2,0,B|305:313|301:249,1,85,2|0,2:1|3:0,2:0:0:0:
224,190,76710,1,0,3:0:0:0:
393,284,76877,1,2,1:0:0:0:
224,190,77044,6,0,B|129:238|36:162,1,170,0|0,3:0|3:0,2:0:0:0:
23,328,77544,2,0,P|64:319|106:311,1,85,2|0,1:0|2:0,2:0:0:0:
238,384,77877,2,0,B|239:337|217:290,1,85,2|0,3:1|3:0,2:0:0:0:
300,99,78210,2,0,B|299:146|325:234,1,127.5,2|0,1:0|3:0,2:0:0:0:
322,224,78544,6,2,B|363:202|408:211,1,85,0|0,3:0|2:0,2:1:0:0:
490,298,78877,1,2,1:0:0:0:
363,384,79044,2,0,B|374:340|373:299,1,85,2|0,2:1|3:0,2:0:0:0:
498,205,79377,1,2,3:1:0:0:
318,136,79544,1,0,1:0:0:0:
498,205,79710,6,2,B|529:106|478:35,1,170,6|0,3:2|3:0,2:1:0:0:
402,88,80210,2,0,B|402:134|409:172,1,85,2|0,1:0|1:0,2:0:0:0:
409,172,80460,1,0,1:0:0:0:
409,172,80544,1,2,3:1:0:0:
320,245,80710,1,0,3:0:0:0:
208,160,80877,1,2,1:0:0:0:
129,300,81044,1,0,1:0:0:0:
171,292,81127,1,0,1:0:0:0:
211,281,81210,1,4,1:2:0:0:
211,281,82377,6,2,B|207:231|201:180,1,85,4|0,1:2|2:0,2:1:0:0:
119,205,83210,1,0,1:0:0:0:
273,135,83377,1,2,1:0:0:0:
28,38,83710,1,6,3:2:0:0:
256,192,83877,12,0,88877,2:0:0:0:
