osu file format v14

[General]
AudioFilename: audio.ogg
AudioLeadIn: 0
PreviewTime: 59126
Countdown: 0
SampleSet: Normal
StackLeniency: 0.7
Mode: 1
LetterboxInBreaks: 0
WidescreenStoryboard: 1

[Editor]
Bookmarks: 6487,11654,22321,43654,51654,54321,59154,59321,59487,70487,89182
DistanceSpacing: 1
BeatDivisor: 4
GridSize: 32
TimelineZoom: 2

[Metadata]
Title:"Boku wa..." (TV Size)
TitleUnicode:「僕は...」 (TV Size)
Artist:Atarayo
ArtistUnicode:あたらよ
Creator:_HeLLFly_
Version:Muzukashii
Source:僕の心のヤバイやつ
Tags:anime opening op Boku no Kokoro no Yabai Yatsu The Dangers in My Heart Season 2 two 2nd 第2期 Bokuyaba female vocals japanese pop jpop j-pop rock j-rock jrock hellfly
BeatmapID:4450015
BeatmapSetID:2118668

[Difficulty]
HPDrainRate:6
CircleSize:5
OverallDifficulty:5
ApproachRate:5
SliderMultiplier:1.4
SliderTickRate:1

[Events]
//Background and Video events
0,0,"yamada.jpg",0,69
Video,-129,"output.mp4"
//Break Periods
//Storyboard Layer 0 (Background)
//Storyboard Layer 1 (Fail)
//Storyboard Layer 2 (Pass)
//Storyboard Layer 3 (Foreground)
//Storyboard Layer 4 (Overlay)
//Storyboard Sound Samples

[TimingPoints]
1210,333.333333333333,4,1,0,35,1,0
1210,-100,4,1,0,35,0,0
6876,-100,4,1,0,65,0,0
11709,-100,4,1,0,80,0,0
22876,-100,4,1,0,65,0,0
42376,-100,4,1,0,70,0,0
44209,-100,4,1,0,65,0,0
52209,-100,4,1,0,75,0,0
59876,-100,4,1,0,88,0,1
81209,-100,4,1,0,70,0,0
84209,-100,4,1,0,65,0,0
84543,-100,4,1,0,60,0,0
84876,-100,4,1,0,55,0,0
85209,-100,4,1,0,50,0,0
85543,-100,4,1,0,45,0,0
85876,-100,4,1,0,40,0,0
86209,-100,4,1,0,35,0,0
86543,-100,4,1,0,30,0,0
86876,-100,4,1,0,25,0,0
87209,-100,4,1,0,20,0,0
87543,-100,4,1,0,15,0,0
87876,-100,4,1,0,10,0,0
88209,-100,4,1,0,5,0,0

[HitObjects]
256,192,1210,5,8,1:0:0:0:
256,192,1709,1,0,1:0:0:0:
256,192,2209,1,8,1:0:0:0:
256,192,2876,1,0,1:0:0:0:
256,192,3209,1,8,1:0:0:0:
256,192,3543,1,8,1:0:0:0:
256,192,3876,1,0,1:0:0:0:
256,192,4376,1,8,1:0:0:0:
256,192,4876,1,8,1:0:0:0:
256,192,5209,1,8,1:0:0:0:
256,192,5876,1,0,1:0:0:0:
256,192,6043,1,8,1:0:0:0:
256,192,6209,1,0,1:0:0:0:
256,192,6543,1,8,1:0:0:0:
256,192,6876,1,0,1:0:0:0:
256,192,7209,1,0,1:0:0:0:
256,192,7543,1,0,1:0:0:0:
256,192,7876,1,0,1:0:0:0:
256,192,8209,1,0,1:0:0:0:
256,192,8543,1,0,1:0:0:0:
256,192,8876,1,0,1:0:0:0:
256,192,9209,1,0,1:0:0:0:
256,192,9543,1,0,1:0:0:0:
256,192,9876,1,0,1:0:0:0:
256,192,10209,1,0,1:0:0:0:
256,192,10543,1,0,1:0:0:0:
256,192,10876,1,0,1:0:0:0:
256,192,11043,1,12,1:0:0:0:
256,192,11709,1,4,1:0:0:0:
256,192,12043,1,0,1:0:0:0:
256,192,12209,1,8,1:0:0:0:
256,192,12543,1,8,1:0:0:0:
256,192,12709,1,0,1:0:0:0:
256,192,12876,1,8,1:0:0:0:
256,192,13043,1,8,1:0:0:0:
256,192,13376,1,0,1:0:0:0:
256,192,13543,1,8,1:0:0:0:
256,192,13709,1,0,1:0:0:0:
256,192,13876,1,8,1:0:0:0:
256,192,14043,1,8,1:0:0:0:
256,192,14209,1,8,1:0:0:0:
256,192,14376,1,0,1:0:0:0:
256,192,14709,1,0,1:0:0:0:
256,192,14876,1,8,1:0:0:0:
256,192,15209,1,0,1:0:0:0:
256,192,15376,1,0,1:0:0:0:
256,192,15543,1,8,1:0:0:0:
256,192,15709,1,0,1:0:0:0:
256,192,16043,1,0,1:0:0:0:
256,192,16209,1,8,1:0:0:0:
256,192,16376,1,0,1:0:0:0:
256,192,16459,1,0,1:0:0:0:
256,192,16543,1,0,1:0:0:0:
256,192,16709,1,8,1:0:0:0:
256,192,16876,1,8,1:0:0:0:
253,192,17043,1,4,1:0:0:0:
256,192,17376,1,0,1:0:0:0:
256,192,17543,1,8,1:0:0:0:
256,192,17709,1,0,1:0:0:0:
256,192,18043,1,8,1:0:0:0:
256,192,18376,1,0,1:0:0:0:
256,192,18709,1,0,1:0:0:0:
256,192,18876,1,8,1:0:0:0:
256,192,19043,1,8,1:0:0:0:
256,192,19209,1,0,0:0:0:0:
256,192,19376,1,8,1:0:0:0:
256,192,19709,1,0,1:0:0:0:
256,192,20043,1,8,1:0:0:0:
256,192,20209,1,8,1:0:0:0:
256,192,20376,1,0,1:0:0:0:
256,192,20543,1,0,1:0:0:0:
256,192,20709,1,8,1:0:0:0:
256,192,20876,1,8,1:0:0:0:
253,192,21043,1,4,1:0:0:0:
256,192,21376,1,0,1:0:0:0:
256,192,21543,1,8,1:0:0:0:
256,192,21709,1,0,1:0:0:0:
256,192,21876,1,0,1:0:0:0:
256,192,22043,1,8,1:0:0:0:
256,192,22126,1,8,1:0:0:0:
256,192,22209,1,8,1:0:0:0:
256,192,22376,1,4,1:0:0:0:
256,192,22876,1,8,1:0:0:0:
256,192,23209,1,0,1:0:0:0:
256,192,23376,1,0,1:0:0:0:
256,192,23543,1,8,1:0:0:0:
256,192,23876,1,0,1:0:0:0:
256,192,24209,1,8,1:0:0:0:
256,192,24543,1,8,1:0:0:0:
256,192,24709,1,8,1:0:0:0:
256,192,24876,1,0,1:0:0:0:
256,192,25043,1,8,1:0:0:0:
256,192,25543,1,0,1:0:0:0:
256,192,25876,1,8,1:0:0:0:
256,192,26043,1,0,1:0:0:0:
256,192,26209,1,8,1:0:0:0:
256,192,26543,1,0,1:0:0:0:
256,192,26876,1,8,1:0:0:0:
256,192,27209,1,0,1:0:0:0:
256,192,27376,1,0,1:0:0:0:
256,192,27543,1,8,1:0:0:0:
256,192,27709,1,0,1:0:0:0:
256,192,28209,1,8,1:0:0:0:
256,192,28543,1,0,1:0:0:0:
256,192,28709,1,0,1:0:0:0:
256,192,28876,1,8,1:0:0:0:
256,192,29209,1,0,1:0:0:0:
256,192,29543,1,8,1:0:0:0:
256,192,29876,1,8,1:0:0:0:
256,192,30043,1,0,1:0:0:0:
256,192,30209,1,0,1:0:0:0:
256,192,30376,1,8,1:0:0:0:
256,192,30876,1,0,1:0:0:0:
256,192,31209,1,8,1:0:0:0:
256,192,31376,1,8,1:0:0:0:
256,192,31543,1,0,1:0:0:0:
256,192,31876,1,8,1:0:0:0:
256,192,32043,1,0,1:0:0:0:
256,192,32209,1,8,1:0:0:0:
256,192,32543,1,8,1:0:0:0:
256,192,32709,1,0,1:0:0:0:
256,192,32876,1,8,1:0:0:0:
256,192,32959,1,8,1:0:0:0:
256,192,33043,1,8,1:0:0:0:
256,192,33543,1,8,1:0:0:0:
256,192,33876,1,0,1:0:0:0:
256,192,34043,1,0,1:0:0:0:
256,192,34209,1,8,1:0:0:0:
256,192,34543,1,0,1:0:0:0:
256,192,34876,1,8,1:0:0:0:
256,192,35209,1,8,1:0:0:0:
256,192,35376,1,8,1:0:0:0:
256,192,35543,1,0,1:0:0:0:
256,192,35709,1,8,1:0:0:0:
256,192,36209,1,0,1:0:0:0:
256,192,36543,1,8,1:0:0:0:
256,192,36709,1,0,1:0:0:0:
256,192,36876,1,8,1:0:0:0:
256,192,37209,1,0,1:0:0:0:
256,192,37543,1,8,1:0:0:0:
256,192,37876,1,0,1:0:0:0:
256,192,38043,1,0,1:0:0:0:
256,192,38209,1,8,1:0:0:0:
256,192,38376,1,0,1:0:0:0:
256,192,38876,1,8,1:0:0:0:
256,192,39209,1,0,1:0:0:0:
256,192,39376,1,0,1:0:0:0:
256,192,39543,1,8,1:0:0:0:
256,192,39876,1,0,1:0:0:0:
256,192,40209,1,8,1:0:0:0:
256,192,40543,1,8,1:0:0:0:
256,192,40709,1,0,1:0:0:0:
256,192,40876,1,0,1:0:0:0:
256,192,41043,1,8,1:0:0:0:
256,192,41543,1,0,1:0:0:0:
256,192,41876,1,8,1:0:0:0:
256,192,42209,1,8,1:0:0:0:
256,192,42376,1,0,1:0:0:0:
256,192,42459,1,0,1:0:0:0:
256,192,42543,1,0,1:0:0:0:
256,192,42709,1,0,1:0:0:0:
256,192,42876,1,8,1:0:0:0:
256,192,43043,1,0,1:0:0:0:
256,192,43209,1,8,1:0:0:0:
256,192,43376,1,8,1:0:0:0:
256,192,43543,1,8,1:0:0:0:
256,192,43709,1,4,0:0:0:0:
256,192,44209,1,0,0:0:0:0:
256,192,44543,1,8,0:0:0:0:
256,192,44876,1,8,0:0:0:0:
256,192,45043,1,0,0:0:0:0:
256,192,45376,1,8,0:0:0:0:
256,192,45543,1,0,0:0:0:0:
256,192,45876,1,8,0:0:0:0:
256,192,46209,1,0,0:0:0:0:
256,192,46376,1,0,0:0:0:0:
256,192,46709,1,8,0:0:0:0:
256,192,46876,1,0,0:0:0:0:
256,192,47209,1,8,0:0:0:0:
256,192,47543,1,8,0:0:0:0:
256,192,47709,1,0,0:0:0:0:
256,192,48043,1,8,0:0:0:0:
256,192,48209,1,0,0:0:0:0:
256,192,48543,1,8,0:0:0:0:
256,192,48709,1,0,0:0:0:0:
256,192,48876,1,8,0:0:0:0:
256,192,49043,1,4,0:0:0:0:
256,192,49543,1,0,0:0:0:0:
256,192,49876,1,8,0:0:0:0:
256,192,50209,1,8,0:0:0:0:
256,192,50376,1,0,0:0:0:0:
256,192,50709,1,8,0:0:0:0:
256,192,50876,1,0,0:0:0:0:
256,192,51209,1,0,0:0:0:0:
256,192,51376,1,8,0:0:0:0:
256,192,51543,1,8,0:0:0:0:
256,192,51709,1,4,0:0:0:0:
256,192,52043,1,0,1:0:0:0:
256,192,52209,1,8,1:0:0:0:
256,192,52376,1,8,1:0:0:0:
256,192,52459,1,8,1:0:0:0:
256,192,52543,1,8,1:0:0:0:
256,192,52709,1,0,1:0:0:0:
256,192,52876,1,8,1:0:0:0:
256,192,53209,1,8,1:0:0:0:
256,192,53376,1,0,1:0:0:0:
256,192,53543,1,8,1:0:0:0:
256,192,53709,1,0,1:0:0:0:
256,192,53793,1,0,1:0:0:0:
256,192,53876,1,0,1:0:0:0:
256,192,54043,1,0,1:0:0:0:
256,192,54209,1,8,1:0:0:0:
256,192,54376,1,4,1:0:0:0:
256,192,54709,1,0,1:0:0:0:
256,192,54876,1,8,1:0:0:0:
256,192,55043,1,8,1:0:0:0:
256,192,55209,1,0,1:0:0:0:
256,192,55376,1,0,1:0:0:0:
256,192,55543,1,8,1:0:0:0:
256,192,55709,1,4,1:0:0:0:
256,192,56376,1,12,1:0:0:0:
256,192,57209,8,0,59209,1:0:0:0:
256,192,59876,5,4,1:0:0:0:
256,192,60209,1,8,1:0:0:0:
256,192,60376,1,0,1:0:0:0:
256,192,60459,1,0,1:0:0:0:
256,192,60543,1,0,1:0:0:0:
256,192,60709,1,0,1:0:0:0:
256,192,60876,1,8,1:0:0:0:
256,192,61043,1,0,1:0:0:0:
256,192,61376,1,0,1:0:0:0:
256,192,61543,1,8,1:0:0:0:
256,192,61709,1,0,1:0:0:0:
256,192,61876,1,8,1:0:0:0:
256,192,61959,1,8,1:0:0:0:
256,192,62043,1,8,1:0:0:0:
256,192,62209,1,0,1:0:0:0:
256,192,62543,1,8,1:0:0:0:
256,192,62709,1,0,1:0:0:0:
256,192,62876,1,0,1:0:0:0:
256,192,63043,1,8,1:0:0:0:
256,192,63126,1,8,1:0:0:0:
256,192,63209,1,8,1:0:0:0:
256,192,63376,1,0,1:0:0:0:
256,192,63543,1,8,1:0:0:0:
256,192,63709,1,8,1:0:0:0:
256,192,64209,1,8,1:0:0:0:
256,192,64543,1,0,1:0:0:0:
256,192,64709,1,8,1:0:0:0:
256,192,64793,1,8,1:0:0:0:
256,192,64876,1,8,1:0:0:0:
256,192,65043,1,8,1:0:0:0:
256,192,65209,1,4,1:0:0:0:
256,192,65543,1,8,1:0:0:0:
256,192,65709,1,8,1:0:0:0:
256,192,65876,1,0,1:0:0:0:
256,192,65959,1,0,1:0:0:0:
256,192,66043,1,0,1:0:0:0:
256,192,66209,1,8,1:0:0:0:
256,192,66376,1,0,0:0:0:0:
256,192,66543,1,8,1:0:0:0:
256,192,66876,1,0,1:0:0:0:
256,192,67043,1,8,1:0:0:0:
256,192,67126,1,8,1:0:0:0:
256,192,67209,1,8,1:0:0:0:
256,192,67376,1,0,1:0:0:0:
256,192,67543,1,8,1:0:0:0:
256,192,67876,1,0,1:0:0:0:
256,192,68043,1,0,1:0:0:0:
256,192,68209,1,8,1:0:0:0:
256,192,68376,1,0,1:0:0:0:
256,192,68459,1,0,1:0:0:0:
256,192,68543,1,0,1:0:0:0:
256,192,68709,1,0,1:0:0:0:
256,192,68876,1,8,1:0:0:0:
256,192,69043,1,4,1:0:0:0:
256,192,69376,1,0,1:0:0:0:
256,192,69543,1,8,1:0:0:0:
256,192,69709,1,8,1:0:0:0:
256,192,69876,1,0,1:0:0:0:
256,192,69959,1,0,1:0:0:0:
256,192,70043,1,0,1:0:0:0:
256,192,70209,1,8,1:0:0:0:
256,192,70376,1,8,1:0:0:0:
256,192,70543,1,4,1:0:0:0:
256,192,71043,1,8,1:0:0:0:
256,192,71126,1,8,1:0:0:0:
256,192,71209,1,8,1:0:0:0:
256,192,71376,1,0,1:0:0:0:
256,192,71543,1,8,1:0:0:0:
256,192,71709,1,8,1:0:0:0:
256,192,72043,1,0,1:0:0:0:
256,192,72209,1,8,1:0:0:0:
256,192,72376,1,8,1:0:0:0:
256,192,72543,1,0,1:0:0:0:
256,192,72626,1,0,1:0:0:0:
256,192,72709,1,0,1:0:0:0:
256,192,72876,1,8,1:0:0:0:
256,192,73043,1,8,1:0:0:0:
256,192,73209,1,0,1:0:0:0:
256,192,73543,1,8,1:0:0:0:
256,192,73709,1,0,1:0:0:0:
256,192,73793,1,0,0:0:0:0:
256,192,73876,1,0,0:0:0:0:
256,192,74043,1,0,1:0:0:0:
256,192,74209,1,8,1:0:0:0:
256,192,74376,1,4,1:0:0:0:
256,192,74709,1,0,1:0:0:0:
256,192,74876,1,8,1:0:0:0:
256,192,75043,1,8,1:0:0:0:
256,192,75209,1,0,1:0:0:0:
256,192,75376,1,0,1:0:0:0:
256,192,75543,1,8,1:0:0:0:
256,192,75626,1,8,1:0:0:0:
256,192,75709,1,8,1:0:0:0:
256,192,75876,1,4,1:0:0:0:
256,192,76376,1,8,1:0:0:0:
256,192,76543,1,8,1:0:0:0:
256,192,76709,1,0,1:0:0:0:
256,192,76876,1,8,1:0:0:0:
256,192,76959,1,8,1:0:0:0:
256,192,77043,1,8,1:0:0:0:
256,192,77209,1,0,1:0:0:0:
256,192,77543,1,8,1:0:0:0:
256,192,77709,1,0,1:0:0:0:
256,192,77793,1,0,1:0:0:0:
256,192,77876,1,0,1:0:0:0:
256,192,78043,1,0,1:0:0:0:
256,192,78209,1,8,1:0:0:0:
256,192,78376,1,8,1:0:0:0:
256,192,78543,1,0,1:0:0:0:
256,192,78876,1,8,1:0:0:0:
256,192,79043,1,8,1:0:0:0:
256,192,79209,1,0,1:0:0:0:
256,192,79376,1,8,1:0:0:0:
256,192,79543,1,8,1:0:0:0:
256,192,79709,1,4,1:0:0:0:
256,192,80043,1,8,1:0:0:0:
256,192,80209,1,0,1:0:0:0:
256,192,80376,1,8,1:0:0:0:
256,192,80459,1,8,1:0:0:0:
256,192,80543,1,8,1:0:0:0:
256,192,80709,1,0,1:0:0:0:
256,192,80876,1,0,1:0:0:0:
256,192,81043,1,8,1:0:0:0:
256,192,81209,1,4,1:0:0:0:
256,192,82376,1,12,1:0:0:0:
256,192,83209,1,8,1:0:0:0:
256,192,83376,1,4,1:0:0:0:
256,192,83709,1,12,1:0:0:0:
256,192,83876,8,0,89209,1:0:0:0:
