osu file format v14

[General]
AudioFilename: audio.ogg
AudioLeadIn: 0
PreviewTime: 59208
Countdown: 0
SampleSet: Soft
StackLeniency: 0.7
Mode: 3
LetterboxInBreaks: 0
SpecialStyle: 0
WidescreenStoryboard: 1

[Editor]
DistanceSpacing: 1.7
BeatDivisor: 4
GridSize: 32
TimelineZoom: 0.6000001

[Metadata]
Title:"Boku wa..." (TV Size)
TitleUnicode:「僕は…」 (TV Size)
Artist:Atarayo
ArtistUnicode:あたらよ
Creator:Savageeeee
Version:Easy
Source:僕の心のヤバイやつ
Tags:第2期 hitomi ひとみ anime pyra-san py-chan darkebluu boku no kokoro yabai yatsu second season 2 ii op opening japanese jrock rock j-rock the dangers in my heart
BeatmapID:4447314
BeatmapSetID:2117622

[Difficulty]
HPDrainRate:7
CircleSize:4
OverallDifficulty:7
ApproachRate:5
SliderMultiplier:1.4
SliderTickRate:1

[Events]
//Background and Video events
Video,0,"video.mp4"
0,0,"bg.jpg",0,0
//Break Periods
//Storyboard Layer 0 (Background)
//Storyboard Layer 1 (Fail)
//Storyboard Layer 2 (Pass)
//Storyboard Layer 3 (Foreground)
//Storyboard Layer 4 (Overlay)
//Storyboard Sound Samples
Sample,12209,0,"HatO.wav",65
Sample,12543,0,"HatO.wav",65
Sample,12876,0,"HatO.wav",65
Sample,13543,0,"HatO.wav",65
Sample,13876,0,"HatO.wav",65
Sample,14876,0,"HatO.wav",65
Sample,15209,0,"HatO.wav",65
Sample,15543,0,"HatO.wav",65
Sample,16209,0,"HatO.wav",65
Sample,17543,0,"HatO.wav",65
Sample,18876,0,"HatO.wav",65
Sample,20209,0,"HatO.wav",65
Sample,21543,0,"HatO.wav",65
Sample,32543,0,"HatO.wav",65
Sample,42209,0,"HatO.wav",65
Sample,48876,0,"tom01.wav",65
Sample,60209,0,"HatO.wav",65
Sample,60543,0,"HatO.wav",65
Sample,60876,0,"HatO.wav",65
Sample,61543,0,"HatO.wav",65
Sample,61876,0,"HatO.wav",65
Sample,62209,0,"HatO.wav",65
Sample,62543,0,"HatO.wav",65
Sample,62876,0,"HatO.wav",65
Sample,63209,0,"HatO.wav",65
Sample,63543,0,"HatO.wav",65
Sample,64209,0,"HatO.wav",65
Sample,64543,0,"HatO.wav",65
Sample,64876,0,"HatO.wav",65
Sample,65543,0,"HatO.wav",65
Sample,65876,0,"HatO.wav",65
Sample,66209,0,"HatO.wav",65
Sample,66876,0,"HatO.wav",65
Sample,67209,0,"HatO.wav",65
Sample,67543,0,"HatO.wav",65
Sample,67876,0,"HatO.wav",65
Sample,68209,0,"HatO.wav",65
Sample,68543,0,"HatO.wav",65
Sample,68876,0,"HatO.wav",65
Sample,69543,0,"HatO.wav",65
Sample,69876,0,"HatO.wav",65
Sample,70876,0,"HatO.wav",65
Sample,71209,0,"HatO.wav",65
Sample,71543,0,"HatO.wav",65
Sample,72209,0,"HatO.wav",65
Sample,72543,0,"HatO.wav",65
Sample,72876,0,"HatO.wav",65
Sample,73209,0,"HatO.wav",65
Sample,73543,0,"HatO.wav",65
Sample,73876,0,"HatO.wav",65
Sample,74209,0,"HatO.wav",65
Sample,74876,0,"HatO.wav",65
Sample,75209,0,"HatO.wav",65
Sample,75543,0,"HatO.wav",65
Sample,76209,0,"HatO.wav",65
Sample,76543,0,"HatO.wav",65
Sample,76876,0,"HatO.wav",65
Sample,77543,0,"HatO.wav",65
Sample,77876,0,"HatO.wav",65
Sample,78209,0,"HatO.wav",65
Sample,78543,0,"HatO.wav",65
Sample,78876,0,"HatO.wav",65
Sample,79209,0,"HatO.wav",65
Sample,79543,0,"HatO.wav",65
Sample,80209,0,"HatO.wav",65
Sample,80543,0,"HatO.wav",65
Sample,80876,0,"HatO.wav",65
Sample,82376,0,"HatO.wav",65

[TimingPoints]
1210,333.333333333333,4,2,1,65,1,0
59876,-100,4,2,1,65,0,1
83709,-100,4,2,1,65,0,0

[HitObjects]
64,192,1210,5,0,0:0:0:0:
448,192,1210,1,0,0:0:0:0:
192,192,1543,1,0,0:0:0:0:
320,192,1709,1,0,0:0:0:0:
64,192,2543,1,0,0:0:0:0:
192,192,2543,1,0,0:0:0:0:
320,192,3043,1,0,0:0:0:0:
64,192,3876,1,0,0:0:0:0:
448,192,3876,1,0,0:0:0:0:
192,192,4376,1,0,0:0:0:0:
320,192,5209,1,0,0:0:0:0:
448,192,5209,1,0,0:0:0:0:
64,192,5543,1,0,0:0:0:0:
448,192,5709,1,0,0:0:0:0:
320,192,6043,1,0,0:0:0:0:
192,192,6209,1,0,0:0:0:0:
64,192,6543,1,2,0:0:0:0:
448,192,6543,1,4,0:0:0:35:soft-hitfinish.wav
64,192,6876,1,2,0:0:0:0:
320,192,7209,1,2,0:0:0:0:
320,192,7543,1,2,0:0:0:0:
192,192,7876,1,2,0:0:0:0:
192,192,8209,1,2,0:0:0:0:
448,192,8543,1,2,0:0:0:0:
448,192,8876,1,2,0:0:0:0:
64,192,9209,1,2,0:0:0:0:
64,192,9543,1,2,0:0:0:0:
320,192,9876,1,2,0:0:0:0:
320,192,10209,1,2,0:0:0:0:
64,192,10543,1,2,0:0:0:0:
448,192,10709,1,0,0:0:0:40:HatO.wav
192,192,10876,1,0,0:0:0:0:
320,192,11043,1,8,0:0:0:0:
448,192,11043,1,0,0:0:0:70:HatO.wav
64,192,11709,1,4,0:0:0:0:
448,192,11709,128,2,12043:0:0:0:0:
192,192,12043,1,2,0:0:0:0:
320,192,12209,128,8,12543:0:0:0:0:
64,192,12543,1,2,0:0:0:0:
448,192,12709,1,2,0:0:0:0:
320,192,12876,1,8,0:0:0:0:
64,192,13043,1,2,0:0:0:0:
192,192,13043,128,0,13376:0:0:0:0:
448,192,13376,1,2,0:0:0:0:
64,192,13543,1,8,0:0:0:0:
320,192,13709,1,0,0:0:0:0:
192,192,13876,1,2,0:0:0:0:
448,192,14043,128,2,14376:0:0:0:0:
64,192,14376,128,2,14709:0:0:0:0:
192,192,14376,1,0,0:0:0:0:
320,192,14709,1,2,0:0:0:0:
192,192,14876,128,8,15209:0:0:0:0:
448,192,15209,1,2,0:0:0:0:
64,192,15376,1,2,0:0:0:0:
192,192,15543,1,8,0:0:0:0:
320,192,15709,128,2,16043:0:0:0:0:
448,192,15709,1,0,0:0:0:0:
192,192,16043,1,2,0:0:0:0:
448,192,16209,1,8,0:0:0:0:
64,192,16376,128,0,16709:0:0:0:0:
320,192,16709,1,0,0:0:0:65:tom01.wav
192,192,16876,1,8,0:0:0:0:
64,192,17043,1,4,0:0:0:0:
448,192,17043,128,2,17376:0:0:0:0:
192,192,17376,1,2,0:0:0:0:
320,192,17543,1,8,0:0:0:0:
64,192,17709,128,0,18043:0:0:0:0:
448,192,18043,128,2,18376:0:0:0:0:
64,192,18376,128,2,18709:0:0:0:0:
192,192,18376,1,0,0:0:0:0:
320,192,18709,1,2,0:0:0:0:
192,192,18876,1,8,0:0:0:0:
448,192,19043,128,0,19376:0:0:0:0:
64,192,19376,128,2,19709:0:0:0:0:
320,192,19709,1,2,0:0:0:0:
448,192,19709,128,0,20043:0:0:0:0:
64,192,20043,1,2,0:0:0:0:
192,192,20209,1,8,0:0:0:0:
320,192,20376,128,0,20709:0:0:0:0:
192,192,20709,128,2,21043:0:0:0:0:
64,192,21043,1,2,0:0:0:0:
448,192,21043,128,4,21376:0:0:0:0:
320,192,21376,1,2,0:0:0:0:
192,192,21543,1,8,0:0:0:0:
64,192,21709,128,2,22043:0:0:0:0:
448,192,22043,128,0,22376:0:0:0:65:tom01.wav
64,192,22376,1,2,0:0:0:0:
192,192,22376,128,4,22709:0:0:0:0:
320,192,22709,1,2,0:0:0:0:
64,192,22876,128,8,23209:0:0:0:0:
448,192,23209,1,2,0:0:0:0:
192,192,23376,1,2,0:0:0:0:
320,192,23543,1,8,0:0:0:0:
64,192,23876,1,2,0:0:0:0:
448,192,24043,1,2,0:0:0:0:
192,192,24209,1,8,0:0:0:0:
320,192,24543,128,2,24876:0:0:0:0:
192,192,24876,1,8,0:0:0:0:
64,192,25043,1,2,0:0:0:0:
448,192,25043,128,0,25376:0:0:0:65:HatO.wav
320,192,25376,1,0,0:0:0:0:
192,192,25543,128,8,25876:0:0:0:0:
448,192,25876,1,2,0:0:0:0:
64,192,26043,1,2,0:0:0:0:
320,192,26209,1,8,0:0:0:0:
192,192,26543,1,2,0:0:0:0:
448,192,26709,1,2,0:0:0:0:
64,192,26876,1,8,0:0:0:0:
320,192,27209,128,2,27543:0:0:0:0:
192,192,27543,1,8,0:0:0:0:
64,192,27709,128,2,28043:0:0:0:0:
448,192,27709,1,0,0:0:0:65:HatO.wav
192,192,28043,1,2,0:0:0:0:
448,192,28209,128,8,28543:0:0:0:0:
64,192,28543,1,2,0:0:0:0:
320,192,28709,1,2,0:0:0:0:
192,192,28876,1,8,0:0:0:0:
448,192,29209,1,2,0:0:0:0:
64,192,29376,1,2,0:0:0:0:
320,192,29543,1,8,0:0:0:0:
192,192,29876,128,2,30209:0:0:0:0:
320,192,30209,1,8,0:0:0:0:
64,192,30376,128,2,30876:0:0:0:0:
448,192,30376,1,0,0:0:0:65:HatO.wav
320,192,30876,128,8,31209:0:0:0:0:
192,192,31209,128,2,31543:0:0:0:0:
448,192,31543,1,8,0:0:0:0:
64,192,31709,128,2,32043:0:0:0:0:
320,192,32043,1,2,0:0:0:0:
192,192,32209,128,8,32543:0:0:0:0:
448,192,32543,1,2,0:0:0:0:
64,192,32709,1,0,0:0:0:65:tom01.wav
192,192,32876,1,8,0:0:0:0:
320,192,33043,128,2,33376:0:0:0:0:
448,192,33043,1,4,0:0:0:0:
64,192,33376,1,2,0:0:0:0:
448,192,33543,128,8,33876:0:0:0:0:
192,192,33876,1,2,0:0:0:0:
320,192,34043,1,2,0:0:0:0:
64,192,34209,1,8,0:0:0:0:
448,192,34543,1,2,0:0:0:0:
192,192,34709,1,2,0:0:0:0:
320,192,34876,1,8,0:0:0:0:
192,192,35209,128,2,35543:0:0:0:0:
320,192,35543,1,8,0:0:0:0:
64,192,35709,128,2,36043:0:0:0:0:
448,192,35709,1,0,0:0:0:65:HatO.wav
192,192,36043,1,0,0:0:0:0:
448,192,36209,128,8,36543:0:0:0:0:
64,192,36543,1,2,0:0:0:0:
192,192,36709,1,2,0:0:0:0:
320,192,36876,1,8,0:0:0:0:
448,192,37209,1,2,0:0:0:0:
320,192,37376,1,2,0:0:0:0:
192,192,37543,1,8,0:0:0:0:
448,192,37876,128,2,38209:0:0:0:0:
320,192,38209,1,8,0:0:0:0:
64,192,38376,1,2,0:0:0:0:
192,192,38376,128,0,38709:0:0:0:65:HatO.wav
448,192,38709,1,2,0:0:0:0:
64,192,38876,128,8,39209:0:0:0:0:
320,192,39209,1,2,0:0:0:0:
192,192,39376,1,2,0:0:0:0:
448,192,39543,1,8,0:0:0:0:
64,192,39876,1,2,0:0:0:0:
320,192,40043,1,2,0:0:0:0:
192,192,40209,1,8,0:0:0:0:
320,192,40543,128,2,40876:0:0:0:0:
192,192,40876,1,8,0:0:0:0:
64,192,41043,1,2,0:0:0:0:
448,192,41043,128,0,41543:0:0:0:65:HatO.wav
192,192,41543,128,8,41876:0:0:0:0:
320,192,41876,128,2,42209:0:0:0:0:
64,192,42209,1,8,0:0:0:0:
192,192,42376,1,2,0:0:0:0:
320,192,42543,1,8,0:0:0:0:
448,192,42543,128,4,42876:0:0:0:0:
64,192,42876,128,8,43209:0:0:0:0:
448,192,43209,1,8,0:0:0:0:
320,192,43376,1,0,0:0:0:65:tom01.wav
192,192,43543,1,0,0:0:0:65:tom01.wav
64,192,43709,1,2,0:0:0:0:
448,192,43709,1,4,0:0:0:0:
320,192,44043,1,8,0:0:0:0:
192,192,44209,128,2,44543:0:0:0:0:
448,192,44543,128,8,44876:0:0:0:0:
64,192,44876,1,0,0:0:0:0:
192,192,45043,1,2,0:0:0:0:
448,192,45376,1,8,0:0:0:0:
320,192,45543,128,2,45876:0:0:0:0:
64,192,45876,128,8,46209:0:0:0:0:
448,192,46209,1,0,0:0:0:0:
192,192,46376,1,2,0:0:0:0:
64,192,46709,1,8,0:0:0:0:
320,192,46876,128,2,47209:0:0:0:0:
192,192,47209,128,8,47543:0:0:0:0:
448,192,47543,1,8,0:0:0:0:
64,192,47709,1,2,0:0:0:0:
320,192,48043,1,8,0:0:0:0:
192,192,48209,128,2,48543:0:0:0:0:
448,192,48543,1,8,0:0:0:0:
64,192,48709,1,0,0:0:0:65:tom01.wav
320,192,48876,1,8,0:0:0:0:
64,192,49043,1,2,0:0:0:0:
192,192,49043,1,4,0:0:0:0:
448,192,49376,1,8,0:0:0:0:
64,192,49543,128,2,49876:0:0:0:0:
320,192,49876,128,8,50209:0:0:0:0:
192,192,50209,1,8,0:0:0:0:
448,192,50376,1,2,0:0:0:0:
320,192,50709,1,8,0:0:0:0:
64,192,50876,128,2,51209:0:0:0:0:
448,192,51209,1,8,0:0:0:0:
192,192,51376,1,0,0:0:0:65:tom01.wav
320,192,51543,1,8,0:0:0:0:
64,192,51709,1,2,0:0:0:0:
192,192,51709,1,4,0:0:0:0:
448,192,52043,1,2,0:0:0:0:
320,192,52209,1,8,0:0:0:0:
64,192,52543,1,2,0:0:0:0:
192,192,52709,1,2,0:0:0:0:
320,192,52876,1,8,0:0:0:0:
64,192,53209,1,2,0:0:0:0:
448,192,53376,1,2,0:0:0:0:
192,192,53543,1,8,0:0:0:0:
320,192,53876,1,2,0:0:0:0:
64,192,54043,1,0,0:0:0:65:tom01.wav
448,192,54209,1,8,0:0:0:0:
64,192,54376,128,2,54709:0:0:0:0:
192,192,54376,1,4,0:0:0:0:
320,192,54709,1,2,0:0:0:0:
192,192,54876,1,8,0:0:0:0:
192,192,55209,1,8,0:0:0:0:
448,192,55543,128,8,55876:0:0:0:0:
64,192,55876,128,0,56209:0:0:0:0:
320,192,56209,128,0,56543:0:0:0:0:
192,192,56543,128,0,56876:0:0:0:0:
448,192,56876,128,0,57209:0:0:0:0:
64,192,59876,1,2,0:0:0:0:
448,192,59876,1,4,0:0:0:0:
192,192,60209,1,8,0:0:0:0:
320,192,60543,1,2,0:0:0:0:
64,192,60876,1,8,0:0:0:0:
320,192,61043,1,2,0:0:0:0:
448,192,61376,1,2,0:0:0:0:
192,192,61543,1,8,0:0:0:0:
64,192,61876,1,2,0:0:0:0:
192,192,62043,1,2,0:0:0:0:
320,192,62209,1,8,0:0:0:0:
64,192,62543,1,2,0:0:0:0:
448,192,62876,1,8,0:0:0:0:
192,192,63209,1,2,0:0:0:0:
320,192,63543,1,8,0:0:0:0:
64,192,63709,1,2,0:0:0:0:
192,192,64043,1,2,0:0:0:0:
448,192,64209,1,8,0:0:0:0:
320,192,64543,1,2,0:0:0:0:
192,192,64709,1,2,0:0:0:0:
64,192,64876,1,8,0:0:0:0:
320,192,65209,1,2,0:0:0:0:
448,192,65209,1,4,0:0:0:0:
192,192,65543,1,8,0:0:0:0:
448,192,65876,1,2,0:0:0:0:
64,192,66209,1,8,0:0:0:0:
192,192,66376,1,2,0:0:0:0:
448,192,66709,1,2,0:0:0:0:
320,192,66876,1,8,0:0:0:0:
64,192,67209,1,2,0:0:0:0:
448,192,67376,1,2,0:0:0:0:
192,192,67543,1,8,0:0:0:0:
320,192,67876,1,2,0:0:0:0:
64,192,68209,1,8,0:0:0:0:
320,192,68543,1,2,0:0:0:0:
192,192,68876,1,8,0:0:0:0:
64,192,69043,1,4,0:0:0:0:
448,192,69043,1,2,0:0:0:0:
320,192,69376,1,2,0:0:0:0:
192,192,69543,1,8,0:0:0:0:
448,192,69876,128,8,70209:0:0:0:0:
64,192,70209,128,8,70543:0:0:0:0:
320,192,70543,1,2,0:0:0:0:
448,192,70543,1,4,0:0:0:0:
192,192,70876,1,8,0:0:0:0:
320,192,71209,1,2,0:0:0:0:
64,192,71543,1,8,0:0:0:0:
448,192,71709,1,2,0:0:0:0:
320,192,72043,1,2,0:0:0:0:
192,192,72209,1,8,0:0:0:0:
448,192,72543,1,2,0:0:0:0:
64,192,72709,1,2,0:0:0:0:
320,192,72876,1,8,0:0:0:0:
192,192,73209,1,2,0:0:0:0:
448,192,73543,1,8,0:0:0:0:
64,192,73876,1,2,0:0:0:0:
192,192,74209,1,8,0:0:0:0:
320,192,74376,1,2,0:0:0:0:
448,192,74376,1,4,0:0:0:0:
64,192,74709,1,2,0:0:0:0:
448,192,74876,1,8,0:0:0:0:
320,192,75209,1,2,0:0:0:0:
192,192,75376,1,2,0:0:0:0:
448,192,75543,128,8,75876:0:0:0:0:
64,192,75876,1,4,0:0:0:0:
192,192,75876,1,2,0:0:0:0:
320,192,76209,1,8,0:0:0:0:
192,192,76543,1,2,0:0:0:0:
448,192,76876,1,8,0:0:0:0:
64,192,77043,1,2,0:0:0:0:
192,192,77376,1,2,0:0:0:0:
320,192,77543,1,8,0:0:0:0:
64,192,77876,1,2,0:0:0:0:
448,192,78043,1,2,0:0:0:0:
192,192,78209,1,8,0:0:0:0:
320,192,78543,1,2,0:0:0:0:
64,192,78876,1,8,0:0:0:0:
320,192,79209,1,2,0:0:0:0:
192,192,79543,1,8,0:0:0:0:
64,192,79709,1,2,0:0:0:0:
448,192,79709,1,4,0:0:0:0:
320,192,80043,1,2,0:0:0:0:
192,192,80209,128,8,80543:0:0:0:0:
448,192,80543,128,2,80876:0:0:0:0:
64,192,80876,128,8,81209:0:0:0:0:
320,192,81209,128,8,81709:0:0:0:0:
448,192,81209,1,0,0:0:0:0:
192,192,81709,128,0,82209:0:0:0:0:
448,192,82209,1,0,0:0:0:0:
64,192,82376,128,8,82876:0:0:0:0:
320,192,82876,128,0,83209:0:0:0:0:
192,192,83209,1,2,0:0:0:0:
448,192,83376,1,2,0:0:0:0:
64,192,83543,1,0,0:0:0:0:
320,192,83709,1,2,0:0:0:0:
448,192,83709,128,4,87876:0:0:0:0:
