osu file format v14

[General]
AudioFilename: audio.ogg
AudioLeadIn: 0
PreviewTime: 58902
Countdown: 0
SampleSet: Soft
StackLeniency: 0.3
Mode: 0
LetterboxInBreaks: 0
WidescreenStoryboard: 1

[Editor]
Bookmarks: 33042
DistanceSpacing: 0.8
BeatDivisor: 4
GridSize: 4
TimelineZoom: 1.9

[Metadata]
Title:"Boku wa..." (TV Size)
TitleUnicode:「僕は...」 (TV Size)
Artist:Atarayo
ArtistUnicode:あたらよ
Creator:Ipas
Version:Normal
Source:僕の心のヤバイやつ
Tags:boku no kokoro yabai yatsu the dangers in my heart bokuyaba yamada ichikawa second 2nd season op opening anime jpop newipas haruto haruto_aizawa japanese j-pop pop rock jrock j-rock 第2期
BeatmapID:4443780
BeatmapSetID:2116046

[Difficulty]
HPDrainRate:4
CircleSize:3
OverallDifficulty:4
ApproachRate:5
SliderMultiplier:1.2
SliderTickRate:1

[Events]
//Background and Video events
0,0,"bg.jpg",0,0
Video,0,"video.mp4"
//Break Periods
2,56077,58011
//Storyboard Layer 0 (Background)
//Storyboard Layer 1 (Fail)
//Storyboard Layer 2 (Pass)
//Storyboard Layer 3 (Foreground)
//Storyboard Layer 4 (Overlay)
//Storyboard Sound Samples

[TimingPoints]
-122,333.333333333333,4,2,0,30,1,0
1211,-111.111111111111,4,2,1,30,0,0
6544,-100,4,2,1,30,0,0
11711,-100,4,2,1,70,0,0
22377,-100,4,2,1,70,0,0
22544,-100,4,2,1,50,0,0
42544,-100,4,2,1,60,0,0
59211,-100,4,2,1,40,0,0
59877,-100,4,2,1,70,0,1
81211,-100,4,2,1,60,0,0
85211,-100,4,2,1,30,0,0
86544,-100,4,2,1,15,0,0
87877,-100,4,2,1,10,0,0
89211,-100,4,2,1,5,0,0

[Colours]
Combo1 : 255,140,85
Combo2 : 40,148,255
Combo3 : 174,96,96
Combo4 : 159,64,255

[HitObjects]
303,228,1211,6,0,B|406:238|350:272|450:283,2,162,2|2|0,0:2|0:2|0:2,0:0:0:0:
241,289,2544,2,0,L|116:276,1,108,2|0,0:2|0:2,0:0:0:0:
102,247,3044,2,0,P|83:191|144:89,1,162,2|2,0:2|0:2,0:0:0:0:
200,60,3877,6,0,P|234:91|311:94,1,108,2|0,0:2|0:2,0:0:0:0:
330,76,4377,2,0,P|404:63|463:138,1,162,2|2,0:2|0:2,0:0:0:0:
444,206,5211,2,0,L|312:186,1,108,2|0,0:2|0:2,0:0:0:0:
295,199,5711,1,2,0:2:0:0:
251,294,6044,1,2,0:2:0:0:
251,294,6211,1,2,0:2:0:0:
312,367,6544,6,0,P|364:331|433:328,1,120,6|0,3:2|3:2,0:0:0:0:
466,333,7044,2,0,B|442:208|442:208|478:166,1,180,2|2,0:2|3:2,0:0:0:0:
466,72,7877,2,0,P|428:33|367:38,1,120,2|2,3:2|3:2,0:0:0:0:
331,70,8377,2,0,P|279:106|176:67,1,180,2|2,0:2|3:2,0:0:0:0:
87,102,9211,6,0,P|56:166|91:290,2,180,2|2|2,3:2|0:2|3:2,0:0:0:0:
177,68,10544,2,0,L|302:81,1,120,2|0,3:2|0:0,0:0:0:0:
341,63,11044,1,12,0:2:0:0:
175,160,11711,6,0,L|300:173,1,120,6|2,0:2|3:2,0:0:0:0:
312,217,12211,2,0,P|274:266|286:324,1,120,10|2,0:2|3:2,0:0:0:0:
303,363,12711,2,0,L|365:368,1,60,2|10,3:2|0:2,0:0:0:0:
410,357,13044,1,6,3:2:0:0:
473,285,13377,1,2,3:2:0:0:
473,285,13544,2,0,P|496:235|468:178,1,120,10|2,0:2|3:2,0:0:0:0:
423,165,14044,1,2,3:2:0:0:
346,110,14377,6,0,B|276:119|301:145|223:160,1,120,6|2,0:2|3:2,0:0:0:0:
189,165,14877,2,0,B|170:168|170:168|65:150,1,120,10|2,0:2|3:2,0:0:0:0:
27,171,15377,2,0,L|11:229,1,60,2|10,3:2|0:2,0:0:0:0:
32,272,15711,1,6,3:2:0:0:
80,354,16044,2,0,L|142:342,1,60,2|10,3:2|0:2,0:0:0:0:
187,347,16377,2,0,L|307:363,1,120,2|10,3:2|3:0,0:0:0:0:
352,350,16877,5,10,0:2:0:0:
352,350,17044,1,6,0:2:0:0:
438,307,17377,2,0,P|422:277|399:267,1,60,2|10,3:2|0:0,0:0:0:0:
362,235,17711,2,0,P|353:191|379:122,1,120,2|2,0:0|3:2,0:0:0:0:
472,95,18377,2,0,P|442:40|383:27,1,120,6|2,3:2|3:2,0:0:0:0:
342,32,18877,1,10,0:2:0:0:
342,32,19044,2,0,L|215:42,1,120,2|2,0:2|3:2,0:0:0:0:
127,54,19711,6,0,P|77:79|52:152,1,120,6|2,3:2|3:2,0:0:0:0:
45,183,20211,1,10,0:2:0:0:
45,183,20377,2,0,L|167:193,1,120,2|2,0:2|3:2,0:0:0:0:
251,233,21044,2,0,B|262:174|262:174|231:123,1,120,6|2,3:2|3:2,0:0:0:0:
249,78,21544,1,8,0:2:0:0:
249,78,21711,2,0,B|281:49|281:49|367:64,1,120,2|2,3:2|3:2,0:0:0:0:
446,27,22377,5,6,3:2:0:0:
478,117,22711,1,2,3:2:0:0:
478,117,22877,2,0,L|465:237,1,120,10|2,0:2|3:2,0:0:0:0:
424,323,23544,2,0,P|365:340|316:299,1,120,10|2,0:2|3:2,0:0:0:0:
262,231,24211,1,10,0:2:0:0:
262,231,24377,2,0,P|214:214|145:254,1,120,2|2,0:2|3:2,0:0:0:0:
59,224,25044,6,0,P|22:188|28:114,1,120,6|2,3:2|0:2,0:0:0:0:
59,92,25544,2,0,L|179:71,1,120,10|2,0:2|3:2,0:0:0:0:
272,57,26211,1,10,0:2:0:0:
359,96,26544,2,0,P|378:151|352:213,1,120,2|10,3:2|0:0,0:0:0:0:
311,222,27044,2,0,P|278:183|203:186,1,120,2|2,0:2|3:2,0:0:0:0:
117,195,27711,6,0,B|103:263|128:246|106:329,1,120,6|2,3:2|3:2,0:0:0:0:
147,344,28211,2,0,P|205:355|256:316,1,120,10|2,0:2|3:2,0:0:0:0:
345,344,28877,2,0,P|350:290|308:241,1,120,10|2,0:2|3:2,0:0:0:0:
246,169,29544,1,10,0:2:0:0:
246,169,29711,2,0,P|232:109|268:61,1,120,2|2,0:2|3:2,0:0:0:0:
351,25,30377,6,0,L|492:53,1,120,6|2,3:2|0:2,0:0:0:0:
505,78,30877,1,10,0:2:0:0:
508,174,31211,1,2,3:2:0:0:
421,214,31544,2,0,L|298:186,1,120,10|2,0:2|0:0,0:0:0:0:
210,211,32211,1,8,0:2:0:0:
130,158,32544,2,0,L|142:92,2,60,2|10|8,3:2|3:0|0:2,0:0:0:0:
93,189,33044,5,6,3:2:0:0:
69,283,33377,1,2,3:2:0:0:
69,283,33544,2,0,P|117:321|177:315,1,120,10|2,0:2|3:2,0:0:0:0:
261,278,34211,2,0,P|290:234|270:172,1,120,10|2,0:2|3:2,0:0:0:0:
181,137,34877,1,10,0:2:0:0:
181,137,35044,2,0,P|163:80|197:24,1,120,2|2,0:2|3:2,0:0:0:0:
285,33,35711,6,0,P|339:61|408:48,1,120,6|2,3:2|0:2,0:0:0:0:
444,53,36211,2,0,L|465:174,1,120,10|2,0:2|3:2,0:0:0:0:
400,242,36877,1,10,0:2:0:0:
487,281,37210,2,0,P|449:327|382:332,1,120,2|10,3:2|0:0,0:0:0:0:
347,316,37710,2,0,P|311:291|236:293,1,120,2|2,0:2|3:2,0:0:0:0:
159,348,38377,6,0,P|99:362|50:327,1,120,6|2,3:2|3:2,0:0:0:0:
25,291,38877,2,0,L|47:161,1,120,10|2,0:2|3:2,0:0:0:0:
12,82,39544,2,0,P|65:72|123:116,1,120,10|2,0:2|3:2,0:0:0:0:
145,198,40211,1,10,0:2:0:0:
145,198,40377,2,0,P|159:267|214:298,1,120,2|2,0:2|3:2,0:0:0:0:
242,209,41044,6,0,P|287:171|363:174,1,120,6|2,3:2|0:2,0:0:0:0:
379,201,41544,1,10,0:2:0:0:
473,184,41877,1,2,3:2:0:0:
464,88,42211,2,0,P|432:84|403:65,1,60,10|2,0:2|3:2,0:0:0:0:
380,31,42544,5,14,0:2:0:0:
288,60,42877,1,8,0:0:0:0:
196,89,43211,2,0,L|135:77,2,60,10|10|6,0:0|3:0|3:0,0:0:0:0:
219,131,43711,5,6,0:0:0:0:
303,177,44044,1,10,0:2:0:0:
303,177,44211,2,0,B|314:195|314:195|291:304,1,120,2|10,3:2|0:2,0:0:0:0:
214,347,44877,1,2,0:2:0:0:
214,347,45044,2,0,B|187:358|187:358|78:335,1,120,6|10,3:2|0:2,0:0:0:0:
66,303,45544,1,2,3:2:0:0:
38,211,45877,2,0,B|22:183|22:183|49:98,1,120,10|2,0:0|0:2,0:0:0:0:
90,74,46377,5,6,3:2:0:0:
173,121,46711,1,10,0:0:0:0:
173,121,46877,2,0,L|298:102,1,120,2|10,3:0|0:2,0:0:0:0:
362,37,47544,1,10,0:2:0:0:
362,37,47711,2,0,P|385:59|470:84,1,120,6|10,3:2|0:2,0:0:0:0:
499,120,48211,1,2,3:2:0:0:
462,209,48544,2,0,L|342:229,1,120,10|10,0:2|0:2,0:0:0:0:
298,212,49044,5,6,0:0:0:0:
235,284,49377,1,10,0:2:0:0:
235,284,49544,2,0,B|211:297|211:297|135:283|135:283|100:295,1,120,2|10,3:2|0:2,0:0:0:0:
46,226,50211,1,10,0:2:0:0:
46,226,50377,2,0,P|24:190|60:111,1,120,6|10,3:2|0:2,0:0:0:0:
90,100,50877,1,2,3:2:0:0:
183,79,51211,2,0,L|170:10,2,60,10|10|10,0:0|3:0|0:2,0:0:0:0:
226,100,51711,5,6,3:2:0:0:
313,60,52044,1,0,3:0:0:0:
313,60,52211,2,0,L|436:74,1,120,10|0,0:2|3:0,0:0:0:0:
431,169,52877,2,0,L|308:155,1,120,10|2,0:2|3:2,0:0:0:0:
237,215,53544,2,0,L|117:228,1,120,10|0,0:2|3:0,0:0:0:0:
60,305,54211,5,8,0:0:0:0:
60,305,54377,2,0,B|66:352|116:361|116:361|175:357,1,120,6|2,0:0|3:2,0:0:0:0:
191,334,54877,1,8,0:0:0:0:
286,346,55211,1,10,0:2:0:0:
353,277,55544,2,0,L|336:158,1,120,10|2,0:2|0:0,0:0:0:0:
362,158,59211,6,0,P|379:137|414:125,2,60,2|2|2,0:0|0:0|0:0,0:0:0:0:
305,236,59877,6,0,P|239:256|183:227,1,120,6|8,3:2|0:0,0:0:0:0:
161,201,60377,2,0,L|184:73,1,120,2|0,0:0|3:0,0:0:0:0:
164,38,60877,1,10,0:2:0:0:
164,38,61044,2,0,P|82:8|45:29,1,120,6|2,3:2|3:2,0:0:0:0:
28,57,61544,1,10,0:2:0:0:
82,135,61877,1,2,3:2:0:0:
24,212,62211,1,10,0:2:0:0:
55,302,62544,6,0,B|67:330|67:330|165:348,1,120,6|8,3:2|0:0,0:0:0:0:
192,316,63044,1,2,0:0:0:0:
192,316,63211,2,0,L|257:311,1,60,2|0,3:2|3:0,0:0:0:0:
294,334,63544,1,10,0:2:0:0:
294,334,63711,2,0,P|357:354|407:326,1,120,6|0,3:2|3:0,0:0:0:0:
424,288,64211,1,8,0:0:0:0:
371,207,64544,2,0,L|382:142,1,60,2|2,3:2|3:2,0:0:0:0:
420,120,64877,2,0,L|409:55,1,60,10|2,0:2|0:2,0:0:0:0:
375,26,65211,5,6,3:2:0:0:
284,58,65544,2,0,L|157:41,2,120,10|2|10,0:2|3:2|0:2,0:0:0:0:
270,153,66544,2,0,L|149:135,1,120,2|8,0:0|0:0,0:0:0:0:
105,149,67044,2,0,P|48:197|50:244,1,120,2|2,0:2|3:2,0:0:0:0:
67,281,67544,1,10,0:2:0:0:
146,334,67877,6,0,L|272:321,1,120,6|10,3:2|0:2,0:0:0:0:
307,345,68377,2,0,L|439:356,1,120,2|0,0:0|3:0,0:0:0:0:
462,323,68877,1,10,0:2:0:0:
462,323,69044,2,0,P|478:262|443:211,1,120,6|0,3:2|3:0,0:0:0:0:
402,209,69544,1,8,0:0:0:0:
315,166,69877,2,0,P|284:180|254:181,1,60,10|10,0:2|0:2,0:0:0:0:
221,150,70211,2,0,P|182:137|150:142,1,60,10|10,0:2|0:2,0:0:0:0:
115,142,70544,6,0,P|51:143|17:88,1,120,6|8,3:2|0:0,0:0:0:0:
24,54,71044,2,0,L|143:30,1,120,2|2,0:0|3:2,0:0:0:0:
187,45,71544,1,10,0:2:0:0:
187,45,71711,2,0,B|216:58|216:58|319:46,1,120,6|2,3:2|3:2,0:0:0:0:
349,60,72211,1,10,0:2:0:0:
443,41,72544,1,2,3:2:0:0:
418,133,72877,1,10,0:2:0:0:
488,197,73211,6,0,L|475:320,1,120,6|10,3:2|0:2,0:0:0:0:
445,353,73711,2,0,P|382:374|329:349,1,120,2|2,0:0|3:2,0:0:0:0:
324,307,74211,1,10,0:2:0:0:
324,307,74377,2,0,P|274:266|222:273,1,120,6|0,3:2|3:0,0:0:0:0:
191,309,74877,1,8,0:0:0:0:
122,242,75211,2,0,P|103:205|110:171,1,60,2|2,3:2|3:2,0:0:0:0:
127,145,75544,2,0,P|153:123|189:124,1,60,10|10,0:2|0:2,0:0:0:0:
221,141,75877,6,0,L|359:162,1,120,6|10,3:2|0:2,0:0:0:0:
386,146,76377,2,0,P|435:106|437:45,1,120,2|2,0:0|3:2,0:0:0:0:
404,19,76877,1,10,0:2:0:0:
404,19,77044,2,0,L|280:30,1,120,6|2,3:2|3:2,0:0:0:0:
237,38,77544,1,8,0:0:0:0:
151,81,77877,1,2,3:2:0:0:
61,45,78211,1,10,0:2:0:0:
46,140,78544,6,0,P|74:194|55:273,1,120,6|10,3:2|0:2,0:0:0:0:
53,296,79044,2,0,P|83:351|142:359,1,120,2|2,0:0|3:2,0:0:0:0:
169,326,79544,1,10,0:2:0:0:
169,326,79711,2,0,L|293:302,1,120,6|0,3:2|3:0,0:0:0:0:
333,293,80211,1,10,0:2:0:0:
418,337,80544,1,10,0:2:0:0:
492,275,80877,2,0,P|501:232|485:200,1,60,10|2,0:2|3:2,0:0:0:0:
453,195,81211,6,0,L|270:162,1,180,14|2,3:2|0:0,0:0:0:0:
191,280,82211,1,2,0:0:0:0:
191,280,82377,2,0,B|169:240|117:255|117:255|93:295|35:286,1,180,8|2,0:0|0:0,0:0:0:0:
51,191,83211,1,8,0:0:0:0:
51,191,83377,1,6,3:2:0:0:
66,96,83711,1,6,3:2:0:0:
256,192,83877,12,0,89211,0:0:0:0:
