osu file format v14

[General]
AudioFilename: audio.ogg
AudioLeadIn: 0
PreviewTime: 58902
Countdown: 0
SampleSet: Soft
StackLeniency: 0.3
Mode: 0
LetterboxInBreaks: 0
WidescreenStoryboard: 0

[Editor]
Bookmarks: 33042
DistanceSpacing: 1.2
BeatDivisor: 4
GridSize: 4
TimelineZoom: 1.9

[Metadata]
Title:"Boku wa..." (TV Size)
TitleUnicode:「僕は...」 (TV Size)
Artist:Atarayo
ArtistUnicode:あたらよ
Creator:Ipas
Version:Insane
Source:僕の心のヤバイやつ
Tags:boku no kokoro yabai yatsu the dangers in my heart bokuyaba yamada ichikawa second 2nd season op opening anime jpop newipas haruto haruto_aizawa japanese j-pop pop rock jrock j-rock 第2期
BeatmapID:4443771
BeatmapSetID:2116046

[Difficulty]
HPDrainRate:6
CircleSize:4
OverallDifficulty:7
ApproachRate:8.5
SliderMultiplier:1.6
SliderTickRate:1

[Events]
//Background and Video events
0,0,"bg.jpg",0,0
Video,0,"video.mp4"
//Break Periods
2,56577,58536
//Storyboard Layer 0 (Background)
//Storyboard Layer 1 (Fail)
//Storyboard Layer 2 (Pass)
//Storyboard Layer 3 (Foreground)
//Storyboard Layer 4 (Overlay)
//Storyboard Sound Samples

[TimingPoints]
-122,333.333333333333,4,2,0,30,1,0
1211,-200,4,2,1,30,0,0
6544,-142.857142857143,4,2,1,30,0,0
10544,-333.333333333334,4,2,1,30,0,0
11044,-66.6666666666667,4,2,1,30,0,0
11711,-100,4,2,1,70,0,0
22377,-100,4,2,1,70,0,0
22544,-100,4,2,1,50,0,0
25044,-83.3333333333333,4,2,1,50,0,0
25377,-100,4,2,1,50,0,0
27711,-83.3333333333333,4,2,1,50,0,0
28044,-100,4,2,1,50,0,0
35711,-83.3333333333333,4,2,1,50,0,0
36044,-100,4,2,1,50,0,0
38377,-83.3333333333333,4,2,1,50,0,0
38711,-100,4,2,1,50,0,0
42543,-100,4,2,1,60,0,0
44044,-200,4,2,1,60,0,0
51544,-100,4,2,1,60,0,0
59211,-100,4,2,1,40,0,0
59794,-100,4,2,1,5,0,0
59877,-83.3333333333333,4,2,1,70,0,1
81211,-83.3333333333333,4,2,1,60,0,0
83377,-66.6666666666667,4,2,1,60,0,0
83711,-100,4,2,1,60,0,0

[Colours]
Combo1 : 255,140,85
Combo2 : 40,148,255
Combo3 : 174,96,96
Combo4 : 159,64,255

[HitObjects]
381,251,1211,6,0,L|388:296,1,40,2|0,0:2|0:0,0:0:0:0:
423,183,1544,1,0,0:2:0:0:
427,166,1711,1,2,0:2:0:0:
420,126,2544,6,0,L|427:171,1,40,2|0,0:2|0:0,0:0:0:0:
462,58,2877,1,0,0:2:0:0:
466,41,3044,1,2,0:2:0:0:
380,132,3877,6,0,L|425:125,1,40,2|0,0:2|0:0,0:0:0:0:
312,90,4211,1,0,0:2:0:0:
295,86,4377,1,2,0:2:0:0:
255,79,5211,6,0,L|300:86,1,40,2|0,0:2|0:0,0:0:0:0:
187,121,5544,1,0,0:2:0:0:
168,126,5711,2,0,L|88:113,1,80,2|2,0:2|0:2,0:0:0:0:
33,53,6211,2,0,P|29:40|43:51,1,40,2|2,0:2|0:2,0:0:0:0:
26,167,6544,6,0,P|51:145|78:136,1,55.9999999999999,6|0,3:2|0:0,0:0:0:0:
123,263,6877,1,0,3:2:0:0:
48,234,7044,2,0,P|37:194|72:136,1,112,2|0,0:2|0:0,0:0:0:0:
123,263,7544,1,2,3:2:0:0:
179,373,7877,6,0,P|189:345|187:316,1,55.9999999999999,2|0,3:2|0:0,0:0:0:0:
123,263,8211,1,2,3:2:0:0:
187,319,8377,2,0,P|232:351|301:355,1,112,2|0,0:2|0:0,0:0:0:0:
348,304,8877,2,0,L|340:243,1,55.9999999999999,2|0,3:2|0:0,0:0:0:0:
257,141,9211,6,0,L|265:202,1,55.9999999999999,2|0,3:2|0:0,0:0:0:0:
257,213,9544,1,2,3:2:0:0:
274,84,9711,2,0,L|264:196,1,112,2|0,0:2|0:0,0:0:0:0:
286,66,10211,1,2,3:2:0:0:
65,170,10544,6,0,L|94:166,1,24,2|0,3:2|0:0,0:0:0:0:
124,177,11044,2,0,L|55:168,1,60,12|0,0:2|0:0,0:0:0:0:
461,113,11711,6,0,P|450:63|347:30,1,160,6|2,0:2|3:2,0:0:0:0:
294,129,12211,2,0,L|372:111,1,80,10|0,0:2|0:0,0:0:0:0:
226,75,12544,1,2,3:2:0:0:
283,8,12711,1,2,3:2:0:0:
215,86,12877,1,10,0:2:0:0:
316,215,13044,6,0,P|327:179|308:143,1,80,6|0,3:2|0:0,0:0:0:0:
202,240,13377,2,0,L|193:285,1,40,2|0,3:2|0:0,0:0:0:0:
141,340,13544,1,10,0:2:0:0:
269,291,13711,1,2,0:2:0:0:
148,183,13877,1,2,3:2:0:0:
283,300,14044,2,0,B|363:286,1,80,2|8,3:2|0:2,0:0:0:0:
512,249,14377,6,0,B|488:165|439:205|412:127,1,160,6|2,0:2|3:2,0:0:0:0:
412,41,14877,2,0,L|490:27,1,80,10|0,0:2|0:0,0:0:0:0:
318,25,15211,1,2,3:2:0:0:
279,111,15377,2,0,P|245:120|200:96,1,80,2|10,3:2|0:2,0:0:0:0:
46,35,15711,6,0,B|137:53|137:53|157:23|204:19,1,160,6|2,3:2|3:2,0:0:0:0:
206,103,16211,1,10,0:2:0:0:
236,225,16377,2,0,L|229:264,1,40,2|8,3:2|0:2,0:0:0:0:
284,156,16544,2,0,B|298:146|298:146|362:136,1,80,0|10,3:2|3:0,0:0:0:0:
341,43,16877,1,10,0:2:0:0:
490,103,17044,6,0,B|474:64|474:64|359:36,1,160,6|2,0:2|3:2,0:0:0:0:
284,156,17544,1,10,0:2:0:0:
294,253,17711,2,0,L|304:172,1,80,2|2,0:2|3:2,0:0:0:0:
135,224,18044,2,0,L|125:143,1,80,2|8,3:2|0:2,0:0:0:0:
112,300,18377,6,0,B|134:169|134:169|124:143,1,160,6|2,3:2|3:2,0:0:0:0:
183,345,18877,1,10,0:2:0:0:
33,313,19044,2,0,L|113:299,1,80,2|2,0:2|3:2,0:0:0:0:
276,348,19377,2,0,L|356:362,1,80,2|8,3:2|0:2,0:0:0:0:
499,233,19711,6,0,B|371:252|371:252|347:291,1,160,6|2,3:2|3:2,0:0:0:0:
292,211,20211,1,10,0:2:0:0:
435,160,20377,2,0,L|355:148,1,80,2|0,0:2|3:0,0:0:0:0:
136,106,20711,2,0,L|96:115,1,40,2|0,3:2|0:0,0:0:0:0:
2,142,20877,1,8,0:2:0:0:
183,166,21044,6,0,L|21:137,1,160,6|2,3:2|3:2,0:0:0:0:
50,231,21544,1,8,0:2:0:0:
207,172,21711,1,2,3:2:0:0:
142,69,21877,1,8,0:2:0:0:
147,49,21961,1,8,0:2:0:0:
153,30,22044,1,2,3:2:0:0:
207,172,22211,1,10,3:0:0:0:
32,244,22377,1,6,3:2:0:0:
207,172,22711,5,2,3:2:0:0:
221,183,22877,2,0,B|309:162|268:124|354:100,1,160,10|2,0:2|3:0,0:0:0:0:
399,28,23377,1,2,3:2:0:0:
231,14,23544,2,0,L|151:30,1,80,10|0,0:2|0:0,0:0:0:0:
14,66,23877,5,2,3:2:0:0:
165,115,24044,1,2,3:2:0:0:
23,179,24211,2,0,P|52:151|98:149,1,80,10|2,0:2|0:2,0:0:0:0:
129,242,24544,2,0,P|106:229|77:226,1,40,2|0,3:2|0:0,0:0:0:0:
17,253,24711,2,0,P|7:213|28:173,1,80,2|10,3:2|0:2,0:0:0:0:
158,331,25044,6,0,B|240:313|194:284|287:258,1,144,6|0,3:2|0:0,0:0:0:0:
301,263,25377,1,2,0:0:0:0:
414,362,25544,2,0,P|445:323|396:219,1,160,10|2,0:0|3:2,0:0:0:0:
337,164,26044,1,2,3:2:0:0:
322,156,26211,2,0,L|243:166,1,80,10|0,0:2|0:0,0:0:0:0:
370,68,26544,5,2,3:2:0:0:
377,50,26711,1,2,3:2:0:0:
487,171,26877,2,0,P|472:209|439:231,1,80,10|2,0:2|0:2,0:0:0:0:
282,173,27211,2,0,L|243:166,1,40,2|0,3:2|0:0,0:0:0:0:
177,221,27377,2,0,B|160:232|160:232|92:223,1,80,2|10,3:2|0:2,0:0:0:0:
31,45,27711,6,0,B|54:27|54:27|175:51,1,144,6|0,3:2|0:0,0:0:0:0:
188,41,28044,1,2,3:0:0:0:
242,166,28211,2,0,B|358:186|358:186|394:163,1,160,10|2,0:0|3:2,0:0:0:0:
472,104,28711,1,2,3:2:0:0:
469,85,28877,2,0,L|455:6,1,80,10|0,0:2|0:0,0:0:0:0:
325,137,29211,6,0,P|353:163|392:164,1,80,2|2,3:2|3:2,0:0:0:0:
312,278,29544,2,0,L|233:262,1,80,10|2,0:2|0:2,0:0:0:0:
451,314,29877,2,0,P|464:297|466:268,1,40,2|0,3:2|0:0,0:0:0:0:
391,238,30044,2,0,P|379:200|397:158,1,80,2|10,3:2|0:2,0:0:0:0:
470,123,30377,1,6,3:2:0:0:
262,226,30877,6,0,L|182:238,1,80,10|0,0:2|0:0,0:0:0:0:
57,189,31211,2,0,B|33:156|33:156|45:108,1,80,2|2,3:2|3:2,0:0:0:0:
99,58,31544,1,10,0:2:0:0:
115,69,31711,2,0,L|282:95,1,160,2|2,3:2|3:2,0:0:0:0:
343,51,32211,2,0,B|425:64|425:64|461:44,1,120,8|10,0:2|0:2,0:0:0:0:
475,63,32544,1,2,3:2:0:0:
387,217,32711,1,10,3:0:0:0:
188,151,32877,1,8,0:2:0:0:
148,158,32961,1,8,0:2:0:0:
109,166,33044,1,6,3:2:0:0:
35,343,33377,5,2,3:0:0:0:
48,351,33544,2,0,B|141:340|95:291|183:276,1,160,10|2,0:2|3:0,0:0:0:0:
238,343,34044,1,2,3:2:0:0:
326,333,34211,2,0,P|320:294|288:270,1,80,10|0,0:2|0:0,0:0:0:0:
249,190,34544,5,2,3:2:0:0:
367,220,34711,1,2,3:2:0:0:
473,157,34877,2,0,P|444:129|398:127,1,80,10|2,0:2|0:2,0:0:0:0:
367,220,35211,2,0,P|390:207|419:204,1,40,2|0,3:2|0:0,0:0:0:0:
479,231,35377,2,0,P|489:191|468:151,1,80,2|8,3:2|0:2,0:0:0:0:
442,41,35711,6,0,B|388:48|388:48|384:54|384:54|382:46|382:46|379:51|379:51|299:62,1,144,6|0,3:2|0:0,0:0:0:0:
291,54,36044,1,2,0:0:0:0:
157,30,36211,2,0,B|70:46|111:86|14:107,1,160,10|2,0:0|3:2,0:0:0:0:
200,204,36711,1,2,3:2:0:0:
210,190,36877,2,0,P|205:151|175:125,1,80,10|0,0:2|0:0,0:0:0:0:
79,198,37211,5,2,3:2:0:0:
69,213,37377,1,2,3:2:0:0:
76,305,37544,2,0,L|158:317,1,80,10|2,0:2|0:2,0:0:0:0:
272,371,37877,2,0,L|318:362,1,40,2|0,3:2|0:0,0:0:0:0:
372,283,38044,2,0,B|355:272|355:272|288:282,1,80,2|8,3:2|0:2,0:0:0:0:
455,275,38377,6,0,P|429:209|363:187,1,144,6|0,3:2|0:0,0:0:0:0:
344,197,38711,1,2,3:0:0:0:
224,24,38877,2,0,B|316:45|271:79|361:102,1,160,10|2,0:0|3:2,0:0:0:0:
460,97,39377,1,2,3:2:0:0:
457,115,39544,2,0,L|443:196,1,80,10|0,0:2|0:0,0:0:0:0:
451,291,39877,6,0,P|411:290|383:263,1,80,2|2,3:2|3:2,0:0:0:0:
295,281,40211,2,0,L|283:360,1,80,10|2,0:2|0:2,0:0:0:0:
152,346,40544,2,0,P|139:329|137:300,1,40,2|0,3:2|0:0,0:0:0:0:
206,264,40711,2,0,P|211:225|186:187,1,80,2|10,3:2|0:2,0:0:0:0:
221,113,41044,1,6,3:2:0:0:
451,291,41544,6,0,L|439:212,1,80,10|0,0:2|0:0,0:0:0:0:
480,106,41877,2,0,B|504:73|504:73|492:25,1,80,2|2,3:2|3:2,0:0:0:0:
408,56,42211,1,10,0:2:0:0:
352,122,42377,6,0,L|312:130,2,40,2|2|14,3:2|3:2|0:2,0:0:0:0:
422,51,42711,1,2,3:0:0:0:
265,31,42877,1,8,0:0:0:0:
298,133,43044,1,2,3:0:0:0:
151,180,43211,5,10,0:0:0:0:
158,195,43377,1,10,3:0:0:0:
215,132,43544,1,6,3:0:0:0:
184,56,43711,1,6,0:0:0:0:
18,94,44044,5,10,0:2:0:0:
47,169,44211,2,0,L|39:213,1,40,2|2,3:2|0:2,0:0:0:0:
120,205,44544,2,0,L|160:195,1,40,10|2,0:2|0:2,0:0:0:0:
332,276,45044,6,0,L|285:268,1,40,6|2,3:2|0:2,0:0:0:0:
235,217,45377,1,10,0:2:0:0:
410,186,45544,2,0,L|403:227,1,40,2|2,3:2|0:2,0:0:0:0:
429,212,45877,2,0,L|388:205,1,40,10|2,0:0|0:2,0:0:0:0:
487,22,46377,6,0,P|464:41|446:48,1,40,6|0,3:2|0:0,0:0:0:0:
418,124,46711,1,10,0:0:0:0:
292,46,46877,2,0,P|270:37|249:37,1,40,2|2,3:0|0:2,0:0:0:0:
228,217,47211,2,0,P|246:202|257:184,1,40,10|2,0:2|0:2,0:0:0:0:
220,113,47544,5,10,0:2:0:0:
105,205,47711,2,0,L|59:199,1,40,6|0,3:2|0:0,0:0:0:0:
44,198,48044,1,10,0:2:0:0:
172,264,48211,1,2,3:2:0:0:
202,94,48544,5,10,0:2:0:0:
192,109,48711,1,6,3:0:0:0:
271,148,48877,1,10,0:2:0:0:
358,82,49044,1,6,0:0:0:0:
362,101,49377,5,10,0:2:0:0:
358,189,49544,2,0,L|349:231,1,40,2|2,3:2|0:2,0:0:0:0:
408,284,49877,2,0,L|417:326,1,40,10|2,0:2|0:2,0:0:0:0:
421,342,50211,1,10,0:2:0:0:
472,200,50377,6,0,L|481:158,1,40,6|2,3:2|0:2,0:0:0:0:
485,144,50711,1,10,0:2:0:0:
291,222,50877,2,0,L|251:231,1,40,2|2,3:2|0:2,0:0:0:0:
189,184,51211,1,10,0:0:0:0:
33,259,51377,1,10,3:0:0:0:
199,320,51544,6,0,L|160:314,1,40,10|2,0:2|0:0,0:0:0:0:
173,359,51711,2,0,L|186:276,1,80,6|0,3:2|0:0,0:0:0:0:
83,327,52044,1,0,3:0:0:0:
265,257,52211,1,10,0:2:0:0:
211,156,52377,1,2,3:2:0:0:
197,160,52461,1,8,0:0:0:0:
223,174,52544,2,0,L|263:185,2,40,0|0|2,3:0|0:0|3:2,0:0:0:0:
317,110,52877,1,10,0:2:0:0:
447,190,53044,5,2,3:2:0:0:
437,205,53127,1,8,0:0:0:0:
470,190,53211,2,0,L|462:144,2,40,2|0|0,3:2|3:0|3:0,0:0:0:0:
508,24,53544,1,10,0:2:0:0:
362,100,53711,1,2,3:2:0:0:
355,113,53794,1,8,0:0:0:0:
370,128,53877,1,0,3:0:0:0:
238,129,54044,1,8,3:0:0:0:
125,239,54211,1,8,0:0:0:0:
12,183,54377,6,0,P|27:124|91:99,1,120,6|0,0:0|0:0,0:0:0:0:
57,22,54711,2,0,L|135:38,1,80.0000000000001,2|8,3:2|0:0,0:0:0:0:
305,183,55044,1,2,3:2:0:0:
218,220,55211,2,0,L|296:203,1,80.0000000000001,10|0,0:2|3:0,0:0:0:0:
48,348,55544,5,10,0:2:0:0:
35,334,55627,1,8,0:0:0:0:
54,308,55711,2,0,L|43:382,1,40,4|2,3:2|0:0,0:0:0:0:
296,202,56377,5,6,3:2:0:0:
408,240,59211,6,0,L|395:325,1,80.0000000000001,2|2,0:0|0:0,0:0:0:0:
491,218,59544,2,0,P|463:166|374:175,1,120,2|0,0:0|0:0,0:0:0:0:
355,96,59877,6,0,P|331:59|337:9,1,96,6|2,3:2|0:0,0:0:0:0:
430,34,60211,1,8,0:0:0:0:
175,150,60377,2,0,P|204:105|247:94,1,96,2|2,0:0|3:2,0:0:0:0:
256,180,60711,1,0,3:0:0:0:
9,165,60877,6,0,B|91:178|91:178|104:210|139:225,1,144,10|0,0:2|0:0,0:0:0:0:
188,279,61211,2,0,P|208:323|170:381,1,96,2|2,0:0|3:2,0:0:0:0:
88,144,61544,2,0,L|104:46,1,96,10|2,0:2|0:0,0:0:0:0:
335,208,61877,2,0,L|319:306,1,96,2|0,3:2|3:0,0:0:0:0:
381,55,62211,6,0,B|376:20|332:-6|332:-6|271:6,1,144,10|0,0:2|0:0,0:0:0:0:
217,72,62544,2,0,B|265:115|322:101|322:101|339:61|387:55,1,192,6|8,3:2|0:0,0:0:0:0:
416,147,63044,1,2,0:0:0:0:
225,202,63211,2,0,L|128:222,1,96,2|0,3:2|3:0,0:0:0:0:
319,302,63544,1,10,0:2:0:0:
43,344,63711,6,0,B|35:275|35:275|58:249,1,96,6|0,3:2|0:0,0:0:0:0:
261,129,64044,2,0,L|270:81,1,48,0|0,3:0|0:0,0:0:0:0:
223,13,64211,2,0,L|125:28,1,96,8|2,0:0|0:0,0:0:0:0:
345,49,64544,1,2,3:2:0:0:
177,133,64711,1,2,3:2:0:0:
334,198,64877,1,10,0:2:0:0:
237,322,65044,1,2,0:2:0:0:
304,368,65211,6,0,P|318:324|301:280,1,96,6|0,3:2|0:0,0:0:0:0:
91,329,65544,2,0,P|122:363|168:370,1,96,10|2,0:2|0:0,0:0:0:0:
240,163,65877,2,0,P|194:172|165:209,1,96,2|2,3:2|3:2,0:0:0:0:
21,57,66211,2,0,B|57:62|57:62|79:73|79:73|118:80,1,96,10|6,0:2|3:2,0:0:0:0:
224,26,66544,5,2,0:0:0:0:
14,176,66711,2,0,B|-9:148|-7:126|-7:126|8:88,1,96,2|10,3:2|0:0,0:0:0:0:
172,227,67044,2,0,L|154:323,1,95.9999970703126,2|2,0:0|3:2,3:0:0:0:
164,209,67377,1,2,3:2:0:0:
328,285,67544,2,0,B|351:257|349:235|349:235|333:197,1,96,10|0,0:2|0:0,0:0:0:0:
461,365,67877,6,0,P|414:321|326:307,1,144,6|0,3:2|0:0,0:0:0:0:
328,285,68211,1,10,0:2:0:0:
445,137,68377,2,0,L|425:236,1,96,2|2,0:0|3:2,0:0:0:0:
342,79,68711,1,0,3:0:0:0:
154,145,68877,2,0,B|196:151|218:175|218:175|232:145|272:130,1,144,10|0,0:2|0:0,0:0:0:0:
342,79,69211,2,0,B|358:147|358:147|341:177,1,96,2|0,0:0|3:0,0:0:0:0:
256,358,69544,2,0,B|240:290|240:290|213:262,1,96,8|0,0:0|3:0,0:0:0:0:
48,357,69877,5,10,0:2:0:0:
50,169,70044,2,0,L|59:120,1,48,10|8,0:2|0:0,0:0:0:0:
130,192,70211,2,0,L|139:143,1,48,10|8,0:2|0:0,0:0:0:0:
48,357,70377,5,10,0:2:0:0:
55,364,70461,1,8,0:0:0:0:
62,370,70544,2,0,B|163:344|112:303|222:272,1,192,6|8,3:2|0:0,0:0:0:0:
372,354,71044,2,0,L|357:260,1,96,2|0,0:0|3:0,0:0:0:0:
396,168,71377,1,2,3:2:0:0:
143,268,71544,6,0,B|149:283|135:309|135:309|169:260|225:272,1,144,10|0,0:2|0:0,0:0:0:0:
283,325,71877,2,0,B|267:352|252:362|252:362|226:365|200:350,1,96,2|2,0:0|3:2,0:0:0:0:
111,177,72211,2,0,L|129:82,1,96,10|2,0:2|0:0,0:0:0:0:
36,143,72544,2,0,B|41:165|62:181|62:181|79:185|110:177,1,96,2|0,3:2|3:0,0:0:0:0:
301,114,72877,6,0,B|412:91|412:91|461:107,1,144,10|0,0:2|0:0,0:0:0:0:
503,146,73211,2,0,B|486:81|486:81|501:55,1,96,6|0,3:2|0:0,0:0:0:0:
334,24,73544,1,10,0:2:0:0:
242,186,73711,2,0,B|257:212|257:212|245:279,1,96,2|2,0:0|3:2,0:0:0:0:
189,358,74044,1,2,3:2:0:0:
335,233,74211,1,10,0:2:0:0:
505,354,74377,6,0,L|407:337,1,96,6|2,3:2|0:0,0:0:0:0:
335,233,74711,2,0,L|344:185,1,48,0|0,3:0|0:0,0:0:0:0:
243,186,74877,2,0,L|149:204,1,96,8|2,0:0|0:0,0:0:0:0:
328,324,75211,1,2,3:2:0:0:
505,354,75377,1,2,3:2:0:0:
432,166,75544,1,10,0:2:0:0:
409,157,75627,1,10,0:2:0:0:
384,159,75711,1,10,0:2:0:0:
361,168,75794,1,10,0:2:0:0:
343,185,75877,6,0,L|352:283,1,96,6|2,3:2|0:0,0:0:0:0:
498,119,76211,1,10,0:2:0:0:
487,3,76377,2,0,L|497:105,1,96,2|2,0:0|3:2,0:0:0:0:
353,301,76711,1,2,3:2:0:0:
162,149,76877,6,0,L|59:167,1,96,10|6,0:2|3:2,0:0:0:0:
0,117,77211,1,2,0:0:0:0:
152,236,77377,1,2,3:2:0:0:
277,59,77544,2,0,B|293:45|293:45|369:61,1,96,8|0,0:0|0:2,0:0:0:0:
255,177,77877,1,2,3:2:0:0:
176,32,78044,1,2,3:2:0:0:
260,195,78211,2,0,L|241:294,1,96,10|2,0:2|0:0,0:0:0:0:
41,369,78544,6,0,P|43:317|117:273,1,144,6|0,3:2|0:0,0:0:0:0:
130,288,78877,1,10,0:2:0:0:
260,195,79044,2,0,P|277:153|259:106,1,96,2|2,0:0|3:2,0:0:0:0:
33,97,79377,1,2,3:2:0:0:
154,165,79544,2,0,L|204:151,1,48,10|2,0:2|3:2,0:0:0:0:
88,15,79711,6,0,B|72:95|72:95|68:102|68:102|75:101|75:101|70:108|70:108|51:200,1,192,6|0,3:2|3:0,0:0:0:0:
150,327,80211,2,0,L|294:304,1,144,10|2,0:2|3:2,0:0:0:0:
313,312,80544,1,10,0:2:0:0:
260,195,80711,1,8,3:0:0:0:
435,137,80877,5,10,0:2:0:0:
445,154,80961,1,0,3:0:0:0:
411,182,81044,5,2,3:2:0:0:
419,149,81127,5,0,3:0:0:0:
425,118,81211,5,14,3:2:0:0:
412,264,82377,5,8,0:0:0:0:
293,311,83211,5,8,0:0:0:0:
412,264,83377,2,0,L|274:291,1,120,6|2,3:2|0:0,0:0:0:0:
72,122,83711,6,0,L|79:78,1,40,6|0,3:2|0:0,0:0:0:0:
