osu file format v14

[General]
AudioFilename: audio.ogg
AudioLeadIn: 0
PreviewTime: 58902
Countdown: 0
SampleSet: Soft
StackLeniency: 0.3
Mode: 0
LetterboxInBreaks: 0
WidescreenStoryboard: 1

[Editor]
Bookmarks: 33042
DistanceSpacing: 1.1
BeatDivisor: 4
GridSize: 4
TimelineZoom: 1.9

[Metadata]
Title:"Boku wa..." (TV Size)
TitleUnicode:「僕は...」 (TV Size)
Artist:Atarayo
ArtistUnicode:あたらよ
Creator:Ipas
Version:Hard
Source:僕の心のヤバイやつ
Tags:boku no kokoro yabai yatsu the dangers in my heart bokuyaba yamada ichikawa second 2nd season op opening anime jpop newipas haruto haruto_aizawa japanese j-pop pop rock jrock j-rock 第2期
BeatmapID:4443779
BeatmapSetID:2116046

[Difficulty]
HPDrainRate:5
CircleSize:3.5
OverallDifficulty:6
ApproachRate:8
SliderMultiplier:1.6
SliderTickRate:1

[Events]
//Background and Video events
0,0,"bg.jpg",0,0
Video,0,"video.mp4"
//Break Periods
2,56577,58461
//Storyboard Layer 0 (Background)
//Storyboard Layer 1 (Fail)
//Storyboard Layer 2 (Pass)
//Storyboard Layer 3 (Foreground)
//Storyboard Layer 4 (Overlay)
//Storyboard Sound Samples

[TimingPoints]
-122,333.333333333333,4,2,0,30,1,0
1211,-200,4,2,1,30,0,0
6544,-142.857142857143,4,2,1,30,0,0
11711,-100,4,2,1,70,0,0
22377,-100,4,2,1,70,0,0
22544,-100,4,2,1,50,0,0
42544,-100,4,2,1,60,0,0
44211,-125,4,2,1,60,0,0
52211,-100,4,2,1,60,0,0
59211,-100,4,2,1,40,0,0
59877,-100,4,2,1,70,0,1
81211,-100,4,2,1,60,0,0
85211,-100,4,2,1,30,0,0
86544,-100,4,2,1,15,0,0
87877,-100,4,2,1,10,0,0
89211,-100,4,2,1,5,0,0

[Colours]
Combo1 : 255,140,85
Combo2 : 40,148,255
Combo3 : 174,96,96
Combo4 : 159,64,255

[HitObjects]
111,295,1211,6,0,L|198:280,1,80,2|0,0:2|0:2,0:0:0:0:
257,325,1711,2,0,P|295:307|373:306,1,120,2|0,0:2|0:2,0:0:0:0:
487,138,2544,6,0,P|450:122|412:130,1,80,2|0,0:2|0:2,0:0:0:0:
359,197,3044,2,0,P|309:215|253:171,1,120,2|0,0:2|0:2,0:0:0:0:
127,87,3877,6,0,L|44:100,1,80,2|0,0:2|0:2,0:0:0:0:
45,185,4377,2,0,B|114:198|80:219|149:239,1,120,2|0,0:2|0:2,0:0:0:0:
149,239,5211,6,0,L|235:249,1,80,2|0,0:2|0:2,0:0:0:0:
296,199,5711,2,0,P|319:169|319:123,1,80,2|2,0:2|0:2,0:0:0:0:
267,63,6211,1,2,0:2:0:0:
267,63,6544,6,0,L|205:78,1,55.9999999999999,6|0,3:2|0:0,0:0:0:0:
145,124,6877,2,0,P|101:104|37:95,2,112,0|2|2,3:2|3:2|3:2,0:0:0:0:
257,223,7877,2,0,L|319:208,1,55.9999999999999,2|0,3:2|0:0,0:0:0:0:
379,162,8211,1,2,3:2:0:0:
379,162,8377,2,0,P|423:182|430:246,1,112,2|0,0:2|0:0,0:0:0:0:
379,302,8877,1,2,3:2:0:0:
183,303,9211,6,0,P|129:272|65:283,1,112,2|2,3:2|3:2,0:0:0:0:
33,214,9711,2,0,L|50:102,1,112,2|0,0:2|0:0,0:0:0:0:
24,30,10211,1,2,3:2:0:0:
190,83,10544,2,0,L|249:69,2,55.9999999999999,2|0|0,3:2|0:0|0:0,0:0:0:0:
126,38,11044,1,12,0:2:0:0:
271,148,11711,6,0,B|365:168|320:194|406:226,1,160,6|2,0:2|3:2,0:0:0:0:
483,188,12211,2,0,P|506:161|507:118,1,80,10|0,0:2|0:0,0:0:0:0:
410,46,12544,1,2,3:2:0:0:
410,46,12711,2,0,L|421:127,1,80,2|10,3:2|0:2,0:0:0:0:
361,191,13044,2,0,L|340:358,1,160,6|2,3:2|3:2,0:0:0:0:
260,367,13544,2,0,L|173:353,1,80,10|2,0:2|0:2,0:0:0:0:
106,312,13877,1,2,3:2:0:0:
210,279,14044,2,0,P|223:245|206:202,1,80,2|8,3:2|0:2,0:0:0:0:
132,167,14377,5,6,0:2:0:0:
132,167,14711,1,2,3:2:0:0:
68,107,14877,2,0,P|44:145|49:185,1,80,10|0,0:2|0:0,0:0:0:0:
132,167,15211,1,2,3:2:0:0:
190,99,15377,2,0,L|172:22,1,80,2|10,3:2|0:2,0:0:0:0:
279,59,15711,2,0,L|258:220,1,160,6|2,3:2|3:2,0:0:0:0:
311,285,16211,1,10,0:2:0:0:
440,248,16377,2,0,P|406:225|366:228,1,80,2|0,3:2|3:2,0:0:0:0:
311,285,16711,2,0,L|325:368,1,80,10|10,3:0|0:2,0:0:0:0:
440,248,17044,6,0,B|430:161|473:192|457:87,1,160,6|2,0:2|3:2,0:0:0:0:
402,33,17544,1,10,0:2:0:0:
402,33,17711,2,0,P|348:76|258:77,1,160,2|2,0:2|3:2,0:0:0:0:
24,146,18377,2,0,P|88:163|139:250,1,160,6|2,3:2|3:2,0:0:0:0:
121,322,18877,1,10,0:2:0:0:
121,322,19044,2,0,P|154:351|194:352,1,80,2|2,0:2|3:2,0:0:0:0:
244,291,19377,2,0,L|234:210,1,80,2|8,3:2|0:2,0:0:0:0:
311,117,19711,6,0,B|402:142|402:142|423:118|469:112,1,160,6|2,3:2|3:2,0:0:0:0:
468,202,20211,1,10,0:2:0:0:
468,202,20377,2,0,P|441:235|397:239,1,80,2|0,0:2|3:0,0:0:0:0:
337,315,20711,2,0,L|415:330,1,80,2|8,3:2|0:2,0:0:0:0:
318,234,21044,2,0,L|160:259,1,160,6|2,3:2|3:2,0:0:0:0:
94,200,21544,2,0,L|108:121,1,80,8|2,0:2|3:2,0:0:0:0:
61,53,21877,1,8,0:2:0:0:
61,53,21961,1,8,0:2:0:0:
61,53,22044,1,2,3:2:0:0:
146,19,22211,1,10,3:0:0:0:
220,78,22377,5,6,3:2:0:0:
220,78,22711,1,2,3:2:0:0:
300,116,22877,2,0,P|345:89|455:75,2,160,10|2|10,0:2|3:2|0:2,0:0:0:0:
393,305,23877,2,0,P|421:251|372:170,1,160,2|10,3:2|0:2,0:0:0:0:
300,212,24377,2,0,L|218:231,1,80,2|2,0:2|3:2,0:0:0:0:
151,279,24711,2,0,P|132:245|139:198,1,80,2|10,3:2|0:2,0:0:0:0:
215,361,25044,6,0,P|154:324|70:341,1,160,6|2,3:2|0:2,0:0:0:0:
27,265,25544,2,0,P|61:190|63:113,2,160,10|2|10,0:2|3:2|0:2,0:0:0:0:
156,97,26544,2,0,P|130:52|26:36,1,160,2|10,3:2|0:2,0:0:0:0:
63,113,27044,2,0,P|83:144|95:191,1,80,2|2,0:2|3:2,0:0:0:0:
169,231,27377,2,0,P|200:208|253:195,1,80,2|10,3:2|0:2,0:0:0:0:
339,269,27711,6,0,P|395:229|384:145,1,160,6|2,3:2|3:2,0:0:0:0:
313,100,28211,2,0,L|325:18,1,80,10|2,0:2|0:0,0:0:0:0:
235,45,28544,2,0,L|223:127,1,80,2|2,3:2|3:2,0:0:0:0:
281,193,28877,1,10,0:2:0:0:
60,109,29211,2,0,B|40:201|96:169|80:268,1,160,2|10,3:2|0:2,0:0:0:0:
22,331,29711,2,0,P|57:353|94:350,1,80,2|2,0:2|3:2,0:0:0:0:
176,298,30044,1,2,3:2:0:0:
176,298,30211,1,10,0:2:0:0:
271,310,30377,6,0,B|280:284|280:284|257:152,1,160,6|2,3:2|0:2,0:0:0:0:
299,84,30877,1,10,0:2:0:0:
299,84,31211,1,2,3:2:0:0:
378,131,31377,1,2,3:2:0:0:
489,91,31544,2,0,P|462:61|419:59,1,80,10|2,0:2|3:2,0:0:0:0:
378,131,31877,2,0,P|330:182|237:209,1,160,2|8,0:0|0:2,0:0:0:0:
174,159,32377,2,0,L|183:120,2,40,2|10|2,0:0|0:2|3:2,0:0:0:0:
113,222,32711,1,10,3:0:0:0:
40,168,32877,5,8,0:2:0:0:
40,168,32961,1,8,0:2:0:0:
40,168,33044,1,6,3:2:0:0:
76,341,33377,1,2,3:2:0:0:
76,341,33544,2,0,P|37:288|37:186,2,160,10|2|10,0:2|3:2|0:2,0:0:0:0:
259,300,34544,2,0,L|423:324,1,160,2|10,3:2|0:2,0:0:0:0:
482,260,35044,2,0,P|497:223|483:172,1,80,2|2,0:2|3:2,0:0:0:0:
409,211,35377,2,0,L|324:222,1,80,2|8,3:2|0:2,0:0:0:0:
236,153,35711,5,6,3:2:0:0:
236,153,36044,1,2,0:2:0:0:
319,119,36211,2,0,P|328:81|310:45,1,80,10|2,0:2|0:0,0:0:0:0:
222,54,36544,2,0,L|137:41,1,80,2|2,3:2|3:2,0:0:0:0:
58,23,36877,1,10,0:2:0:0:
18,208,37211,2,0,L|37:375,1,160,2|10,3:2|0:2,0:0:0:0:
120,363,37711,2,0,P|142:329|183:314,1,80,2|2,0:2|3:2,0:0:0:0:
258,360,38044,2,0,P|301:373|334:354,1,80,2|8,3:2|0:2,0:0:0:0:
372,255,38377,5,6,3:2:0:0:
372,255,38711,1,2,3:2:0:0:
282,208,38877,2,0,L|298:294,1,80,10|2,0:2|0:0,0:0:0:0:
199,218,39211,2,0,P|203:171|228:143,1,80,2|2,3:2|3:2,0:0:0:0:
319,133,39544,1,10,0:2:0:0:
463,95,39877,2,0,L|293:128,1,160,2|10,3:2|0:2,0:0:0:0:
327,32,40377,2,0,L|410:17,1,80,2|2,0:2|3:2,0:0:0:0:
305,125,40711,2,0,P|265:112|244:66,1,80,2|10,3:2|0:2,0:0:0:0:
130,27,41044,6,0,P|68:49|77:134,1,160,6|2,3:2|0:2,0:0:0:0:
154,170,41544,2,0,P|166:209|149:246,1,80,10|0,0:2|0:0,0:0:0:0:
53,294,41877,2,0,P|41:333|58:370,1,80,2|2,3:2|3:2,0:0:0:0:
128,331,42211,2,0,L|217:315,1,80,10|2,0:2|3:2,0:0:0:0:
228,325,42461,5,2,3:2:0:0:
228,325,42544,2,0,L|309:337,1,80,14|2,0:2|3:0,0:0:0:0:
374,287,42877,2,0,L|459:278,1,80,8|2,0:0|3:0,0:0:0:0:
499,211,43211,1,10,0:0:0:0:
432,164,43377,1,10,3:0:0:0:
432,164,43544,1,6,3:0:0:0:
485,91,43711,5,6,0:0:0:0:
485,91,44044,1,10,0:2:0:0:
401,57,44211,2,0,P|376:89|348:103,1,64,2|2,3:2|0:2,0:0:0:0:
286,144,44544,2,0,P|241:102|166:86,1,128,10|2,0:2|0:2,0:0:0:0:
103,129,45044,1,6,3:2:0:0:
103,129,45377,1,10,0:2:0:0:
44,189,45544,2,0,L|53:254,1,64,2|2,3:2|0:2,0:0:0:0:
26,330,45877,2,0,P|68:283|133:279,1,128,10|2,0:0|0:2,0:0:0:0:
203,328,46377,5,6,3:2:0:0:
203,328,46711,1,10,0:0:0:0:
282,294,46877,2,0,L|359:307,1,64,2|2,3:0|0:2,0:0:0:0:
341,223,47211,2,0,L|264:210,1,64,10|2,0:2|0:2,0:0:0:0:
216,154,47544,1,10,0:2:0:0:
134,189,47711,2,0,P|78:158|62:82,1,128,6|10,3:2|0:2,0:0:0:0:
103,28,48211,1,2,3:2:0:0:
103,28,48544,1,10,0:2:0:0:
185,76,48711,1,6,3:0:0:0:
185,76,48877,1,10,0:2:0:0:
272,36,49044,5,6,0:0:0:0:
272,36,49377,1,10,0:2:0:0:
361,76,49544,2,0,P|394:57|434:49,1,64,2|2,3:2|0:2,0:0:0:0:
482,111,49877,2,0,B|462:180|504:173|483:248,1,128,10|10,0:2|0:2,0:0:0:0:
440,311,50377,1,6,3:2:0:0:
440,311,50711,1,10,0:2:0:0:
359,357,50877,2,0,P|324:340|284:335,1,64,2|2,3:2|0:2,0:0:0:0:
228,287,51211,2,0,P|188:295|147:295,1,64,10|10,0:0|3:0,0:0:0:0:
81,334,51544,5,10,0:2:0:0:
81,334,51627,1,2,0:0:0:0:
81,334,51711,1,6,3:2:0:0:
92,136,52044,1,0,3:0:0:0:
36,208,52211,2,0,L|118:220,1,80,10|2,0:2|3:2,0:0:0:0:
138,206,52461,1,8,0:0:0:0:
138,206,52544,2,0,L|222:194,1,80,0|2,3:0|3:2,0:0:0:0:
291,151,52877,6,0,P|299:111|274:78,1,80,10|2,0:2|3:2,0:0:0:0:
259,64,53127,1,8,0:0:0:0:
259,64,53211,2,0,L|177:78,1,80,2|0,3:2|3:0,0:0:0:0:
110,29,53544,1,10,0:2:0:0:
55,89,53711,2,0,L|12:83,2,40,2|8|0,3:2|0:0|3:0,0:0:0:0:
119,147,54044,1,8,3:0:0:0:
68,214,54211,1,8,0:0:0:0:
128,306,54377,5,6,0:0:0:0:
128,306,54711,1,2,3:2:0:0:
194,251,54877,2,0,L|279:262,1,80.0000000000001,8|2,0:0|3:2,0:0:0:0:
340,325,55211,2,0,P|370:355|409:358,1,80.0000000000001,10|0,0:2|3:0,0:0:0:0:
476,300,55544,6,0,L|468:251,2,40,10|8|4,0:2|0:0|3:2,0:0:0:0:
476,300,56377,1,6,3:2:0:0:
309,281,59211,6,0,P|297:244|312:205,1,80.0000000000001,2|2,0:0|0:0,0:0:0:0:
364,140,59544,1,2,0:0:0:0:
364,140,59877,6,0,P|317:180|222:177,1,160,6|8,3:2|0:0,0:0:0:0:
157,116,60377,2,0,P|135:76|150:30,1,80,2|2,0:0|3:2,0:0:0:0:
55,29,60711,1,0,3:0:0:0:
71,149,60877,1,10,0:2:0:0:
71,149,61044,2,0,P|95:197|106:313,1,160,6|2,3:2|3:2,0:0:0:0:
59,364,61544,2,0,P|28:339|23:296,1,80,10|2,0:2|0:0,0:0:0:0:
107,301,61877,2,0,L|186:317,1,80,2|0,3:2|3:0,0:0:0:0:
253,258,62211,2,0,L|335:248,1,80,10|2,0:2|0:0,0:0:0:0:
462,242,62544,6,0,P|436:197|304:180,1,160,6|8,3:2|0:0,0:0:0:0:
268,214,63044,2,0,P|298:246|350:239,1,80,2|2,0:0|3:2,0:0:0:0:
337,166,63377,1,0,3:0:0:0:
307,78,63544,1,10,0:2:0:0:
234,127,63711,2,0,B|242:153|242:153|218:295,1,160,6|0,3:2|3:0,0:0:0:0:
140,242,64211,2,0,L|155:163,1,80,8|2,0:0|0:0,0:0:0:0:
86,112,64544,2,0,L|71:33,1,80,2|2,3:2|3:2,0:0:0:0:
154,19,64877,1,10,0:2:0:0:
227,66,65044,1,2,0:2:0:0:
343,29,65211,6,0,L|509:48,2,160,6|10|2,3:2|0:2|3:2,0:0:0:0:
299,105,66044,1,2,3:2:0:0:
381,144,66211,2,0,P|399:188|381:224,1,80,10|6,0:2|3:2,0:0:0:0:
353,314,66544,2,0,P|291:261|202:255,1,160,2|8,0:0|0:0,0:0:0:0:
159,320,67044,2,0,P|98:324|23:260,1,160,2|2,0:2|3:2,0:0:0:0:
44,182,67544,1,10,0:2:0:0:
44,182,67877,6,0,B|127:160|86:129|186:108,1,160,6|10,3:2|0:2,0:0:0:0:
251,160,68377,2,0,P|261:189|243:238,1,80,2|2,0:0|3:2,0:0:0:0:
312,290,68711,1,0,3:0:0:0:
196,322,68877,1,10,0:2:0:0:
196,322,69044,2,0,L|117:305,1,80,6|2,3:2|0:0,0:0:0:0:
28,313,69377,1,0,3:0:0:0:
66,235,69544,2,0,L|81:153,1,80,8|0,0:0|3:0,0:0:0:0:
45,81,69877,1,10,0:2:0:0:
130,33,70044,1,10,0:2:0:0:
130,33,70127,1,8,0:0:0:0:
130,33,70211,2,0,L|171:44,3,40,10|8|10|8,0:2|0:0|0:2|0:0,0:0:0:0:
190,60,70544,6,0,L|350:39,1,160,6|8,3:2|0:0,0:0:0:0:
403,109,71044,2,0,P|377:141|392:183,1,80,2|0,0:0|3:0,0:0:0:0:
463,210,71377,1,2,3:2:0:0:
344,252,71544,1,10,0:2:0:0:
344,252,71711,2,0,P|395:291|382:377,1,160,6|2,3:2|3:2,0:0:0:0:
276,309,72211,2,0,P|254:272|262:225,1,80,10|2,0:2|0:0,0:0:0:0:
196,169,72544,2,0,L|109:182,1,80,2|0,3:2|3:0,0:0:0:0:
37,246,72877,2,0,L|124:259,1,80,10|2,0:2|0:0,0:0:0:0:
128,350,73211,6,0,B|139:331|139:331|282:307,1,160,6|10,3:2|0:2,0:0:0:0:
345,356,73711,2,0,B|385:364|385:364|424:345,1,80,2|2,0:0|3:2,0:0:0:0:
457,274,74044,2,0,L|439:194,1,80,2|10,3:2|0:2,0:0:0:0:
460,107,74377,2,0,P|437:165|347:200,1,160,6|0,3:2|3:0,0:0:0:0:
302,134,74877,2,0,P|323:98|315:56,1,80,8|2,0:0|0:0,0:0:0:0:
252,10,75211,2,0,L|168:24,1,80,2|2,3:2|3:2,0:0:0:0:
102,127,75544,1,10,0:2:0:0:
13,112,75711,5,10,0:2:0:0:
13,112,75794,1,10,0:2:0:0:
13,112,75877,2,0,P|-3:179|47:250,1,160,6|10,3:2|0:2,0:0:0:0:
134,285,76377,2,0,B|217:307|177:340|281:368,1,160,2|2,0:0|3:2,0:0:0:0:
346,320,76877,1,10,0:2:0:0:
289,247,77044,2,0,L|132:285,1,160,6|2,3:2|3:2,0:0:0:0:
93,183,77544,2,0,P|125:195|175:193,1,80,8|0,0:0|0:2,0:0:0:0:
229,138,77877,2,0,P|223:104|196:61,1,80,2|2,3:2|3:2,0:0:0:0:
268,11,78211,2,0,L|352:29,1,80,10|2,0:2|0:0,0:0:0:0:
490,92,78544,6,0,L|326:115,1,160,6|10,3:2|0:2,0:0:0:0:
328,257,79044,2,0,P|362:227|362:192,1,80,2|2,0:0|3:2,0:0:0:0:
239,233,79377,2,0,L|254:316,1,80,2|10,3:2|0:2,0:0:0:0:
131,371,79711,2,0,L|159:201,1,160,6|0,3:2|3:0,0:0:0:0:
86,159,80211,2,0,P|74:116|107:68,1,80,10|0,0:2|3:0,0:0:0:0:
105,69,80461,1,2,3:2:0:0:
105,69,80544,2,0,L|195:83,1,80,10|8,0:2|3:0,0:0:0:0:
253,134,80877,1,10,0:2:0:0:
373,95,81044,5,2,3:2:0:0:
373,95,81127,1,0,3:0:0:0:
373,95,81211,2,0,P|444:80|495:151,1,160,14|0,3:2|0:0,0:0:0:0:
483,223,81711,1,2,0:0:0:0:
123,368,82211,5,2,0:0:0:0:
123,368,82377,2,0,P|110:318|193:257,1,160,8|0,0:0|0:0,0:0:0:0:
268,247,82877,1,2,0:0:0:0:
81,76,83211,5,8,0:0:0:0:
41,152,83377,2,0,L|123:169,1,80,6|2,3:2|0:0,0:0:0:0:
237,103,83711,1,6,3:2:0:0:
256,192,83877,12,0,89211,0:0:0:0:
