osu file format v14

[General]
AudioFilename: audio.ogg
AudioLeadIn: 0
PreviewTime: 58902
Countdown: 0
SampleSet: Soft
StackLeniency: 0.3
Mode: 0
LetterboxInBreaks: 0
WidescreenStoryboard: 1

[Editor]
Bookmarks: 33042
DistanceSpacing: 1
BeatDivisor: 4
GridSize: 4
TimelineZoom: 1.9

[Metadata]
Title:"Boku wa..." (TV Size)
TitleUnicode:「僕は...」 (TV Size)
Artist:Atarayo
ArtistUnicode:あたらよ
Creator:Ipas
Version:Easy
Source:僕の心のヤバイやつ
Tags:boku no kokoro yabai yatsu the dangers in my heart bokuyaba yamada ichikawa second 2nd season op opening anime jpop newipas haruto haruto_aizawa japanese j-pop pop rock jrock j-rock 第2期
BeatmapID:4445510
BeatmapSetID:2116046

[Difficulty]
HPDrainRate:3
CircleSize:3
OverallDifficulty:3
ApproachRate:4
SliderMultiplier:1
SliderTickRate:1

[Events]
//Background and Video events
0,0,"bg.jpg",0,0
Video,0,"video.mp4"
//Break Periods
2,56077,57891
//Storyboard Layer 0 (Background)
//Storyboard Layer 1 (Fail)
//Storyboard Layer 2 (Pass)
//Storyboard Layer 3 (Foreground)
//Storyboard Layer 4 (Overlay)
//Storyboard Sound Samples

[TimingPoints]
-122,333.333333333333,4,2,0,30,1,0
1211,-100,4,2,1,30,0,0
11711,-100,4,2,1,70,0,0
22377,-100,4,2,1,70,0,0
22544,-100,4,2,1,50,0,0
42544,-100,4,2,1,60,0,0
59211,-100,4,2,1,40,0,0
59877,-100,4,2,1,70,0,1
81211,-100,4,2,1,60,0,0
85211,-100,4,2,1,30,0,0
86544,-100,4,2,1,15,0,0
87877,-100,4,2,1,10,0,0
89211,-100,4,2,1,5,0,0

[Colours]
Combo1 : 255,140,85
Combo2 : 40,148,255
Combo3 : 174,96,96
Combo4 : 159,64,255

[HitObjects]
162,140,1211,6,0,P|102:132|53:51,2,150,2|2|0,0:2|0:2|0:2,0:0:0:0:
239,76,2544,2,0,L|391:59,1,150,2|2,0:2|0:2,0:0:0:0:
388,278,3877,6,0,B|302:292|342:334|253:350,2,150,2|2|0,0:2|0:2|0:2,0:0:0:0:
446,197,5211,2,0,P|447:126|395:73,1,150,2|2,0:2|0:2,0:0:0:0:
318,138,6044,2,0,L|312:189,1,50,2|2,0:2|0:2,0:0:0:0:
282,283,6544,6,0,P|225:321|139:305,1,150,6|2,3:2|0:2,0:0:0:0:
161,160,7544,1,2,3:2:0:0:
243,104,7877,2,0,P|314:123|396:132,2,150,2|2|2,3:2|0:2|3:2,0:0:0:0:
162,44,9211,6,0,P|91:63|9:72,2,150,2|2|2,3:2|0:2|3:2,0:0:0:0:
261,25,10544,2,0,L|241:177,1,150,2|12,3:2|0:2,0:0:0:0:
76,286,11711,5,6,0:2:0:0:
208,356,12211,1,10,0:2:0:0:
302,324,12544,2,0,L|456:296,1,150,2|6,3:2|3:2,0:0:0:0:
463,199,13377,1,2,3:2:0:0:
364,188,13711,2,0,L|265:205,1,100,2|2,0:2|3:2,0:0:0:0:
194,280,14377,1,6,0:2:0:0:
46,256,14877,6,0,P|15:214|39:117,1,150,10|2,0:2|3:2,0:0:0:0:
113,63,15711,2,0,L|216:77,1,100,6|2,3:2|3:2,0:0:0:0:
255,166,16377,2,0,L|361:180,1,100,2|10,3:2|3:0,0:0:0:0:
449,212,17044,5,6,0:2:0:0:
468,309,17377,2,0,P|444:353|380:364,1,100,2|2,3:2|0:2,0:0:0:0:
299,352,18044,1,2,3:2:0:0:
229,280,18377,2,0,P|192:247|138:254,1,100,6|2,3:2|3:2,0:0:0:0:
54,206,19044,2,0,P|43:155|72:110,1,100,2|2,0:2|3:2,0:0:0:0:
159,81,19711,6,0,L|309:100,2,150,6|10|2,3:2|0:2|3:2,0:0:0:0:
65,115,21044,2,0,P|81:159|64:216,1,100,6|2,3:2|3:2,0:0:0:0:
87,303,21711,2,0,P|131:347|175:343,1,100,2|2,3:2|3:2,0:0:0:0:
246,289,22377,1,6,3:2:0:0:
386,340,22877,6,0,P|429:315|445:269,1,100,10|2,0:2|3:2,0:0:0:0:
379,194,23544,1,10,0:2:0:0:
291,146,23877,2,0,P|269:98|302:60,1,100,2|10,3:2|0:2,0:0:0:0:
388,32,24544,1,2,3:2:0:0:
507,122,25044,6,0,B|424:142|464:173|379:194,1,150,6|10,3:2|0:2,0:0:0:0:
319,274,25877,2,0,L|204:262,1,100,2|10,3:2|0:2,0:0:0:0:
163,346,26544,2,0,L|63:356,1,100,2|10,3:2|0:2,0:0:0:0:
4,275,27211,1,2,3:2:0:0:
103,163,27711,6,0,B|77:55|77:55|105:22,1,150,6|10,3:2|0:2,0:0:0:0:
187,77,28544,1,2,3:2:0:0:
284,54,28877,1,10,0:2:0:0:
318,148,29211,2,0,L|298:256,1,100,2|10,3:2|0:2,0:0:0:0:
340,338,29877,2,0,P|411:368|472:334,1,150,2|6,3:2|3:2,0:0:0:0:
449,187,30877,5,10,0:2:0:0:
362,137,31211,2,0,P|326:97|279:89,1,100,2|10,3:2|0:2,0:0:0:0:
278,188,31877,2,0,P|256:232|205:248,1,100,2|8,0:0|0:2,0:0:0:0:
133,190,32544,2,0,L|157:39,1,150,2|6,3:2|3:2,0:0:0:0:
23,111,33544,6,0,P|11:165|48:212,1,100,10|2,0:2|3:2,0:0:0:0:
133,190,34211,1,10,0:2:0:0:
221,238,34544,2,0,P|243:286|210:324,1,100,2|10,3:2|0:2,0:0:0:0:
124,352,35211,1,2,3:2:0:0:
4,261,35711,6,0,B|88:242|48:211|133:190,1,150,6|10,3:2|0:2,0:0:0:0:
193,110,36544,2,0,L|308:122,1,100,2|10,3:2|0:2,0:0:0:0:
349,38,37211,2,0,L|448:27,1,100,2|10,3:2|0:2,0:0:0:0:
508,109,37877,1,2,3:2:0:0:
409,221,38377,6,0,B|435:329|435:329|407:362,1,150,6|10,3:2|0:2,0:0:0:0:
325,307,39211,1,2,3:2:0:0:
226,324,39544,1,10,0:2:0:0:
172,239,39877,2,0,L|69:223,1,100,2|10,3:2|0:2,0:0:0:0:
73,123,40544,2,0,P|148:128|208:71,1,150,2|6,3:2|3:2,0:0:0:0:
336,13,41544,5,10,0:2:0:0:
433,35,41877,2,0,P|421:76|372:102,1,100,2|10,3:2|0:2,0:0:0:0:
337,195,42544,2,0,L|440:210,1,100,14|8,0:2|0:0,0:0:0:0:
445,309,43211,2,0,P|372:356|312:338,1,150,10|6,0:0|0:0,0:0:0:0:
237,279,44044,6,0,L|73:307,2,150,10|10|6,0:2|0:2|3:2,0:0:0:0:
327,235,45377,2,0,P|332:194|322:176,1,50,10|2,0:2|3:2,0:0:0:0:
229,176,45877,2,0,L|76:202,1,150,10|6,0:0|3:2,0:0:0:0:
126,58,46877,5,2,3:0:0:0:
219,21,47211,2,0,L|370:43,1,150,10|6,0:2|3:2,0:0:0:0:
433,117,48044,2,0,P|436:144|422:169,1,50,10|2,0:2|3:2,0:0:0:0:
327,181,48544,2,0,P|248:190|207:248,1,150,10|6,0:2|0:0,0:0:0:0:
110,220,49377,6,0,L|132:69,2,150,10|10|6,0:2|0:2|3:2,0:0:0:0:
61,307,50711,2,0,P|85:320|109:316,1,50,10|2,0:2|3:2,0:0:0:0:
203,343,51211,2,0,L|358:317,1,150,10|6,0:0|3:2,0:0:0:0:
454,209,52211,6,0,P|489:184|501:131,1,100,10|0,0:2|3:0,0:0:0:0:
400,126,52877,2,0,L|299:142,1,100,10|2,0:2|3:2,0:0:0:0:
263,48,53544,1,10,0:2:0:0:
168,78,53877,2,0,B|113:73|113:73|75:88|75:88|19:80,1,150,0|6,3:0|0:0,0:0:0:0:
69,224,54877,6,0,L|181:238,1,100,8|10,0:0|0:2,0:0:0:0:
199,332,55544,2,0,P|233:297|300:288,1,100,10|2,0:2|0:0,0:0:0:0:
297,280,59211,6,0,L|406:260,1,100,2|2,0:0|0:0,0:0:0:0:
482,211,59877,5,6,3:2:0:0:
413,77,60377,2,0,L|265:104,1,150,2|10,0:0|0:2,0:0:0:0:
203,25,61211,2,0,L|104:42,1,100,2|10,0:0|0:2,0:0:0:0:
20,95,61877,1,2,3:2:0:0:
87,174,62211,1,10,0:2:0:0:
27,254,62544,6,0,P|38:308|117:353,2,150,6|2|10,3:2|0:0|0:2,0:0:0:0:
87,174,63877,1,2,0:0:0:0:
169,230,64211,2,0,L|271:218,1,100,8|2,0:0|3:2,0:0:0:0:
367,205,64877,1,10,0:2:0:0:
451,258,65211,6,0,P|472:207|454:159,1,100,6|10,3:2|0:2,0:0:0:0:
373,115,65877,2,0,L|271:128,1,100,2|10,3:2|0:2,0:0:0:0:
261,28,66544,1,2,0:0:0:0:
360,25,66877,2,0,L|462:12,1,100,8|2,0:0|3:2,0:0:0:0:
503,101,67544,1,10,0:2:0:0:
455,188,67877,6,0,L|433:342,2,150,6|2|10,3:2|0:0|0:2,0:0:0:0:
370,136,69211,2,0,P|328:112|275:120,1,100,2|8,0:0|0:0,0:0:0:0:
226,204,69877,2,0,P|197:247|147:253,1,100,10|10,0:2|0:2,0:0:0:0:
60,214,70544,5,6,3:2:0:0:
85,361,71044,2,0,L|238:335,1,150,2|10,0:0|0:2,0:0:0:0:
302,264,71877,2,0,L|413:283,1,100,2|10,0:0|0:2,0:0:0:0:
495,249,72544,1,2,3:2:0:0:
420,182,72877,1,10,0:2:0:0:
470,96,73211,6,0,P|426:42|345:45,1,150,6|2,3:2|0:0,0:0:0:0:
263,92,74044,1,2,3:2:0:0:
306,181,74377,1,6,3:2:0:0:
291,330,74877,2,0,L|189:318,1,100,8|2,0:0|3:2,0:0:0:0:
97,351,75544,1,10,0:2:0:0:
61,258,75877,6,0,P|40:207|97:129,1,150,6|2,3:2|0:2,0:0:0:0:
237,134,76877,2,0,P|278:111|300:61,1,100,10|2,0:2|0:2,0:0:0:0:
203,42,77544,2,0,L|101:29,1,100,8|2,0:0|3:2,0:0:0:0:
33,100,78211,1,10,0:2:0:0:
61,196,78544,6,0,B|139:215|104:260|183:280,1,150,6|2,3:2|0:0,0:0:0:0:
229,366,79377,1,2,3:2:0:0:
329,361,79711,2,0,P|392:331|410:251,1,150,6|10,3:2|0:2,0:0:0:0:
327,203,80544,1,10,0:0:0:0:
377,125,80877,1,10,0:0:0:0:
301,59,81211,6,0,L|151:74,1,150,14|2,3:2|0:0,0:0:0:0:
13,218,82377,2,0,L|174:237,1,150,8|2,0:0|0:0,0:0:0:0:
234,165,83211,2,0,P|245:146|235:111,1,50,8|6,0:0|3:2,0:0:0:0:
151,73,83711,1,6,3:2:0:0:
256,192,83877,12,0,89211,0:0:0:0:
