osu file format v14

[General]
AudioFilename: audio.mp3
AudioLeadIn: 0
PreviewTime: 59098
Countdown: 0
SampleSet: Soft
StackLeniency: 0.4
Mode: 0
LetterboxInBreaks: 0
WidescreenStoryboard: 1

[Editor]
Bookmarks: 22516,33182,43849,59849
DistanceSpacing: 1.3
BeatDivisor: 4
GridSize: 32
TimelineZoom: 1

[Metadata]
Title:"Boku wa..." (TV Size)
TitleUnicode:「僕は…」 (TV Size)
Artist:Atarayo
ArtistUnicode:あたらよ
Creator:Chaoslitz
Version:Chu's Hard
Source:僕の心のヤバイやつ
Tags:boku no kokoro no yabai yatsu season 2 第2期 ii the dangers in my heart bokuyaba opening op jpop pop j-pop anime japanese hey lululu bossandy arronchu1207
BeatmapID:4457391
BeatmapSetID:2119459

[Difficulty]
HPDrainRate:4
CircleSize:4.1
OverallDifficulty:6
ApproachRate:7.8
SliderMultiplier:1.3
SliderTickRate:1

[Events]
//Background and Video events
0,0,"yamada.jpg",0,0
Video,54,"jjjj.mp4"
//Break Periods
2,57048,58402
//Storyboard Layer 0 (Background)
//Storyboard Layer 1 (Fail)
//Storyboard Layer 2 (Pass)
//Storyboard Layer 3 (Foreground)
//Storyboard Layer 4 (Overlay)
//Storyboard Sound Samples

[TimingPoints]
516,333.333333333333,4,2,1,30,1,0
1182,333.333333333333,4,2,1,30,1,0
1182,-142.857142857143,4,2,1,30,0,0
6515,-142.857142857143,4,2,3,30,0,0
6848,-111.111111111111,4,2,1,40,0,0
11015,-100,4,2,1,70,0,0
22515,-100,4,2,1,60,0,0
43848,-111.111111111111,4,2,1,50,0,0
46348,-111.111111111111,4,2,1,60,0,0
49181,-111.111111111111,4,2,1,50,0,0
51681,-100,4,2,1,60,0,0
54348,-100,4,2,1,70,0,0
56348,-100,4,2,2,70,0,0
56515,-100,4,2,1,70,0,0
59848,-90.9090909090909,4,2,1,80,0,1
70431,-90.9090909090909,4,2,1,80,0,0
70515,-90.9090909090909,4,2,1,80,0,1
81181,-90.9090909090909,4,2,2,80,0,0
83681,-90.9090909090909,4,2,1,80,0,0
85181,-90.9090909090909,4,2,1,60,0,0
86515,-90.9090909090909,4,2,1,40,0,0
87848,-90.9090909090909,4,2,1,20,0,0
89181,-90.9090909090909,4,2,1,15,0,0

[Colours]
Combo1 : 170,170,170
Combo2 : 23,181,205
Combo3 : 250,112,65
Combo4 : 69,142,158
Combo5 : 230,115,81

[HitObjects]
104,151,516,38,0,P|97:110|89:73,2,65,2|2|2,0:0|0:0|0:0,0:0:0:0:
104,151,1182,6,0,P|151:131|196:140,1,90.9999972229005,2|0,0:0|0:0,0:0:0:0:
242,194,1681,2,0,P|232:251|222:335,1,136.499995834351,2|2,0:0|0:0,0:0:0:0:
382,382,2515,54,0,P|402:340|391:293,1,90.9999972229005,2|2,0:0|0:0,0:0:0:0:
357,229,3015,1,0,0:0:0:0:
352,225,3181,2,0,P|399:218|449:210,1,90.9999972229005,2|2,0:0|0:0,0:0:0:0:
512,83,3848,6,0,B|447:83|453:33|371:45,2,136.499995834351,2|2|2,0:0|0:0|0:0,0:0:0:0:
347,131,5181,54,0,P|298:139|258:147,1,90.9999972229005,2|0,0:0|3:0,0:0:0:0:
189,112,5681,1,0,0:0:0:0:
188,106,5848,2,0,P|194:70|195:55,2,45.4999986114502,2|2|2,0:0|0:0|0:0,0:0:0:0:
82,193,6515,5,12,0:0:0:0:
82,193,6848,1,10,0:1:0:0:
154,292,7181,2,0,P|148:329|145:355,1,58.4999982147217,10|0,0:1|0:0,0:0:0:0:
64,361,7515,2,0,P|70:324|73:298,1,58.4999982147217,10|0,0:1|0:0,0:0:0:0:
156,285,7848,54,0,P|185:303|271:303,1,116.999996429443,10|8,0:1|0:1,0:0:0:0:
395,231,8515,1,8,0:1:0:0:
395,231,8848,1,10,0:1:0:0:
283,158,9181,6,0,P|277:107|270:41,1,116.999996429443,10|8,0:1|0:1,0:0:0:0:
345,1,9681,1,2,0:0:0:0:
345,1,9848,2,0,P|349:36|352:69,1,58.4999982147217,8|0,0:1|0:0,0:0:0:0:
422,96,10181,2,0,P|418:131|415:164,1,58.4999982147217,10|0,0:1|0:0,0:0:0:0:
395,231,10515,2,0,P|430:227|463:224,2,58.4999982147217,10|0|0,0:1|3:0|0:0,0:0:0:0:
305,290,11015,21,2,1:3:0:0:
305,290,11681,6,0,P|254:298|186:257,1,130,14|8,0:1|0:1,0:0:0:0:
114,301,12181,2,0,P|124:344|126:376,1,65,10|0,0:0|0:0,0:0:0:0:
41,254,12515,2,0,P|31:211|29:179,2,65,10|10|10,0:1|0:1|0:0,0:0:0:0:
113,209,13015,54,0,L|138:59,1,130,10|10,0:1|0:1,0:0:0:0:
197,24,13515,2,0,P|222:16|266:15,1,65,10|2,0:0|0:0,0:0:0:0:
329,71,13848,1,10,0:1:0:0:
329,71,14015,2,0,P|354:79|398:80,1,65,10|10,0:1|0:0,0:0:0:0:
482,166,14348,6,0,P|496:206|468:288,1,130,10|8,0:1|0:1,0:0:0:0:
392,320,14848,2,0,P|352:311|320:307,1,65,10|0,0:0|0:0,0:0:0:0:
276,230,15181,1,10,0:1:0:0:
276,230,15348,2,0,P|308:225|339:217,1,65,10|10,0:1|0:0,0:0:0:0:
221,305,15681,54,0,P|182:272|98:279,1,130,10|10,0:1|0:1,0:0:0:0:
26,301,16181,1,10,0:0:0:0:
42,218,16348,1,2,0:0:0:0:
44,210,16431,1,8,0:0:0:0:
46,202,16515,2,0,P|41:159|31:127,1,65,8|10,0:1|0:3,0:0:0:0:
23,54,16848,1,10,0:0:0:0:
147,93,17015,6,0,P|192:106|266:76,1,130,14|10,0:1|0:1,0:0:0:0:
354,104,17515,1,10,0:0:0:0:
354,104,17681,2,0,P|345:153|343:190,1,65,2|8,0:0|0:1,0:0:0:0:
423,221,18015,2,0,P|432:172|434:135,1,65,10|8,0:1|0:0,0:0:0:0:
337,257,18348,54,0,L|189:279,1,130,10|10,0:1|0:1,0:0:0:0:
152,339,18848,1,10,0:0:0:0:
80,297,19015,2,0,P|56:259|74:176,1,130,2|10,0:0|0:1,0:0:0:0:
132,120,19515,1,8,0:0:0:0:
206,158,19681,6,0,B|240:164|240:164|294:151|294:151|335:156,1,130,10|10,0:1|0:1,0:0:0:0:
403,203,20181,1,10,0:0:0:0:
473,155,20348,1,2,0:0:0:0:
478,239,20515,2,0,P|470:285|468:316,1,65,8|10,0:1|0:1,0:0:0:0:
434,380,20848,1,8,0:0:0:0:
335,302,21015,54,0,P|288:291|215:337,1,130,14|8,0:1|0:1,0:0:0:0:
146,371,21515,2,0,P|96:362|71:358,1,65,10|10,0:0|0:1,0:0:0:0:
11,313,21848,1,8,0:0:0:0:
9,304,21931,1,8,0:0:0:0:
7,295,22015,1,10,0:3:0:0:
22,212,22181,1,8,0:0:0:0:
145,245,22348,6,0,P|193:254|257:204,1,130,14|8,0:1|3:1,0:0:0:0:
264,125,22848,2,0,P|258:84|255:58,1,65,10|0,3:2|3:0,0:0:0:0:
172,42,23181,2,0,P|178:83|181:109,1,65,10|8,0:1|0:1,0:0:0:0:
114,159,23515,1,10,0:0:0:0:
223,287,23848,54,0,P|266:294|356:313,1,130,10|10,0:1|0:0,0:0:0:0:
428,278,24348,1,2,0:0:0:0:
428,278,24515,2,0,P|441:236|427:196,1,65,8|10,3:1|3:1,0:0:0:0:
389,146,24848,1,8,0:0:0:0:
311,180,25015,6,0,P|272:182|201:121,1,130,10|0,3:1|3:0,0:0:0:0:
130,84,25515,2,0,P|94:92|59:95,1,65,10|0,3:2|0:0,0:0:0:0:
67,179,25848,2,0,P|103:171|138:168,1,65,10|8,0:1|0:1,0:0:0:0:
185,232,26181,1,10,0:0:0:0:
272,86,26515,54,0,P|303:58|403:67,1,130,10|10,0:1|0:0,0:0:0:0:
458,102,27015,2,0,P|452:156|451:186,1,65,2|8,0:0|3:1,0:0:0:0:
395,230,27348,2,0,P|401:284|402:314,1,65,10|8,3:1|0:0,0:0:0:0:
326,334,27681,6,0,L|312:204,1,130,10|8,3:1|3:1,0:0:0:0:
236,169,28181,2,0,P|193:163|161:178,1,65,10|0,3:2|3:0,0:0:0:0:
115,232,28515,1,10,0:1:0:0:
115,232,28681,1,8,0:1:0:0:
55,171,28848,2,0,P|48:122|41:93,1,65,10|0,0:0|0:0,0:0:0:0:
76,29,29181,54,0,B|122:35|122:35|156:27|156:27|216:34,1,130,10|10,0:1|0:0,0:0:0:0:
264,91,29681,2,0,P|276:140|272:166,1,65,2|8,0:0|3:1,0:0:0:0:
201,198,30015,2,0,P|190:167|190:135,1,65,10|8,3:1|0:0,0:0:0:0:
275,283,30348,6,0,L|406:299,1,130,10|0,3:1|0:0,0:0:0:0:
468,242,30848,1,8,3:2:0:0:
468,242,31181,53,10,3:1:0:0:
504,165,31348,1,8,0:1:0:0:
440,109,31515,2,0,P|394:118|363:129,1,65,8|8,0:0|3:1,0:0:0:0:
303,166,31848,6,0,P|239:168|189:129,1,130,2|8,0:0|3:2,0:0:0:0:
192,44,32348,2,0,L|230:33,2,32.5,0|8|10,0:0|0:0|3:1,0:0:0:0:
113,11,32681,1,8,0:3:0:0:
58,75,32848,1,8,0:0:0:0:
61,84,32931,1,8,0:0:0:0:
64,92,33015,54,0,L|54:223,1,130,12|8,0:1|0:1,0:0:0:0:
118,276,33515,2,0,P|128:313|127:353,1,65,10|0,0:0|0:0,0:0:0:0:
201,382,33848,2,0,P|238:372|278:373,1,65,10|8,0:1|0:1,0:0:0:0:
326,313,34181,1,10,0:0:0:0:
484,373,34515,6,0,P|500:319|479:246,1,130,10|10,0:1|0:0,0:0:0:0:
416,194,35015,1,2,0:0:0:0:
416,194,35181,2,0,P|408:151|404:119,1,65,8|10,3:1|3:1,0:0:0:0:
432,48,35515,1,8,0:0:0:0:
349,66,35681,54,0,L|216:43,1,130,10|0,3:1|3:0,0:0:0:0:
162,105,36181,2,0,P|149:146|153:183,1,65,10|0,3:2|0:0,0:0:0:0:
200,235,36515,2,0,P|199:267|187:297,1,65,10|8,0:1|0:1,0:0:0:0:
113,338,36848,1,10,0:0:0:0:
13,216,37181,6,0,P|5:168|79:140,1,130,10|10,0:1|0:0,0:0:0:0:
144,184,37681,1,2,0:0:0:0:
144,184,37848,2,0,P|177:181|217:175,1,65,8|10,3:1|3:1,0:0:0:0:
278,128,38181,1,8,3:2:0:0:
334,190,38348,54,0,L|315:337,1,130,10|8,3:1|3:1,0:0:0:0:
247,366,38848,2,0,P|208:368|180:357,1,65,10|0,3:2|0:0,0:0:0:0:
136,289,39181,2,0,P|97:287|69:298,1,65,10|8,0:1|0:1,0:0:0:0:
11,354,39515,1,10,0:0:0:0:
55,192,39848,6,0,P|65:148|36:67,1,130,10|10,0:1|0:0,0:0:0:0:
98,10,40348,2,0,L|167:24,1,65,2|8,0:0|3:1,0:0:0:0:
215,88,40681,2,0,L|284:74,1,65,10|8,3:1|3:2,0:0:0:0:
403,16,41015,54,0,L|382:148,1,130,10|0,3:1|0:0,0:0:0:0:
421,219,41515,1,8,3:2:0:0:
421,219,41848,5,10,3:1:0:0:
498,184,42015,1,8,0:1:0:0:
490,267,42181,2,0,P|481:314|481:341,1,65,8|10,0:0|3:1,0:0:0:0:
488,340,42431,1,4,0:3:0:0:
496,348,42515,54,0,P|449:339|422:339,1,65,10|8,0:0|0:1,0:0:0:0:
362,290,42848,2,0,P|315:299|288:299,1,65,8|8,3:2|0:1,0:0:0:0:
229,249,43181,1,10,3:2:0:0:
280,182,43348,1,8,0:3:0:0:
280,182,43515,1,4,0:3:0:0:
222,120,43681,1,12,0:1:0:0:
222,120,44015,53,10,0:0:0:0:
155,157,44181,2,0,P|105:159|46:119,1,116.999996429443,10|10,0:1|0:0,0:0:0:0:
1,182,44681,1,2,0:0:0:0:
1,182,44848,2,0,P|11:228|12:249,1,58.4999982147217,2|10,0:0|0:1,0:0:0:0:
66,291,45181,2,0,P|56:337|55:358,1,58.4999982147217,2|10,0:0|0:0,0:0:0:0:
139,309,45515,2,0,P|132:337|129:367,1,58.4999982147217,10|2,0:1|0:0,0:0:0:0:
207,260,45848,2,0,B|248:253|248:253|279:264|279:264|337:256,1,116.999996429443,8|2,0:0|0:0,0:0:0:0:
382,303,46348,38,0,P|425:302|458:241,1,116.999996429443,10|8,0:1|0:0,0:0:0:0:
417,177,46848,1,8,0:1:0:0:
417,177,47181,2,0,P|406:138|407:111,1,58.4999982147217,8|0,0:0|0:0,0:0:0:0:
419,46,47515,1,10,0:0:0:0:
419,46,47681,6,0,L|285:66,1,116.999996429443,8|10,0:1|0:0,0:0:0:0:
236,27,48181,1,8,0:1:0:0:
117,107,48515,2,0,P|72:96|49:94,1,58.4999982147217,10|10,0:0|0:1,0:0:0:0:
164,177,48848,1,10,0:0:0:0:
164,177,49015,6,0,L|150:304,1,116.999996429443,12|10,0:1|0:0,0:0:0:0:
198,353,49515,2,0,P|235:368|308:334,1,116.999996429443,10|10,0:1|0:0,0:0:0:0:
366,298,50015,1,2,0:0:0:0:
366,298,50181,2,0,P|395:304|432:321,1,58.4999982147217,10|10,0:0|0:1,0:0:0:0:
487,245,50515,2,0,P|458:239|421:222,1,58.4999982147217,2|10,0:0|0:0,0:0:0:0:
512,171,50848,2,0,P|483:165|446:148,1,58.4999982147217,10|2,0:1|0:0,0:0:0:0:
408,94,51181,2,0,L|287:109,1,116.999996429443,8|10,0:0|0:0,0:0:0:0:
199,35,51681,38,0,P|145:28|114:103,1,130,14|8,0:1|0:1,0:0:0:0:
152,159,52181,2,0,P|160:209|157:238,1,65,8|2,0:0|0:0,0:0:0:0:
157,233,52431,1,8,0:0:0:0:
155,242,52515,2,0,P|205:234|234:237,1,65,8|8,0:1|0:1,0:0:0:0:
296,269,52848,1,8,0:0:0:0:
347,202,53015,6,0,L|341:156,2,32.5,10|8|8,0:1|0:0|0:1,0:0:0:0:
420,243,53348,1,8,0:1:0:0:
476,180,53515,2,0,P|484:136|476:106,1,65,8|10,0:0|0:1,0:0:0:0:
477,107,53765,1,8,0:0:0:0:
473,99,53848,2,0,L|402:83,1,65,8|8,0:1|0:3,0:0:0:0:
351,23,54181,1,8,0:0:0:0:
265,119,54348,54,0,P|218:140|133:106,1,130,14|8,0:1|0:1,0:0:0:0:
83,176,54848,2,0,P|90:212|94:256,1,65,8|8,0:0|0:1,0:0:0:0:
173,325,55181,2,0,P|176:292|183:260,1,65,8|8,0:0|0:1,0:0:0:0:
260,212,55515,2,0,L|254:171,2,32.5,10|8|8,0:0|0:0|0:1,0:0:0:0:
339,258,55848,53,2,0:0:0:0:
469,162,56181,1,2,0:0:0:0:
501,86,56348,1,12,0:0:0:0:
417,95,56515,1,2,0:0:0:0:
417,95,56848,1,2,0:0:0:0:
215,125,59181,54,0,P|209:74|204:48,2,65,2|2|2,0:0|0:0|0:0,0:0:0:0:
215,125,59848,6,0,P|257:97|346:112,1,143.000004364014,14|8,0:1|0:0,0:0:0:0:
408,178,60348,1,2,0:0:0:0:
359,257,60515,2,0,L|282:246,1,71.5000021820069,8|8,0:1|0:1,0:0:0:0:
216,305,60848,1,10,0:0:0:0:
216,305,61015,54,0,B|167:314|167:314|122:299|122:299|58:311,1,143.000004364014,8|8,0:1|0:1,0:0:0:0:
14,238,61515,2,0,P|4:194|14:153,1,71.5000021820069,10|0,0:0|0:0,0:0:0:0:
11,75,61848,2,0,P|54:88|84:117,1,71.5000021820069,10|8,0:1|0:1,0:0:0:0:
153,152,62181,2,0,P|128:178|95:193,1,71.5000021820069,10|0,0:0|0:0,0:0:0:0:
155,59,62515,6,0,L|310:86,1,143.000004364014,10|8,0:1|0:0,0:0:0:0:
350,159,63015,1,2,0:0:0:0:
350,159,63181,2,0,P|336:215|334:256,1,71.5000021820069,8|8,0:1|0:1,0:0:0:0:
344,321,63515,1,10,0:0:0:0:
258,284,63681,54,0,P|203:271|117:319,1,143.000004364014,10|8,0:1|0:1,0:0:0:0:
47,257,64181,2,0,L|59:182,1,71.5000021820069,8|0,0:0|0:0,0:0:0:0:
129,124,64515,2,0,L|117:49,1,71.5000021820069,10|10,0:1|0:1,0:0:0:0:
195,2,64848,1,10,0:0:0:0:
253,74,65015,1,10,0:1:0:0:
251,84,65098,1,8,0:1:0:0:
250,93,65181,6,0,P|282:121|391:114,1,143.000004364014,12|10,0:1|0:0,0:0:0:0:
470,153,65681,1,0,0:0:0:0:
470,153,65848,2,0,P|483:195|480:234,1,71.5000021820069,10|8,0:1|0:1,0:0:0:0:
408,278,66181,2,0,P|395:236|398:197,1,71.5000021820069,10|8,0:0|0:1,0:0:0:0:
482,330,66515,54,0,P|416:316|335:373,1,143.000004364014,2|8,0:0|0:0,0:0:0:0:
275,295,67015,2,0,L|299:142,1,143.000004364014,2|8,0:0|0:1,0:0:0:0:
193,120,67515,2,0,L|206:201,1,71.5000021820069,10|0,0:0|0:0,0:0:0:0:
147,264,67848,6,0,P|95:261|67:240,1,71.5000021820069,10|0,0:1|0:0,0:0:0:0:
17,188,68181,1,8,0:0:0:0:
17,188,68348,2,0,L|40:344,1,143.000004364014,2|8,0:0|0:1,0:0:0:0:
118,376,68848,1,10,0:0:0:0:
215,284,69015,54,0,P|282:278|348:329,1,143.000004364014,12|8,0:1|0:1,0:0:0:0:
430,289,69515,2,0,P|443:247|434:207,1,71.5000021820069,8|8,0:0|0:1,0:0:0:0:
403,134,69848,1,10,0:0:0:0:
313,160,70015,1,10,0:0:0:0:
304,158,70098,1,8,0:0:0:0:
295,157,70181,2,0,L|247:167,3,35.7500010910034,10|8|8|8,0:0|0:0|0:0|0:0,0:0:0:0:
219,188,70515,6,0,P|235:130|207:54,1,143.000004364014,14|8,0:1|0:0,0:0:0:0:
118,27,71015,1,2,0:0:0:0:
67,104,71181,2,0,L|80:190,1,71.5000021820069,8|8,0:1|0:1,0:0:0:0:
120,263,71515,1,10,0:0:0:0:
120,263,71681,54,0,B|167:271|167:271|210:256|210:256|278:268,1,143.000004364014,8|8,0:1|0:1,0:0:0:0:
302,349,72181,2,0,P|341:368|380:365,1,71.5000021820069,10|0,0:0|0:0,0:0:0:0:
461,379,72515,2,0,P|457:335|435:303,1,71.5000021820069,10|8,0:1|0:1,0:0:0:0:
407,227,72848,2,0,P|371:251|354:286,1,71.5000021820069,10|0,0:0|0:0,0:0:0:0:
496,234,73181,6,0,L|511:78,1,143.000004364014,10|10,0:1|0:0,0:0:0:0:
458,13,73681,2,0,L|380:25,1,71.5000021820069,2|8,0:0|0:1,0:0:0:0:
327,95,74015,1,10,0:1:0:0:
327,95,74181,1,8,0:0:0:0:
205,18,74348,54,0,P|142:10|66:69,1,143.000004364014,14|8,0:1|0:1,0:0:0:0:
60,141,74848,2,0,P|70:191|73:225,1,71.5000021820069,8|0,0:0|0:0,0:0:0:0:
141,273,75181,2,0,P|191:263|225:260,1,71.5000021820069,10|10,0:1|0:1,0:0:0:0:
282,199,75515,1,10,0:0:0:0:
341,270,75681,1,8,0:0:0:0:
341,281,75765,1,8,0:0:0:0:
342,291,75848,6,0,P|378:323|478:328,1,143.000004364014,14|8,0:1|0:0,0:0:0:0:
509,247,76348,1,2,0:0:0:0:
444,180,76515,2,0,P|436:132|438:87,1,71.5000021820069,8|8,0:1|0:1,0:0:0:0:
461,22,76848,1,10,0:0:0:0:
461,22,77015,54,0,L|302:42,1,143.000004364014,8|8,0:1|0:1,0:0:0:0:
235,80,77515,2,0,P|220:130|225:170,1,71.5000021820069,10|0,0:0|0:0,0:0:0:0:
214,241,77848,2,0,P|264:228|296:204,1,71.5000021820069,10|8,0:1|0:1,0:0:0:0:
363,178,78181,2,0,P|327:140|290:124,1,71.5000021820069,10|0,0:0|0:0,0:0:0:0:
214,241,78515,6,0,L|240:384,1,143.000004364014,10|10,0:1|0:0,0:0:0:0:
322,339,79015,2,0,P|355:339|400:357,1,71.5000021820069,2|8,0:0|0:1,0:0:0:0:
497,281,79348,2,0,P|464:281|419:263,1,71.5000021820069,10|8,0:1|0:0,0:0:0:0:
350,147,79681,54,0,P|347:96|419:44,1,143.000004364014,14|8,0:1|0:1,0:0:0:0:
500,79,80181,2,0,L|487:156,1,71.5000021820069,10|0,0:0|0:0,0:0:0:0:
492,161,80431,1,8,0:0:0:0:
496,172,80515,2,0,L|483:249,1,71.5000021820069,10|8,0:1|0:3,0:0:0:0:
408,296,80848,2,0,L|415:339,3,35.7500010910034,10|8|4|4,0:0|0:1|0:3|0:3,0:0:0:0:
445,364,81181,6,0,L|222:328,1,214.500006546021,14|2,0:0|0:0,0:0:0:0:
90,145,82181,1,2,0:0:0:0:
23,244,82348,54,0,L|177:218,1,143.000004364014,12|0,0:0|0:0,0:0:0:0:
232,157,82848,1,2,0:0:0:0:
412,45,83181,1,10,0:0:0:0:
469,118,83348,2,0,P|481:165|481:207,1,71.5000021820069,12|2,0:0|0:0,0:0:0:0:
412,45,83681,1,12,0:1:0:0:
256,192,83765,12,0,89181,0:0:0:0:
