osu file format v14

[General]
AudioFilename: audio.mp3
AudioLeadIn: 0
PreviewTime: 59182
Countdown: 0
SampleSet: Soft
StackLeniency: 0.7
Mode: 0
LetterboxInBreaks: 0
WidescreenStoryboard: 1

[Editor]
DistanceSpacing: 1
BeatDivisor: 4
GridSize: 32
TimelineZoom: 1.8

[Metadata]
Title:"Boku wa..." (TV Size)
TitleUnicode:「僕は…」 (TV Size)
Artist:Atarayo
ArtistUnicode:あたらよ
Creator:Akiko
Version:Insane
Source:僕の心のヤバイやつ
Tags:i am anime j-pop jpop japanese pop female vocal boku no kokoro no yabai yatsu yabaiyatsu 僕ヤバ bokuyaba the dangers in my heart season two 2 s2 two second term 第2期 第二期 opening op 2nd vocals male mahiru shiina seapodeerman dollyn-
BeatmapID:4474842
BeatmapSetID:2128380

[Difficulty]
HPDrainRate:4
CircleSize:3.5
OverallDifficulty:7
ApproachRate:8.7
SliderMultiplier:1.67
SliderTickRate:1

[Events]
//Background and Video events
0,0,"115183901_p0.jpg",0,0
//Break Periods
//Storyboard Layer 0 (Background)
//Storyboard Layer 1 (Fail)
//Storyboard Layer 2 (Pass)
//Storyboard Layer 3 (Foreground)
//Storyboard Layer 4 (Overlay)
//Storyboard Sound Samples

[TimingPoints]
1182,333.333333333334,4,2,1,40,1,0
1182,-166.666666666667,4,2,1,40,0,0
6515,-166.666666666667,4,2,2,50,0,0
6681,-166.666666666667,4,2,1,50,0,0
6848,-166.666666666667,4,2,1,50,0,0
11015,-166.666666666667,4,2,1,60,0,0
11681,-100,4,2,3,70,0,0
12182,-100,4,2,4,70,0,0
12682,-100,4,2,3,70,0,0
12848,-100,4,2,4,70,0,0
13015,-100,4,2,3,70,0,0
13182,-100,4,2,2,70,0,0
13348,-100,4,2,3,70,0,0
13515,-100,4,2,4,70,0,0
13682,-100,4,2,3,70,0,0
13848,-100,4,2,4,70,0,0
14015,-100,4,2,3,70,0,0
14182,-100,4,2,2,70,0,0
14348,-100,4,2,3,70,0,0
14515,-100,4,2,2,70,0,0
14682,-100,4,2,4,70,0,0
14848,-100,4,2,4,70,0,0
15348,-100,4,2,3,70,0,0
15515,-100,4,2,4,70,0,0
15681,-100,4,2,3,70,0,0
15848,-100,4,2,2,70,0,0
16015,-100,4,2,5,70,0,0
16515,-100,4,2,6,70,0,0
16598,-100,4,2,2,70,0,0
16682,-100,4,2,1,70,0,0
16848,-100,4,2,4,70,0,0
17015,-100,4,2,3,70,0,0
17515,-100,4,2,4,70,0,0
17682,-100,4,2,3,70,0,0
17848,-100,4,2,6,70,0,0
18015,-100,4,2,3,70,0,0
18182,-100,4,2,2,70,0,0
18348,-100,4,2,3,70,0,0
18515,-100,4,2,2,70,0,0
18682,-100,4,2,3,70,0,0
18848,-100,4,2,4,70,0,0
19015,-100,4,2,3,70,0,0
19182,-100,4,2,6,70,0,0
19348,-100,4,2,3,70,0,0
19515,-100,4,2,2,70,0,0
19682,-100,4,2,3,70,0,0
19848,-100,4,2,2,70,0,0
20015,-100,4,2,3,70,0,0
20182,-100,4,2,4,70,0,0
20348,-100,4,2,3,70,0,0
20515,-100,4,2,6,70,0,0
20682,-100,4,2,3,70,0,0
20848,-100,4,2,2,70,0,0
21015,-100,4,2,3,70,0,0
21515,-100,4,2,4,70,0,0
21682,-100,4,2,3,70,0,0
21848,-100,4,2,2,70,0,0
22015,-100,4,2,1,70,0,0
22182,-100,4,2,3,70,0,0
22348,-100,4,2,3,60,0,0
22681,-125,4,2,3,60,0,0
22848,-125,4,2,7,60,0,0
24348,-125,4,2,1,60,0,0
24515,-125,4,2,8,60,0,0
24682,-125,4,2,3,60,0,0
24848,-125,4,2,8,60,0,0
25015,-125,4,2,4,60,0,0
25515,-125,4,2,7,60,0,0
27015,-125,4,2,1,60,0,0
27182,-125,4,2,8,60,0,0
27348,-125,4,2,3,60,0,0
27515,-125,4,2,8,60,0,0
27682,-125,4,2,4,60,0,0
28182,-125,4,2,7,60,0,0
29682,-125,4,2,1,60,0,0
29848,-125,4,2,8,60,0,0
30015,-125,4,2,3,60,0,0
30182,-125,4,2,8,60,0,0
30348,-125,4,2,4,60,0,0
30848,-125,4,2,8,60,0,0
31182,-125,4,2,7,60,0,0
31515,-125,4,2,8,60,0,0
31848,-125,4,2,7,60,0,0
32182,-125,4,2,8,60,0,0
32515,-125,4,2,7,60,0,0
32682,-125,4,2,1,60,0,0
32848,-125,4,2,3,60,0,0
33015,-142.857142857143,4,2,3,60,0,0
33515,-125,4,2,7,60,0,0
35015,-125,4,2,1,60,0,0
35182,-125,4,2,8,60,0,0
35348,-125,4,2,3,60,0,0
35515,-125,4,2,8,60,0,0
35682,-125,4,2,4,60,0,0
36182,-125,4,2,7,60,0,0
37682,-125,4,2,1,60,0,0
37848,-125,4,2,8,60,0,0
38015,-125,4,2,3,60,0,0
38182,-125,4,2,8,60,0,0
38348,-125,4,2,4,60,0,0
38848,-125,4,2,7,60,0,0
40348,-125,4,2,1,60,0,0
40515,-125,4,2,8,60,0,0
40682,-125,4,2,3,60,0,0
40848,-125,4,2,8,60,0,0
41015,-125,4,2,4,60,0,0
41515,-125,4,2,8,60,0,0
41848,-125,4,2,7,60,0,0
42182,-125,4,2,5,60,0,0
42515,-125,4,2,3,60,0,0
42848,-125,4,2,2,60,0,0
43015,-125,4,2,4,60,0,0
43348,-125,4,2,1,60,0,0
43682,-125,4,2,3,50,0,0
44181,-142.857142857143,4,2,9,50,0,0
44348,-142.857142857143,4,2,1,50,0,0
44515,-142.857142857143,4,2,9,50,0,0
44848,-142.857142857143,4,2,9,50,0,0
45015,-142.857142857143,4,2,3,50,0,0
45348,-142.857142857143,4,2,3,50,0,0
45515,-142.857142857143,4,2,9,50,0,0
45682,-142.857142857143,4,2,1,50,0,0
45848,-142.857142857143,4,2,10,50,0,0
46182,-142.857142857143,4,2,9,50,0,0
46348,-142.857142857143,4,2,3,50,0,0
46515,-142.857142857143,4,2,10,50,0,0
47015,-142.857142857143,4,2,1,50,0,0
47182,-142.857142857143,4,2,10,50,0,0
47515,-142.857142857143,4,2,9,50,0,0
47848,-142.857142857143,4,2,10,50,0,0
48015,-142.857142857143,4,2,3,50,0,0
48182,-142.857142857143,4,2,10,50,0,0
48515,-142.857142857143,4,2,9,50,0,0
48682,-142.857142857143,4,2,1,50,0,0
48848,-142.857142857143,4,2,2,50,0,0
49015,-142.857142857143,4,2,3,50,0,0
49515,-142.857142857143,4,2,9,50,0,0
49682,-142.857142857143,4,2,1,50,0,0
49848,-142.857142857143,4,2,9,50,0,0
50015,-142.857142857143,4,2,1,50,0,0
50182,-142.857142857143,4,2,9,50,0,0
50348,-142.857142857143,4,2,3,50,0,0
50515,-142.857142857143,4,2,9,50,0,0
50682,-142.857142857143,4,2,5,50,0,0
51348,-142.857142857143,4,2,1,50,0,0
51515,-142.857142857143,4,2,3,50,0,0
51681,-111.111111111111,4,2,3,50,0,0
52432,-111.111111111111,4,2,3,60,0,0
52515,-111.111111111111,4,2,6,60,0,0
52598,-111.111111111111,4,2,3,60,0,0
52848,-111.111111111111,4,2,2,60,0,0
53015,-111.111111111111,4,2,3,60,0,0
53182,-111.111111111111,4,2,6,60,0,0
53265,-111.111111111111,4,2,3,60,0,0
53515,-111.111111111111,4,2,2,60,0,0
53682,-111.111111111111,4,2,3,60,0,0
53848,-111.111111111111,4,2,6,60,0,0
54015,-111.111111111111,4,2,1,60,0,0
54182,-111.111111111111,4,2,3,60,0,0
54348,-111.111111111111,4,2,3,70,0,0
54848,-111.111111111111,4,2,4,70,0,0
55182,-111.111111111111,4,2,3,70,0,0
55348,-111.111111111111,4,2,1,70,0,0
55515,-111.111111111111,4,2,3,70,0,0
55682,-111.111111111111,4,2,4,70,0,0
55848,-111.111111111111,4,2,1,50,0,0
56348,-111.111111111111,4,2,4,50,0,0
56515,-111.111111111111,4,2,1,50,0,0
57348,-111.111111111111,4,2,4,50,0,0
59182,-111.111111111111,4,2,1,50,0,0
59848,-90.9090909090909,4,2,11,80,0,0
60182,-90.9090909090909,4,2,2,80,0,0
60348,-90.9090909090909,4,2,1,80,0,0
60515,-90.9090909090909,4,2,6,80,0,0
60848,-90.9090909090909,4,2,4,80,0,0
61182,-90.9090909090909,4,2,2,80,0,0
61306,-90.9090909090909,4,2,4,80,0,0
61348,-90.9090909090909,4,2,4,80,0,0
62348,-90.9090909090909,4,2,1,80,0,0
62515,-90.9090909090909,4,2,4,80,0,0
62848,-90.9090909090909,4,2,2,80,0,0
63015,-90.9090909090909,4,2,1,80,0,0
63182,-90.9090909090909,4,2,6,80,0,0
63515,-90.9090909090909,4,2,4,80,0,0
63848,-90.9090909090909,4,2,2,80,0,0
63932,-90.9090909090909,4,2,4,80,0,0
64015,-90.9090909090909,4,2,3,80,0,0
64182,-90.9090909090909,4,2,2,80,0,0
64515,-90.9090909090909,4,2,4,80,0,0
64682,-90.9090909090909,4,2,5,80,0,0
65348,-90.9090909090909,4,2,5,80,0,0
65515,-90.9090909090909,4,2,4,80,0,0
65682,-90.9090909090909,4,2,1,80,0,0
65848,-90.9090909090909,4,2,4,80,0,0
66848,-90.9090909090909,4,2,2,80,0,0
67015,-90.9090909090909,4,2,3,80,0,0
67182,-90.9090909090909,4,2,6,80,0,0
67515,-90.9090909090909,4,2,4,80,0,0
68182,-90.9090909090909,4,2,2,80,0,0
68348,-90.9090909090909,4,2,1,80,0,0
68515,-90.9090909090909,4,2,6,80,0,0
68848,-90.9090909090909,4,2,4,80,0,0
69015,-90.9090909090909,4,2,3,80,0,0
69182,-90.9090909090909,4,2,4,80,0,0
69348,-90.9090909090909,4,2,3,80,0,0
69515,-90.9090909090909,4,2,2,80,0,0
69682,-90.9090909090909,4,2,5,80,0,0
70515,-90.9090909090909,4,2,11,80,0,0
70848,-90.9090909090909,4,2,2,80,0,0
71015,-90.9090909090909,4,2,1,80,0,0
71182,-90.9090909090909,4,2,6,80,0,0
71515,-90.9090909090909,4,2,4,80,0,0
71848,-90.9090909090909,4,2,2,80,0,0
72015,-90.9090909090909,4,2,4,80,0,0
73015,-90.9090909090909,4,2,3,80,0,0
73182,-90.9090909090909,4,2,4,80,0,0
73682,-90.9090909090909,4,2,1,80,0,0
73848,-90.9090909090909,4,2,6,80,0,0
74015,-90.9090909090909,4,2,3,80,0,0
74182,-90.9090909090909,4,2,2,80,0,0
74348,-90.9090909090909,4,2,3,80,0,0
74515,-90.9090909090909,4,2,2,80,0,0
74682,-90.9090909090909,4,2,3,80,0,0
74848,-100,4,2,2,80,0,0
75182,-100,4,2,4,80,0,0
75348,-100,4,2,3,80,0,0
75515,-100,4,2,4,80,0,0
75848,-100,4,2,3,80,0,0
76182,-100,4,2,2,80,0,0
76348,-100,4,2,1,80,0,0
76515,-100,4,2,6,80,0,0
76848,-100,4,2,4,80,0,0
77182,-100,4,2,2,80,0,0
77348,-100,4,2,4,80,0,0
79015,-100,4,2,1,80,0,0
79182,-100,4,2,6,80,0,0
79348,-100,4,2,3,80,0,0
79515,-100,4,2,2,80,0,0
79682,-100,4,2,3,80,0,0
80182,-100,4,2,4,80,0,0
80682,-100,4,2,1,80,0,0
80848,-100,4,2,3,80,0,0
81181,-133.333333333333,4,2,3,50,0,0
82348,-133.333333333333,4,2,1,60,0,0
83348,-133.333333333333,4,2,4,60,0,0
83515,-133.333333333333,4,2,3,60,0,0
83681,-66.6666666666667,4,2,3,60,0,0
87848,-66.6666666666667,4,2,3,5,0,0

[Colours]
Combo1 : 174,255,255
Combo2 : 149,140,225
Combo3 : 202,149,255
Combo4 : 255,204,204

[HitObjects]
23,134,1182,6,0,P|59:69|75:-5,2,150.299995413208,2|2|2,2:2|2:2|2:2,0:0:0:0:
137,267,2515,5,2,2:2:0:0:
137,267,2848,2,0,P|132:232|111:170,2,100.199996942139,2|2|2,2:2|2:2|2:2,0:0:0:0:
75,335,3848,5,2,2:2:0:0:
141,264,4348,1,2,2:2:0:0:
224,306,4848,1,2,2:2:0:0:
294,246,5182,5,2,2:2:0:0:
294,246,5848,6,0,L|276:178,2,50.0999984710694,2|2|2,2:2|2:2|2:2,0:0:0:0:
268,336,6348,2,0,P|315:346|354:316,1,100.199996942139,2|0,2:2|0:0,0:0:0:0:
458,253,6848,6,0,L|443:363,2,100.199996942139,2|2|2,3:2|3:2|3:2,0:0:0:0:
490,134,7848,6,0,P|446:168|391:152,1,100.199996942139,2|0,3:2|3:3,0:0:0:0:
380,79,8348,2,0,P|416:47|465:52,1,100.199996942139,2|0,2:2|0:0,0:0:0:0:
490,134,8848,1,2,3:2:0:0:
300,131,9182,6,0,P|259:122|203:109,1,100.199996942139,2|0,3:2|3:3,0:0:0:0:
172,201,9682,2,0,P|237:217|287:232,1,100.199996942139,2|0,2:2|0:0,0:0:0:0:
451,235,10182,2,0,L|466:298,1,50.0999984710694,2|0,3:2|0:0,0:0:0:0:
379,326,10515,2,0,L|352:214,1,100.199996942139,2|0,3:2|0:0,0:0:0:0:
379,326,11015,5,12,2:2:0:0:
506,146,11682,6,0,P|462:172|431:163,1,83.5,6|0,3:2|0:0,0:0:0:0:
365,97,12015,1,2,3:2:0:0:
435,0,12182,2,0,L|455:99,1,83.5,10|0,2:2|0:0,0:0:0:0:
260,166,12515,2,0,L|276:77,1,83.5,2|2,3:2|3:2,0:0:0:0:
365,97,12848,1,10,2:2:0:0:
320,244,13015,6,0,P|253:263|175:180,1,167,2|2,3:2|3:2,0:0:0:0:
96,66,13515,2,0,L|12:85,2,83.5,10|2|2,2:2|2:2|3:2,0:0:0:0:
277,128,14015,1,2,3:2:0:0:
89,168,14182,1,10,2:2:0:0:
196,34,14348,6,0,L|172:230,1,167,2|0,3:2|3:3,0:0:0:0:
33,282,14848,2,0,B|130:247|103:337|214:304,1,167,10|2,2:2|3:2,0:0:0:0:
332,259,15348,1,2,3:2:0:0:
173,205,15515,1,10,2:2:0:0:
302,350,15682,6,0,P|353:354|427:248,1,167,2|2,3:2|3:2,0:0:0:0:
491,153,16182,2,0,L|391:176,1,83.5,14|2,2:2|2:2,0:0:0:0:
389,180,16432,1,8,2:2:0:0:
389,180,16515,1,2,3:2:0:0:
312,121,16682,1,10,2:3:0:0:
348,39,16848,1,10,2:2:0:0:
212,122,17015,6,0,B|168:107|168:107|121:138|121:138|60:118,1,167,6|2,3:2|3:2,0:0:0:0:
16,210,17515,1,10,2:2:0:0:
16,210,17682,2,0,L|107:233,1,83.5,2|2,2:2|3:2,0:0:0:0:
178,294,18015,2,0,L|194:212,1,83.5,2|10,3:2|2:2,0:0:0:0:
271,341,18348,6,0,B|307:139,1,167,2|2,3:2|3:2,0:0:0:0:
358,89,18848,1,10,2:2:0:0:
396,177,19015,2,0,P|453:165|468:134,1,83.5,2|2,2:2|3:2,0:0:0:0:
426,58,19348,2,0,P|369:70|354:101,1,83.5,2|10,3:2|2:2,0:0:0:0:
337,262,19682,6,0,L|134:242,1,167,2|2,3:2|3:2,0:0:0:0:
14,158,20182,1,10,2:2:0:0:
70,275,20348,2,0,L|63:227,2,41.75,2|8|2,2:2|2:2|3:2,0:0:0:0:
146,349,20682,1,2,3:2:0:0:
146,349,20848,1,10,2:2:0:0:
179,159,21015,6,0,L|370:179,1,167,6|2,3:2|3:2,0:0:0:0:
417,106,21515,2,0,L|401:23,1,83.5,10|2,2:2|3:2,0:0:0:0:
507,153,21848,1,10,2:2:0:0:
503,166,21931,1,8,2:2:0:0:
501,178,22015,1,10,2:3:0:0:
417,106,22182,1,12,2:3:0:0:
440,267,22348,5,6,3:2:0:0:
440,267,22848,6,0,B|307:288,1,133.6,10|2,2:2|3:2,0:0:0:0:
308,287,23348,1,0,3:3:0:0:
229,349,23515,2,0,L|211:255,1,66.8,10|0,2:2|0:0,0:0:0:0:
133,371,23848,6,0,L|105:219,1,133.6,2|10,3:2|2:2,0:0:0:0:
156,157,24348,2,0,L|246:172,1,66.8,2|2,2:2|3:2,0:0:0:0:
330,65,24682,2,0,L|240:82,1,66.8,2|10,3:2|2:2,0:0:0:0:
156,157,25015,1,2,3:2:0:0:
156,157,25515,2,0,L|174:308,1,133.6,10|2,2:2|3:2,0:0:0:0:
171,289,26015,1,0,3:3:0:0:
264,245,26182,2,0,L|252:164,1,66.8,10|0,2:2|0:0,0:0:0:0:
285,87,26515,6,0,B|428:122,1,133.6,2|10,3:2|2:2,0:0:0:0:
512,93,27015,2,0,L|497:168,1,66.8,2|2,2:2|3:2,0:0:0:0:
426,287,27348,2,0,L|416:206,1,66.8,2|10,3:2|2:2,0:0:0:0:
506,333,27682,1,2,3:2:0:0:
506,333,28015,5,0,3:3:0:0:
416,220,28182,2,0,L|426:287,1,66.8,10|0,2:2|0:0,0:0:0:0:
329,292,28515,2,0,L|321:226,1,66.8,2|0,3:2|3:3,0:0:0:0:
263,149,28848,2,0,L|194:165,1,66.8,10|0,2:2|0:0,0:0:0:0:
175,74,29182,2,0,L|246:59,1,66.8,2|0,3:2|3:3,0:0:0:0:
197,164,29515,1,10,2:2:0:0:
86,106,29682,2,0,L|121:237,1,133.6,2|2,2:2|3:2,0:0:0:0:
120,235,30182,1,10,2:2:0:0:
19,326,30348,6,0,B|61:319|61:319|95:348|95:348|151:337,1,133.6,2|0,3:2|0:0,0:0:0:0:
213,270,30848,2,0,L|238:358,1,66.8,10|0,2:2|0:0,0:0:0:0:
293,224,31182,2,0,L|304:146,1,66.8,2|0,3:2|3:3,0:0:0:0:
375,89,31515,1,10,2:2:0:0:
375,89,31682,1,0,3:3:0:0:
234,83,31848,6,0,B|101:108,1,133.6,2|10,2:2|2:2,0:0:0:0:
0,209,32348,1,8,2:2:0:0:
0,209,32432,1,8,2:2:0:0:
0,209,32515,1,2,3:2:0:0:
18,72,32682,1,8,2:3:0:0:
110,199,32848,2,0,L|159:194,1,33.4,8|8,2:2|2:2,0:0:0:0:
228,182,33015,6,0,L|293:200,1,58.4499982162476,4|0,3:2|0:0,0:0:0:0:
284,197,33348,1,0,3:3:0:0:
208,276,33515,2,0,B|295:297,1,66.8,10|2,2:2|2:2,0:0:0:0:
371,318,33848,1,2,3:2:0:0:
371,318,34015,1,0,3:3:0:0:
447,263,34182,2,0,L|430:198,1,66.8,10|0,2:2|0:0,0:0:0:0:
512,72,34515,6,0,L|499:137,1,66.8,2|0,3:2|3:3,0:0:0:0:
432,199,34848,1,10,2:2:0:0:
358,130,35015,2,0,L|285:152,1,66.8,2|2,2:2|3:2,0:0:0:0:
180,55,35348,2,0,L|259:69,1,66.8,2|10,3:2|2:2,0:0:0:0:
112,123,35682,1,2,3:2:0:0:
111,122,36182,6,0,B|123:261,1,133.6,10|2,2:2|3:2,0:0:0:0:
122,255,36682,1,0,3:3:0:0:
217,224,36848,2,0,L|212:153,1,66.8,10|0,2:2|0:0,0:0:0:0:
304,194,37182,6,0,P|361:238|429:224,1,133.6,2|10,3:2|2:2,0:0:0:0:
512,234,37682,2,0,L|491:156,1,66.8,2|2,2:2|3:2,0:0:0:0:
405,72,38015,2,0,L|384:154,1,66.8,2|10,3:2|2:2,0:0:0:0:
488,11,38348,1,2,3:2:0:0:
488,11,38682,5,0,3:3:0:0:
405,72,38848,2,0,P|353:75|316:77,1,66.8,10|0,2:2|0:0,0:0:0:0:
263,16,39182,2,0,L|181:23,1,66.8,2|0,3:2|3:3,0:0:0:0:
123,81,39515,2,0,L|47:87,1,66.8,10|0,2:2|0:0,0:0:0:0:
0,160,39848,6,0,B|-16:207|-16:207|19:254,1,100.2,2|0,3:2|0:0,0:0:0:0:
14,247,40182,1,10,2:2:0:0:
87,365,40348,2,0,L|109:231,1,133.6,2|2,2:2|3:2,0:0:0:0:
108,233,40848,1,10,2:2:0:0:
187,383,41015,6,0,L|211:229,1,133.6,2|0,3:2|0:0,0:0:0:0:
290,201,41515,2,0,L|385:216,1,66.8,10|0,2:2|0:0,0:0:0:0:
369,117,41848,2,0,L|302:108,1,66.8,2|0,3:2|3:3,0:0:0:0:
184,166,42182,1,12,2:2:0:0:
87,86,42348,2,0,L|90:52,2,33.4,2|0|14,3:2|3:3|2:2,0:0:0:0:
0,169,42682,5,0,3:3:0:0:
95,195,42848,1,10,2:2:0:0:
42,280,43015,5,0,3:3:0:0:
173,256,43182,1,10,2:2:0:0:
95,195,43348,1,8,2:3:0:0:
95,195,43515,1,4,2:3:0:0:
228,331,43682,6,0,L|311:313,1,66.8,4|0,3:2|0:0,0:0:0:0:
390,325,44015,1,10,2:2:0:0:
390,325,44182,2,0,B|374:264,1,58.4499982162476,2|2,3:2|2:2,0:0:0:0:
485,329,44515,2,0,L|450:200,1,116.899996432495,10|2,2:2|2:2,0:0:0:0:
472,100,45015,6,0,P|426:136|361:112,1,116.899996432495,2|10,3:2|2:2,0:0:0:0:
321,57,45515,2,0,L|259:69,1,58.4499982162476,2|2,3:2|2:2,0:0:0:0:
210,135,45848,2,0,L|133:148,1,58.4499982162476,10|0,2:2|0:0,0:0:0:0:
152,144,46181,5,2,2:2:0:0:
56,60,46348,2,0,L|71:178,1,116.899996432495,2|8,3:2|2:2,0:0:0:0:
138,231,46848,2,0,L|125:289,1,58.4499982162476,2|2,3:2|2:2,0:0:0:0:
63,349,47182,2,0,P|124:371|181:351,1,116.899996432495,10|10,2:2|2:2,0:0:0:0:
224,279,47682,1,0,3:3:0:0:
487,250,48015,5,10,2:2:0:0:
487,250,48182,2,0,L|471:175,1,58.4499982162476,2|0,3:2|0:0,0:0:0:0:
399,128,48515,1,10,2:2:0:0:
473,54,48682,1,10,2:3:0:0:
390,0,48848,1,14,2:3:0:0:
399,128,49015,6,0,P|344:140|286:154,1,116.899996432495,4|10,3:2|2:2,0:0:0:0:
209,211,49515,2,0,L|191:136,1,58.4499982162476,2|2,3:2|2:2,0:0:0:0:
177,73,49848,1,10,2:2:0:0:
177,73,50182,1,10,2:2:0:0:
99,145,50348,6,0,B|122:268,1,116.899996432495,2|10,3:2|2:2,0:0:0:0:
197,365,50848,2,0,L|213:295,1,58.4499982162476,2|2,3:2|2:2,0:0:0:0:
226,220,51182,1,8,2:2:0:0:
120,259,51348,1,10,2:3:0:0:
120,259,51515,1,10,2:2:0:0:
306,306,51682,6,0,L|460:332,1,150.299995413208,6|0,3:2|3:3,0:0:0:0:
511,211,52182,2,0,L|437:225,1,75.1499977066041,8|2,2:2|2:2,0:0:0:0:
413,233,52432,1,8,2:2:0:0:
413,233,52515,1,2,3:2:0:0:
317,151,52682,1,0,3:3:0:0:
244,248,52848,6,0,P|171:264|93:211,1,150.299995413208,10|2,2:2|3:2,0:0:0:0:
88,137,53348,1,0,3:3:0:0:
206,59,53515,2,0,L|189:138,1,75.1499977066041,10|10,2:2|2:2,0:0:0:0:
185,171,53765,1,8,2:2:0:0:
185,171,53848,1,2,3:2:0:0:
88,137,54015,1,8,2:3:0:0:
17,200,54182,1,14,2:3:0:0:
207,269,54348,6,0,B|283:247|372:225,1,150.299995413208,6|2,3:2|3:2,0:0:0:0:
468,108,54848,2,0,L|364:132,1,75.1499977066041,10|0,2:2|3:3,0:0:0:0:
300,144,55182,1,10,2:2:0:0:
443,270,55348,1,8,2:3:0:0:
445,257,55432,1,8,2:3:0:0:
447,244,55515,2,0,L|453:200,1,37.574998853302,10|8,2:2|2:2,0:0:0:0:
468,108,55682,5,4,3:2:0:0:
263,31,56348,5,4,3:2:0:0:
256,192,57348,12,0,58848,0:0:0:0:
145,175,59182,6,0,L|130:93,1,75.1499977066041,2|2,2:2|2:2,0:0:0:0:
117,17,59515,1,2,2:2:0:0:
90,325,59848,6,0,P|146:271|255:294,1,183.700005606079,6|10,3:2|2:2,0:0:0:0:
433,358,60348,2,0,L|452:247,1,91.8500028030396,2|2,2:2|3:2,0:0:0:0:
372,199,60682,1,0,3:3:0:0:
440,27,60848,1,10,2:2:0:0:
360,94,61015,6,0,L|174:119,1,183.700005606079,0|0,3:3|0:0,0:0:0:0:
20,183,61515,2,0,P|72:189|121:199,1,91.8500028030396,10|0,2:2|0:0,0:0:0:0:
185,120,61848,1,2,3:2:0:0:
273,180,62015,1,0,3:3:0:0:
204,343,62182,2,0,L|187:239,1,91.8500028030396,10|2,2:2|0:0,0:0:0:0:
299,362,62515,6,0,B|272:170,1,183.700005606079,2|10,3:2|2:2,0:0:0:0:
342,103,63015,2,0,L|462:125,1,91.8500028030396,2|2,2:2|3:2,0:0:0:0:
368,197,63348,1,0,3:3:0:0:
298,31,63515,1,10,2:2:0:0:
228,98,63682,6,0,P|166:104|23:123,1,183.700005606079,0|0,3:3|3:3,0:0:0:0:
114,211,64182,2,0,P|165:201|219:196,1,91.8500028030396,10|0,2:2|0:0,0:0:0:0:
375,90,64515,1,2,3:2:0:0:
306,217,64682,1,2,3:2:0:0:
228,98,64848,1,10,2:2:0:0:
404,186,65015,6,0,P|418:257|344:364,1,183.700005606079,2|0,2:2|0:0,0:0:0:0:
267,368,65515,2,0,P|222:356|171:349,1,91.8500028030396,10|2,2:2|2:2,0:0:0:0:
106,257,65848,2,0,P|158:246|223:236,1,91.8500028030396,2|0,3:2|3:3,0:0:0:0:
177,349,66182,1,10,2:2:0:0:
177,349,66348,1,0,3:3:0:0:
28,331,66515,6,0,P|5:289|67:150,1,183.700005606079,2|10,2:2|2:2,0:0:0:0:
196,61,67015,2,0,P|216:121|181:160,1,91.8500028030396,2|2,2:2|3:2,0:0:0:0:
114,111,67348,1,0,3:3:0:0:
211,243,67515,2,0,B|360:220,1,137.775004204559,10|0,2:2|0:0,0:0:0:0:
444,244,67848,6,0,L|427:142,1,91.8500028030396,2|0,3:2|0:0,0:0:0:0:
329,43,68182,2,0,L|342:139,1,91.8500028030396,10|2,2:2|2:2,0:0:0:0:
347,221,68515,1,2,3:2:0:0:
249,128,68682,1,0,3:3:0:0:
430,154,68848,1,10,2:2:0:0:
267,284,69015,6,0,P|179:268|76:251,1,183.700005606079,4|0,3:2|3:3,0:0:0:0:
0,261,69515,1,10,2:2:0:0:
67,348,69682,1,2,3:2:0:0:
177,249,69848,2,0,L|167:296,2,45.9250014015198,14|0|10,2:2|0:0|2:2,0:0:0:0:
0,261,70182,2,0,L|9:216,1,45.9250014015198,10|8,2:2|2:2,0:0:0:0:
190,131,70348,1,8,2:2:0:0:
190,131,70432,1,8,2:2:0:0:
190,131,70515,6,0,P|125:161|40:92,2,183.700005606079,6|10|2,3:2|2:2|3:2,0:0:0:0:
247,59,71348,1,0,3:3:0:0:
408,159,71515,1,10,2:2:0:0:
310,194,71682,6,0,L|345:10,1,183.700005606079,0|0,3:3|3:3,0:0:0:0:
426,67,72182,2,0,L|406:168,1,91.8500028030396,10|0,2:2|0:0,0:0:0:0:
313,288,72515,1,2,3:2:0:0:
313,288,72682,1,0,3:3:0:0:
218,163,72848,2,0,L|121:180,1,91.8500028030396,10|2,2:2|0:0,0:0:0:0:
12,293,73182,6,0,L|147:269,1,137.775004204559,2|0,3:2|0:0,0:0:0:0:
147,269,73515,1,10,2:2:0:0:
259,345,73682,2,0,L|238:235,1,91.8500028030396,2|2,2:2|3:2,0:0:0:0:
232,159,74015,1,2,3:2:0:0:
148,269,74182,1,10,2:2:0:0:
369,380,74348,6,0,L|334:198,1,183.700005606079,6|0,3:2|3:3,0:0:0:0:
396,124,74848,2,0,L|478:137,1,83.5,10|0,2:2|0:0,0:0:0:0:
334,199,75182,1,2,3:2:0:0:
334,199,75348,1,2,3:2:0:0:
200,92,75515,1,10,2:2:0:0:
167,81,75598,1,8,2:2:0:0:
133,92,75682,1,8,2:2:0:0:
113,115,75765,1,8,2:2:0:0:
107,152,75848,6,0,L|136:322,1,167,6|10,3:2|2:2,0:0:0:0:
235,272,76348,2,0,L|219:176,1,83.5,2|0,2:2|3:3,0:0:0:0:
107,152,76682,1,0,3:3:0:0:
221,190,76848,1,10,2:2:0:0:
304,70,77015,6,0,P|396:52|470:122,1,167,0|0,3:3|3:3,0:0:0:0:
401,180,77515,2,0,P|360:187|312:148,1,83.5,10|0,2:2|0:0,0:0:0:0:
211,65,77848,1,2,3:2:0:0:
211,65,78015,1,0,3:3:0:0:
236,163,78182,2,0,L|227:256,1,83.5,10|0,2:2|0:0,0:0:0:0:
39,266,78515,6,0,L|58:82,1,167,2|10,3:2|2:2,0:0:0:0:
144,154,79015,2,0,L|136:240,1,83.5,2|2,2:2|3:2,0:0:0:0:
206,318,79348,1,2,3:2:0:0:
39,266,79515,1,10,2:2:0:0:
310,281,79682,6,0,B|347:295|375:331|375:331|412:300|453:301,1,167,6|0,3:2|3:3,0:0:0:0:
404,117,80182,2,0,L|392:199,1,83.5,10|0,2:2|0:0,0:0:0:0:
390,220,80432,1,8,2:2:0:0:
390,220,80515,1,2,3:2:0:0:
452,301,80682,1,8,2:3:0:0:
511,222,80848,1,10,2:2:0:0:
286,170,81015,5,8,2:2:0:0:
294,177,81098,1,0,3:2:0:0:
294,177,81182,2,0,B|254:192|217:234|217:234|155:213|104:217,2,187.875007166863,10|2|2,2:2|2:2|2:2,0:0:0:0:
435,296,82348,1,12,2:2:0:0:
435,296,83182,5,10,2:2:0:0:
512,139,83348,1,4,3:2:0:0:
410,186,83682,5,4,3:2:0:0:
256,192,83848,12,0,87848,0:0:0:0:
