osu file format v14

[General]
AudioFilename: audio.mp3
AudioLeadIn: 0
PreviewTime: 195282
Countdown: 0
SampleSet: Soft
StackLeniency: 0.7
Mode: 0
LetterboxInBreaks: 0
WidescreenStoryboard: 1

[Editor]
Bookmarks: 1328,6661,11827,22661,33327,43994,57327,59994,81327,94661,105161,115994,150661,161327,166661,170661,182661,193327,217327,230494,236327
DistanceSpacing: 1.25
BeatDivisor: 4
GridSize: 4
TimelineZoom: 1.6

[Metadata]
Title:"Boku wa..."
TitleUnicode:「僕は...」
Artist:Atarayo
ArtistUnicode:あたらよ
Creator:Liyuu
Version:tsunyun's Insane
Source:僕の心のヤバイやつ
Tags:boku no kokoro no yabai yatsu season 2 第2期 ii the dangers in my heart bokuyaba opening op jpop pop j-pop anime japanese asagi rielle tsunyun tsukinyuni midorijeon midori
BeatmapID:4548010
BeatmapSetID:2143919

[Difficulty]
HPDrainRate:6
CircleSize:3.8
OverallDifficulty:8
ApproachRate:8.6
SliderMultiplier:1.8
SliderTickRate:1

[Events]
//Background and Video events
0,0,"bg.jpg",0,0
//Break Periods
2,166861,171335
//Storyboard Layer 0 (Background)
//Storyboard Layer 1 (Fail)
//Storyboard Layer 2 (Pass)
//Storyboard Layer 3 (Foreground)
//Storyboard Layer 4 (Overlay)
//Storyboard Sound Samples

[TimingPoints]
1328,333.333333333333,4,2,1,60,1,0
1328,-166.666666666667,4,2,1,60,0,0
6661,-125,4,2,1,55,0,0
6994,-100,4,2,1,55,0,0
7327,-125,4,2,1,55,0,0
7994,-111.111111111111,4,2,1,55,0,0
11161,-111.111111111111,4,2,1,65,0,0
11827,-100,4,2,1,75,0,0
14994,-111.111111111111,4,2,1,75,0,0
16494,-99.9999999999999,4,2,1,75,0,0
17827,-111.111111111111,4,2,1,75,0,0
18494,-99.9999999999999,4,2,1,75,0,0
19161,-111.111111111111,4,2,1,75,0,0
22494,-111.111111111111,4,2,1,65,0,0
22994,-133.333333333333,4,2,1,65,0,0
23661,-111.111111111111,4,2,1,65,0,0
24494,-133.333333333333,4,2,1,65,0,0
25161,-111.111111111111,4,2,1,65,0,0
25661,-125,4,2,1,65,0,0
26661,-111.111111111111,4,2,1,65,0,0
27161,-125,4,2,1,65,0,0
27827,-111.111111111111,4,2,1,65,0,0
30161,-125,4,2,1,65,0,0
30494,-111.111111111111,4,2,1,65,0,0
30994,-125,4,2,1,65,0,0
31994,-111.111111111111,4,2,1,65,0,0
33661,-125,4,2,1,65,0,0
34327,-99.9999999999999,4,2,1,65,0,0
35161,-125,4,2,1,65,0,0
35827,-111.111111111111,4,2,1,65,0,0
41661,-125,4,2,1,65,0,0
42661,-111.111111111111,4,2,1,65,0,0
43827,-111.111111111111,4,2,1,70,0,0
44327,-142.857142857143,4,2,1,70,0,0
51827,-125,4,2,1,70,0,0
54494,-111.111111111111,4,2,1,70,0,0
59327,-111.111111111111,4,2,1,50,0,0
59994,-100,4,2,1,80,0,0
65994,-125,4,2,1,80,0,0
66661,-100,4,2,1,80,0,0
69661,-111.111111111111,4,2,1,80,0,0
70661,-99.9999999999999,4,2,1,80,0,0
83827,-99.9999999999999,4,2,1,75,0,0
91161,-111.111111111111,4,2,1,75,0,0
91827,-100,4,2,1,75,0,0
92494,-111.111111111111,4,2,1,75,0,0
93661,-100,4,2,1,75,0,0
94494,-125,4,2,1,60,0,0
105161,-111.111111111111,4,2,1,65,0,0
105661,-117.647058823529,4,2,1,65,0,0
106327,-105.263157894737,4,2,1,65,0,0
107827,-100,4,2,1,65,0,0
108327,-117.647058823529,4,2,1,65,0,0
109327,-100,4,2,1,65,0,0
109827,-111.111111111111,4,2,1,65,0,0
110494,-100,4,2,1,65,0,0
110994,-111.111111111111,4,2,1,65,0,0
111994,-100,4,2,1,65,0,0
112327,-125,4,2,1,65,0,0
113161,-105.263157894737,4,2,1,65,0,0
113661,-117.647058823529,4,2,1,65,0,0
115327,-133.333333333333,4,2,1,65,0,0
115994,-133.333333333333,4,2,1,70,0,0
117661,-90.9090909090909,4,2,1,70,0,0
117994,-125,4,2,1,70,0,0
118661,-100,4,2,1,80,0,0
119161,-111.111111111111,4,2,1,80,0,0
119827,-100,4,2,1,80,0,0
122327,-111.111111111111,4,2,1,80,0,0
123994,-100,4,2,1,80,0,0
124494,-125,4,2,1,80,0,0
125327,-111.111111111111,4,2,1,80,0,0
125827,-125,4,2,1,80,0,0
126661,-100,4,2,1,80,0,0
126994,-125,4,2,1,80,0,0
127827,-100,4,2,1,80,0,0
128327,-111.111111111111,4,2,1,80,0,0
129327,-100,4,2,1,80,0,0
129994,-111.111111111111,4,2,1,80,0,0
131661,-100,4,2,1,80,0,0
131994,-111.111111111111,4,2,1,80,0,0
133161,-100,4,2,1,80,0,0
133661,-111.111111111111,4,2,1,80,0,0
134661,-100,4,2,1,80,0,0
135161,-111.111111111111,4,2,1,80,0,0
135827,-100,4,2,1,80,0,0
136327,-111.111111111111,4,2,1,80,0,0
137327,-100,4,2,1,80,0,0
137827,-111.111111111111,4,2,1,80,0,0
138494,-100,4,2,1,80,0,0
139994,-100,4,2,1,75,0,0
150661,-125,4,2,1,70,0,0
151827,-111.111111111111,4,2,1,70,0,0
152327,-125,4,2,1,70,0,0
158327,-111.111111111111,4,2,1,70,0,0
158661,-125,4,2,1,70,0,0
159827,-100,4,2,1,70,0,0
161327,-100,4,2,1,50,0,0
171994,-125,4,2,1,60,0,0
182661,-125,4,2,1,65,0,0
187994,-100,4,2,1,70,0,0
188161,-100,4,2,1,45,0,0
188327,-125,4,2,1,47,0,0
188494,-125,4,2,1,48,0,0
188661,-125,4,2,1,50,0,0
188827,-125,4,2,1,52,0,0
188994,-125,4,2,1,53,0,0
189161,-125,4,2,1,55,0,0
189327,-125,4,2,1,57,0,0
189494,-125,4,2,1,58,0,0
189661,-125,4,2,1,60,0,0
189827,-125,4,2,1,62,0,0
189994,-125,4,2,1,63,0,0
190161,-125,4,2,1,65,0,0
190327,-125,4,2,1,67,0,0
190494,-125,4,2,1,68,0,0
190661,-100,4,2,1,70,0,0
190827,-100,4,2,1,45,0,0
190994,-100,4,2,1,47,0,0
191161,-100,4,2,1,50,0,0
191327,-90.9090909090909,4,2,1,52,0,0
191494,-90.9090909090909,4,2,1,54,0,0
191661,-83.3333333333333,4,2,1,56,0,0
191828,-83.3333333333333,4,2,1,59,0,0
191994,-76.9230769230769,4,2,1,61,0,0
192161,-76.9230769230769,4,2,1,63,0,0
192327,-125,4,2,1,65,0,0
192494,-125,4,2,1,68,0,0
192661,-125,4,2,1,70,0,0
193328,-125,4,2,1,50,0,0
193661,-125,4,2,1,46,0,0
193994,-125,4,2,1,42,0,0
194328,-125,4,2,1,38,0,0
194661,-125,4,2,1,34,0,0
194994,-125,4,2,1,30,0,0
195328,-125,4,2,1,60,0,0
195994,-100,4,2,1,80,0,0
201994,-125,4,2,1,80,0,0
202661,-100,4,2,1,80,0,0
204994,-125,4,2,1,80,0,0
205161,-100,4,2,1,80,0,0
219828,-100,4,2,1,75,0,0
230494,-100,4,2,1,65,0,0

[Colours]
Combo1 : 156,228,85
Combo2 : 156,114,37
Combo3 : 235,230,118

[HitObjects]
337,89,1328,6,0,P|406:105|380:172,2,161.999995056153,2|2|2,0:0|0:0|0:0,0:0:0:0:
490,69,2661,1,2,0:0:0:0:
380,172,2994,2,0,P|432:180|488:192,2,107.999996704102,2|2|2,0:0|0:0|0:0,0:0:0:0:
260,104,3994,2,0,P|242:182|272:256,2,161.999995056153,2|2|2,0:0|0:0|0:0,0:0:0:0:
380,172,5327,1,2,0:0:0:0:
271,255,5661,1,0,0:0:0:0:
428,336,5994,5,2,0:0:0:0:
404,254,6161,1,2,0:0:0:0:
344,316,6327,2,0,L|334:369,1,53.9999983520508,2|2,0:0|0:0,0:0:0:0:
486,221,6661,6,0,P|501:254|501:290,1,72,2|0,1:1|0:0,0:0:0:0:
380,168,6994,2,0,P|316:180|246:190,1,135,2|0,1:2|0:0,0:0:0:0:
232,188,7327,2,0,L|220:260,1,72,2|0,1:2|0:0,0:0:0:0:
296,96,7661,2,0,L|284:24,1,72,2|0,1:2|0:0,0:0:0:0:
128,220,7994,6,0,P|83:162|91:78,1,161.999995056153,2|0,1:2|1:2,0:0:0:0:
284,24,8494,2,0,P|328:81|320:165,1,161.999995056153,2|0,0:0|0:0,0:0:0:0:
207,234,8994,2,0,P|167:225|127:219,1,80.9999975280763,2|0,1:2|0:0,0:0:0:0:
288,312,9327,6,0,B|368:312|356:264|440:264,1,161.999995056153,2|0,1:2|1:2,0:0:0:0:
296,220,9827,2,0,B|216:220|228:172|144:172,1,161.999995056153,2|0,0:0|0:0,0:0:0:0:
32,208,10327,2,0,P|16:248|16:288,1,80.9999975280763,2|0,1:2|0:0,0:0:0:0:
200,336,10661,1,2,1:2:0:0:
120,268,10828,1,2,0:0:0:0:
218,232,10994,1,2,0:0:0:0:
68,124,11161,1,10,0:0:0:0:
56,132,11827,6,0,B|148:108|136:184|228:160,1,180,6|0,1:0|1:2,0:0:0:0:
388,68,12327,2,0,P|432:77|476:84,1,90,10|0,0:0|0:0,0:0:0:0:
313,6,12661,2,0,P|293:46|293:90,1,90,2|2,1:2|1:2,0:0:0:0:
408,204,12994,1,10,0:0:0:0:
328,272,13161,2,0,B|280:272|244:296|244:296|220:256|176:236,1,180,2|2,1:2|1:2,0:0:0:0:
68,192,13661,5,10,0:0:0:0:
196,132,13827,1,2,0:0:0:0:
152,40,13994,1,2,1:2:0:0:
271,176,14161,2,0,P|280:131|292:88,1,90,2|8,1:2|0:0,0:0:0:0:
47,31,14494,6,0,P|23:103|67:191,1,180,2|0,1:2|1:2,0:0:0:0:
214,80,14994,2,0,P|175:91|135:100,1,80.9999975280763,10|0,0:0|0:0,0:0:0:0:
9,276,15327,2,0,P|48:285|88:296,1,80.9999975280763,2|2,1:2|1:2,0:0:0:0:
276,268,15661,1,10,0:0:0:0:
196,208,15827,6,0,L|168:368,1,161.999995056153,2|2,1:2|1:2,0:0:0:0:
100,200,16327,1,10,0:0:0:0:
284,148,16494,1,2,1:2:0:0:
284,148,16577,1,8,0:0:0:0:
284,148,16661,2,0,B|308:184|308:184|295:228,1,90,8|6,1:3|0:3,0:0:0:0:
168,367,16994,1,10,0:0:0:0:
48,240,17161,6,0,P|138:227|206:279,1,180,6|2,1:0|1:2,0:0:0:0:
396,188,17661,1,10,0:0:0:0:
312,150,17827,2,0,P|299:188|293:228,1,80.9999975280763,2|0,0:0|1:2,0:0:0:0:
399,374,18160,2,0,P|385:335|379:295,1,80.9999975280763,2|8,1:2|0:0,0:0:0:0:
188,228,18494,6,0,B|97:204|109:280|17:256,1,180,2|2,1:2|1:2,0:0:0:0:
160,88,18994,1,10,0:0:0:0:
71,147,19161,2,0,P|62:108|56:68,1,80.9999975280763,2|0,0:0|1:2,0:0:0:0:
271,32,19494,2,0,P|264:72|256:112,1,80.9999975280763,2|8,1:2|0:0,0:0:0:0:
412,220,19827,6,0,P|448:168|440:68,1,161.999995056153,2|2,1:2|1:2,0:0:0:0:
312,224,20327,1,10,0:0:0:0:
256,111,20494,2,0,P|295:118|335:126,1,80.9999975280763,2|0,0:0|1:2,0:0:0:0:
491,204,20827,2,0,P|451:211|411:219,1,80.9999975280763,2|8,1:2|0:0,0:0:0:0:
286,377,21161,6,0,B|265:295|333:306|312:224,1,161.999995056153,6|2,1:0|1:2,0:0:0:0:
188,336,21661,5,10,0:0:0:0:
208,248,21827,1,2,1:2:0:0:
122,275,21994,1,8,0:0:0:0:
122,275,22077,1,8,0:0:0:0:
122,275,22161,1,10,0:3:0:0:
311,223,22327,1,2,1:2:0:0:
203,143,22494,2,0,P|137:137|65:193,1,161.999995056153,6|0,1:2|1:2,0:0:0:0:
0,32,22994,6,0,P|12:63|20:96,1,67.5000025749208,10|0,0:0|0:0,0:0:0:0:
45,257,23327,2,0,P|52:224|65:192,1,67.5000025749208,2|0,1:2|1:2,0:0:0:0:
216,116,23661,2,0,L|353:81,1,121.499996292114,10|0,0:0|0:0,0:0:0:0:
384,64,23994,6,0,P|368:120|360:184,1,121.499996292114,2|0,1:2|0:0,0:0:0:0:
360,182,24327,1,10,0:0:0:0:
448,288,24494,2,0,P|457:255|461:222,1,67.5000025749208,2|0,0:0|1:2,0:0:0:0:
246,166,24827,2,0,P|250:199|260:232,1,67.5000025749208,2|8,1:2|0:0,0:0:0:0:
360,324,25161,2,0,P|281:324|217:372,1,161.999995056153,2|0,1:2|1:2,0:0:0:0:
28,300,25661,6,0,L|99:314,1,72,10|0,0:0|0:0,0:0:0:0:
284,248,25994,1,2,1:2:0:0:
258,335,26161,1,0,1:2:0:0:
196,268,26327,2,0,P|187:233|184:197,1,72,10|0,0:0|0:0,0:0:0:0:
72,64,26661,6,0,L|48:182,1,121.499996292114,2|0,1:2|0:0,0:0:0:0:
48,183,26994,1,10,0:0:0:0:
168,100,27161,2,0,P|203:96|238:88,1,72,2|0,0:0|1:2,0:0:0:0:
344,12,27494,2,0,P|308:8|273:0,1,72,2|8,1:2|0:0,0:0:0:0:
220,188,27827,2,0,B|199:270|267:259|246:341,1,161.999995056153,2|0,1:2|1:2,0:0:0:0:
400,196,28327,6,0,P|356:196|324:212,1,80.9999975280763,10|0,0:0|0:0,0:0:0:0:
245,341,28661,1,2,1:2:0:0:
380,292,28827,1,0,1:2:0:0:
224,348,28994,2,0,P|168:340|104:324,1,121.499996292114,10|0,0:0|0:0,0:0:0:0:
32,363,29327,6,0,P|64:311|64:251,1,121.499996292114,2|0,1:2|0:0,0:0:0:0:
64,252,29661,1,10,0:0:0:0:
160,129,29827,1,2,0:0:0:0:
244,184,29994,1,0,1:2:0:0:
160,129,30161,2,0,P|148:172|144:200,1,72,2|8,1:2|0:0,0:0:0:0:
284,277,30494,2,0,B|366:298|355:230|437:251,1,161.999995056153,2|0,1:2|1:2,0:0:0:0:
354,89,30994,6,0,L|368:160,1,72,10|0,0:0|0:0,0:0:0:0:
472,40,31327,2,0,P|470:74|458:110,1,72,2|0,1:2|1:2,0:0:0:0:
268,224,31661,2,0,P|256:189|254:154,1,72,8|0,0:0|1:2,0:0:0:0:
344,40,31994,6,0,P|355:96|367:158,1,121.499996292114,2|0,0:0|0:0,0:0:0:0:
367,159,32327,1,8,0:0:0:0:
188,96,32494,1,0,1:2:0:0:
188,96,32577,1,8,0:0:0:0:
188,96,32661,1,2,1:2:0:0:
250,22,32827,1,10,0:3:0:0:
344,40,32994,2,0,L|336:79,1,40.4999987640381,8|8,0:0|0:0,0:0:0:0:
221,187,33161,6,0,P|141:201|62:218,1,161.999995056153,6|0,1:2|1:2,0:0:0:0:
16,80,33661,2,0,P|5:111|1:150,1,72,10|0,0:0|0:0,0:0:0:0:
164,308,33994,2,0,P|160:272|149:238,1,72,2|0,1:2|1:2,0:0:0:0:
104,132,34327,2,0,P|136:136|192:148,1,90,10|0,0:0|0:0,0:0:0:0:
308,20,34661,6,0,P|252:12|184:48,1,135,2|0,1:2|0:0,0:0:0:0:
184,47,34994,1,10,0:0:0:0:
276,176,35161,2,0,L|348:192,1,72,2|0,0:0|1:2,0:0:0:0:
432,112,35494,2,0,L|361:96,1,72,2|8,1:2|0:0,0:0:0:0:
288,280,35827,6,0,B|206:301|217:233|135:254,1,161.999995056153,2|0,1:2|1:2,0:0:0:0:
24,376,36327,2,0,L|40:296,1,80.9999975280763,10|0,0:0|0:0,0:0:0:0:
164,140,36661,1,2,1:2:0:0:
184,220,36827,1,0,1:2:0:0:
208,300,36994,2,0,L|288:316,1,80.9999975280763,10|0,0:0|0:0,0:0:0:0:
452,292,37327,6,0,P|392:280|344:244,1,121.499996292114,2|0,1:2|0:0,0:0:0:0:
344,244,37661,1,10,0:0:0:0:
208,331,37827,2,0,L|288:315,1,80.9999975280763,2|0,0:0|1:2,0:0:0:0:
512,208,38161,2,0,L|432:192,1,80.9999975280763,2|8,1:2|0:0,0:0:0:0:
316,88,38494,6,0,P|345:163|344:244,1,161.999995056153,2|0,1:2|1:2,0:0:0:0:
208,331,38994,2,0,P|220:283|224:251,1,80.9999975280763,10|0,0:0|0:0,0:0:0:0:
376,156,39327,1,2,1:2:0:0:
284,108,39494,1,0,1:2:0:0:
371,52,39661,2,0,P|419:64|451:68,1,80.9999975280763,10|0,0:0|0:0,0:0:0:0:
271,120,39994,6,0,L|151:140,1,121.499996292114,2|0,1:2|0:0,0:0:0:0:
151,139,40327,1,10,0:0:0:0:
68,48,40494,2,0,B|44:80|44:80|56:120,1,80.9999975280763,2|0,0:0|1:2,0:0:0:0:
72,284,40827,2,0,B|96:252|96:252|84:212,1,80.9999975280763,2|8,1:2|0:0,0:0:0:0:
292,59,41161,2,0,P|230:108|152:100,1,161.999995056153,2|0,1:2|1:2,0:0:0:0:
13,197,41661,6,0,P|52:204|85:213,1,72,10|0,0:0|0:0,0:0:0:0:
105,299,41994,2,0,P|140:290|176:284,1,72,2|0,1:2|1:2,0:0:0:0:
256,192,42327,1,8,0:0:0:0:
340,340,42494,5,2,1:2:0:0:
340,340,42577,1,0,1:2:0:0:
340,340,42661,2,0,P|351:305|355:261,1,80.9999975280763,14|0,0:0|1:2,0:0:0:0:
144,192,42994,2,0,P|132:157|128:113,1,80.9999975280763,8|0,0:0|1:2,0:0:0:0:
348,31,43327,5,10,0:0:0:0:
268,79,43494,1,8,0:3:0:0:
336,144,43661,1,4,0:3:0:0:
256,192,43827,2,0,P|240:276|228:352,1,161.999995056153,6|10,1:0|0:0,0:0:0:0:
361,233,44327,6,0,L|425:221,1,62.9999980773926,2|0,1:2|0:0,0:0:0:0:
496,300,44661,2,0,P|433:308|379:339,1,125.999996154785,10|2,0:0|0:0,0:0:0:0:
288,276,45161,1,0,1:2:0:0:
361,233,45327,1,2,0:0:0:0:
288,192,45494,2,0,P|280:156|276:128,1,62.9999980773926,10|2,0:0|1:2,0:0:0:0:
124,152,45827,1,2,0:0:0:0:
197,111,45994,2,0,P|205:75|209:47,1,62.9999980773926,8|2,0:0|0:0,0:0:0:0:
360,267,46327,1,2,0:0:0:0:
288,192,46494,6,0,P|268:224|264:312,1,125.999996154785,2|8,1:2|0:0,0:0:0:0:
421,252,46994,2,0,L|360:268,1,62.9999980773926,0|2,1:2|0:0,0:0:0:0:
227,176,47327,2,0,L|288:192,1,62.9999980773926,8|0,0:0|0:0,0:0:0:0:
263,310,47661,1,10,0:0:0:0:
421,252,47827,6,0,P|412:192|398:128,1,125.999996154785,0|10,1:2|0:0,0:0:0:0:
488,20,48327,2,0,P|483:49|476:81,1,62.9999980773926,0|0,1:2|0:0,0:0:0:0:
292,76,48661,1,10,0:0:0:0:
360,24,48827,1,6,0:3:0:0:
208,60,48994,1,10,0:0:0:0:
340,148,49161,6,0,L|312:272,1,125.999996154785,6|10,1:0|0:0,0:0:0:0:
482,240,49661,2,0,P|451:245|421:252,1,62.9999980773926,2|0,1:2|0:0,0:0:0:0:
220,353,49994,2,0,P|282:362|344:376,1,125.999996154785,10|10,0:0|0:0,0:0:0:0:
220,228,50494,1,0,1:2:0:0:
312,270,50661,1,2,0:0:0:0:
289,153,50827,6,0,P|318:208|312:270,1,125.999996154785,10|2,0:0|0:0,0:0:0:0:
220,353,51327,1,8,0:0:0:0:
140,312,51494,1,2,1:2:0:0:
54,338,51661,1,10,0:0:0:0:
161,225,51827,6,0,B|179:152|119:162|137:89,1,144,6|0,1:2|1:2,0:0:0:0:
48,216,52327,2,0,L|64:288,1,72,8|2,0:0|1:2,0:0:0:0:
63,286,52577,1,8,0:0:0:0:
63,286,52661,1,0,1:2:0:0:
161,225,52827,1,0,1:2:0:0:
240,352,52994,1,8,0:0:0:0:
160,324,53161,5,2,1:2:0:0:
160,324,53244,1,8,0:0:0:0:
160,324,53327,2,0,P|224:308|300:292,1,144,0|8,1:2|0:0,0:0:0:0:
236,96,53827,2,0,L|228:132,1,36,2|8,1:2|0:0,0:0:0:0:
208,216,53994,1,0,1:2:0:0:
313,151,54161,1,0,1:2:0:0:
159,41,54328,1,8,0:0:0:0:
324,160,54494,6,0,B|406:181|395:113|477:134,1,161.999995056153,6|2,1:0|1:2,0:0:0:0:
348,64,54994,1,10,0:0:0:0:
488,144,55161,1,0,1:2:0:0:
372,256,55327,1,10,0:0:0:0:
232,176,55494,1,2,1:2:0:0:
202,181,55577,1,0,1:2:0:0:
172,187,55660,1,10,0:0:0:0:
142,195,55744,1,8,0:0:0:0:
113,203,55827,5,10,1:2:0:0:
456,300,56494,5,2,1:1:0:0:
256,192,57327,12,2,59327,0:0:0:0:
240,88,59994,6,0,P|220:180|264:248,1,180,6|8,1:0|0:0,0:0:0:0:
416,88,60494,2,0,P|428:44|432:0,1,90,2|0,0:0|1:2,0:0:0:0:
328,156,60827,1,0,1:2:0:0:
488,200,60994,1,10,0:0:0:0:
280,260,61161,2,0,B|188:283|201:207|110:231,1,180,2|0,1:2|1:2,0:0:0:0:
32,348,61661,6,0,L|120:332,1,90,10|0,0:0|0:0,0:0:0:0:
284,228,61994,2,0,L|196:212,1,90,2|0,1:2|1:2,0:0:0:0:
4,120,62327,2,0,P|8:165|20:209,1,90,10|0,0:0|0:0,0:0:0:0:
196,64,62661,6,0,P|124:52|144:128,1,180,2|8,1:2|0:0,0:0:0:0:
280,260,63161,1,2,0:0:0:0:
452,180,63327,1,0,1:2:0:0:
360,156,63494,1,0,1:2:0:0:
386,248,63661,2,0,P|397:291|402:336,1,90,10|2,0:0|1:2,0:0:0:0:
175,296,63994,2,0,P|180:251|192:208,1,90,2|0,0:0|1:2,0:0:0:0:
288,80,64327,6,0,B|304:168,1,90,10|0,0:0|0:0,0:0:0:0:
372,296,64661,1,2,1:2:0:0:
192,208,64827,1,2,1:2:0:0:
392,108,64994,1,10,0:0:0:0:
288,80,65161,1,2,0:0:0:0:
176,220,65327,6,0,P|84:228|16:180,1,180,6|10,1:0|0:0,0:0:0:0:
184,28,65827,1,0,0:0:0:0:
96,62,65994,2,0,P|106:96|112:132,1,72,2|0,1:2|1:2,0:0:0:0:
160,289,66327,2,0,P|165:254|176:220,1,72,10|0,0:0|1:2,0:0:0:0:
340,136,66661,6,0,B|431:112|418:188|509:164,1,180,2|8,0:0|0:0,0:0:0:0:
268,76,67161,2,0,P|248:112|248:160,1,90,2|0,0:0|1:2,0:0:0:0:
416,48,67494,1,0,1:2:0:0:
372,232,67661,2,0,L|388:320,1,90,10|0,0:0|0:0,0:0:0:0:
224,176,67994,6,0,P|164:160|92:148,1,135,2|0,1:2|0:0,0:0:0:0:
72,148,68327,2,0,P|57:101|61:61,1,90,8|2,0:0|0:0,0:0:0:0:
140,240,68661,5,0,1:2:0:0:
33,281,68827,1,0,1:2:0:0:
168,116,68994,1,10,0:0:0:0:
245,287,69161,2,0,B|361:259|361:259|409:295,1,180,6|0,1:2|1:2,0:0:0:0:
494,155,69661,2,0,P|483:194|478:234,1,80.9999975280763,8|0,0:0|1:2,0:0:0:0:
340,356,69994,1,10,0:0:0:0:
164,252,70161,5,10,0:0:0:0:
164,252,70244,1,8,0:0:0:0:
164,252,70327,2,0,L|172:292,1,40.4999987640381,10|8,0:0|0:0,0:0:0:0:
104,352,70494,2,0,L|96:312,1,40.4999987640381,8|8,0:0|0:0,0:0:0:0:
28,188,70661,6,0,B|120:163|107:239|198:215,1,180,6|8,1:0|0:0,0:0:0:0:
420,104,71161,1,2,0:0:0:0:
320,41,71327,2,0,P|308:84|303:129,1,90,0|0,1:2|1:2,0:0:0:0:
376,300,71661,1,10,0:0:0:0:
452,244,71827,6,0,B|359:219|372:295|281:271,1,180,2|0,1:2|1:2,0:0:0:0:
116,170,72327,2,0,L|27:186,1,90,10|0,0:0|0:0,0:0:0:0:
233,102,72661,1,2,1:2:0:0:
48,52,72827,1,0,1:2:0:0:
132,180,72994,2,0,P|157:240|153:308,1,135,10|0,0:0|0:0,0:0:0:0:
140,328,73327,6,0,L|51:344,1,90,2|0,1:2|0:0,0:0:0:0:
220,372,73661,1,10,0:0:0:0:
344,272,73827,2,0,P|360:230|358:186,1,90,2|0,0:0|1:2,0:0:0:0:
380,48,74161,2,0,P|413:77|430:118,1,90,2|8,1:2|0:0,0:0:0:0:
244,244,74494,2,0,B|153:268|166:192|73:216,1,180,6|0,1:0|1:2,0:0:0:0:
160,44,74994,6,0,P|171:87|176:132,1,90,8|0,0:0|0:0,0:0:0:0:
100,312,75327,1,2,1:2:0:0:
244,244,75494,1,2,1:2:0:0:
344,368,75661,1,10,0:0:0:0:
381,378,75744,1,8,0:0:0:0:
420,375,75827,1,8,0:0:0:0:
456,359,75910,1,8,0:0:0:0:
484,331,75994,6,0,B|508:240|432:253|456:160,1,180,6|8,1:0|0:0,0:0:0:0:
331,263,76494,2,0,L|244:244,1,90,2|0,0:0|1:2,0:0:0:0:
136,296,76827,1,0,1:2:0:0:
308,164,76994,1,10,0:0:0:0:
104,36,77161,2,0,P|165:98|252:92,1,180,2|0,1:2|1:2,0:0:0:0:
48,164,77661,6,0,P|33:207|33:251,1,90,10|0,0:0|0:0,0:0:0:0:
152,128,77994,1,2,1:2:0:0:
235,200,78161,1,0,1:2:0:0:
370,115,78327,2,0,P|370:70|356:28,1,90,10|0,0:0|0:0,0:0:0:0:
484,244,78661,6,0,B|372:208|372:208|320:244,1,180,2|10,1:2|0:0,0:0:0:0:
215,339,79161,2,0,P|219:294|231:250,1,90,2|0,0:0|1:2,0:0:0:0:
356,120,79494,1,2,1:2:0:0:
384,308,79661,1,8,0:0:0:0:
172,184,79827,2,0,B|79:159|92:235|1:211,1,180,6|0,1:0|1:2,0:0:0:0:
215,339,80327,6,0,L|127:319,1,90,10|0,0:0|0:0,0:0:0:0:
24,104,80661,2,0,L|112:84,1,90,2|8,1:2|0:3,0:0:0:0:
260,244,80994,1,10,0:0:0:0:
84,200,81161,1,0,1:2:0:0:
84,200,81244,1,0,1:2:0:0:
84,200,81327,5,10,0:0:0:0:
220,28,82494,5,10,0:0:0:0:
380,344,83327,5,10,0:0:0:0:
276,332,83494,2,0,P|348:316|408:304,1,135,2|0,1:2|0:0,0:0:0:0:
504,259,83827,6,0,P|417:272|347:219,1,180,6|0,1:0|1:2,0:0:0:0:
196,20,84327,2,0,P|239:32|283:39,1,90,10|0,0:0|0:0,0:0:0:0:
367,116,84661,2,0,P|322:123|279:135,1,90,2|2,1:2|1:2,0:0:0:0:
160,236,84994,1,10,0:0:0:0:
298,295,85161,6,0,B|314:247|286:201|272:226|244:177|264:128,1,180,2|2,1:2|1:2,0:0:0:0:
390,4,85661,1,10,0:0:0:0:
452,166,85827,1,2,0:0:0:0:
367,116,85994,1,2,1:2:0:0:
247,216,86161,2,0,P|203:228|159:235,1,90,2|8,1:2|0:0,0:0:0:0:
12,112,86493,6,0,P|104:92|168:140,1,180,2|0,1:2|1:2,0:0:0:0:
289,21,86994,2,0,P|280:63|273:109,1,90,10|0,0:0|0:0,0:0:0:0:
76,204,87327,2,0,P|85:247|92:292,1,90,2|2,1:2|1:2,0:0:0:0:
12,112,87661,1,10,0:0:0:0:
192,228,87827,2,0,B|283:252|270:176|362:200,1,180,2|2,1:2|1:2,0:0:0:0:
292,316,88327,5,10,0:0:0:0:
455,231,88494,2,0,P|458:187|442:145,1,90,2|0,0:0|1:2,0:0:0:0:
220,120,88827,1,10,0:3:0:0:
276,324,88994,1,10,0:0:0:0:
168,244,89161,6,0,P|108:232|20:300,1,180,6|2,1:0|1:2,0:0:0:0:
116,332,89661,1,10,0:0:0:0:
16,165,89827,1,2,1:2:0:0:
16,165,89911,1,0,1:2:0:0:
16,165,89994,2,0,P|11:121|28:80,1,90,0|2,1:2|1:2,0:0:0:0:
244,20,90327,1,8,0:0:0:0:
112,136,90494,6,0,B|224:108|224:108|276:148,1,180,2|2,1:2|1:2,0:0:0:0:
460,3,90994,1,10,0:0:0:0:
375,28,91161,2,0,P|365:66|360:106,1,80.9999975280763,2|0,0:0|1:2,0:0:0:0:
432,280,91494,2,0,P|441:240|446:200,1,80.9999975280763,2|8,1:2|0:0,0:0:0:0:
268,52,91827,6,0,B|177:28|189:104|97:80,1,180,2|2,1:2|1:2,0:0:0:0:
208,184,92327,1,10,0:0:0:0:
188,284,92494,2,0,P|179:322|172:364,1,80.9999975280763,2|0,0:0|1:2,0:0:0:0:
111,216,92827,1,2,1:2:0:0:
285,252,92994,1,10,0:0:0:0:
433,154,93161,6,0,P|441:82|405:2,1,161.999995056153,6|2,1:0|1:2,0:0:0:0:
236,60,93661,2,0,P|246:103|253:148,1,90,8|2,0:0|1:2,0:0:0:0:
473,257,93994,1,10,0:0:0:0:
433,154,94161,1,10,0:3:0:0:
344,220,94327,1,10,0:0:0:0:
216,112,94494,2,0,P|140:124|72:140,1,144,6|0,1:2|1:2,0:0:0:0:
200,12,94994,6,0,L|272:24,1,72,10|0,0:0|0:0,0:0:0:0:
304,167,95327,1,2,1:2:0:0:
380,152,95494,1,0,1:2:0:0:
456,137,95661,1,10,0:0:0:0:
462,142,95994,5,2,1:2:0:0:
437,214,96161,1,0,1:2:0:0:
412,288,96328,1,10,0:0:0:0:
404,290,96661,5,0,1:2:0:0:
352,231,96827,1,2,1:2:0:0:
430,216,96994,1,8,0:0:0:0:
468,340,97161,2,0,B|396:360|404:304|330:324,1,144,2|0,1:0|1:2,0:0:0:0:
194,258,97661,6,0,L|123:242,1,72,10|0,0:0|0:0,0:0:0:0:
16,280,97994,1,2,1:2:0:0:
31,204,98161,1,0,1:2:0:0:
46,128,98328,1,10,0:0:0:0:
52,124,98661,5,2,1:0:0:0:
25,208,98827,1,2,1:0:0:0:
112,190,98994,1,10,0:0:0:0:
199,40,99327,5,2,1:0:0:0:
226,124,99493,1,2,1:2:0:0:
139,106,99660,1,8,0:0:0:0:
253,208,99827,2,0,P|301:212|385:172,1,144,6|0,1:0|1:2,0:0:0:0:
330,36,100327,6,0,P|318:72|314:108,1,72,10|0,0:0|0:0,0:0:0:0:
332,236,100661,1,2,1:2:0:0:
415,250,100827,1,0,1:2:0:0:
468,185,100994,1,10,0:0:0:0:
476,192,101327,5,2,1:2:0:0:
422,256,101493,1,0,1:2:0:0:
368,320,101661,1,10,0:0:0:0:
361,328,101994,5,0,1:2:0:0:
297,274,102160,1,2,1:2:0:0:
311,191,102327,1,8,0:0:0:0:
219,304,102494,6,0,B|145:323|153:268|81:288,1,144,6|0,1:2|1:2,0:0:0:0:
120,156,102994,2,0,L|104:85,1,72,10|0,0:0|0:0,0:0:0:0:
196,212,103327,1,2,1:2:0:0:
196,212,103494,1,0,1:2:0:0:
295,51,103661,1,8,0:0:0:0:
344,132,103827,6,0,P|277:144|217:104,1,144,4|0,1:0|1:2,0:0:0:0:
12,112,104327,2,0,P|48:116|84:128,1,72,8|0,0:0|1:2,0:0:0:0:
188,212,104661,5,10,0:3:0:0:
220,220,104744,1,8,0:3:0:0:
253,217,104827,1,2,1:2:0:0:
284,203,104910,1,0,1:2:0:0:
308,179,104994,2,0,L|316:143,1,36,8|8,0:0|0:0,0:0:0:0:
424,100,105161,2,0,P|403:178|389:258,1,161.999995056153,6|0,1:2|1:2,0:0:0:0:
220,220,105661,6,0,L|144:231,1,76.5000014591217,10|0,0:0|0:0,0:0:0:0:
284,336,105994,1,2,1:2:0:0:
284,336,106161,1,0,1:2:0:0:
63,297,106327,2,0,P|39:238|54:176,1,128.249996575356,10|0,0:0|0:0,0:0:0:0:
64,164,106661,5,2,0:0:0:0:
144,230,106827,1,0,1:2:0:0:
263,109,106994,2,0,P|271:65|271:25,1,85.4999977169037,10|2,0:0|0:0,0:0:0:0:
162,128,107328,5,0,1:2:0:0:
224,296,107494,1,2,1:2:0:0:
311,241,107661,1,8,0:0:0:0:
132,320,107827,2,0,B|223:296|211:372|303:348,1,180,2|0,1:2|1:2,0:0:0:0:
405,219,108327,6,0,P|393:251|389:295,1,76.5000014591217,10|0,0:0|0:0,0:0:0:0:
512,352,108661,2,0,P|500:320|496:276,1,76.5000014591217,2|0,1:2|1:2,0:0:0:0:
444,124,108994,2,0,L|460:48,1,76.5000014591217,10|0,0:0|0:0,0:0:0:0:
308,172,109327,6,0,P|246:179|190:139,1,135,2|0,1:2|0:0,0:0:0:0:
182,123,109661,1,10,0:0:0:0:
27,218,109827,2,0,P|67:223|105:234,1,80.9999975280763,2|0,0:0|1:2,0:0:0:0:
346,67,110161,2,0,P|307:78|267:83,1,80.9999975280763,2|8,1:2|0:0,0:0:0:0:
230,286,110494,2,0,B|241:236|209:193|198:219|165:173|181:122,1,180,2|0,1:2|1:2,0:0:0:0:
60,20,110994,6,0,P|68:56|76:100,1,80.9999975280763,10|0,0:0|0:0,0:0:0:0:
105,234,111327,1,2,1:2:0:0:
105,234,111494,1,0,1:2:0:0:
232,196,111661,2,0,P|292:204|352:220,1,121.499996292114,10|0,0:0|0:0,0:0:0:0:
360,233,111994,6,0,P|398:238|442:214,1,90,2|0,1:2|1:2,0:0:0:0:
394,57,112327,2,0,L|380:128,1,72,10|2,0:0|0:0,0:0:0:0:
216,268,112661,1,0,1:2:0:0:
192,176,112827,1,2,1:2:0:0:
328,292,112994,1,8,0:0:0:0:
148,332,113161,2,0,B|80:348|32:304|32:304|48:284|56:264,1,170.999995433807,2|0,1:2|1:2,0:0:0:0:
234,353,113661,6,0,P|248:316|251:279,1,76.5000014591217,10|0,0:0|0:0,0:0:0:0:
132,99,113994,2,0,P|135:136|150:172,1,76.5000014591217,2|0,1:2|1:2,0:0:0:0:
320,224,114327,2,0,L|396:208,1,76.5000014591217,8|2,0:0|1:2,0:0:0:0:
252,280,114661,5,14,0:0:0:0:
404,324,114827,1,0,1:2:0:0:
236,292,114994,1,8,0:0:0:0:
394,208,115161,1,0,1:2:0:0:
294,34,115327,6,0,L|286:70,1,33.7500012874604,10|8,0:0|0:0,0:0:0:0:
270,142,115494,1,8,0:3:0:0:
146,76,115661,2,0,P|98:84|46:96,1,101.250003862381,4|0,0:3|0:0,0:0:0:0:
30,104,115994,5,14,0:0:0:0:
130,241,116161,2,0,L|116:176,1,67.5000025749208,0|0,1:2|1:2,0:0:0:0:
379,253,116494,2,0,L|329:298,1,67.5000025749208,10|0,0:0|0:0,0:0:0:0:
270,142,116827,2,0,L|249:205,1,67.5000025749208,10|0,0:0|0:0,0:0:0:0:
120,96,117161,2,0,L|134:161,1,67.5000025749208,10|0,0:0|0:0,0:0:0:0:
56,296,117494,5,2,1:2:0:0:
56,296,117577,1,0,1:2:0:0:
56,296,117661,2,0,B|144:272|144:272|188:308,1,148.50000453186,10|0,0:0|0:0,0:0:0:0:
248,364,117994,1,10,0:0:0:0:
495,192,118661,6,0,P|408:205|340:152,1,180,6|8,1:0|0:0,0:0:0:0:
420,28,119161,2,0,P|432:64|436:108,1,80.9999975280763,2|0,0:0|1:2,0:0:0:0:
280,68,119494,1,0,1:2:0:0:
404,236,119661,1,10,0:0:0:0:
242,195,119827,6,0,B|151:219|164:143|72:168,1,180,2|0,1:2|1:2,0:0:0:0:
208,28,120327,2,0,L|296:48,1,90,10|0,0:0|0:0,0:0:0:0:
102,53,120661,1,2,1:2:0:0:
242,195,120827,1,0,1:2:0:0:
52,253,120994,2,0,P|52:213|76:161,1,90,10|0,0:0|0:0,0:0:0:0:
295,47,121327,6,0,B|410:74|410:74|458:32,1,180,2|8,1:2|0:0,0:0:0:0:
336,148,121827,1,2,0:0:0:0:
496,196,121994,1,0,1:2:0:0:
416,232,122161,1,0,1:2:0:0:
488,284,122327,2,0,P|496:328|500:364,1,80.9999975280763,10|2,0:0|1:2,0:0:0:0:
348,176,122661,2,0,P|352:135|360:95,1,80.9999975280763,2|0,0:0|1:2,0:0:0:0:
204,284,122994,6,0,L|124:300,1,80.9999975280763,10|0,0:0|0:0,0:0:0:0:
164,88,123327,1,2,1:2:0:0:
120,160,123494,1,2,1:2:0:0:
37,179,123661,1,10,0:0:0:0:
124,299,123827,1,2,0:0:0:0:
248,212,123994,6,0,B|292:204|312:164|312:164|360:144|404:176,1,180,6|10,1:0|0:0,0:0:0:0:
512,324,124494,1,0,0:0:0:0:
416,340,124661,2,0,P|424:300|432:268,1,72,2|0,1:2|1:2,0:0:0:0:
481,75,124994,2,0,P|489:109|496:145,1,72,10|0,0:0|1:2,0:0:0:0:
332,280,125327,6,0,P|293:205|309:133,1,161.999995056153,2|8,0:0|0:0,0:0:0:0:
140,244,125827,2,0,P|104:250|69:259,1,72,2|0,0:0|1:2,0:0:0:0:
200,168,126161,1,0,1:2:0:0:
331,279,126327,2,0,P|322:314|316:350,1,72,10|0,0:0|0:0,0:0:0:0:
216,176,126661,6,0,P|200:108|192:44,1,135,2|0,1:2|0:0,0:0:0:0:
180,24,126994,2,0,L|108:8,1,72,8|2,0:0|0:0,0:0:0:0:
292,100,127327,1,0,1:2:0:0:
112,164,127494,1,0,1:2:0:0:
300,276,127661,1,10,0:0:0:0:
228,184,127827,6,0,P|140:188|64:236,1,180,6|0,1:0|1:2,0:0:0:0:
158,90,128327,2,0,P|172:52|176:12,1,80.9999975280763,8|0,0:0|1:2,0:0:0:0:
64,120,128661,1,2,1:2:0:0:
236,227,128827,1,10,0:0:0:0:
236,227,128911,1,8,0:0:0:0:
236,228,128994,2,0,L|244:188,1,40.4999987640381,10|8,0:3|0:3,0:0:0:0:
56,308,129161,2,0,L|48:268,1,40.4999987640381,4|4,0:3|0:3,0:0:0:0:
192,372,129327,6,0,B|203:322|171:279|160:305|127:259|143:208,1,180,6|8,1:2|0:0,0:0:0:0:
276,72,129827,1,2,0:0:0:0:
352,128,129994,2,0,B|432:144,1,80.9999975280763,0|0,1:2|1:2,0:0:0:0:
264,56,130327,1,10,0:0:0:0:
372,228,130494,2,0,P|376:308|340:380,1,161.999995056153,2|0,1:2|1:2,0:0:0:0:
472,228,130994,6,0,P|464:196|456:148,1,80.9999975280763,10|0,0:0|0:0,0:0:0:0:
280,288,131327,1,2,1:2:0:0:
372,228,131493,1,0,1:2:0:0:
212,156,131661,2,0,P|146:140|79:129,1,135,10|0,0:0|0:0,0:0:0:0:
60,136,131994,6,0,L|48:56,1,80.9999975280763,2|0,1:2|0:0,0:0:0:0:
184,248,132327,1,10,0:0:0:0:
16,244,132494,2,0,P|55:234|95:228,1,80.9999975280763,2|0,0:0|1:2,0:0:0:0:
291,171,132827,2,0,P|251:161|211:155,1,80.9999975280763,2|8,1:2|0:0,0:0:0:0:
72,324,133161,6,0,B|165:299|152:375|243:351,1,180,6|0,1:2|1:2,0:0:0:0:
384,196,133661,2,0,P|394:235|400:275,1,80.9999975280763,8|0,0:0|0:0,0:0:0:0:
284,164,133994,1,2,1:2:0:0:
444,116,134161,1,2,1:2:0:0:
400,275,134327,1,10,0:0:0:0:
200,196,134494,5,8,0:0:0:0:
200,196,134577,1,8,0:0:0:0:
200,196,134661,2,0,B|84:164|84:164|40:204,1,180,6|8,1:0|0:0,0:0:0:0:
160,88,135161,2,0,P|160:48|144:4,1,80.9999975280763,2|0,0:0|1:2,0:0:0:0:
64,64,135494,1,0,1:2:0:0:
200,196,135661,1,10,0:0:0:0:
324,148,135827,2,0,B|417:123|404:199|495:175,1,180,2|0,1:2|1:2,0:0:0:0:
348,324,136327,6,0,P|304:332|268:340,1,80.9999975280763,10|0,0:0|0:0,0:0:0:0:
428,272,136661,1,2,1:2:0:0:
324,148,136827,1,0,1:2:0:0:
432,48,136994,6,0,P|423:87|416:127,1,80.9999975280763,10|0,0:0|0:0,0:0:0:0:
268,240,137327,2,0,P|228:168|244:76,1,180,2|10,1:2|0:0,0:0:0:0:
136,224,137827,6,0,P|128:184|120:144,1,80.9999975280763,2|0,0:0|1:2,0:0:0:0:
192,316,138161,1,2,1:2:0:0:
44,272,138327,1,8,0:0:0:0:
240,160,138494,2,0,B|333:135|320:211|411:187,1,180,6|0,1:0|1:2,0:0:0:0:
304,36,138994,6,0,P|256:48|216:56,1,90,12|0,0:0|0:0,0:0:0:0:
410,187,139327,1,10,0:0:0:0:
413,164,139410,1,8,0:0:0:0:
416,142,139493,1,8,0:0:0:0:
420,120,139577,1,8,0:0:0:0:
424,98,139660,1,8,0:0:0:0:
429,76,139743,1,8,0:0:0:0:
434,54,139827,1,8,0:0:0:0:
268,88,139994,6,0,P|280:124|288:176,1,90,6|0,1:2|0:0,0:0:0:0:
400,312,140327,2,0,P|412:276|420:224,1,90,8|2,0:0|0:0,0:0:0:0:
152,232,140661,1,0,1:2:0:0:
252,268,140827,1,2,1:2:0:0:
170,336,140994,1,10,0:0:0:0:
24,224,141161,6,0,P|16:136|56:56,1,180,6|0,1:0|1:2,0:0:0:0:
263,62,141661,2,0,P|216:72|176:84,1,90,8|0,0:0|0:0,0:0:0:0:
136,248,141994,1,2,1:2:0:0:
216,180,142161,1,0,1:2:0:0:
234,283,142327,2,0,L|212:370,1,90,8|0,0:0|0:0,0:0:0:0:
431,208,142661,6,0,P|388:219|344:228,1,90,2|0,1:2|0:0,0:0:0:0:
108,152,142994,2,0,P|152:160|196:172,1,90,8|2,0:0|0:0,0:0:0:0:
412,304,143327,5,0,1:2:0:0:
320,228,143494,1,2,1:2:0:0:
431,186,143661,1,10,0:0:0:0:
320,44,143827,1,6,1:2:0:0:
423,85,143994,6,0,P|379:73|335:65,1,90,2|0,0:0|1:2,0:0:0:0:
108,151,144327,2,0,P|152:143|196:132,1,90,10|0,0:0|0:0,0:0:0:0:
340,336,144661,5,2,1:2:0:0:
263,268,144827,1,0,1:2:0:0:
174,250,144994,1,10,0:0:0:0:
96,277,145161,1,8,0:3:0:0:
212,124,145327,6,0,P|220:92|228:36,1,90,6|0,1:0|0:0,0:0:0:0:
72,194,145661,1,10,0:0:0:0:
172,233,145827,1,0,0:0:0:0:
88,300,145994,2,0,P|43:305|0:316,1,90,0|0,1:2|1:2,0:0:0:0:
188,216,146327,1,10,0:0:0:0:
256,372,146494,6,0,P|312:384|408:320,1,180,4|0,1:2|1:2,0:0:0:0:
500,136,146994,2,0,L|412:155,1,90,10|0,0:0|0:0,0:0:0:0:
309,275,147327,1,2,1:2:0:0:
408,319,147494,1,0,1:2:0:0:
204,300,147661,2,0,P|160:308|116:319,1,90,10|0,0:0|0:0,0:0:0:0:
376,216,147994,6,0,P|376:144|360:84,1,135,4|0,1:0|0:0,0:0:0:0:
348,68,148327,2,0,L|260:48,1,90,10|0,0:0|1:2,0:0:0:0:
108,212,148661,1,10,0:0:0:0:
224,176,148827,1,0,1:2:0:0:
160,74,148994,1,10,0:0:0:0:
0,168,149161,6,0,P|12:260|28:348,1,180,4|8,1:2|0:0,0:0:0:0:
184,200,149661,2,0,L|272:220,1,90,8|8,0:0|0:0,0:0:0:0:
271,219,149911,1,8,0:0:0:0:
271,219,149994,1,10,0:0:0:0:
320,356,150161,1,8,0:3:0:0:
372,268,150327,1,6,0:3:0:0:
468,240,150494,1,4,0:3:0:0:
504,120,150661,6,0,P|440:138|364:151,1,144,6|0,1:0|1:2,0:0:0:0:
196,32,151161,1,0,0:0:0:0:
284,12,151327,2,0,B|288:48|288:48|272:80,1,72,14|0,0:0|1:2,0:0:0:0:
125,237,151661,1,0,0:0:0:0:
72,144,151827,2,0,P|140:136|216:184,1,161.999995056153,2|8,1:2|0:0,0:0:0:0:
336,319,152327,6,0,P|372:324|407:334,1,72,2|0,1:2|0:0,0:0:0:0:
204,272,152661,2,0,L|63:299,1,144,10|0,0:0|0:0,0:0:0:0:
164,184,153161,1,0,0:0:0:0:
316,212,153327,6,0,L|457:239,1,144,6|0,1:0|1:2,0:0:0:0:
360,104,153827,1,0,0:0:0:0:
440,72,153994,2,0,P|448:108|452:144,1,72,10|0,0:0|1:2,0:0:0:0:
304,282,154327,2,0,P|312:246|316:210,1,72,0|2,0:0|1:2,0:0:0:0:
136,144,154661,2,0,B|68:156|76:188|4:200,1,144,0|2,0:0|1:2,0:0:0:0:
88,64,155161,5,0,1:2:0:0:
0,40,155327,1,14,0:0:0:0:
156,0,155494,1,8,0:0:0:0:
136,144,155661,1,10,0:0:0:0:
132,170,155744,1,8,0:0:0:0:
128,197,155827,1,8,0:0:0:0:
124,224,155911,1,8,0:0:0:0:
120,250,155994,6,0,P|88:260|48:270,1,72,6|0,1:0|0:0,0:0:0:0:
256,164,156327,2,0,P|264:132|275:94,1,72,8|2,0:0|0:0,0:0:0:0:
324,316,156661,1,0,1:2:0:0:
232,256,156827,1,2,1:2:0:0:
352,196,156994,1,10,0:0:0:0:
432,300,157161,1,2,1:2:0:0:
304,332,157327,6,0,P|272:340|232:352,1,72,2|0,0:0|1:2,0:0:0:0:
356,172,157661,2,0,P|345:137|336:102,1,72,8|2,0:0|0:0,0:0:0:0:
472,248,157994,1,0,1:2:0:0:
396,300,158161,1,0,1:2:0:0:
268,232,158327,2,0,P|212:216|148:208,1,121.499996292114,10|0,0:0|0:0,0:0:0:0:
72,244,158661,6,0,L|56:173,1,72,6|0,1:0|1:2,0:0:0:0:
136,24,158994,1,8,0:0:0:0:
0,104,159161,1,2,1:2:0:0:
168,192,159327,5,8,0:0:0:0:
124,112,159494,1,2,1:2:0:0:
312,44,159661,1,2,1:2:0:0:
240,136,159827,2,0,P|218:223|199:311,1,180,14|2,0:0|1:2,0:0:0:0:
360,184,160327,1,10,0:0:0:0:
387,343,160494,5,10,0:0:0:0:
387,343,160577,1,8,0:0:0:0:
387,343,160661,1,8,0:0:0:0:
284,384,160827,5,10,0:3:0:0:
200,340,160994,5,6,0:3:0:0:
172,264,161161,5,6,0:3:0:0:
52,352,161327,5,6,1:0:0:0:
256,192,161411,12,2,166661,0:0:0:0:
36,192,171994,6,0,P|104:220|172:212,1,144,6|2,1:2|1:2,0:0:0:0:
296,288,172494,1,2,0:0:0:0:
376,264,172661,2,0,P|411:270|446:279,1,72,10|0,0:0|1:2,0:0:0:0:
242,195,172994,2,0,P|207:204|172:211,1,72,2|2,0:0|1:2,0:0:0:0:
336,178,173327,6,0,P|343:107|320:40,1,144,2|2,0:0|1:2,0:0:0:0:
240,100,173827,1,2,0:0:0:0:
148,44,173994,2,0,L|77:28,1,72,8|2,0:0|0:0,0:0:0:0:
20,112,174327,2,0,L|90:127,1,72,0|2,0:0|0:0,0:0:0:0:
205,234,174661,6,0,B|277:222|269:190|337:178,1,144,0|2,1:2|1:2,0:0:0:0:
484,188,175161,1,0,0:0:0:0:
407,268,175327,1,10,0:0:0:0:
484,300,175494,1,0,1:2:0:0:
376,344,175661,2,0,P|341:334|305:328,1,72,2|0,0:0|1:2,0:0:0:0:
180,280,175994,5,2,0:0:0:0:
180,280,176161,2,0,P|215:273|250:264,1,72,8|0,0:0|1:2,0:0:0:0:
404,168,176494,1,0,0:0:0:0:
336,103,176661,2,0,P|313:154|313:204,2,96,10|2|2,0:0|1:2|1:2,0:0:0:0:
228,228,177327,6,0,B|148:252|100:184|100:184,1,144,2|2,1:2|1:2,0:0:0:0:
180,36,177827,1,2,0:0:0:0:
194,128,177994,1,8,0:0:0:0:
107,94,178161,2,0,P|91:61|87:26,1,72,0|2,1:2|0:0,0:0:0:0:
160,220,178494,2,0,P|175:252|179:287,1,72,2|0,1:2|0:0,0:0:0:0:
73,186,178827,5,8,0:0:0:0:
73,186,178911,1,8,0:0:0:0:
73,186,178994,2,0,P|53:262|37:330,1,144,2|10,1:2|0:0,0:0:0:0:
179,287,179494,1,0,0:0:0:0:
125,383,179661,2,0,P|160:374|196:368,1,72,2|0,0:0|0:0,0:0:0:0:
293,245,179994,6,0,P|349:281|425:277,1,144,2|0,1:2|1:2,0:0:0:0:
352,168,180494,1,2,0:0:0:0:
424,116,180661,1,8,0:0:0:0:
331,8,180827,2,0,P|334:44|342:78,1,72,0|2,1:2|0:0,0:0:0:0:
160,144,181161,2,0,P|168:112|172:72,1,72,0|2,1:2|0:0,0:0:0:0:
292,248,181494,5,8,0:0:0:0:
272,168,181661,1,0,1:2:0:0:
312,328,181827,5,8,0:0:0:0:
316,332,181911,1,8,0:0:0:0:
320,336,181994,1,10,0:0:0:0:
400,242,182161,1,8,0:3:0:0:
282,208,182327,1,4,0:3:0:0:
194,294,182494,2,0,L|186:330,1,36,8|8,0:0|0:0,0:0:0:0:
48,208,182661,6,0,P|118:215|184:188,1,144,6|2,1:2|1:2,0:0:0:0:
424,248,183327,1,10,0:0:0:0:
356,292,183494,2,0,P|320:284|284:280,1,72,2|2,0:0|0:0,0:0:0:0:
224,112,183827,2,0,P|259:107|294:100,1,72,10|2,0:0|1:2,0:0:0:0:
441,169,184161,5,10,0:0:0:0:
424,248,184327,1,2,1:2:0:0:
356,292,184494,1,2,0:0:0:0:
276,275,184661,5,8,0:0:0:0:
172,332,184827,2,0,P|104:348|32:368,1,144,2|10,1:2|0:0,0:0:0:0:
28,372,185244,1,8,0:0:0:0:
24,376,185327,2,0,L|36:304,1,72,4|0,1:0|0:0,0:0:0:0:
160,220,185661,2,0,L|172:148,1,72,2|0,0:0|1:2,0:0:0:0:
4,85,185994,5,10,0:0:0:0:
72,28,186161,2,0,P|84:56|92:100,1,72,0|2,1:2|0:0,0:0:0:0:
256,204,186494,2,0,P|262:169|276:136,1,72,0|2,1:2|0:0,0:0:0:0:
116,256,186827,5,8,0:0:0:0:
116,256,186994,2,0,L|188:272,1,72,0|0,0:0|1:2,0:0:0:0:
316,372,187327,1,10,0:0:0:0:
392,332,187494,2,0,B|299:307|312:383|221:359,1,180,2|2,1:2|0:0,0:0:0:0:
200,360,187994,6,0,P|196:320|186:271,1,90,6|8,1:2|0:0,0:0:0:0:
24,176,188327,2,0,P|59:179|93:190,1,72,10|10,1:2|0:0,0:0:0:0:
244,188,188661,2,0,P|211:172|184:149,1,72,8|8,1:2|0:0,0:0:0:0:
120,24,188994,2,0,P|116:59|105:93,1,72,10|10,1:2|0:0,0:0:0:0:
48,232,189327,5,8,1:2:0:0:
184,149,189494,1,8,0:0:0:0:
252,292,189661,5,10,1:2:0:0:
156,244,189827,1,8,0:0:0:0:
20,327,189994,5,10,1:2:0:0:
96,154,190161,1,8,0:0:0:0:
116,336,190327,5,10,1:2:0:0:
4,183,190494,1,8,0:0:0:0:
196,276,190661,2,0,L|332:256,1,135,6|8,1:0|0:0,0:0:0:0:
348,268,190994,6,0,P|356:300|356:312,3,45,8|8|10|8,1:2|0:0|0:0|0:0,0:0:0:0:
420,212,191327,2,0,P|444:217|466:228,3,49.5000015106202,8|8|8|8,1:2|0:0|0:0|0:0,0:0:0:0:
407,121,191661,2,0,P|425:101|447:86,3,53.9999983520508,10|8|8|8,1:2|0:0|0:0|0:0,0:0:0:0:
321,86,191994,2,0,P|312:58|311:29,3,58.4999973220826,10|8|8|8,1:2|0:0|0:0|0:0,0:0:0:0:
247,142,192327,5,8,1:2:0:0:
226,146,192411,1,8,0:0:0:0:
196,153,192494,1,8,0:0:0:0:
156,162,192577,1,8,0:0:0:0:
106,174,192661,5,10,1:2:0:0:
300,219,192827,2,0,L|344:231,1,36,2|0,1:2|0:0,0:0:0:0:
334,228,195327,6,0,P|344:264|348:300,1,72,2|2,0:0|0:0,0:0:0:0:
280,368,195661,1,2,0:0:0:0:
16,224,195994,6,0,B|109:199|96:275|187:251,1,180,6|8,1:0|0:0,0:0:0:0:
384,116,196494,2,0,L|368:204,1,90,2|0,0:0|1:2,0:0:0:0:
288,84,196827,1,0,1:2:0:0:
436,32,196994,1,10,0:0:0:0:
488,180,197161,2,0,P|508:264|496:356,1,180,2|0,1:2|1:2,0:0:0:0:
364,224,197661,6,0,P|328:228|276:240,1,90,10|0,0:0|0:0,0:0:0:0:
400,132,197994,1,2,1:2:0:0:
256,248,198161,1,0,1:2:0:0:
424,340,198327,2,0,P|380:329|336:324,1,90,10|0,0:0|0:0,0:0:0:0:
148,264,198661,6,0,P|128:180|140:88,1,180,2|8,1:2|0:0,0:0:0:0:
352,48,199161,1,2,0:0:0:0:
232,144,199327,1,0,1:2:0:0:
338,178,199494,1,0,1:2:0:0:
256,252,199661,2,0,P|242:292|234:340,1,90,10|6,0:0|1:0,0:0:0:0:
445,206,199994,2,0,P|438:162|424:120,1,90,2|0,0:0|1:2,0:0:0:0:
348,320,200327,6,0,L|436:304,1,90,10|0,0:0|1:2,0:0:0:0:
440,308,200577,1,0,1:2:0:0:
444,312,200661,1,2,1:2:0:0:
280,228,200827,1,2,1:2:0:0:
392,136,200994,1,10,0:0:0:0:
176,204,201161,5,10,0:0:0:0:
176,204,201244,1,8,0:0:0:0:
176,203,201327,2,0,B|85:227|98:151|5:176,1,180,6|10,1:0|0:0,0:0:0:0:
176,28,201827,1,0,0:0:0:0:
76,8,201994,2,0,P|80:52|88:80,1,72,2|0,1:2|1:2,0:0:0:0:
276,240,202327,2,0,P|285:205|287:169,1,72,10|0,0:0|1:2,0:0:0:0:
207,25,202661,6,0,P|196:96|175:205,1,180,2|8,0:0|0:0,0:0:0:0:
28,300,203161,2,0,P|92:288|184:348,1,180,2|0,0:0|1:2,0:0:0:0:
344,228,203661,2,0,P|304:232|267:262,1,90,10|0,0:0|0:0,0:0:0:0:
156,108,203994,2,0,P|164:156|180:196,1,90,2|0,1:2|1:2,0:0:0:0:
280,120,204327,5,8,0:0:0:0:
228,6,204494,1,2,1:2:0:0:
372,88,204661,5,8,0:0:0:0:
266,262,204827,1,8,0:3:0:0:
426,168,204994,6,0,L|436:204,1,36,10|8,0:0|0:0,0:0:0:0:
512,344,205161,2,0,P|432:300|348:312,1,180,6|0,1:0|1:2,0:0:0:0:
192,184,205661,2,0,P|172:224|168:268,1,90,8|8,0:0|0:3,0:0:0:0:
100,316,205911,1,8,0:3:0:0:
92,312,205994,6,0,L|44:324,1,45,10|8,0:0|0:0,0:0:0:0:
264,248,206161,2,0,L|312:260,1,45,10|8,0:3|0:3,0:0:0:0:
132,136,206327,1,6,0:3:0:0:
132,136,206411,1,4,0:3:0:0:
132,136,206494,1,4,0:3:0:0:
28,360,206661,6,0,P|115:371|192:328,1,180,6|8,1:2|0:0,0:0:0:0:
408,264,207161,2,0,P|368:243|323:243,1,90,2|0,0:0|1:2,0:0:0:0:
80,356,207494,1,0,1:2:0:0:
192,327,207661,1,10,0:0:0:0:
212,212,207827,2,0,P|200:172|200:124,1,90,2|0,1:2|0:0,0:0:0:0:
424,128,208161,1,0,1:2:0:0:
324,48,208327,6,0,P|324:92|311:135,1,90,10|0,0:0|0:0,0:0:0:0:
99,204,208661,1,2,1:2:0:0:
199,124,208827,1,0,1:2:0:0:
34,0,208994,2,0,P|33:44|46:87,1,90,10|0,0:0|0:0,0:0:0:0:
188,260,209327,6,0,P|232:248|276:240,1,90,2|0,1:2|0:0,0:0:0:0:
400,324,209661,1,10,0:0:0:0:
475,195,209827,2,0,P|431:187|388:176,1,90,2|0,0:0|1:2,0:0:0:0:
200,272,210160,2,0,P|244:263|287:252,1,90,2|8,1:2|0:0,0:0:0:0:
338,17,210494,6,0,B|318:66|346:115|360:90|388:136|372:184,1,180,6|0,1:2|1:2,0:0:0:0:
196,64,210994,2,0,P|152:52|108:44,1,90,8|0,0:0|1:2,0:0:0:0:
104,48,211244,1,8,0:0:0:0:
100,52,211327,1,2,1:2:0:0:
220,180,211494,1,2,1:2:0:0:
271,13,211661,1,10,0:0:0:0:
136,236,211827,5,8,0:0:0:0:
136,236,211911,1,8,0:0:0:0:
136,236,211994,2,0,B|252:204|252:204|296:244,1,180,6|8,1:0|0:0,0:0:0:0:
477,164,212494,2,0,B|390:140,1,90,2|0,0:0|1:2,0:0:0:0:
276,340,212827,1,0,1:2:0:0:
370,368,212994,1,10,0:0:0:0:
229,253,213161,6,0,P|137:261|64:308,1,180,2|0,1:2|1:2,0:0:0:0:
62,94,213661,2,0,P|81:135|87:180,1,90,10|0,0:0|1:2,0:0:0:0:
84,185,213911,1,0,1:2:0:0:
80,189,213994,1,2,1:2:0:0:
184,44,214161,1,0,1:2:0:0:
260,196,214327,2,0,P|254:240|235:281,1,90,10|0,0:0|0:0,0:0:0:0:
92,384,214661,6,0,P|132:365|177:359,1,90,2|0,1:2|0:0,0:0:0:0:
416,315,214994,2,0,P|371:309|330:290,1,90,10|2,0:0|1:2,0:0:0:0:
240,276,215244,1,8,0:0:0:0:
235,281,215327,1,0,1:2:0:0:
273,369,215494,1,10,1:3:0:0:
112,252,215661,1,8,0:0:0:0:
328,148,215827,2,0,P|420:151|495:194,1,180,6|0,1:0|1:2,0:0:0:0:
336,44,216327,6,0,L|248:63,1,90,14|0,0:0|1:2,0:0:0:0:
244,67,216577,1,8,0:0:0:0:
240,71,216661,1,2,1:2:0:0:
360,180,216827,1,8,0:0:0:0:
208,248,216994,1,10,0:0:0:0:
160,237,217077,1,8,0:3:0:0:
123,228,217161,1,4,0:3:0:0:
95,222,217244,1,0,1:2:0:0:
76,218,217327,5,10,0:0:0:0:
380,360,218494,5,10,1:2:0:0:
192,28,219161,5,0,1:2:0:0:
192,28,219244,1,0,1:2:0:0:
192,28,219327,1,10,0:0:0:0:
296,40,219494,2,0,P|224:56|164:68,1,135,2|0,1:2|0:0,0:0:0:0:
68,96,219827,6,0,B|162:75|145:151|237:131,1,180,6|0,1:0|1:2,0:0:0:0:
492,96,220327,2,0,L|403:77,1,90,10|0,0:0|0:0,0:0:0:0:
220,28,220661,2,0,L|308:9,1,90,2|2,1:2|1:2,0:0:0:0:
376,184,220994,1,10,0:0:0:0:
272,288,221161,6,0,P|359:298|436:255,1,180,2|2,1:2|1:2,0:0:0:0:
349,74,221661,1,10,0:0:0:0:
268,152,221827,1,2,0:0:0:0:
376,184,221994,1,2,1:2:0:0:
207,80,222161,2,0,L|119:96,1,90,2|8,1:2|0:0,0:0:0:0:
20,260,222494,6,0,P|88:216|184:220,1,180,2|0,1:2|1:2,0:0:0:0:
280,372,222994,2,0,B|260:332|260:332|272:288,1,90,10|0,0:0|0:0,0:0:0:0:
396,148,223327,2,0,P|452:140|484:132,1,90,2|2,1:2|1:2,0:0:0:0:
456,236,223661,1,10,0:0:0:0:
296,184,223827,6,0,P|230:168|163:159,1,135,2|0,1:2|0:0,0:0:0:0:
147,160,224161,1,2,1:2:0:0:
44,32,224327,2,0,P|45:91|103:80,1,135,10|0,0:0|0:0,0:0:0:0:
171,27,224661,5,8,0:0:0:0:
162,59,224744,1,8,0:0:0:0:
155,92,224827,1,10,0:0:0:0:
150,126,224911,1,8,0:0:0:0:
146,159,224994,2,0,L|154:203,1,45,10|8,0:0|0:0,0:0:0:0:
52,288,225161,6,0,B|146:308|129:232|221:252,1,180,6|2,1:2|1:2,0:0:0:0:
452,296,225661,1,10,0:0:0:0:
368,336,225827,2,0,P|360:288|352:248,1,90,2|0,0:0|1:2,0:0:0:0:
512,132,226161,2,0,P|503:176|495:220,1,90,2|8,1:2|0:0,0:0:0:0:
244,300,226494,6,0,P|208:232|220:132,1,180,2|2,1:2|1:2,0:0:0:0:
368,28,226994,1,10,0:0:0:0:
400,152,227161,2,0,P|356:172|316:172,1,90,2|0,0:0|1:2,0:0:0:0:
91,20,227494,2,0,P|135:20|176:40,1,90,2|8,1:2|0:0,0:0:0:0:
296,184,227827,6,0,P|276:272|260:364,1,180,6|2,1:1|1:2,0:0:0:0:
116,260,228327,2,0,B|104:304|104:304|124:344,1,90,10|2,0:0|1:2,0:0:0:0:
316,280,228661,1,8,0:0:0:0:
184,176,228827,1,2,1:2:0:0:
284,40,228994,2,0,L|275:84,1,45,8|0,0:0|0:0,0:0:0:0:
168,188,229161,6,0,P|109:214|41:210,1,135,14|0,0:0|0:0,0:0:0:0:
24,204,229494,2,0,L|15:248,1,45,10|0,0:0|0:0,0:0:0:0:
88,296,229661,2,0,L|79:340,1,45,10|0,0:0|0:0,0:0:0:0:
88,112,229827,5,10,0:0:0:0:
88,112,229911,1,8,0:0:0:0:
88,112,229994,1,8,0:0:0:0:
200,156,230161,5,10,0:3:0:0:
244,256,230327,5,4,0:3:0:0:
447,193,230494,5,6,1:1:0:0:
256,192,230577,12,0,236327,0:0:0:0:
