osu file format v14

[General]
AudioFilename: audio.mp3
AudioLeadIn: 0
PreviewTime: 195282
Countdown: 0
SampleSet: Soft
StackLeniency: 0.7
Mode: 0
LetterboxInBreaks: 0
WidescreenStoryboard: 1

[Editor]
Bookmarks: 1328,6661,11827,22661,33327,43994,57327,59994,81327,94661,105161,115994,150661,161327,166661,170661,182661,193327,217327,230494,236327
DistanceSpacing: 1.25
BeatDivisor: 4
GridSize: 16
TimelineZoom: 2.4

[Metadata]
Title:"Boku wa..."
TitleUnicode:「僕は...」
Artist:Atarayo
ArtistUnicode:あたらよ
Creator:Liyuu
Version:Romance
Source:僕の心のヤバイやつ
Tags:boku no kokoro no yabai yatsu season 2 第2期 ii the dangers in my heart bokuyaba opening op jpop pop j-pop anime japanese asagi rielle tsunyun tsukinyuni midorijeon midori
BeatmapID:4513923
BeatmapSetID:2143919

[Difficulty]
HPDrainRate:6
CircleSize:4
OverallDifficulty:8.3
ApproachRate:9.1
SliderMultiplier:1.8
SliderTickRate:1

[Events]
//Background and Video events
0,0,"bg.jpg",0,0
//Break Periods
2,167327,169827
//Storyboard Layer 0 (Background)
//Storyboard Layer 1 (Fail)
//Storyboard Layer 2 (Pass)
//Storyboard Layer 3 (Foreground)
//Storyboard Layer 4 (Overlay)
//Storyboard Sound Samples

[TimingPoints]
1328,333.333333333333,4,2,1,60,1,0
6661,-250,4,2,1,55,0,0
11161,-125,4,2,1,65,0,0
11827,-111.111111111111,4,2,1,75,0,0
22494,-111.111111111111,4,2,1,65,0,0
25161,-142.857142857143,4,2,1,65,0,0
33161,-111.111111111111,4,2,1,65,0,0
43827,-111.111111111111,4,2,1,70,0,0
44161,-142.857142857143,4,2,1,70,0,0
51827,-111.111111111111,4,2,1,70,0,0
54494,-100,4,2,1,70,0,0
59327,-100,4,2,1,50,0,0
59994,-100,4,2,1,80,0,1
73327,-90.9090909090909,4,2,1,80,0,1
73827,-100,4,2,1,80,0,1
78661,-90.9090909090909,4,2,1,80,0,1
79161,-100,4,2,1,80,0,1
79827,-90.9090909090909,4,2,1,80,0,1
80327,-100,4,2,1,80,0,1
81327,-100,4,2,1,80,0,0
83494,-200,4,2,1,80,0,0
83827,-111.111111111111,4,2,1,75,0,0
94494,-111.111111111111,4,2,1,60,0,0
97161,-142.857142857143,4,2,1,60,0,0
105161,-111.111111111111,4,2,1,65,0,0
114661,-100,4,2,1,65,0,0
115994,-90.9090909090909,4,2,1,70,0,0
116494,-100,4,2,1,70,0,0
117161,-90.9090909090909,4,2,1,70,0,0
118661,-100,4,2,1,80,0,1
131994,-90.9090909090909,4,2,1,80,0,1
132494,-100,4,2,1,80,0,1
137327,-90.9090909090909,4,2,1,80,0,1
137827,-100,4,2,1,80,0,1
138494,-90.9090909090909,4,2,1,80,0,1
138994,-100,4,2,1,80,0,1
139994,-100,4,2,1,75,0,0
150661,-117.647058823529,4,2,1,70,0,0
155994,-100,4,2,1,70,0,0
161327,-434.782608695652,4,2,1,50,0,0
166661,-363.636363636364,4,2,1,50,0,0
170494,-125,4,2,1,50,0,0
171994,-142.857142857143,4,2,1,60,0,0
182661,-125,4,2,1,65,0,0
187994,-100,4,2,1,70,0,0
188161,-100,4,2,1,45,0,0
188327,-100,4,2,1,47,0,0
188494,-100,4,2,1,48,0,0
188661,-100,4,2,1,50,0,0
188827,-100,4,2,1,52,0,0
188994,-100,4,2,1,53,0,0
189161,-100,4,2,1,55,0,0
189327,-100,4,2,1,57,0,0
189494,-100,4,2,1,58,0,0
189661,-100,4,2,1,60,0,0
189827,-100,4,2,1,62,0,0
189994,-100,4,2,1,63,0,0
190161,-100,4,2,1,65,0,0
190327,-100,4,2,1,67,0,0
190494,-100,4,2,1,68,0,0
190661,-100,4,2,1,70,0,0
190827,-100,4,2,1,45,0,0
190994,-100,4,2,1,47,0,0
191161,-100,4,2,1,50,0,0
191328,-100,4,2,1,52,0,0
191494,-100,4,2,1,54,0,0
191661,-100,4,2,1,56,0,0
191828,-100,4,2,1,59,0,0
191994,-100,4,2,1,61,0,0
192161,-100,4,2,1,63,0,0
192328,-100,4,2,1,65,0,0
192494,-100,4,2,1,68,0,0
192661,-100,4,2,1,70,0,0
193328,-100,4,2,1,50,0,0
193661,-100,4,2,1,46,0,0
193994,-100,4,2,1,42,0,0
194328,-100,4,2,1,38,0,0
194661,-100,4,2,1,34,0,0
194994,-100,4,2,1,30,0,0
195328,-100,4,2,1,60,0,0
195994,-100,4,2,1,80,0,1
209327,-90.9090909090909,4,2,1,80,0,1
209827,-100,4,2,1,80,0,1
214661,-90.9090909090909,4,2,1,80,0,1
216327,-100,4,2,1,80,0,1
217327,-100,4,2,1,80,0,0
219494,-200,4,2,1,80,0,0
219827,-111.111111111111,4,2,1,75,0,0
230494,-400,4,2,1,65,0,0
236327,-363.636363636364,4,2,1,65,0,0

[Colours]
Combo1 : 156,228,85
Combo2 : 156,114,37
Combo3 : 235,230,118

[HitObjects]
53,65,6661,6,0,P|64:102|74:147,3,72,2|2|2|2,1:1|1:2|1:2|1:2,0:0:0:0:
139,39,7994,2,0,P|147:74|157:108,3,72,2|0|0|2,1:2|1:2|1:2|1:2,0:0:0:0:
436,243,9327,6,0,P|444:208|454:174,1,72,2|0,1:2|1:2,0:0:0:0:
364,147,9994,2,0,P|356:182|346:216,1,72,0|2,1:2|1:2,0:0:0:0:
92,339,10661,6,0,P|84:304|74:270,1,72,2|0,1:2|0:0,0:0:0:0:
159,205,11161,6,0,P|178:274|200:342,1,144,10|0,0:0|0:0,0:0:0:0:
480,84,11827,6,0,B|390:68|416:131|313:110,1,161.999995056153,6|0,1:0|1:2,0:0:0:0:
206,5,12327,2,0,P|217:43|227:83,1,80.9999975280763,10|0,0:0|0:0,0:0:0:0:
149,138,12661,1,2,1:2:0:0:
302,238,12827,2,0,P|342:247|381:259,1,80.9999975280763,2|10,1:2|0:0,0:0:0:0:
327,85,13161,6,0,P|251:100|234:174,1,161.999995056153,2|2,1:2|1:2,0:0:0:0:
322,329,13661,1,10,0:0:0:0:
167,274,13827,1,2,0:0:0:0:
339,335,13994,2,0,P|377:346|417:356,1,80.9999975280763,2|2,1:2|1:2,0:0:0:0:
430,359,14244,1,0,1:2:0:0:
440,361,14327,1,8,0:0:0:0:
187,247,14494,6,0,P|109:234|49:284,1,161.999995056153,2|0,1:2|1:2,0:0:0:0:
234,384,14994,2,0,P|243:344|255:305,1,80.9999975280763,10|0,0:0|1:2,0:0:0:0:
257,295,15244,1,0,1:2:0:0:
259,286,15327,1,2,1:2:0:0:
84,139,15494,2,0,P|95:177|105:217,1,80.9999975280763,2|10,1:2|0:0,0:0:0:0:
346,123,15827,6,0,B|260:113|283:169|186:157,1,161.999995056153,2|2,1:2|1:2,0:0:0:0:
336,217,16327,1,10,0:0:0:0:
208,72,16494,2,0,P|203:52|197:32,2,40.4999987640381,2|8|8,1:2|0:0|1:3,0:0:0:0:
84,139,16827,1,6,0:3:0:0:
198,181,16994,1,10,0:0:0:0:
273,0,17161,6,0,P|357:20|454:43,1,161.999995056153,6|2,1:0|1:2,0:0:0:0:
334,204,17661,2,0,P|326:164|316:125,1,80.9999975280763,10|2,0:0|1:2,0:0:0:0:
311,113,17911,1,0,1:2:0:0:
306,102,17994,1,0,1:2:0:0:
431,181,18161,1,2,1:2:0:0:
267,274,18327,1,8,0:0:0:0:
491,113,18494,6,0,P|523:162|512:220,1,121.499996292114,2|0,1:2|0:0,0:0:0:0:
504,227,18827,1,2,1:2:0:0:
425,174,18994,1,10,0:0:0:0:
344,221,19161,1,2,1:2:0:0:
344,221,19244,1,0,1:2:0:0:
344,221,19327,2,0,P|356:260|365:300,1,80.9999975280763,0|2,1:2|1:2,0:0:0:0:
430,165,19661,1,8,0:0:0:0:
295,375,19827,6,0,P|232:326|154:337,1,161.999995056153,2|2,1:2|1:2,0:0:0:0:
317,216,20327,1,10,0:0:0:0:
142,132,20494,1,2,1:2:0:0:
142,132,20577,1,0,1:2:0:0:
142,132,20661,1,0,1:2:0:0:
238,309,20827,1,2,1:2:0:0:
42,331,20994,1,8,0:0:0:0:
267,157,21161,6,0,B|347:182|307:216|409:241,1,161.999995056153,6|2,1:0|1:2,0:0:0:0:
316,63,21661,1,10,0:0:0:0:
505,30,21827,1,2,1:2:0:0:
356,180,21994,1,8,0:0:0:0:
356,180,22077,1,8,0:0:0:0:
356,180,22161,1,10,0:3:0:0:
407,5,22327,1,8,0:0:0:0:
207,82,22494,6,0,B|123:73|140:126|32:113,1,161.999995056153,6|0,1:2|1:2,0:0:0:0:
0,53,22994,1,10,0:0:0:0:
118,354,23327,5,2,1:2:0:0:
45,312,23494,1,0,1:2:0:0:
88,245,23661,1,10,0:0:0:0:
354,241,23994,5,2,1:2:0:0:
427,199,24161,1,0,1:2:0:0:
384,132,24328,1,10,0:0:0:0:
230,232,24661,5,0,1:2:0:0:
249,308,24827,1,2,1:2:0:0:
270,384,24994,1,8,0:0:0:0:
351,252,25161,6,0,P|409:275|471:287,1,125.999996154785,2|0,1:2|1:2,0:0:0:0:
512,354,25661,1,10,0:0:0:0:
306,182,25994,6,0,P|317:151|326:111,1,62.9999980773926,2|0,1:2|1:2,0:0:0:0:
365,244,26327,1,10,0:0:0:0:
231,128,26661,5,2,1:2:0:0:
231,128,26827,1,0,1:2:0:0:
401,75,26994,1,10,0:0:0:0:
209,129,27161,1,2,1:2:0:0:
209,129,27244,1,0,1:2:0:0:
209,129,27327,2,0,P|178:121|148:110,1,62.9999980773926,0|2,1:2|1:2,0:0:0:0:
79,146,27661,1,8,0:0:0:0:
204,39,27827,1,2,1:2:0:0:
0,114,28161,5,0,1:2:0:0:
107,224,28327,2,0,P|123:256|131:283,1,62.9999980773926,10|0,0:0|0:0,0:0:0:0:
202,354,28661,2,0,P|211:323|225:295,1,62.9999980773926,2|0,1:2|1:2,0:0:0:0:
84,347,28994,1,10,0:0:0:0:
292,246,29327,5,2,1:2:0:0:
292,246,29494,1,0,1:2:0:0:
350,303,29661,1,10,0:0:0:0:
286,367,29827,1,2,0:0:0:0:
366,298,29994,2,0,P|396:287|427:279,1,62.9999980773926,0|2,1:2|1:2,0:0:0:0:
442,178,30327,2,0,P|412:189|381:197,1,62.9999980773926,8|2,0:0|1:2,0:0:0:0:
302,158,30577,1,0,1:2:0:0:
302,158,30661,6,0,P|295:97|332:48,1,125.999996154785,0|10,1:2|0:0,0:0:0:0:
332,47,31327,1,2,1:2:0:0:
332,47,31494,1,0,1:2:0:0:
242,97,31661,2,0,P|208:108|177:113,1,62.9999980773926,8|0,0:0|1:2,0:0:0:0:
170,113,31911,1,0,1:2:0:0:
156,111,31994,5,2,1:2:0:0:
16,163,32161,1,0,1:2:0:0:
77,57,32327,1,8,0:0:0:0:
109,193,32494,2,0,L|99:238,2,31.4999990386963,0|8|2,1:2|0:0|1:2,0:0:0:0:
10,150,32827,5,10,0:3:0:0:
204,258,32994,1,8,0:0:0:0:
204,258,33077,1,8,0:0:0:0:
204,258,33161,2,0,B|300:234|249:197|345:179,1,161.999995056153,6|0,1:2|1:2,0:0:0:0:
434,310,33661,2,0,P|396:294|357:284,1,80.9999975280763,10|0,0:0|0:0,0:0:0:0:
293,330,33994,1,2,1:2:0:0:
422,218,34161,1,0,1:2:0:0:
283,339,34327,2,0,P|245:354|206:364,1,80.9999975280763,10|0,0:0|0:0,0:0:0:0:
315,193,34661,5,2,1:2:0:0:
399,305,34827,1,0,1:2:0:0:
399,305,34911,1,0,1:2:0:0:
399,305,34994,1,10,0:0:0:0:
215,248,35161,2,0,P|202:209|193:170,1,80.9999975280763,2|0,0:0|1:2,0:0:0:0:
190,159,35411,1,0,1:2:0:0:
188,151,35494,1,2,1:2:0:0:
101,235,35661,1,8,0:0:0:0:
329,190,35827,6,0,P|400:157|425:82,1,161.999995056153,2|0,1:2|1:2,0:0:0:0:
497,27,36327,1,10,0:0:0:0:
327,82,36494,1,0,1:2:0:0:
327,82,36577,1,0,1:2:0:0:
327,82,36661,1,2,1:2:0:0:
466,207,36828,1,0,1:2:0:0:
327,82,36994,2,0,P|288:94|249:103,1,80.9999975280763,10|0,0:0|0:0,0:0:0:0:
103,91,37327,5,2,1:2:0:0:
164,27,37494,1,0,1:2:0:0:
130,179,37661,1,10,0:0:0:0:
19,82,37827,1,2,1:2:0:0:
19,82,37911,1,0,1:2:0:0:
19,82,37994,2,0,P|6:42|-1:3,1,80.9999975280763,0|2,1:2|1:2,0:0:0:0:
114,96,38327,1,8,0:0:0:0:
9,233,38494,6,0,P|69:247|180:287,1,161.999995056153,2|0,1:2|1:2,0:0:0:0:
308,348,38994,2,0,P|268:359|229:372,1,80.9999975280763,10|0,0:0|1:2,0:0:0:0:
221,379,39244,1,0,1:2:0:0:
213,384,39327,1,2,1:2:0:0:
298,217,39494,1,0,1:2:0:0:
414,369,39661,2,0,P|401:330|390:291,1,80.9999975280763,10|0,0:0|0:0,0:0:0:0:
365,132,39994,5,2,1:2:0:0:
309,206,40161,1,0,1:2:0:0:
448,168,40328,1,10,0:0:0:0:
327,50,40494,2,0,P|287:39|249:26,1,80.9999975280763,2|0,0:0|1:2,0:0:0:0:
435,183,40827,2,0,P|473:170|512:159,1,80.9999975280763,2|8,1:2|0:0,0:0:0:0:
235,275,41161,6,0,B|146:255|190:231|88:209,1,161.999995056153,2|0,1:2|1:2,0:0:0:0:
199,372,41661,2,0,P|248:359|289:351,1,80.9999975280763,10|0,0:0|0:0,0:0:0:0:
217,178,41994,1,2,1:2:0:0:
89,301,42161,1,0,1:2:0:0:
291,354,42327,1,8,0:0:0:0:
106,202,42494,5,2,1:2:0:0:
106,202,42577,1,0,1:2:0:0:
106,202,42661,1,14,0:0:0:0:
178,12,42827,1,0,1:2:0:0:
178,255,42994,5,8,0:0:0:0:
89,23,43161,1,0,1:2:0:0:
89,301,43327,5,10,0:0:0:0:
246,77,43494,1,8,0:3:0:0:
246,77,43577,1,8,0:3:0:0:
246,77,43661,5,4,0:3:0:0:
347,179,43827,1,6,1:0:0:0:
347,179,44161,5,10,0:0:0:0:
347,179,44327,2,0,P|384:188|415:191,1,62.9999980773926,2|0,1:2|0:0,0:0:0:0:
479,154,44661,1,10,0:0:0:0:
366,271,44827,1,2,0:0:0:0:
366,271,44911,1,2,0:0:0:0:
366,271,44994,1,2,0:0:0:0:
424,343,45161,1,0,1:2:0:0:
490,238,45327,6,0,P|497:207|501:176,1,62.9999980773926,2|10,0:0|0:0,0:0:0:0:
434,41,45661,1,2,1:2:0:0:
362,77,45827,2,0,P|347:121|339:168,1,94.499997116089,2|0,0:0|0:0,0:0:0:0:
347,179,46161,1,2,0:0:0:0:
431,132,46327,1,2,0:0:0:0:
196,56,46494,6,0,B|128:76|154:99|64:122,2,125.999996154785,2|8|2,1:2|0:0|0:0,0:0:0:0:
144,189,47327,2,0,P|176:197|210:210,1,62.9999980773926,8|0,0:0|0:0,0:0:0:0:
81,243,47661,1,10,0:0:0:0:
0,129,47827,2,0,P|8:97|21:63,1,62.9999980773926,0|0,1:2|0:0,0:0:0:0:
162,128,48161,1,10,0:0:0:0:
162,128,48244,1,8,0:0:0:0:
162,128,48327,2,0,P|154:160|141:194,1,62.9999980773926,0|0,1:2|0:0,0:0:0:0:
47,321,48661,5,10,0:0:0:0:
155,289,48827,1,6,0:3:0:0:
2,212,48994,1,10,0:0:0:0:
167,299,49161,6,0,P|212:284|259:276,1,94.499997116089,6|0,1:0|0:0,0:0:0:0:
281,282,49494,1,10,0:0:0:0:
402,384,49661,2,0,P|392:354|386:323,1,62.9999980773926,2|0,1:2|0:0,0:0:0:0:
418,206,49994,1,10,0:0:0:0:
497,227,50161,2,0,P|506:256|512:287,1,62.9999980773926,2|10,0:0|0:0,0:0:0:0:
509,294,50411,1,8,0:0:0:0:
507,301,50494,1,0,1:2:0:0:
319,203,50661,5,2,0:0:0:0:
469,118,50827,1,10,0:0:0:0:
421,214,50994,1,2,1:2:0:0:
294,105,51161,1,2,1:2:0:0:
294,105,51244,1,0,1:2:0:0:
294,105,51327,1,8,0:0:0:0:
382,49,51494,5,2,1:2:0:0:
423,224,51661,1,10,0:0:0:0:
227,47,51827,6,0,B|141:73|186:102|91:132,1,161.999995056153,6|0,1:2|1:2,0:0:0:0:
223,243,52327,2,0,P|184:229|145:219,1,80.9999975280763,8|2,0:0|1:2,0:0:0:0:
100,231,52577,1,8,0:0:0:0:
74,272,52661,1,0,1:2:0:0:
86,318,52744,1,8,0:0:0:0:
128,347,52827,1,0,1:2:0:0:
231,234,52994,1,8,0:0:0:0:
142,121,53161,5,2,1:2:0:0:
142,121,53244,1,8,0:0:0:0:
142,121,53327,2,0,P|131:160|118:198,1,80.9999975280763,0|0,1:2|1:2,0:0:0:0:
183,340,53661,1,8,0:0:0:0:
336,206,53827,1,2,1:2:0:0:
336,206,53911,1,8,0:0:0:0:
336,206,53994,1,0,1:2:0:0:
142,121,54161,1,0,1:2:0:0:
268,314,54327,1,8,0:0:0:0:
447,168,54494,6,0,P|484:113|480:47,1,135,6|0,1:0|0:0,0:0:0:0:
469,42,54827,1,2,1:2:0:0:
320,186,54994,5,10,0:0:0:0:
471,278,55161,1,0,1:2:0:0:
310,192,55327,5,10,0:0:0:0:
512,114,55494,1,2,1:2:0:0:
255,18,55661,5,10,0:0:0:0:
255,18,55744,1,8,0:0:0:0:
255,18,55827,1,10,1:2:0:0:
81,156,56494,5,2,1:1:0:0:
256,192,57494,12,2,59327,0:0:0:0:
279,308,59994,6,0,B|371:298|352:356|451:345,1,180,6|8,1:0|0:0,0:0:0:0:
233,173,60494,1,2,1:2:0:0:
233,173,60577,1,0,1:2:0:0:
233,173,60661,1,0,1:2:0:0:
446,113,60827,1,0,1:2:0:0:
366,305,60994,1,10,0:0:0:0:
212,157,61161,6,0,P|159:84|171:-3,1,180,2|0,1:2|1:2,0:0:0:0:
327,143,61661,2,0,P|316:184|306:230,1,90,10|0,0:0|0:0,0:0:0:0:
125,96,61994,1,2,1:2:0:0:
313,38,62161,1,0,1:2:0:0:
112,101,62327,2,0,P|71:112|25:122,1,90,10|0,0:0|0:0,0:0:0:0:
198,321,62661,6,0,P|285:310|355:362,1,180,2|8,1:2|0:0,0:0:0:0:
489,185,63161,1,2,1:2:0:0:
489,185,63244,1,0,1:2:0:0:
489,185,63327,2,0,P|448:196|402:206,1,90,0|0,1:2|1:2,0:0:0:0:
323,164,63661,1,10,0:0:0:0:
88,283,63827,5,2,1:2:0:0:
88,283,63911,1,0,1:2:0:0:
88,283,63994,2,0,B|158:304|134:323|213:347,1,135,2|0,1:2|0:0,0:0:0:0:
225,357,64327,2,0,B|256:323|256:323|244:280,1,90,10|0,0:0|0:0,0:0:0:0:
82,381,64661,5,2,1:2:0:0:
0,223,64828,1,2,1:2:0:0:
88,283,64994,5,10,0:0:0:0:
215,180,65161,1,2,1:2:0:0:
215,180,65244,1,0,1:2:0:0:
215,180,65327,2,0,P|254:125|245:57,1,135,6|0,1:0|0:0,0:0:0:0:
180,18,65661,6,0,P|132:31|79:43,1,90,10|0,0:0|0:0,0:0:0:0:
359,126,65994,2,0,P|407:139|460:151,1,90,2|0,1:2|1:2,0:0:0:0:
457,143,66244,1,0,1:2:0:0:
464,137,66327,2,0,P|475:93|491:49,1,90,10|0,0:0|1:2,0:0:0:0:
302,209,66661,6,0,P|323:272|341:338,1,135,2|0,0:0|0:0,0:0:0:0:
334,349,66994,1,8,0:0:0:0:
167,242,67161,1,2,1:2:0:0:
167,242,67244,1,0,1:2:0:0:
167,242,67327,1,0,1:2:0:0:
358,123,67494,1,0,1:2:0:0:
167,242,67661,2,0,P|124:257|81:268,1,90,10|0,0:0|0:0,0:0:0:0:
249,105,67994,6,0,B|340:124|301:163|412:186,1,180,2|8,1:2|0:0,0:0:0:0:
266,4,68494,1,2,1:2:0:0:
266,4,68577,1,0,1:2:0:0:
266,4,68661,2,0,P|223:19|180:30,1,90,0|0,1:2|1:2,0:0:0:0:
253,112,68994,1,10,0:0:0:0:
0,112,69161,6,0,P|88:129|171:162,1,180,6|0,1:2|1:2,0:0:0:0:
88,34,69661,1,8,0:0:0:0:
181,171,69827,1,0,1:2:0:0:
104,232,69994,6,0,P|109:253|113:275,1,45,10|8,0:0|0:0,0:0:0:0:
305,295,70161,1,10,0:0:0:0:
349,289,70244,1,8,0:0:0:0:
376,252,70328,1,10,0:0:0:0:
378,198,70411,1,8,0:0:0:0:
418,162,70494,1,8,0:0:0:0:
472,166,70578,1,8,0:0:0:0:
502,210,70661,6,0,P|481:291|458:385,1,180,6|8,1:0|0:0,0:0:0:0:
296,208,71161,1,2,0:0:0:0:
176,322,71327,2,0,P|234:307|279:297,1,90,0|0,1:2|1:2,0:0:0:0:
277,298,71577,1,0,1:2:0:0:
287,296,71661,1,10,0:0:0:0:
111,111,71827,6,0,P|27:127|3:209,1,180,2|0,1:2|1:2,0:0:0:0:
206,145,72327,1,10,0:0:0:0:
22,2,72494,1,0,1:2:0:0:
22,2,72577,1,0,1:2:0:0:
22,2,72661,1,2,1:2:0:0:
88,189,72827,1,0,1:2:0:0:
274,25,72994,2,0,P|226:39|187:47,1,90,10|0,0:0|0:0,0:0:0:0:
373,197,73327,6,0,B|449:219|417:243|517:268,1,148.50000453186,2|0,1:2|0:0,0:0:0:0:
510,259,73661,1,10,0:0:0:0:
288,361,73827,2,0,P|330:347|374:338,1,90,2|0,0:0|1:2,0:0:0:0:
471,371,74161,1,2,1:2:0:0:
289,254,74327,1,8,0:0:0:0:
481,165,74494,6,0,P|517:118|511:44,1,135,6|0,1:0|0:0,0:0:0:0:
498,39,74827,1,0,1:2:0:0:
299,102,74994,2,0,P|258:115|198:129,1,90,8|0,0:0|1:2,0:0:0:0:
202,129,75244,1,0,1:2:0:0:
191,129,75327,1,2,1:2:0:0:
368,180,75494,1,2,1:2:0:0:
169,21,75661,5,10,0:0:0:0:
117,4,75744,1,8,0:0:0:0:
70,30,75827,1,8,0:0:0:0:
59,83,75911,1,8,0:0:0:0:
91,126,75994,6,0,P|115:196|141:306,1,180,6|8,1:0|0:0,0:0:0:0:
350,269,76494,2,0,P|332:228|293:207,1,90,2|0,0:0|1:2,0:0:0:0:
100,134,76828,1,0,1:2:0:0:
269,285,76994,1,10,0:0:0:0:
89,382,77161,6,0,B|186:355|137:324|263:288,1,180,2|0,1:2|1:2,0:0:0:0:
503,223,77661,2,0,P|459:211|416:196,1,90,10|0,0:0|1:2,0:0:0:0:
405,193,77911,1,0,1:2:0:0:
395,190,77994,1,2,1:2:0:0:
412,353,78161,1,0,1:2:0:0:
487,130,78327,2,0,P|501:87|513:43,1,90,10|0,0:0|0:0,0:0:0:0:
199,172,78661,6,0,B|123:150|155:126|55:101,1,148.50000453186,2|0,1:2|0:0,0:0:0:0:
62,110,78995,1,10,0:0:0:0:
248,68,79161,2,0,P|291:58|334:45,1,90,2|0,0:0|1:2,0:0:0:0:
349,41,79411,1,0,1:2:0:0:
359,36,79494,1,2,1:2:0:0:
157,0,79661,1,8,0:0:0:0:
308,244,79827,6,0,B|413:224|365:173|488:154,1,198.000006042481,6|0,1:0|1:2,0:0:0:0:
427,351,80327,2,0,P|383:338|339:328,1,90,10|0,0:0|1:2,0:0:0:0:
326,328,80577,1,8,0:0:0:0:
315,328,80661,1,2,1:2:0:0:
497,159,80827,1,8,0:3:0:0:
257,85,80994,1,10,0:0:0:0:
349,193,81161,1,0,1:2:0:0:
349,193,81244,1,0,1:2:0:0:
349,193,81327,5,10,0:0:0:0:
138,23,82494,5,10,0:0:0:0:
329,161,83327,5,10,0:0:0:0:
182,271,83494,6,0,P|200:298|231:311,1,67.5,2|0,1:2|0:0,0:0:0:0:
252,302,83827,6,0,B|166:294|184:340|94:331,1,161.999995056153,6|0,1:0|1:2,0:0:0:0:
0,211,84327,2,0,P|38:222|78:232,1,80.9999975280763,10|0,0:0|0:0,0:0:0:0:
217,166,84661,1,2,1:2:0:0:
94,40,84827,2,0,P|82:78|73:118,1,80.9999975280763,2|10,1:2|0:0,0:0:0:0:
369,107,85161,6,0,P|290:98|227:146,1,161.999995056153,2|2,1:2|1:2,0:0:0:0:
57,74,85661,1,10,0:0:0:0:
186,9,85827,1,2,0:0:0:0:
143,186,85994,2,0,P|154:224|164:264,1,80.9999975280763,2|2,1:2|1:2,0:0:0:0:
167,274,86244,1,0,1:2:0:0:
169,283,86327,1,8,0:0:0:0:
322,382,86494,6,0,P|341:304|364:225,1,161.999995056153,2|0,1:2|1:2,0:0:0:0:
492,108,86994,2,0,P|453:119|413:129,1,80.9999975280763,10|0,0:0|1:2,0:0:0:0:
404,132,87244,1,0,1:2:0:0:
395,134,87327,1,2,1:2:0:0:
259,13,87494,2,0,P|297:24|337:34,1,80.9999975280763,2|10,1:2|0:0,0:0:0:0:
227,169,87827,6,0,P|148:160|84:207,1,161.999995056153,2|2,1:2|1:2,0:0:0:0:
166,70,88327,1,10,0:0:0:0:
16,162,88494,2,0,L|-7:110,2,40.4999987640381,2|8|0,1:2|0:0|1:2,0:0:0:0:
172,243,88827,1,10,0:3:0:0:
104,323,88994,1,10,0:0:0:0:
260,384,89161,6,0,B|340:359|300:325|402:300,1,161.999995056153,6|2,1:0|1:2,0:0:0:0:
484,383,89661,2,0,P|492:343|502:304,1,80.9999975280763,10|2,0:0|1:2,0:0:0:0:
507,292,89911,1,0,1:2:0:0:
512,281,89994,1,0,1:2:0:0:
348,206,90161,1,2,1:2:0:0:
395,301,90327,1,8,0:0:0:0:
481,189,90494,6,0,P|514:139|512:80,1,121.499996292114,2|0,1:2|0:0,0:0:0:0:
503,76,90827,1,2,1:2:0:0:
404,126,90994,1,10,0:0:0:0:
328,60,91161,1,2,1:2:0:0:
328,60,91244,1,0,1:2:0:0:
328,60,91327,2,0,P|289:72|249:81,1,80.9999975280763,0|2,1:2|1:2,0:0:0:0:
417,132,91661,1,8,0:0:0:0:
174,27,91827,6,0,P|163:105|212:168,1,161.999995056153,2|2,1:2|1:2,0:0:0:0:
158,297,92327,1,10,0:0:0:0:
331,233,92494,1,2,1:2:0:0:
331,233,92577,1,0,1:2:0:0:
331,233,92661,1,0,1:2:0:0:
283,356,92827,1,2,1:2:0:0:
217,183,92994,1,10,0:0:0:0:
0,370,93161,6,0,B|80:345|40:311|142:286,1,161.999995056153,6|2,1:0|1:2,0:0:0:0:
216,334,93661,1,8,0:0:0:0:
51,218,93827,1,2,1:2:0:0:
228,341,93994,2,0,P|264:357|303:369,1,80.9999975280763,10|10,0:0|0:3,0:0:0:0:
315,373,94244,1,8,0:3:0:0:
326,376,94327,1,10,0:0:0:0:
255,174,94494,6,0,P|177:184|142:253,1,161.999995056153,6|0,1:2|1:2,0:0:0:0:
216,351,94994,1,10,0:0:0:0:
415,269,95327,5,2,1:2:0:0:
436,186,95494,1,0,1:2:0:0:
353,209,95661,1,10,0:0:0:0:
115,31,95993,5,2,1:2:0:0:
177,91,96160,1,0,1:2:0:0:
94,114,96327,1,10,0:0:0:0:
263,248,96661,5,0,1:2:0:0:
223,169,96827,1,2,1:2:0:0:
302,129,96994,1,8,0:0:0:0:
177,241,97161,6,0,P|116:222|55:209,1,125.999996154785,2|0,1:0|1:2,0:0:0:0:
0,275,97661,2,0,P|8:305|15:335,1,62.9999980773926,10|0,0:0|0:0,0:0:0:0:
105,374,97994,1,2,1:2:0:0:
105,374,98161,1,0,1:2:0:0:
174,251,98327,1,10,0:0:0:0:
415,192,98661,5,2,1:0:0:0:
415,192,98827,1,2,1:0:0:0:
362,270,98994,2,0,P|350:299|345:330,1,62.9999980773926,10|2,0:0|0:0,0:0:0:0:
344,340,99244,1,2,0:0:0:0:
346,349,99327,1,2,1:0:0:0:
437,322,99494,1,2,1:2:0:0:
325,195,99661,1,8,0:0:0:0:
488,245,99827,1,6,1:0:0:0:
228,98,100161,5,0,1:2:0:0:
364,76,100327,2,0,P|305:98|242:106,1,125.999996154785,10|2,0:0|1:2,0:0:0:0:
161,40,100827,1,0,1:2:0:0:
83,161,100994,1,10,0:0:0:0:
295,269,101327,5,2,1:2:0:0:
295,269,101494,1,0,1:2:0:0:
218,326,101661,2,0,P|207:296|199:265,1,62.9999980773926,10|2,0:0|0:0,0:0:0:0:
114,322,101994,2,0,P|84:333|53:341,1,62.9999980773926,0|2,1:2|1:2,0:0:0:0:
44,344,102244,1,0,1:2:0:0:
35,345,102327,1,8,0:0:0:0:
184,238,102494,6,0,P|245:231|294:268,1,125.999996154785,6|0,1:2|1:2,0:0:0:0:
373,297,102994,2,0,P|404:290|434:279,1,62.9999980773926,10|0,0:0|0:0,0:0:0:0:
486,216,103327,1,2,1:2:0:0:
486,216,103494,1,0,1:2:0:0:
396,154,103661,1,8,0:0:0:0:
512,98,103827,6,0,P|453:120|391:133,1,125.999996154785,4|0,1:0|1:2,0:0:0:0:
235,90,104327,2,0,P|228:59|217:29,1,62.9999980773926,8|0,0:0|1:2,0:0:0:0:
303,0,104661,2,0,P|309:30|320:60,1,62.9999980773926,10|2,0:3|1:2,0:0:0:0:
329,68,104911,1,0,1:2:0:0:
336,75,104994,1,8,0:0:0:0:
221,186,105161,6,0,B|134:159|188:129|78:99,1,161.999995056153,6|0,1:2|1:2,0:0:0:0:
0,223,105661,2,0,P|40:212|78:201,1,80.9999975280763,10|0,0:0|0:0,0:0:0:0:
232,102,105994,1,2,1:2:0:0:
119,37,106161,1,0,1:2:0:0:
162,185,106327,2,0,P|172:224|183:263,1,80.9999975280763,10|0,0:0|1:2,0:0:0:0:
314,345,106661,6,0,P|390:331|448:384,1,161.999995056153,2|10,0:0|0:0,0:0:0:0:
512,224,107161,2,0,P|473:237|434:246,1,80.9999975280763,2|0,0:0|1:2,0:0:0:0:
423,249,107411,1,0,1:2:0:0:
415,251,107494,1,2,1:2:0:0:
312,187,107661,1,8,0:0:0:0:
400,22,107827,6,0,P|452:81|445:159,1,161.999995056153,2|0,1:2|1:2,0:0:0:0:
328,272,108327,1,10,0:0:0:0:
353,108,108494,1,0,1:2:0:0:
353,108,108577,1,0,1:2:0:0:
353,108,108661,1,2,1:2:0:0:
434,216,108828,1,0,1:2:0:0:
259,175,108994,2,0,P|216:163|168:151,1,80.9999975280763,10|0,0:0|0:0,0:0:0:0:
0,0,109327,6,0,P|63:47|141:36,1,161.999995056153,2|10,1:2|0:0,0:0:0:0:
258,133,109827,1,2,1:2:0:0:
258,133,109911,1,0,1:2:0:0:
258,133,109994,2,0,P|218:143|179:153,1,80.9999975280763,0|2,1:2|1:2,0:0:0:0:
307,27,110327,1,8,0:0:0:0:
419,204,110494,6,0,P|493:188|509:113,1,161.999995056153,2|0,1:2|1:2,0:0:0:0:
397,38,110994,2,0,P|410:85|419:119,1,80.9999975280763,10|0,0:0|0:0,0:0:0:0:
381,294,111327,1,2,1:2:0:0:
512,205,111494,1,0,1:2:0:0:
338,162,111661,2,0,P|298:151|259:140,1,80.9999975280763,10|0,0:0|0:0,0:0:0:0:
90,266,111994,5,2,1:2:0:0:
161,328,112161,1,0,1:2:0:0:
108,185,112328,1,10,0:0:0:0:
2,296,112494,2,0,P|14:334|23:373,1,80.9999975280763,2|0,0:0|1:2,0:0:0:0:
197,236,112827,2,0,P|209:197|218:158,1,80.9999975280763,2|8,1:2|0:0,0:0:0:0:
349,319,113161,6,0,B|438:339|394:363|496:385,1,161.999995056153,2|0,1:2|1:2,0:0:0:0:
376,218,113661,2,0,P|327:231|286:239,1,80.9999975280763,10|0,0:0|0:0,0:0:0:0:
188,218,113994,1,2,1:2:0:0:
255,374,114161,1,0,1:2:0:0:
309,152,114327,2,0,P|300:112|289:73,1,80.9999975280763,8|2,0:0|1:2,0:0:0:0:
476,153,114661,5,14,0:0:0:0:
357,308,114827,1,0,1:2:0:0:
382,82,114994,5,8,0:0:0:0:
345,301,115161,1,0,1:2:0:0:
261,65,115327,5,10,0:0:0:0:
442,248,115494,1,8,0:3:0:0:
442,248,115577,1,8,0:3:0:0:
442,248,115661,1,4,0:3:0:0:
292,360,115827,1,0,1:2:0:0:
215,287,115994,6,0,P|157:242|86:252,1,148.50000453186,14|0,0:0|0:0,0:0:0:0:
75,241,116327,1,0,1:2:0:0:
188,137,116494,2,0,P|193:180|167:215,1,90,10|0,0:0|0:0,0:0:0:0:
46,328,116827,2,0,P|-2:281|22:187,1,135,10|0,0:0|0:0,0:0:0:0:
103,134,117161,6,0,B|182:147|149:178|253:194,1,148.50000453186,10|0,0:0|0:0,0:0:0:0:
305,138,117494,1,2,1:2:0:0:
305,138,117577,1,0,1:2:0:0:
305,138,117661,1,10,0:0:0:0:
102,223,117827,1,0,1:2:0:0:
182,71,117994,6,0,P|188:95|194:119,1,49.5000015106202,10|8,0:0|0:0,0:0:0:0:
315,320,118161,2,0,P|320:295|326:271,1,49.5000015106202,10|8,0:0|0:0,0:0:0:0:
422,64,118327,5,10,0:0:0:0:
476,66,118410,1,8,0:0:0:0:
512,106,118493,1,8,0:0:0:0:
508,160,118577,1,8,0:0:0:0:
464,190,118661,6,0,B|365:200|392:143|293:152,1,180,6|8,1:0|0:0,0:0:0:0:
99,206,119161,1,2,1:2:0:0:
99,206,119244,1,0,1:2:0:0:
99,206,119327,1,0,1:2:0:0:
298,325,119494,1,0,1:2:0:0:
223,107,119661,1,10,0:0:0:0:
4,350,119827,6,0,P|73:296|159:311,1,180,2|0,1:2|1:2,0:0:0:0:
370,152,120327,2,0,P|328:169|284:179,1,90,10|0,0:0|0:0,0:0:0:0:
120,64,120661,2,0,P|155:91|186:124,1,90,2|0,1:2|1:2,0:0:0:0:
295,279,120994,1,10,0:0:0:0:
102,161,121161,1,0,0:0:0:0:
168,324,121327,6,0,P|173:279|186:236,1,90,2|0,1:2|1:2,0:0:0:0:
193,226,121577,1,0,1:2:0:0:
199,218,121661,1,8,0:0:0:0:
51,253,121827,1,2,0:0:0:0:
284,292,121994,2,0,P|328:286|371:273,1,90,0|0,1:2|1:2,0:0:0:0:
511,384,122327,2,0,P|468:371|424:366,1,90,10|2,0:0|1:2,0:0:0:0:
371,273,122577,1,0,1:2:0:0:
366,264,122661,6,0,B|383:190|407:221|429:128,1,135,2|0,1:2|0:0,0:0:0:0:
436,136,122994,2,0,P|399:111|355:115,1,90,10|0,0:0|0:0,0:0:0:0:
176,178,123327,5,2,1:2:0:0:
95,57,123494,1,2,1:2:0:0:
185,18,123661,5,10,0:0:0:0:
64,167,123827,1,2,1:2:0:0:
64,167,123911,1,0,1:2:0:0:
64,167,123994,2,0,P|27:222|31:288,1,135,6|0,1:0|0:0,0:0:0:0:
107,327,124327,2,0,P|152:312|205:301,1,90,10|0,0:0|0:0,0:0:0:0:
424,370,124661,1,2,1:2:0:0:
261,202,124827,1,0,1:2:0:0:
301,384,124994,2,0,P|310:339|324:297,1,90,10|0,0:0|1:2,0:0:0:0:
127,120,125327,6,0,P|141:162|150:206,1,90,2|0,0:0|1:2,0:0:0:0:
150,217,125577,1,0,1:2:0:0:
147,226,125661,1,8,0:0:0:0:
271,104,125827,1,2,0:0:0:0:
65,15,125994,1,0,1:2:0:0:
288,117,126161,1,0,1:2:0:0:
288,117,126244,1,0,1:2:0:0:
288,117,126327,2,0,P|330:131|374:140,1,90,10|0,0:0|0:0,0:0:0:0:
157,3,126661,6,0,B|64:22|104:65|-16:88,1,180,2|8,1:2|0:0,0:0:0:0:
187,184,127161,1,2,1:2:0:0:
187,184,127244,1,0,1:2:0:0:
187,184,127327,2,0,P|144:169|100:160,1,90,0|0,1:2|1:2,0:0:0:0:
13,225,127661,1,10,0:0:0:0:
256,122,127827,6,0,P|319:107|415:169,1,180,6|0,1:0|1:2,0:0:0:0:
328,330,128327,2,0,P|318:286|304:243,1,90,8|0,0:0|1:2,0:0:0:0:
393,210,128577,1,8,0:0:0:0:
391,202,128661,2,0,P|397:180|405:159,1,45,2|8,1:2|0:0,0:0:0:0:
307,0,128827,5,10,0:0:0:0:
263,6,128910,1,8,0:0:0:0:
236,43,128994,1,10,0:3:0:0:
234,97,129077,1,8,0:3:0:0:
194,133,129160,1,4,0:3:0:0:
140,129,129244,1,4,0:3:0:0:
110,84,129327,6,0,P|195:85|238:160,1,180,6|8,1:2|0:0,0:0:0:0:
112,285,129827,1,2,1:2:0:0:
112,285,129911,1,0,1:2:0:0:
112,285,129994,1,0,1:2:0:0:
295,369,130161,1,0,1:2:0:0:
88,283,130327,2,0,P|44:293|1:307,1,90,10|2,0:0|1:2,0:0:0:0:
234,171,130661,5,0,0:0:0:0:
182,370,130827,1,0,1:2:0:0:
238,158,130994,2,0,P|248:114|262:71,1,90,10|0,0:0|0:0,0:0:0:0:
95,141,131327,1,2,1:2:0:0:
288,256,131494,1,0,1:2:0:0:
64,384,131661,2,0,P|106:370|150:361,1,90,10|0,0:0|0:0,0:0:0:0:
362,140,131994,6,0,B|438:162|406:186|506:211,1,148.50000453186,2|0,1:2|0:0,0:0:0:0:
499,202,132328,1,10,0:0:0:0:
293,59,132494,2,0,P|337:50|379:35,1,90,2|0,0:0|1:2,0:0:0:0:
394,32,132744,1,0,1:2:0:0:
402,26,132827,1,2,1:2:0:0:
295,214,132994,1,8,0:0:0:0:
183,0,133161,6,0,P|147:47|153:121,1,135,6|0,1:2|0:0,0:0:0:0:
166,126,133494,1,0,1:2:0:0:
307,227,133661,2,0,P|296:183|281:140,1,90,8|0,0:0|0:0,0:0:0:0:
452,253,133994,2,0,P|441:296|426:339,1,90,2|2,1:2|1:2,0:0:0:0:
422,349,134244,1,0,1:2:0:0:
417,356,134327,1,10,0:0:0:0:
85,323,134494,5,8,0:0:0:0:
85,323,134578,1,8,0:0:0:0:
85,323,134661,2,0,P|132:272|237:282,1,180,6|8,1:0|0:0,0:0:0:0:
411,184,135161,2,0,P|359:199|312:209,1,90,2|0,0:0|1:2,0:0:0:0:
116,171,135495,1,0,1:2:0:0:
243,294,135661,1,10,0:0:0:0:
346,106,135828,6,0,B|443:133|394:164|520:200,1,180,2|0,1:2|1:2,0:0:0:0:
351,10,136327,2,0,P|309:25|266:37,1,90,10|0,0:0|0:0,0:0:0:0:
176,6,136661,1,2,1:2:0:0:
362,163,136827,1,0,1:2:0:0:
190,247,136994,1,10,0:0:0:0:
362,163,137160,5,0,1:2:0:0:
362,163,137243,1,0,1:2:0:0:
362,163,137327,2,0,B|437:182|406:209|506:234,1,148.50000453186,2|0,1:2|0:0,0:0:0:0:
502,226,137661,1,10,0:0:0:0:
258,296,137828,2,0,P|301:282|344:272,1,90,2|0,0:0|1:2,0:0:0:0:
360,271,138077,1,0,1:2:0:0:
372,270,138161,1,2,1:2:0:0:
336,384,138327,1,8,0:0:0:0:
174,179,138494,6,0,B|69:199|117:250|-6:269,1,198.000006042481,6|0,1:0|1:2,0:0:0:0:
98,49,138994,6,0,P|162:69|228:84,1,135,12|0,0:0|0:0,0:0:0:0:
238,74,139327,2,0,P|232:52|225:30,3,45,10|8|8|8,0:0|0:0|0:0|0:0,0:0:0:0:
328,130,139661,2,0,P|320:151|315:173,3,45,8|8|8|8,0:0|0:0|0:0|0:0,0:0:0:0:
415,54,139994,6,0,P|498:68|512:151,1,180,6|8,1:2|0:0,0:0:0:0:
511,151,140661,1,0,1:2:0:0:
356,262,140827,1,2,1:2:0:0:
484,342,140994,1,10,0:0:0:0:
356,262,141161,6,0,B|264:285|298:327|196:354,1,180,6|0,1:0|1:2,0:0:0:0:
96,203,141661,2,0,P|146:216|183:224,1,90,8|0,0:0|0:0,0:0:0:0:
267,156,141994,1,2,1:2:0:0:
125,301,142161,1,0,1:2:0:0:
274,148,142327,2,0,P|287:98|295:61,1,90,8|0,0:0|0:0,0:0:0:0:
0,164,142661,6,0,P|66:107|152:122,1,180,2|8,1:2|0:0,0:0:0:0:
322,38,143161,1,2,1:2:0:0:
322,38,143244,1,0,1:2:0:0:
322,38,143327,1,0,1:2:0:0:
209,198,143494,1,2,1:2:0:0:
105,17,143661,1,10,0:0:0:0:
274,126,143827,5,6,1:2:0:0:
274,126,143911,1,0,1:2:0:0:
274,126,143994,2,0,P|311:180|300:245,1,135,2|0,1:2|0:0,0:0:0:0:
234,296,144327,2,0,P|192:279|148:268,1,90,10|0,0:0|0:0,0:0:0:0:
392,187,144661,2,0,P|433:170|477:159,1,90,2|0,1:2|1:2,0:0:0:0:
486,152,144911,1,0,1:2:0:0:
493,142,144994,2,0,P|476:88|468:53,1,90,10|8,0:0|0:3,0:0:0:0:
220,193,145327,6,0,B|150:173|187:154|82:125,1,135,6|0,1:0|0:0,0:0:0:0:
92,122,145661,2,0,B|60:152|60:152|69:197,1,90,10|0,0:0|0:0,0:0:0:0:
239,98,145994,1,0,1:2:0:0:
168,25,146161,1,0,1:2:0:0:
228,201,146327,1,10,0:0:0:0:
149,263,146494,5,4,1:2:0:0:
149,263,146577,1,0,1:2:0:0:
149,263,146661,2,0,P|233:232|320:210,1,180,2|10,1:2|0:0,0:0:0:0:
407,257,147161,1,0,0:0:0:0:
226,193,147327,1,2,1:2:0:0:
354,357,147494,1,0,1:2:0:0:
354,357,147577,1,0,1:2:0:0:
354,357,147661,2,0,P|303:340|268:331,1,90,10|0,0:0|0:0,0:0:0:0:
100,195,147994,6,0,P|117:122|230:94,1,180,4|10,1:0|0:0,0:0:0:0:
438,147,148494,1,0,1:2:0:0:
268,0,148661,1,10,0:0:0:0:
216,210,148827,1,0,1:2:0:0:
216,210,148911,1,0,1:2:0:0:
216,210,148994,1,10,0:0:0:0:
458,344,149161,6,0,P|390:326|301:387,1,180,4|8,1:2|0:0,0:0:0:0:
482,200,149661,1,8,0:0:0:0:
283,148,149827,1,8,0:0:0:0:
283,148,149911,1,8,0:0:0:0:
283,148,149994,1,10,0:0:0:0:
366,310,150161,1,8,0:3:0:0:
431,110,150327,2,0,B|448:49|456:14,1,90,6|4,0:3|0:3,0:0:0:0:
283,148,150661,6,0,B|208:169|230:191|125:221,1,153.000002918243,6|0,1:0|1:2,0:0:0:0:
17,354,151327,1,14,0:0:0:0:
66,286,151494,2,0,P|55:244|42:207,1,76.5000014591217,0|0,1:2|0:0,0:0:0:0:
158,131,151827,6,0,P|177:203|202:277,1,153.000002918243,2|8,1:2|0:0,0:0:0:0:
142,344,152327,1,2,1:2:0:0:
264,183,152661,1,10,0:0:0:0:
332,232,152828,2,0,P|373:221|410:208,1,76.5000014591217,0|2,1:2|0:0,0:0:0:0:
416,205,153077,1,2,0:0:0:0:
424,202,153161,1,2,0:0:0:0:
512,362,153327,6,0,P|455:312|368:329,1,153.000002918243,6|0,1:0|1:2,0:0:0:0:
231,263,153827,1,0,1:2:0:0:
231,263,153911,1,0,1:2:0:0:
231,263,153994,1,10,0:0:0:0:
295,209,154161,2,0,P|318:136|336:62,1,153.000002918243,0|2,1:2|1:2,0:0:0:0:
411,10,154661,5,0,0:0:0:0:
251,49,154827,2,0,P|209:38|172:25,1,76.5000014591217,10|2,0:0|1:2,0:0:0:0:
104,103,155161,2,0,P|145:113|182:126,1,76.5000014591217,0|14,1:2|0:0,0:0:0:0:
382,192,155494,5,8,0:0:0:0:
378,237,155577,1,8,0:0:0:0:
340,264,155661,1,10,0:0:0:0:
286,264,155744,1,8,0:0:0:0:
249,302,155827,1,8,0:0:0:0:
253,355,155911,1,8,0:0:0:0:
297,384,155994,6,0,P|372:359|448:348,1,135,6|0,1:0|0:0,0:0:0:0:
438,354,156327,2,0,B|466:308|466:308|447:264,1,90,8|2,0:0|0:0,0:0:0:0:
367,136,156661,1,0,1:2:0:0:
505,73,156827,1,2,1:2:0:0:
350,144,156994,2,0,P|304:159|262:168,1,90,10|2,0:0|1:2,0:0:0:0:
255,161,157244,1,0,1:2:0:0:
247,154,157327,6,0,P|312:163|337:277,1,180,2|8,1:2|0:0,0:0:0:0:
151,329,157827,1,2,1:2:0:0:
151,329,157911,1,0,1:2:0:0:
151,329,157994,2,0,P|95:311|59:302,1,90,0|0,1:2|1:2,0:0:0:0:
258,239,158327,2,0,P|314:221|349:212,1,90,10|0,0:0|0:0,0:0:0:0:
116,131,158661,5,6,1:0:0:0:
241,323,158827,1,0,1:2:0:0:
337,111,158994,1,8,0:0:0:0:
135,227,159161,1,2,1:2:0:0:
135,227,159244,1,0,1:2:0:0:
135,227,159327,1,8,0:0:0:0:
346,315,159494,1,2,1:2:0:0:
111,215,159661,1,2,1:2:0:0:
350,99,159827,6,0,B|441:128|391:164|500:199,1,180,14|2,0:0|1:2,0:0:0:0:
330,208,160327,5,10,0:0:0:0:
238,49,160494,1,10,0:0:0:0:
320,10,160661,5,8,0:0:0:0:
226,169,160827,1,10,0:3:0:0:
137,206,160994,5,6,0:3:0:0:
73,127,161161,1,6,0:3:0:0:
2,262,161327,5,6,1:0:0:0:
256,192,161411,12,2,166661,0:0:0:0:
427,191,170494,5,2,0:0:0:0:
427,191,170577,1,2,0:0:0:0:
426,190,170661,2,0,P|414:224|406:259,1,72,6|2,1:2|3:2,0:0:0:0:
331,201,170994,1,8,0:3:0:0:
497,238,171161,1,8,0:0:0:0:
315,198,171327,2,0,P|279:190|245:178,1,72,6|4,0:3|0:3,0:0:0:0:
320,302,171661,1,6,0:3:0:0:
124,384,171827,5,4,0:3:0:0:
124,384,171911,1,4,0:3:0:0:
124,384,171994,2,0,P|189:359|249:345,1,125.999996154785,6|2,1:2|1:2,0:0:0:0:
98,258,172494,1,2,0:0:0:0:
98,258,172661,2,0,P|144:275|166:280,1,62.9999980773926,10|0,0:0|1:2,0:0:0:0:
240,233,172994,1,2,0:0:0:0:
240,233,173161,1,2,1:2:0:0:
175,122,173327,6,0,B|107:137|134:162|48:178,1,125.999996154785,2|2,0:0|1:2,0:0:0:0:
0,127,173827,1,2,0:0:0:0:
58,65,173994,2,0,P|75:19|81:-2,1,62.9999980773926,8|2,0:0|0:0,0:0:0:0:
184,111,174327,2,0,P|201:157|206:180,1,62.9999980773926,0|2,0:0|0:0,0:0:0:0:
263,248,174577,1,2,0:0:0:0:
263,248,174661,6,0,P|280:187|303:129,2,125.999996154785,2|2|10,1:2|1:2|0:0,0:0:0:0:
192,299,175494,1,0,1:2:0:0:
335,280,175661,2,0,P|365:288|394:300,1,62.9999980773926,2|0,0:0|1:2,0:0:0:0:
453,384,175994,2,0,P|470:323|493:265,1,125.999996154785,2|2,0:0|1:2,0:0:0:0:
499,254,176411,1,2,0:0:0:0:
505,244,176494,1,2,0:0:0:0:
375,94,176661,5,10,0:0:0:0:
449,174,176883,5,2,1:2:0:0:
479,7,177105,5,2,1:2:0:0:
359,100,177327,6,0,P|297:121|238:134,1,125.999996154785,2|2,1:2|1:2,0:0:0:0:
175,58,177827,1,2,0:0:0:0:
175,58,177911,1,2,0:0:0:0:
175,58,177994,2,0,P|143:47|107:38,1,62.9999980773926,10|0,0:0|1:2,0:0:0:0:
238,2,178327,1,2,0:0:0:0:
85,44,178494,6,0,P|74:81|121:152,1,125.999996154785,2|8,1:2|0:0,0:0:0:0:
129,147,178911,1,8,0:0:0:0:
139,140,178994,2,0,P|130:173|122:210,1,62.9999980773926,2|0,1:2|0:0,0:0:0:0:
207,251,179327,2,0,P|215:220|223:190,1,62.9999980773926,10|0,0:0|0:0,0:0:0:0:
54,247,179661,2,0,P|61:277|69:308,1,62.9999980773926,2|0,0:0|0:0,0:0:0:0:
217,350,179994,6,0,P|272:346|331:388,1,125.999996154785,2|0,1:2|1:2,0:0:0:0:
432,265,180494,2,0,P|401:278|372:285,1,62.9999980773926,2|8,0:0|0:0,0:0:0:0:
362,288,180744,1,8,0:0:0:0:
353,286,180827,1,0,1:2:0:0:
512,384,180994,2,0,P|504:353|491:324,1,62.9999980773926,2|0,0:0|1:2,0:0:0:0:
302,219,181327,6,0,P|309:188|322:159,1,62.9999980773926,2|8,0:0|0:0,0:0:0:0:
146,125,181661,1,0,1:2:0:0:
240,120,181827,1,8,0:0:0:0:
240,120,181911,1,8,0:0:0:0:
240,120,181994,2,0,P|229:156|218:181,1,62.9999980773926,10|8,0:0|0:3,0:0:0:0:
109,293,182327,5,4,0:3:0:0:
42,227,182494,1,8,0:0:0:0:
211,171,182661,2,0,B|282:189|253:218|338:240,1,144,6|2,1:2|1:2,0:0:0:0:
414,205,183161,5,2,0:0:0:0:
491,332,183327,1,10,0:0:0:0:
403,360,183494,5,2,0:0:0:0:
403,360,183577,1,2,0:0:0:0:
403,360,183661,1,2,0:0:0:0:
502,236,183827,1,10,0:0:0:0:
397,201,183994,5,2,1:2:0:0:
460,144,184161,1,10,0:0:0:0:
414,279,184327,1,2,1:2:0:0:
318,175,184494,2,0,P|306:141|299:105,1,72,2|8,0:0|0:0,0:0:0:0:
421,290,184827,2,0,P|414:325|402:359,1,72,2|0,1:2|0:0,0:0:0:0:
237,237,185161,5,10,0:0:0:0:
237,237,185244,1,8,0:0:0:0:
237,237,185327,2,0,B|158:259|204:278|113:305,1,144,4|2,1:0|0:0,0:0:0:0:
45,257,185827,1,0,1:2:0:0:
126,171,185994,2,0,P|137:136|144:101,1,72,10|2,0:0|1:2,0:0:0:0:
145,87,186244,1,2,0:0:0:0:
143,76,186327,1,2,0:0:0:0:
30,111,186494,1,0,1:2:0:0:
228,148,186661,6,0,P|269:113|359:114,1,144,2|0,0:0|0:0,0:0:0:0:
491,75,187161,1,0,1:2:0:0:
491,75,187244,1,0,1:2:0:0:
491,75,187327,2,0,P|505:36|513:1,1,72,10|2,0:0|1:2,0:0:0:0:
351,120,187661,1,8,0:0:0:0:
512,265,187827,5,2,0:0:0:0:
512,265,187911,1,2,0:0:0:0:
512,265,187994,2,0,B|440:247|468:226|384:202,1,135,6|0,1:2|0:0,0:0:0:0:
385,210,188327,5,10,1:2:0:0:
297,323,188494,1,10,0:0:0:0:
314,117,188661,5,8,1:2:0:0:
302,329,188827,1,8,0:0:0:0:
208,112,188994,5,10,1:2:0:0:
307,335,189161,1,10,0:0:0:0:
86,243,189327,6,0,P|42:254|0:267,1,90,8|8,1:2|0:0,0:0:0:0:
205,121,189661,1,10,1:2:0:0:
137,341,189827,1,8,0:0:0:0:
19,125,189994,1,10,1:2:0:0:
209,248,190161,1,8,0:0:0:0:
273,24,190327,1,10,1:2:0:0:
114,163,190494,1,8,0:0:0:0:
334,253,190661,6,0,P|376:266|420:277,1,90,6|8,1:0|0:0,0:0:0:0:
486,213,190911,1,8,0:0:0:0:
486,213,190994,2,0,P|480:191|474:169,3,45,8|8|10|8,1:2|0:0|0:0|0:0,0:0:0:0:
407,103,191327,2,0,P|412:81|418:59,3,45,8|8|8|8,1:2|0:0|0:0|0:0,0:0:0:0:
279,123,191661,5,10,1:2:0:0:
243,95,191744,1,8,0:0:0:0:
233,51,191827,1,8,0:0:0:0:
256,12,191911,1,8,0:0:0:0:
299,0,191994,6,0,P|320:5|342:11,1,45,10|8,1:2|0:0,0:0:0:0:
176,142,192161,2,0,P|154:147|132:153,1,45,8|8,0:0|0:0,0:0:0:0:
3,284,192327,5,8,1:2:0:0:
32,330,192411,1,8,0:0:0:0:
82,349,192494,1,8,0:0:0:0:
135,344,192577,1,8,0:0:0:0:
176,309,192661,5,10,1:2:0:0:
171,297,192744,1,8,0:0:0:0:
166,285,192827,1,2,1:2:0:0:
412,363,193327,5,2,0:0:0:0:
28,342,195994,6,0,P|114:327|180:384,1,180,6|8,1:0|0:0,0:0:0:0:
62,174,196494,1,2,1:2:0:0:
62,174,196577,1,0,1:2:0:0:
62,174,196661,1,0,1:2:0:0:
262,146,196827,1,0,1:2:0:0:
130,303,196994,1,10,0:0:0:0:
45,157,197161,6,0,P|-8:84|4:-3,1,180,2|0,1:2|1:2,0:0:0:0:
176,123,197661,2,0,P|164:164|151:221,1,90,10|0,0:0|0:0,0:0:0:0:
309,120,197994,1,2,1:2:0:0:
161,0,198161,1,0,1:2:0:0:
318,129,198327,2,0,P|359:141|416:154,1,90,10|0,0:0|0:0,0:0:0:0:
509,342,198661,6,0,B|414:332|440:394|322:377,1,180,2|8,1:2|0:0,0:0:0:0:
178,205,199161,1,2,1:2:0:0:
178,205,199244,1,0,1:2:0:0:
178,205,199327,2,0,P|236:222|279:234,1,90,0|0,1:2|1:2,0:0:0:0:
346,192,199661,1,10,0:0:0:0:
132,358,199827,5,6,1:2:0:0:
132,358,199911,1,0,1:2:0:0:
132,358,199994,2,0,P|120:306|106:256,1,90,2|0,1:2|1:2,0:0:0:0:
316,95,200327,2,0,P|327:146|341:196,1,90,10|0,0:0|0:0,0:0:0:0:
230,237,200661,5,2,1:2:0:0:
373,345,200828,1,2,1:2:0:0:
455,257,200994,5,10,0:0:0:0:
289,384,201161,1,10,0:0:0:0:
289,384,201244,1,8,0:0:0:0:
289,384,201327,2,0,P|282:318|320:264,1,135,6|0,1:0|0:0,0:0:0:0:
384,214,201661,2,0,P|427:224|471:235,1,90,10|0,0:0|0:0,0:0:0:0:
212,93,201994,2,0,P|168:103|124:114,1,90,2|0,1:2|1:2,0:0:0:0:
115,110,202244,1,0,1:2:0:0:
108,104,202327,2,0,P|97:60|81:16,1,90,10|0,0:0|1:2,0:0:0:0:
310,130,202661,6,0,P|288:193|271:259,1,135,2|0,0:0|0:0,0:0:0:0:
274,269,202994,1,8,0:0:0:0:
115,110,203161,1,2,1:2:0:0:
115,110,203244,1,0,1:2:0:0:
115,110,203327,1,0,1:2:0:0:
303,45,203494,1,0,1:2:0:0:
98,116,203661,2,0,P|55:131|12:142,1,90,10|0,0:0|0:0,0:0:0:0:
264,249,203994,5,2,1:2:0:0:
324,133,204161,1,0,1:2:0:0:
324,133,204244,1,0,1:2:0:0:
324,133,204327,1,8,0:0:0:0:
129,213,204494,1,2,1:2:0:0:
325,358,204661,1,8,0:0:0:0:
258,233,204827,1,8,0:3:0:0:
84,306,204994,5,10,0:0:0:0:
84,306,205077,1,8,0:0:0:0:
84,306,205161,2,0,P|28:289|11:181,1,180,6|0,1:0|1:2,0:0:0:0:
186,316,205661,1,8,0:0:0:0:
0,384,205827,1,8,0:3:0:0:
148,193,205994,5,10,0:0:0:0:
148,193,206077,1,8,0:0:0:0:
148,193,206161,1,10,0:3:0:0:
196,168,206244,1,8,0:3:0:0:
246,189,206328,1,6,0:3:0:0:
270,239,206411,1,4,0:3:0:0:
321,275,206494,1,4,0:3:0:0:
381,256,206578,1,4,0:3:0:0:
400,196,206661,6,0,P|372:98|351:12,1,180,6|8,1:2|0:0,0:0:0:0:
272,192,207161,1,2,0:0:0:0:
462,84,207327,1,0,1:2:0:0:
244,0,207494,1,0,1:2:0:0:
244,0,207577,1,0,1:2:0:0:
244,0,207661,1,10,0:0:0:0:
475,89,207827,6,0,P|524:119|512:228,1,180,2|0,1:2|1:2,0:0:0:0:
376,326,208327,2,0,P|355:250|345:218,1,90,10|0,0:0|1:2,0:0:0:0:
347,230,208577,1,0,1:2:0:0:
340,223,208661,1,2,1:2:0:0:
509,358,208827,1,0,1:2:0:0:
269,310,208994,2,0,P|193:331|161:341,1,90,10|0,0:0|0:0,0:0:0:0:
370,115,209327,6,0,B|449:140|412:160|514:186,1,148.50000453186,2|0,1:2|0:0,0:0:0:0:
511,176,209661,1,10,0:0:0:0:
386,12,209827,2,0,P|342:24|299:36,1,90,2|0,0:0|1:2,0:0:0:0:
429,189,210161,1,2,1:2:0:0:
429,189,210244,1,0,1:2:0:0:
429,189,210327,1,8,0:0:0:0:
212,2,210494,6,0,B|117:27|170:65|45:94,1,180,6|0,1:2|1:2,0:0:0:0:
249,193,210994,2,0,P|206:181|163:169,1,90,8|0,0:0|1:2,0:0:0:0:
150,167,211244,1,8,0:0:0:0:
139,165,211327,1,2,1:2:0:0:
176,290,211494,1,2,1:2:0:0:
400,115,211661,5,10,0:0:0:0:
450,95,211744,1,8,0:0:0:0:
498,118,211827,1,8,0:0:0:0:
512,170,211911,1,8,0:0:0:0:
478,212,211994,6,0,P|452:298|428:384,1,180,6|8,1:0|0:0,0:0:0:0:
260,259,212494,1,2,1:2:0:0:
260,259,212577,1,0,1:2:0:0:
260,259,212661,2,0,P|303:246|346:234,1,90,0|0,1:2|1:2,0:0:0:0:
240,364,212994,1,10,0:0:0:0:
114,103,213161,6,0,P|22:127|1:213,1,180,2|0,1:2|1:2,0:0:0:0:
166,313,213661,2,0,P|176:270|185:225,1,90,10|0,0:0|1:2,0:0:0:0:
189,213,213911,1,0,1:2:0:0:
193,202,213994,1,2,1:2:0:0:
325,285,214161,1,0,1:2:0:0:
87,222,214327,2,0,P|44:212|0:202,1,90,10|0,0:0|0:0,0:0:0:0:
319,84,214661,6,0,B|398:109|361:129|463:155,1,148.50000453186,2|0,1:2|0:0,0:0:0:0:
460,145,214995,1,10,0:0:0:0:
325,275,215161,1,2,1:2:0:0:
325,275,215244,1,8,1:2:0:0:
325,275,215327,1,0,1:2:0:0:
436,249,215494,1,10,1:3:0:0:
319,84,215661,1,8,0:0:0:0:
173,245,215827,6,0,B|68:265|113:306|-7:335,1,198.000006042481,6|0,1:0|1:2,0:0:0:0:
124,165,216327,2,0,P|134:121|146:77,1,90,14|0,0:0|0:0,0:0:0:0:
28,101,216661,1,2,1:2:0:0:
186,258,216827,1,8,0:0:0:0:
311,163,216994,1,10,0:0:0:0:
447,314,217161,1,4,0:3:0:0:
447,314,217244,1,0,1:2:0:0:
447,314,217327,5,10,0:0:0:0:
190,384,218494,5,10,1:2:0:0:
463,226,219161,5,0,1:2:0:0:
463,226,219244,1,0,1:2:0:0:
463,226,219327,1,10,0:0:0:0:
311,94,219494,2,0,P|320:126|343:150,1,67.5,2|0,1:2|0:0,0:0:0:0:
373,143,219827,6,0,B|290:158|329:200|200:216,1,161.999995056153,6|0,1:0|1:2,0:0:0:0:
104,67,220327,2,0,P|142:79|182:87,1,80.9999975280763,10|0,0:0|0:0,0:0:0:0:
260,51,220661,1,2,1:2:0:0:
117,172,220827,1,2,1:2:0:0:
222,224,220994,1,10,0:0:0:0:
94,62,221161,6,0,P|40:65|11:178,1,161.999995056153,2|2,1:2|1:2,0:0:0:0:
133,255,221661,1,10,0:0:0:0:
59,321,221827,1,2,0:0:0:0:
111,165,221994,1,2,1:2:0:0:
233,297,222161,1,2,1:2:0:0:
233,297,222244,1,0,1:2:0:0:
233,297,222327,1,8,0:0:0:0:
372,171,222494,6,0,P|450:158|510:208,1,161.999995056153,2|0,1:2|1:2,0:0:0:0:
390,267,222994,2,0,P|351:255|311:246,1,80.9999975280763,10|0,0:0|1:2,0:0:0:0:
300,243,223244,1,0,1:2:0:0:
288,241,223327,1,2,1:2:0:0:
372,171,223494,1,2,1:2:0:0:
329,342,223661,1,10,0:0:0:0:
378,154,223827,6,0,P|391:76|341:16,1,161.999995056153,2|2,1:2|1:2,0:0:0:0:
495,64,224327,1,10,0:0:0:0:
292,110,224494,1,2,1:2:0:0:
292,110,224577,1,0,1:2:0:0:
292,110,224661,2,0,P|272:115|252:121,1,40.4999987640381,8|8,0:0|0:0,0:0:0:0:
46,90,224827,5,10,0:0:0:0:
42,36,224910,1,8,0:0:0:0:
82,0,224993,1,10,0:0:0:0:
136,4,225077,1,8,0:0:0:0:
166,48,225160,6,0,P|142:131|125:213,1,161.999995056153,6|2,1:2|1:2,0:0:0:0:
35,99,225661,1,10,0:0:0:0:
243,157,225827,1,2,1:2:0:0:
243,157,225911,1,0,1:2:0:0:
243,157,225994,2,0,P|281:168|321:176,1,80.9999975280763,0|2,1:2|1:2,0:0:0:0:
379,237,226327,1,8,0:0:0:0:
232,384,226494,6,0,P|199:334|211:276,1,121.499996292114,2|0,1:2|0:0,0:0:0:0:
210,267,226827,1,2,1:2:0:0:
400,224,226994,2,0,P|388:262|380:302,1,80.9999975280763,10|2,0:0|1:2,0:0:0:0:
378,311,227244,1,0,1:2:0:0:
378,320,227327,1,0,1:2:0:0:
494,287,227494,1,2,1:2:0:0:
317,168,227661,1,8,0:0:0:0:
512,54,227827,6,0,P|449:103|371:92,1,161.999995056153,6|2,1:1|1:2,0:0:0:0:
200,10,228327,1,10,0:0:0:0:
317,168,228494,1,2,1:2:0:0:
317,168,228577,1,0,1:2:0:0:
317,168,228661,1,8,0:0:0:0:
138,223,228827,1,2,1:2:0:0:
302,43,228994,1,8,0:0:0:0:
138,223,229161,6,0,B|48:199|85:162|-1:145,1,161.999995056153,14|10,0:0|0:0,0:0:0:0:
147,122,229661,1,10,0:0:0:0:
0,253,229827,2,0,P|7:280|13:298,2,40.4999987640381,10|8|8,0:0|0:0|0:0,0:0:0:0:
74,79,230161,1,10,0:3:0:0:
74,79,230244,1,8,0:3:0:0:
74,79,230327,1,4,0:3:0:0:
313,264,230494,6,0,B|395:276|465:180|370:73|274:137|274:137|229:-15|34:29|46:188|144:228|151:222|156:217|210:267|192:338,1,787.5,6|0,1:1|0:0,0:0:0:0:
