osu file format v14

[General]
AudioFilename: audio.mp3
AudioLeadIn: 0
PreviewTime: 195282
Countdown: 0
SampleSet: Soft
StackLeniency: 0.7
Mode: 0
LetterboxInBreaks: 0
WidescreenStoryboard: 1

[Editor]
Bookmarks: 1328,6661,11827,22661,33327,43994,57327,59994,81327,94661,105161,115994,150661,161327,166661,170661,182661,193327,217327,230494,236327
DistanceSpacing: 1.25
BeatDivisor: 4
GridSize: 32
TimelineZoom: 2.4

[Metadata]
Title:"Boku wa..."
TitleUnicode:「僕は...」
Artist:Atarayo
ArtistUnicode:あたらよ
Creator:Liyuu
Version:Asagi's Hard
Source:僕の心のヤバイやつ
Tags:boku no kokoro no yabai yatsu season 2 第2期 ii the dangers in my heart bokuyaba opening op jpop pop j-pop anime japanese asagi rielle tsunyun tsukinyuni midorijeon midori
BeatmapID:4525930
BeatmapSetID:2143919

[Difficulty]
HPDrainRate:4.5
CircleSize:3.6
OverallDifficulty:6.2
ApproachRate:8
SliderMultiplier:1.45
SliderTickRate:1

[Events]
//Background and Video events
0,0,"bg.jpg",0,0
//Break Periods
2,166861,169744
//Storyboard Layer 0 (Background)
//Storyboard Layer 1 (Fail)
//Storyboard Layer 2 (Pass)
//Storyboard Layer 3 (Foreground)
//Storyboard Layer 4 (Overlay)
//Storyboard Sound Samples

[TimingPoints]
1328,333.333333333333,4,2,1,60,1,0
6661,-166.666666666667,4,2,1,55,0,0
11161,-166.666666666667,4,2,1,65,0,0
11827,-100,4,2,1,75,0,0
22494,-100,4,2,1,65,0,0
43827,-100,4,2,1,70,0,0
44161,-111.111111111111,4,2,1,70,0,0
51827,-100,4,2,1,70,0,0
54494,-100,4,2,1,70,0,0
59327,-100,4,2,1,50,0,0
59994,-90.9090909090909,4,2,1,80,0,1
81327,-100,4,2,1,80,0,0
83827,-100,4,2,1,75,0,0
94494,-111.111111111111,4,2,1,60,0,0
105161,-100,4,2,1,65,0,0
114661,-100,4,2,1,65,0,0
115994,-90.9090909090909,4,2,1,70,0,0
116494,-83.3333333333333,4,2,1,70,0,0
117161,-90.9090909090909,4,2,1,70,0,0
118661,-90.9090909090909,4,2,1,80,0,1
139994,-90.9090909090909,4,2,1,75,0,0
150661,-111.111111111111,4,2,1,70,0,0
155994,-90.9090909090909,4,2,1,70,0,0
161327,-90.9090909090909,4,2,1,50,0,0
170494,-100,4,2,1,50,0,0
171994,-111.111111111111,4,2,1,60,0,0
182661,-111.111111111111,4,2,1,65,0,0
187994,-100,4,2,1,70,0,0
188161,-100,4,2,1,45,0,0
188327,-100,4,2,1,47,0,0
188494,-100,4,2,1,48,0,0
188661,-100,4,2,1,50,0,0
188827,-100,4,2,1,52,0,0
188994,-100,4,2,1,53,0,0
189161,-100,4,2,1,55,0,0
189327,-100,4,2,1,57,0,0
189494,-100,4,2,1,58,0,0
189661,-100,4,2,1,60,0,0
189827,-100,4,2,1,62,0,0
189994,-100,4,2,1,63,0,0
190161,-100,4,2,1,65,0,0
190327,-100,4,2,1,67,0,0
190494,-100,4,2,1,68,0,0
190661,-100,4,2,1,70,0,0
190744,-100,4,2,1,45,0,0
190827,-100,4,2,1,45,0,0
190994,-100,4,2,1,47,0,0
191161,-100,4,2,1,50,0,0
191328,-100,4,2,1,52,0,0
191494,-100,4,2,1,54,0,0
191661,-100,4,2,1,56,0,0
191828,-100,4,2,1,59,0,0
191994,-100,4,2,1,61,0,0
192161,-100,4,2,1,63,0,0
192328,-100,4,2,1,65,0,0
192494,-100,4,2,1,68,0,0
192661,-100,4,2,1,70,0,0
193328,-100,4,2,1,50,0,0
193661,-100,4,2,1,46,0,0
193994,-100,4,2,1,42,0,0
194328,-100,4,2,1,38,0,0
194661,-100,4,2,1,34,0,0
194994,-100,4,2,1,30,0,0
195328,-100,4,2,1,60,0,0
195994,-90.9090909090909,4,2,1,80,0,1
217327,-100,4,2,1,80,0,0
219494,-111.111111111111,4,2,1,80,0,0
219827,-100,4,2,1,75,0,0
230494,-400,4,2,1,65,0,0
236327,-363.636363636364,4,2,1,65,0,0

[Colours]
Combo1 : 156,228,85
Combo2 : 156,114,37
Combo3 : 235,230,118

[HitObjects]
173,57,6661,6,0,P|188:97|194:140,3,86.9999973449708,2|2|2|2,1:1|1:2|1:2|1:2,0:0:0:0:
335,233,7994,6,0,P|319:273|313:316,3,86.9999973449708,2|0|0|2,1:2|1:2|1:2|1:2,0:0:0:0:
135,345,9327,6,0,P|92:346|57:321,1,86.9999973449708,2|0,1:2|1:2,0:0:0:0:
201,198,9994,2,0,P|222:234|218:277,1,86.9999973449708,0|2,1:2|1:2,0:0:0:0:
37,222,10661,2,0,P|57:184|96:166,1,86.9999973449708,2|0,1:2|0:0,0:0:0:0:
126,254,11161,1,10,0:0:0:0:
358,345,11827,6,0,P|427:347|467:290,1,145,6|0,1:0|1:2,0:0:0:0:
466,198,12327,2,0,P|466:161|474:126,1,72.5,10|0,0:0|0:0,0:0:0:0:
445,39,12661,1,2,1:2:0:0:
388,109,12827,2,0,P|378:144|376:180,1,72.5,2|10,1:2|0:0,0:0:0:0:
320,252,13161,6,0,B|233:238|267:287|174:273,1,145,2|2,1:2|1:2,0:0:0:0:
117,208,13661,1,10,0:0:0:0:
47,270,13827,2,0,P|42:287|39:305,2,36.25,2|2|2,0:0|0:0|1:2,0:0:0:0:
16,189,14161,1,2,1:2:0:0:
16,189,14327,1,8,0:0:0:0:
36,100,14494,6,0,P|104:91|147:145,1,145,2|0,1:2|1:2,0:0:0:0:
235,168,14994,2,0,P|241:132|242:95,1,72.5,10|0,0:0|0:0,0:0:0:0:
335,115,15327,1,2,1:2:0:0:
335,115,15494,1,2,1:2:0:0:
400,51,15661,1,10,0:0:0:0:
486,87,15827,6,0,P|475:158|472:231,1,145,2|2,1:2|1:2,0:0:0:0:
390,268,16327,1,10,0:0:0:0:
449,336,16494,2,0,P|471:343|503:347,2,36.25,2|8|8,0:0|0:0|1:3,0:0:0:0:
366,368,16827,1,6,0:3:0:0:
366,368,16994,1,10,0:0:0:0:
273,290,17161,6,0,P|205:279|162:332,1,145,6|2,1:0|1:2,0:0:0:0:
81,374,17661,1,10,0:0:0:0:
21,304,17827,2,0,P|24:268|34:234,1,72.5,2|0,0:0|1:2,0:0:0:0:
121,205,18161,2,0,P|117:168|107:134,1,72.5,2|8,1:2|0:0,0:0:0:0:
64,40,18494,6,0,P|118:84|188:75,1,145,2|2,1:2|1:2,0:0:0:0:
267,30,18994,1,10,0:0:0:0:
351,60,19161,2,0,P|363:95|365:131,1,72.5,2|0,0:0|1:2,0:0:0:0:
304,197,19494,1,2,1:2:0:0:
304,197,19661,1,8,0:0:0:0:
412,263,19827,6,0,B|332:246|363:296|272:282,1,145,2|2,1:2|1:2,0:0:0:0:
202,224,20327,1,10,0:0:0:0:
126,273,20494,2,0,P|116:307|114:344,1,72.5,2|0,0:0|1:2,0:0:0:0:
34,264,20827,1,2,1:2:0:0:
34,264,20994,1,8,0:0:0:0:
7,150,21161,6,0,P|44:92|113:97,1,145,6|2,1:0|1:2,0:0:0:0:
176,162,21661,2,0,P|186:196|190:232,1,72.5,10|2,0:0|1:2,0:0:0:0:
141,318,21994,1,8,0:0:0:0:
141,318,22077,1,8,0:0:0:0:
141,318,22161,1,10,0:3:0:0:
219,363,22327,1,8,0:0:0:0:
278,257,22494,6,0,P|275:185|258:114,1,145,6|0,1:2|1:2,0:0:0:0:
305,41,22994,2,0,P|342:42|382:31,1,72.5,10|0,0:0|0:0,0:0:0:0:
463,61,23327,1,2,1:2:0:0:
463,61,23494,1,0,1:2:0:0:
466,148,23661,2,0,P|430:147|400:127,1,72.5,10|0,0:0|0:0,0:0:0:0:
345,195,23994,6,0,P|338:231|337:269,2,72.5,2|0|10,1:2|1:2|0:0,0:0:0:0:
274,119,24494,2,0,P|238:117|194:107,1,72.5,2|0,0:0|1:2,0:0:0:0:
187,197,24827,2,0,P|223:198|258:206,1,72.5,2|8,1:2|0:0,0:0:0:0:
117,140,25161,6,0,P|49:125|2:176,1,145,2|0,1:2|1:2,0:0:0:0:
18,262,25661,2,0,P|25:297|27:333,1,72.5,10|0,0:0|0:0,0:0:0:0:
109,375,25994,1,2,1:2:0:0:
109,375,26161,1,0,1:2:0:0:
131,291,26327,2,0,P|167:290|201:280,1,72.5,10|0,0:0|0:0,0:0:0:0:
244,200,26661,6,0,P|243:163|235:128,2,72.5,2|0|10,1:2|1:2|0:0,0:0:0:0:
293,276,27161,2,0,P|328:288|368:290,1,72.5,2|0,0:0|1:2,0:0:0:0:
411,217,27494,2,0,P|448:214|480:197,1,72.5,2|8,1:2|0:0,0:0:0:0:
478,92,27827,6,0,P|438:36|369:44,1,145,2|0,1:2|1:2,0:0:0:0:
311,109,28327,2,0,P|302:144|300:180,1,72.5,10|0,0:0|0:0,0:0:0:0:
248,251,28661,1,2,1:2:0:0:
248,251,28827,1,0,1:2:0:0:
211,171,28994,2,0,P|212:134|219:99,1,72.5,10|0,0:0|0:0,0:0:0:0:
153,42,29327,6,0,P|115:42|85:15,2,72.5,2|0|10,1:2|1:2|0:0,0:0:0:0:
99,128,29827,2,0,P|64:138|27:141,1,72.5,2|0,0:0|1:2,0:0:0:0:
111,215,30161,2,0,P|78:227|42:230,1,72.5,2|8,1:2|0:0,0:0:0:0:
116,319,30494,6,0,P|184:308|229:361,1,145,2|0,1:2|1:2,0:0:0:0:
315,371,30994,1,10,0:0:0:0:
481,312,31327,1,2,1:2:0:0:
481,312,31494,1,0,1:2:0:0:
406,267,31661,2,0,P|408:230|416:195,1,72.5,8|0,0:0|1:2,0:0:0:0:
472,95,31994,6,0,P|438:110|400:103,1,72.5,2|0,0:0|1:2,0:0:0:0:
352,35,32327,1,8,0:0:0:0:
295,101,32494,2,0,P|292:118|290:136,2,36.25,0|8|2,1:2|0:0|1:2,0:0:0:0:
265,19,32827,1,10,0:3:0:0:
197,93,32994,5,8,0:0:0:0:
197,93,33077,1,8,0:0:0:0:
197,93,33161,2,0,P|110:95|65:31,1,145,6|0,1:2|1:2,0:0:0:0:
13,133,33661,2,0,P|23:167|27:203,1,72.5,10|0,0:0|0:0,0:0:0:0:
117,195,33994,1,2,1:2:0:0:
117,195,34161,1,0,1:2:0:0:
179,255,34328,2,0,P|168:289|163:325,1,72.5,10|0,0:0|0:0,0:0:0:0:
245,369,34661,6,0,P|280:369|308:347,2,72.5,2|0|10,1:2|1:2|0:0,0:0:0:0:
290,262,35161,2,0,P|330:265|366:276,1,72.5,2|0,0:0|1:2,0:0:0:0:
385,190,35494,2,0,P|350:178|314:175,1,72.5,2|8,1:2|0:0,0:0:0:0:
246,96,35828,6,0,P|255:28|321:10,1,145,2|0,1:2|1:2,0:0:0:0:
406,34,36328,2,0,P|420:67|423:103,1,72.5,10|0,0:0|0:0,0:0:0:0:
347,142,36661,1,2,1:2:0:0:
347,142,36828,1,0,1:2:0:0:
276,193,36994,2,0,P|263:226|260:262,1,72.5,10|0,0:0|0:0,0:0:0:0:
341,297,37328,6,0,P|371:278|407:279,2,72.5,2|0|10,1:2|1:2|0:0,0:0:0:0:
277,356,37828,2,0,P|238:354|205:342,1,72.5,2|0,0:0|1:2,0:0:0:0:
133,268,38161,2,0,P|124:302|120:338,1,72.5,2|8,1:2|0:0,0:0:0:0:
25,356,38494,6,0,P|31:283|53:214,1,145,2|0,1:2|1:2,0:0:0:0:
17,126,38994,2,0,P|53:126|85:104,1,72.5,10|0,0:0|0:0,0:0:0:0:
121,30,39328,1,2,1:2:0:0:
121,30,39494,1,0,1:2:0:0:
198,68,39661,2,0,P|208:102|212:138,1,72.5,10|0,0:0|0:0,0:0:0:0:
156,204,39994,6,0,P|121:196|97:169,2,72.5,2|0|10,1:2|1:2|0:0,0:0:0:0:
202,277,40494,2,0,P|236:267|272:262,1,72.5,2|0,0:0|1:2,0:0:0:0:
328,195,40828,2,0,P|362:206|398:211,1,72.5,2|8,1:2|0:0,0:0:0:0:
478,308,41161,6,0,P|410:291|361:340,1,145,2|0,1:2|1:2,0:0:0:0:
282,377,41661,1,10,0:0:0:0:
156,264,41994,1,2,1:2:0:0:
156,264,42161,1,0,1:2:0:0:
81,307,42327,2,0,P|45:305|19:281,1,72.5,8|2,0:0|1:2,0:0:0:0:
12,267,42577,1,0,1:2:0:0:
10,249,42661,6,0,P|11:212|19:177,1,72.5,14|0,0:0|1:2,0:0:0:0:
97,138,42994,2,0,P|93:101|81:67,1,72.5,8|0,0:0|1:2,0:0:0:0:
162,29,43327,1,10,0:0:0:0:
162,29,43494,1,8,0:3:0:0:
207,105,43661,1,4,0:3:0:0:
316,43,43827,6,0,P|367:34|405:71,1,108.75,6|0,1:0|0:0,0:0:0:0:
409,91,44161,2,0,P|441:92|472:83,2,65.2499980087281,10|2|0,0:0|1:2|0:0,0:0:0:0:
356,154,44661,2,0,P|347:185|343:217,1,65.2499980087281,10|2,0:0|0:0,0:0:0:0:
262,207,44994,2,0,P|264:174|272:142,1,65.2499980087281,2|0,0:0|1:2,0:0:0:0:
212,80,45327,6,0,P|149:73|109:121,1,130.499996017456,2|2,0:0|1:2,0:0:0:0:
33,162,45827,2,0,P|95:154|132:204,1,130.499996017456,2|2,0:0|0:0,0:0:0:0:
82,268,46327,1,2,0:0:0:0:
136,328,46494,6,0,B|216:317|183:367|279:350,1,130.499996017456,2|8,1:2|0:0,0:0:0:0:
318,293,46994,1,0,1:2:0:0:
465,361,47327,2,0,P|465:326|472:295,1,65.2499980087281,8|0,0:0|0:0,0:0:0:0:
429,226,47661,1,10,0:0:0:0:
508,197,47827,6,0,P|476:142|413:140,1,130.499996017456,0|10,1:2|0:0,0:0:0:0:
328,159,48327,2,0,P|334:94|350:31,1,130.499996017456,0|10,1:2|0:0,0:0:0:0:
261,50,48827,2,0,P|252:81|248:113,1,65.2499980087281,6|10,0:3|0:0,0:0:0:0:
153,175,49161,6,0,P|99:180|64:140,1,97.8749970130921,6|0,1:0|0:0,0:0:0:0:
63,128,49494,2,0,P|30:128|0:137,2,65.2499980087281,10|2|0,0:0|1:2|0:0,0:0:0:0:
112,62,49994,2,0,P|143:70|175:72,1,65.2499980087281,10|2,0:0|0:0,0:0:0:0:
231,132,50327,2,0,P|263:130|294:120,1,65.2499980087281,10|0,0:0|1:2,0:0:0:0:
359,62,50661,6,0,P|420:52|459:101,1,130.499996017456,2|2,0:0|1:2,0:0:0:0:
445,181,51161,2,0,P|430:244|425:309,1,130.499996017456,2|2,0:0|1:2,0:0:0:0:
351,363,51661,1,10,0:0:0:0:
320,260,51827,6,0,B|235:244|261:295|174:279,1,145,6|0,1:2|1:2,0:0:0:0:
115,344,52327,1,8,0:0:0:0:
53,292,52494,1,2,1:2:0:0:
53,292,52577,1,8,0:0:0:0:
53,292,52661,2,0,P|54:256|64:222,1,72.5,0|0,1:2|1:2,0:0:0:0:
144,180,52994,1,8,0:0:0:0:
74,121,53161,6,0,P|54:120|31:114,2,36.25,2|8|0,1:2|0:0|1:2,0:0:0:0:
153,76,53494,1,0,1:2:0:0:
229,124,53661,2,0,P|239:158|239:194,1,72.5,8|2,0:0|1:2,0:0:0:0:
245,206,53911,1,8,0:0:0:0:
256,217,53994,2,0,P|294:211|333:217,1,72.5,0|0,1:2|1:2,0:0:0:0:
417,207,54327,1,8,0:0:0:0:
464,98,54494,6,0,P|422:42|354:54,1,145,6|2,1:0|1:2,0:0:0:0:
256,96,54994,2,0,P|260:59|269:24,1,72.5,10|0,0:0|1:2,0:0:0:0:
171,61,55327,1,10,0:0:0:0:
122,139,55494,1,2,1:2:0:0:
122,139,55577,1,0,1:2:0:0:
122,139,55661,2,0,P|125:159|127:178,2,36.25,10|8|10,0:0|0:0|1:2,0:0:0:0:
314,317,56494,5,2,1:1:0:0:
256,192,57661,12,2,59327,0:0:0:0:
36,302,59994,6,0,P|85:243|161:253,1,159.500004867554,6|8,1:0|0:0,0:0:0:0:
248,280,60494,2,0,P|247:240|238:201,1,79.7500024337769,2|0,0:0|1:2,0:0:0:0:
162,140,60827,1,0,1:2:0:0:
219,67,60994,1,10,0:0:0:0:
300,123,61161,6,0,P|376:138|435:88,1,159.500004867554,2|0,1:2|1:2,0:0:0:0:
487,186,61661,2,0,P|499:223|501:263,1,79.7500024337769,10|0,0:0|0:0,0:0:0:0:
427,318,61994,1,2,1:2:0:0:
375,237,62161,1,0,1:2:0:0:
284,268,62327,2,0,P|271:305|269:345,1,79.7500024337769,10|0,0:0|0:0,0:0:0:0:
169,365,62661,6,0,P|175:285|200:210,1,159.500004867554,2|8,1:2|0:0,0:0:0:0:
146,135,63161,1,2,0:0:0:0:
88,206,63327,2,0,P|38:209|11:183,1,79.7500024337769,0|0,1:2|1:2,0:0:0:0:
15,99,63661,1,10,0:0:0:0:
122,43,63827,6,0,B|223:31|177:91|287:73,1,159.500004867554,2|0,1:2|1:2,0:0:0:0:
352,20,64327,2,0,P|364:57|365:97,1,79.7500024337769,10|0,0:0|0:0,0:0:0:0:
302,165,64661,1,2,1:2:0:0:
302,165,64827,1,2,1:2:0:0:
358,237,64994,1,10,0:0:0:0:
279,284,65161,1,2,0:0:0:0:
390,347,65327,6,0,P|447:353|485:310,1,119.625003650665,6|0,1:0|0:0,0:0:0:0:
487,283,65661,2,0,P|488:243|479:204,1,79.7500024337769,10|0,0:0|0:0,0:0:0:0:
408,145,65994,1,2,1:2:0:0:
346,203,66161,1,0,1:2:0:0:
274,136,66327,2,0,P|275:96|286:57,1,79.7500024337769,10|0,0:0|1:2,0:0:0:0:
204,4,66661,6,0,P|182:80|177:160,1,159.500004867554,2|8,0:0|0:0,0:0:0:0:
87,149,67161,2,0,P|47:151|20:183,1,79.7500024337769,2|0,0:0|1:2,0:0:0:0:
5,283,67494,1,0,1:2:0:0:
98,319,67661,2,0,P|97:278|85:239,1,79.7500024337769,10|0,0:0|0:0,0:0:0:0:
206,339,67994,6,0,P|281:345|326:283,1,159.500004867554,2|8,1:2|0:0,0:0:0:0:
274,215,68494,1,2,0:0:0:0:
274,215,68661,1,0,1:2:0:0:
340,152,68827,1,0,1:2:0:0:
281,80,68994,1,10,0:0:0:0:
175,185,69161,6,0,B|87:177|115:234|18:215,1,159.500004867554,6|0,1:2|1:2,0:0:0:0:
50,123,69661,2,0,P|46:83|34:45,1,79.7500024337769,8|0,0:0|1:2,0:0:0:0:
129,45,69994,2,0,P|135:64|137:84,3,39.8750012168885,10|8|10|8,0:0|0:0|0:0|0:0,0:0:0:0:
178,101,70327,2,0,P|197:98|216:92,3,39.8750012168885,10|8|8|8,0:0|0:0|0:0|0:0,0:0:0:0:
248,68,70661,6,0,P|323:58|368:120,1,159.500004867554,6|8,1:0|0:0,0:0:0:0:
421,195,71161,1,2,0:0:0:0:
343,243,71327,1,0,1:2:0:0:
386,323,71494,2,0,P|426:336|464:338,1,79.7500024337769,0|10,1:2|0:0,0:0:0:0:
298,363,71827,6,0,P|251:302|172:312,1,159.500004867554,2|0,1:2|1:2,0:0:0:0:
93,353,72327,2,0,P|54:358|21:336,1,79.7500024337769,10|0,0:0|0:0,0:0:0:0:
83,267,72661,1,2,1:2:0:0:
9,212,72827,1,0,1:2:0:0:
78,151,72994,2,0,P|116:145|149:166,1,79.7500024337769,10|0,0:0|0:0,0:0:0:0:
244,160,73327,6,0,P|238:100|225:42,1,119.625003650665,2|0,1:2|0:0,0:0:0:0:
239,22,73661,1,10,0:0:0:0:
323,54,73827,2,0,P|331:92|334:132,1,79.7500024337769,2|0,0:0|1:2,0:0:0:0:
426,126,74161,2,0,P|424:86|415:47,1,79.7500024337769,2|8,1:2|0:0,0:0:0:0:
511,164,74494,6,0,P|462:223|386:213,1,159.500004867554,6|0,1:0|1:2,0:0:0:0:
302,251,74994,2,0,P|292:289|288:329,1,79.7500024337769,8|0,0:0|0:0,0:0:0:0:
201,288,75327,1,2,1:2:0:0:
132,348,75494,1,2,1:2:0:0:
59,291,75661,2,0,P|60:271|64:251,3,39.8750012168885,10|8|8|8,0:0|0:0|0:0|0:0,0:0:0:0:
41,210,75994,6,0,P|118:219|171:164,1,159.500004867554,6|8,1:0|0:0,0:0:0:0:
106,50,76494,2,0,P|92:87|88:126,1,79.7500024337769,2|0,0:0|1:2,0:0:0:0:
193,73,76827,1,0,1:2:0:0:
257,138,76994,1,10,0:0:0:0:
333,71,77161,6,0,P|408:66|449:130,1,159.500004867554,2|0,1:2|1:2,0:0:0:0:
468,220,77661,2,0,P|430:219|390:202,1,79.7500024337769,10|0,0:0|0:0,0:0:0:0:
309,162,77994,1,2,1:2:0:0:
241,224,78161,1,0,1:2:0:0:
164,173,78327,2,0,P|165:133|177:95,1,79.7500024337769,10|0,0:0|0:0,0:0:0:0:
108,33,78661,6,0,P|68:31|38:55,1,79.7500024337769,2|0,1:2|0:0,0:0:0:0:
14,144,78994,1,10,0:0:0:0:
45,230,79161,2,0,P|83:238|123:238,1,79.7500024337769,2|0,0:0|1:2,0:0:0:0:
113,339,79494,2,0,P|74:330|34:330,1,79.7500024337769,2|8,1:2|0:0,0:0:0:0:
199,297,79827,6,0,B|302:286|245:343|363:329,1,159.500004867554,6|0,1:0|1:2,0:0:0:0:
419,270,80327,1,10,0:0:0:0:
339,241,80494,1,0,1:2:0:0:
339,241,80577,1,8,0:0:0:0:
339,241,80661,2,0,P|341:201|353:163,1,79.7500024337769,2|8,1:2|0:3,0:0:0:0:
435,124,80994,1,10,0:0:0:0:
374,69,81161,1,0,1:2:0:0:
374,69,81244,1,0,1:2:0:0:
374,69,81327,1,10,0:0:0:0:
66,195,82494,5,10,0:0:0:0:
406,366,83327,5,10,0:0:0:0:
331,324,83494,2,0,P|333:270|348:218,1,108.75,2|0,1:2|0:0,0:0:0:0:
364,182,83827,6,0,B|275:199|311:142|201:162,1,145,6|0,1:0|1:2,0:0:0:0:
155,224,84327,2,0,P|120:229|84:208,1,72.5,10|0,0:0|0:0,0:0:0:0:
48,130,84661,1,2,1:2:0:0:
124,67,84827,2,0,P|133:101|136:137,1,72.5,2|10,1:2|0:0,0:0:0:0:
218,37,85161,6,0,P|285:21|331:77,1,145,2|2,1:2|1:2,0:0:0:0:
383,147,85661,1,10,0:0:0:0:
461,102,85827,2,0,P|460:84|457:64,2,36.25,2|2|2,0:0|0:0|1:2,0:0:0:0:
495,191,86161,1,2,1:2:0:0:
495,191,86327,1,8,0:0:0:0:
451,270,86494,6,0,P|381:278|334:227,1,145,2|0,1:2|1:2,0:0:0:0:
243,223,86994,2,0,P|244:259|251:294,1,72.5,10|0,0:0|0:0,0:0:0:0:
181,352,87327,1,2,1:2:0:0:
181,352,87494,1,2,1:2:0:0:
115,288,87661,1,10,0:0:0:0:
33,365,87827,6,0,P|30:292|19:221,1,145,2|2,1:2|1:2,0:0:0:0:
107,199,88327,1,10,0:0:0:0:
58,122,88494,2,0,P|38:126|22:126,2,36.25,2|8|0,1:2|0:0|1:2,0:0:0:0:
129,65,88827,1,10,0:3:0:0:
129,65,88994,1,10,0:0:0:0:
194,180,89161,6,0,B|278:169|244:219|334:207,1,145,6|2,1:0|1:2,0:0:0:0:
405,260,89661,1,10,0:0:0:0:
465,192,89827,2,0,P|465:155|471:120,1,72.5,2|0,0:0|1:2,0:0:0:0:
426,40,90161,2,0,P|455:19|491:20,1,72.5,2|8,1:2|0:0,0:0:0:0:
378,114,90494,6,0,P|308:117|257:68,1,145,2|2,1:2|1:2,0:0:0:0:
182,17,90994,1,10,0:0:0:0:
92,32,91161,2,0,P|80:67|78:103,1,72.5,2|0,0:0|1:2,0:0:0:0:
165,141,91494,1,2,1:2:0:0:
165,141,91661,1,8,0:0:0:0:
112,214,91827,6,0,P|42:208|3:265,1,145,2|2,1:2|1:2,0:0:0:0:
45,346,92327,1,10,0:0:0:0:
131,373,92494,2,0,P|131:336|124:301,1,72.5,2|0,0:0|1:2,0:0:0:0:
203,255,92827,1,2,1:2:0:0:
203,255,92994,1,10,0:0:0:0:
310,357,93161,6,0,P|379:358|420:302,1,145,6|2,1:0|1:2,0:0:0:0:
355,208,93661,2,0,P|343:242|339:277,1,72.5,8|2,0:0|1:2,0:0:0:0:
451,215,93994,1,10,0:0:0:0:
451,215,94077,1,8,0:0:0:0:
451,215,94161,1,10,0:3:0:0:
400,130,94327,1,10,0:0:0:0:
430,42,94494,6,0,P|385:87|322:82,1,130.499996017456,6|0,1:2|1:2,0:0:0:0:
257,33,94994,1,10,0:0:0:0:
97,63,95327,2,0,P|87:94|84:126,1,65.2499980087281,2|0,1:2|1:2,0:0:0:0:
149,176,95661,1,10,0:0:0:0:
70,318,95994,6,0,P|37:319|11:302,2,65.2499980087281,2|0|10,1:2|1:2|0:0,0:0:0:0:
144,273,96494,2,0,P|153:304|155:336,1,65.2499980087281,2|0,0:0|1:2,0:0:0:0:
236,326,96827,2,0,P|235:293|226:262,1,65.2499980087281,2|8,1:2|0:0,0:0:0:0:
284,188,97161,6,0,P|345:180|383:229,1,130.499996017456,2|0,1:0|1:2,0:0:0:0:
425,299,97661,1,10,0:0:0:0:
498,153,97994,2,0,P|500:118|504:88,1,65.2499980087281,2|0,1:2|1:2,0:0:0:0:
443,33,98327,1,10,0:0:0:0:
285,80,98661,6,0,P|254:89|222:89,2,65.2499980087281,2|2|10,1:0|1:0|0:0,0:0:0:0:
360,113,99161,2,0,P|372:142|377:175,1,65.2499980087281,2|2,0:0|1:0,0:0:0:0:
435,231,99494,2,0,P|430:263|416:292,1,65.2499980087281,2|8,1:2|0:0,0:0:0:0:
329,337,99827,6,0,B|256:320|276:369|195:352,1,130.499996017456,6|0,1:0|1:2,0:0:0:0:
138,303,100327,1,10,0:0:0:0:
27,182,100661,2,0,P|59:181|91:173,1,65.2499980087281,2|0,1:2|1:2,0:0:0:0:
158,219,100994,1,10,0:0:0:0:
265,96,101327,6,0,P|262:65|251:32,2,65.2499980087281,2|0|10,1:2|1:2|0:0,0:0:0:0:
196,140,101827,2,0,P|186:172|183:206,1,65.2499980087281,2|0,0:0|1:2,0:0:0:0:
270,227,102161,2,0,P|279:258|281:290,1,65.2499980087281,2|8,1:2|0:0,0:0:0:0:
189,341,102494,6,0,P|126:345|88:295,1,130.499996017456,6|0,1:2|1:2,0:0:0:0:
77,210,102994,1,10,0:0:0:0:
270,227,103327,2,0,P|279:258|281:290,1,65.2499980087281,2|0,1:2|1:2,0:0:0:0:
335,353,103661,1,8,0:0:0:0:
446,304,103827,6,0,P|446:239|430:176,1,130.499996017456,4|0,1:0|1:2,0:0:0:0:
461,87,104327,2,0,P|426:88|398:69,1,65.2499980087281,8|0,0:0|1:2,0:0:0:0:
327,109,104661,2,0,P|323:124|321:141,2,32.624999004364,10|8|2,0:3|0:3|1:2,0:0:0:0:
298,32,104994,1,8,0:0:0:0:
165,56,105161,6,0,P|145:125|140:197,1,145,6|0,1:2|1:2,0:0:0:0:
228,178,105661,2,0,P|229:141|237:106,1,72.5,10|0,0:0|0:0,0:0:0:0:
288,37,105994,1,2,1:2:0:0:
288,37,106161,1,0,1:2:0:0:
321,117,106328,2,0,P|313:152|312:191,1,72.5,10|0,0:0|1:2,0:0:0:0:
377,246,106661,6,0,P|414:247|447:226,2,72.5,2|0|10,0:0|1:2|0:0,0:0:0:0:
342,326,107161,2,0,P|305:324|272:312,1,72.5,2|0,0:0|1:2,0:0:0:0:
252,227,107494,2,0,P|215:228|181:240,1,72.5,2|8,1:2|0:0,0:0:0:0:
127,343,107828,6,0,P|57:344|20:286,1,145,2|0,1:2|1:2,0:0:0:0:
41,201,108328,2,0,P|39:164|32:129,1,72.5,10|0,0:0|0:0,0:0:0:0:
81,59,108661,1,2,1:2:0:0:
81,59,108828,1,0,1:2:0:0:
132,125,108994,2,0,P|168:124|194:98,1,72.5,10|0,0:0|0:0,0:0:0:0:
261,46,109327,6,0,P|296:52|332:51,1,72.5,2|0,1:2|1:2,0:0:0:0:
418,132,109661,1,10,0:0:0:0:
320,213,109828,2,0,P|322:176|334:142,1,72.5,2|0,0:0|1:2,0:0:0:0:
431,220,110161,2,0,P|442:254|445:290,1,72.5,2|8,1:2|0:0,0:0:0:0:
321,356,110494,6,0,P|276:304|207:311,1,145,2|0,1:2|1:2,0:0:0:0:
136,362,110994,2,0,P|101:368|70:350,1,72.5,10|0,0:0|0:0,0:0:0:0:
119,280,111328,1,2,1:2:0:0:
119,280,111494,1,0,1:2:0:0:
100,195,111661,2,0,P|134:188|165:206,1,72.5,10|0,0:0|0:0,0:0:0:0:
94,103,111994,6,0,P|60:116|24:119,2,72.5,2|0|10,1:2|1:2|0:0,0:0:0:0:
161,46,112494,2,0,P|196:42|227:60,1,72.5,2|0,0:0|1:2,0:0:0:0:
293,117,112828,2,0,P|328:120|362:107,1,72.5,2|8,1:2|0:0,0:0:0:0:
451,34,113161,6,0,P|510:67|502:135,1,145,2|0,1:2|1:2,0:0:0:0:
452,206,113661,1,10,0:0:0:0:
308,301,113994,1,2,1:2:0:0:
308,301,114161,1,0,1:2:0:0:
392,348,114328,2,0,P|393:311|402:276,1,72.5,8|2,0:0|1:2,0:0:0:0:
325,196,114661,6,0,P|288:195|253:186,1,72.5,14|0,0:0|1:2,0:0:0:0:
236,291,114994,2,0,P|272:291|307:300,1,72.5,8|0,0:0|1:2,0:0:0:0:
175,230,115327,1,10,0:0:0:0:
175,230,115494,1,8,0:3:0:0:
108,306,115661,1,4,0:3:0:0:
108,306,115827,1,0,1:2:0:0:
26,244,115994,6,0,P|27:184|43:127,1,119.625003650665,14|0,0:0|0:0,0:0:0:0:
56,116,116327,1,0,1:2:0:0:
142,28,116494,2,0,P|154:69|159:112,1,86.9999973449708,10|0,0:0|0:0,0:0:0:0:
267,10,116827,2,0,P|278:51|281:95,1,86.9999973449708,10|0,0:0|0:0,0:0:0:0:
322,234,117161,6,0,P|272:176|197:190,1,159.500004867554,10|2,0:0|1:2,0:0:0:0:
182,204,117577,1,0,1:2:0:0:
167,215,117661,2,0,P|127:216|88:208,1,79.7500024337769,10|0,0:0|1:2,0:0:0:0:
98,308,117994,2,0,P|122:312|146:311,3,39.8750012168885,10|8|10|8,0:0|0:0|0:0|0:0,0:0:0:0:
173,332,118327,2,0,P|192:331|212:326,3,39.8750012168885,10|8|8|8,0:0|0:0|0:0|0:0,0:0:0:0:
240,302,118661,6,0,B|342:288|291:352|413:329,1,159.500004867554,6|8,1:0|0:0,0:0:0:0:
481,315,119161,2,0,P|481:275|489:236,1,79.7500024337769,2|0,0:0|1:2,0:0:0:0:
410,190,119494,1,0,1:2:0:0:
461,113,119661,1,10,0:0:0:0:
401,43,119828,6,0,P|326:27|276:84,1,159.500004867554,2|0,1:2|1:2,0:0:0:0:
191,120,120328,2,0,P|150:122|99:110,1,79.7500024337769,10|0,0:0|0:0,0:0:0:0:
121,206,120661,1,2,1:2:0:0:
43,247,120828,1,0,1:2:0:0:
87,328,120994,2,0,P|126:328|165:335,1,79.7500024337769,10|0,0:0|0:0,0:0:0:0:
277,358,121328,6,0,P|333:305|316:230,1,159.500004867554,2|8,1:2|0:0,0:0:0:0:
232,192,121828,1,2,0:0:0:0:
156,139,121994,2,0,P|155:99|166:60,1,79.7500024337769,0|0,1:2|1:2,0:0:0:0:
245,14,122328,1,10,0:0:0:0:
313,106,122494,6,0,B|414:94|368:154|478:136,1,159.500004867554,2|0,1:2|1:2,0:0:0:0:
495,224,122994,2,0,P|506:262|506:301,1,79.7500024337769,10|0,0:0|0:0,0:0:0:0:
431,355,123328,1,2,1:2:0:0:
431,355,123494,1,2,1:2:0:0:
376,281,123661,1,10,0:0:0:0:
305,339,123828,1,2,0:0:0:0:
174,297,123994,6,0,P|163:240|202:197,1,119.625003650665,6|0,1:0|0:0,0:0:0:0:
222,194,124328,2,0,P|259:206|299:210,1,79.7500024337769,10|0,0:0|0:0,0:0:0:0:
337,121,124661,1,2,1:2:0:0:
270,57,124828,1,0,1:2:0:0:
189,101,124994,2,0,P|151:113|111:117,1,79.7500024337769,10|0,0:0|1:2,0:0:0:0:
11,208,125328,6,0,P|85:192|131:252,1,159.500004867554,2|8,0:0|0:0,0:0:0:0:
175,333,125828,2,0,P|214:336|246:314,1,79.7500024337769,2|0,0:0|1:2,0:0:0:0:
295,237,126161,1,0,1:2:0:0:
382,264,126328,2,0,P|391:302|393:342,1,79.7500024337769,10|0,0:0|0:0,0:0:0:0:
488,370,126661,6,0,P|484:290|465:213,1,159.500004867554,2|8,1:2|0:0,0:0:0:0:
437,130,127161,1,2,0:0:0:0:
437,130,127328,1,0,1:2:0:0:
358,83,127494,1,0,1:2:0:0:
310,161,127661,1,10,0:0:0:0:
199,67,127827,6,0,P|123:54|74:112,1,159.500004867554,6|0,1:0|1:2,0:0:0:0:
37,197,128328,2,0,P|45:235|48:275,1,79.7500024337769,8|0,0:0|1:2,0:0:0:0:
119,332,128661,2,0,P|139:328|159:326,3,39.8750012168885,2|8|10|8,1:2|0:0|0:0|0:0,0:0:0:0:
186,290,128994,2,0,P|205:287|225:285,3,39.8750012168885,10|8|4|4,0:3|0:3|0:3|0:3,0:0:0:0:
260,315,129328,6,0,B|363:299|318:362|417:346,1,159.500004867554,6|8,1:2|0:0,0:0:0:0:
485,295,129828,1,2,0:0:0:0:
396,260,129994,1,0,1:2:0:0:
466,196,130161,2,0,P|465:156|453:118,1,79.7500024337769,0|10,1:2|0:0,0:0:0:0:
484,28,130494,6,0,P|437:88|361:81,1,159.500004867554,2|0,1:2|1:2,0:0:0:0:
286,28,130994,2,0,P|269:64|266:103,1,79.7500024337769,10|0,0:0|0:0,0:0:0:0:
306,194,131328,1,2,1:2:0:0:
393,169,131494,1,0,1:2:0:0:
473,213,131661,2,0,P|489:249|492:288,1,79.7500024337769,10|0,0:0|0:0,0:0:0:0:
373,352,131994,6,0,P|311:361|271:315,1,119.625003650665,2|0,1:2|0:0,0:0:0:0:
273,302,132328,1,10,0:0:0:0:
183,281,132494,2,0,P|172:319|168:359,1,79.7500024337769,2|0,0:0|1:2,0:0:0:0:
76,345,132828,2,0,P|79:305|89:266,1,79.7500024337769,2|8,1:2|0:0,0:0:0:0:
0,175,133161,6,0,P|75:184|126:126,1,159.500004867554,6|0,1:2|1:2,0:0:0:0:
179,51,133661,2,0,P|217:47|248:71,1,79.7500024337769,8|0,0:0|0:0,0:0:0:0:
281,157,133994,1,2,1:2:0:0:
203,206,134161,1,2,1:2:0:0:
276,261,134328,2,0,P|279:280|280:300,3,39.8750012168885,10|8|8|8,0:0|0:0|0:0|0:0,0:0:0:0:
312,333,134661,6,0,P|370:283|444:302,1,159.500004867554,6|8,1:0|0:0,0:0:0:0:
484,219,135161,2,0,P|484:179|472:141,1,79.7500024337769,2|0,0:0|1:2,0:0:0:0:
382,121,135494,1,0,1:2:0:0:
323,192,135661,1,10,0:0:0:0:
232,166,135828,6,0,P|236:86|257:9,1,159.500004867554,2|0,1:2|1:2,0:0:0:0:
160,40,136328,2,0,P|151:78|148:118,1,79.7500024337769,10|0,0:0|0:0,0:0:0:0:
70,166,136661,1,2,1:2:0:0:
142,222,136828,1,0,1:2:0:0:
91,297,136994,2,0,P|53:296|13:282,1,79.7500024337769,10|0,0:0|0:0,0:0:0:0:
158,360,137328,6,0,P|197:359|235:346,1,79.7500024337769,2|0,1:2|0:0,0:0:0:0:
254,257,137661,1,10,0:0:0:0:
341,283,137828,2,0,P|352:321|357:360,1,79.7500024337769,2|0,0:0|1:2,0:0:0:0:
431,269,138161,2,0,P|442:307|447:346,1,79.7500024337769,2|8,1:2|0:0,0:0:0:0:
512,233,138494,6,0,P|462:175|386:186,1,159.500004867554,6|0,1:0|1:2,0:0:0:0:
313,129,138994,2,0,P|315:89|325:50,1,79.7500024337769,12|0,0:0|0:0,0:0:0:0:
233,54,139327,2,0,P|228:73|227:93,3,39.8750012168885,10|8|8|8,0:0|0:0|0:0|0:0,0:0:0:0:
192,124,139661,2,0,P|191:143|193:163,3,39.8750012168885,8|8|8|8,0:0|0:0|0:0|0:0,0:0:0:0:
219,199,139994,6,0,P|277:188|324:222,1,119.625003650665,6|0,1:2|0:0,0:0:0:0:
332,244,140327,2,0,P|342:282|343:321,1,79.7500024337769,8|2,0:0|0:0,0:0:0:0:
264,368,140661,1,0,1:2:0:0:
264,368,140827,1,2,1:2:0:0:
207,295,140994,1,10,0:0:0:0:
129,349,141161,6,0,P|53:358|6:298,1,159.500004867554,6|0,1:0|1:2,0:0:0:0:
45,215,141661,2,0,P|41:175|31:136,1,79.7500024337769,8|0,0:0|0:0,0:0:0:0:
70,55,141994,1,2,1:2:0:0:
70,55,142161,1,0,1:2:0:0:
127,126,142327,2,0,P|137:164|141:204,1,79.7500024337769,8|0,0:0|0:0,0:0:0:0:
187,53,142661,6,0,P|244:41|289:81,1,119.625003650665,2|0,1:2|0:0,0:0:0:0:
305,94,142994,2,0,P|344:94|384:83,1,79.7500024337769,8|2,0:0|0:0,0:0:0:0:
467,131,143327,1,0,1:2:0:0:
467,131,143494,1,2,1:2:0:0:
388,182,143661,1,10,0:0:0:0:
511,242,143827,6,0,B|426:222|455:291|353:268,1,159.500004867554,6|0,1:2|1:2,0:0:0:0:
268,279,144327,2,0,P|257:317|253:356,1,79.7500024337769,10|0,0:0|0:0,0:0:0:0:
165,302,144661,1,2,1:2:0:0:
99,365,144827,1,0,1:2:0:0:
22,314,144994,2,0,P|26:274|36:236,1,79.7500024337769,10|8,0:0|0:3,0:0:0:0:
101,133,145327,6,0,P|158:143|202:103,1,119.625003650665,6|0,1:0|0:0,0:0:0:0:
205,87,145661,2,0,P|200:47|190:9,1,79.7500024337769,10|0,0:0|0:0,0:0:0:0:
301,105,145994,1,0,1:2:0:0:
301,105,146161,1,0,1:2:0:0:
248,179,146327,1,10,0:0:0:0:
314,268,146494,6,0,P|390:258|439:317,1,159.500004867554,4|0,1:2|1:2,0:0:0:0:
498,234,146994,2,0,P|500:192|515:141,1,79.7500024337769,10|0,0:0|0:0,0:0:0:0:
471,77,147327,1,2,1:2:0:0:
471,77,147494,1,0,1:2:0:0:
412,147,147661,2,0,P|372:149|336:133,1,79.7500024337769,10|0,0:0|0:0,0:0:0:0:
261,36,147994,6,0,P|202:15|154:49,1,119.625003650665,4|0,1:0|0:0,0:0:0:0:
144,68,148327,2,0,P|133:106|130:147,1,79.7500024337769,10|0,0:0|1:2,0:0:0:0:
179,230,148661,1,10,0:0:0:0:
179,230,148827,1,0,1:2:0:0:
108,288,148994,1,10,0:0:0:0:
220,362,149161,6,0,P|294:376|344:318,1,159.500004867554,4|8,1:2|0:0,0:0:0:0:
412,257,149661,1,8,0:0:0:0:
373,175,149827,1,8,0:0:0:0:
373,175,149911,1,8,0:0:0:0:
373,175,149994,2,0,P|334:164|294:164,1,79.7500024337769,10|8,0:0|0:3,0:0:0:0:
311,57,150327,2,0,P|349:65|389:66,1,79.7500024337769,6|4,0:3|0:3,0:0:0:0:
209,92,150661,6,0,B|134:82|155:126|71:106,1,130.499996017456,6|0,1:0|1:2,0:0:0:0:
10,153,151161,1,0,0:0:0:0:
83,195,151327,2,0,P|82:260|72:324,1,130.499996017456,14|0,0:0|0:0,0:0:0:0:
147,363,151827,6,0,P|189:318|251:330,1,130.499996017456,2|8,1:2|0:0,0:0:0:0:
324,373,152327,1,2,1:2:0:0:
467,281,152661,1,10,0:0:0:0:
441,200,152827,2,0,P|375:199|311:187,1,130.499996017456,0|0,1:2|0:0,0:0:0:0:
215,228,153327,6,0,P|153:239|111:194,1,130.499996017456,6|0,1:0|1:2,0:0:0:0:
75,116,153827,1,0,0:0:0:0:
126,48,153994,2,0,B|203:39|169:88|265:73,1,130.499996017456,10|0,0:0|0:0,0:0:0:0:
322,23,154494,6,0,P|337:86|342:151,1,130.499996017456,2|10,1:2|0:0,0:0:0:0:
400,213,154994,1,2,1:2:0:0:
328,363,155327,1,14,0:0:0:0:
255,324,155494,1,8,0:0:0:0:
255,324,155577,1,8,0:0:0:0:
254,324,155661,2,0,P|238:324|222:325,3,32.624999004364,10|8|8|8,0:0|0:0|0:0|0:0,0:0:0:0:
192,349,155994,6,0,P|115:359|63:303,1,159.500004867554,6|8,1:0|0:0,0:0:0:0:
133,191,156494,2,0,P|145:230|147:269,1,79.7500024337769,2|0,0:0|1:2,0:0:0:0:
48,217,156827,1,2,1:2:0:0:
0,138,156994,2,0,P|1:98|13:60,1,79.7500024337769,10|2,0:0|1:2,0:0:0:0:
106,31,157327,6,0,B|205:21|168:73|269:61,1,159.500004867554,2|8,0:0|0:0,0:0:0:0:
342,25,157827,2,0,P|356:62|361:101,1,79.7500024337769,2|0,0:0|1:2,0:0:0:0:
476,74,158161,1,0,1:2:0:0:
434,159,158327,2,0,P|419:196|414:235,1,79.7500024337769,10|0,0:0|0:0,0:0:0:0:
457,336,158661,6,0,P|405:278|328:282,1,159.500004867554,6|8,1:0|0:0,0:0:0:0:
271,353,159161,1,2,1:2:0:0:
212,282,159327,2,0,P|214:242|223:203,1,79.7500024337769,8|2,0:0|1:2,0:0:0:0:
151,346,159661,1,2,1:2:0:0:
43,291,159827,6,0,P|46:211|68:135,1,159.500004867554,14|2,0:0|1:2,0:0:0:0:
142,79,160327,1,10,0:0:0:0:
218,147,160494,1,10,0:0:0:0:
218,147,160577,1,8,0:0:0:0:
218,147,160660,2,0,P|257:156|302:157,1,79.7500024337769,8|10,0:0|0:3,0:0:0:0:
288,253,160994,2,0,P|248:245|208:245,1,79.7500024337769,6|6,0:3|0:3,0:0:0:0:
375,215,161327,5,6,1:0:0:0:
256,192,161411,12,2,166661,0:0:0:0:
102,227,170494,5,2,0:0:0:0:
102,227,170577,1,2,0:0:0:0:
102,227,170661,2,0,P|72:246|19:242,2,72.5,6|2|8,1:2|3:2|0:3,0:0:0:0:
166,172,171161,2,0,P|233:156|284:204,1,145,8|4,0:0|0:3,0:0:0:0:
325,278,171661,1,6,0:3:0:0:
423,249,171827,5,4,0:3:0:0:
423,249,171911,1,4,0:3:0:0:
423,249,171994,2,0,P|425:176|436:116,1,130.499996017456,6|2,1:2|1:2,0:0:0:0:
375,59,172494,1,2,0:0:0:0:
345,139,172661,2,0,P|340:171|338:203,1,65.2499980087281,10|0,0:0|1:2,0:0:0:0:
253,197,172994,2,0,P|254:164|261:132,1,65.2499980087281,2|2,0:0|1:2,0:0:0:0:
207,64,173327,6,0,P|145:55|101:100,1,130.499996017456,2|2,0:0|1:2,0:0:0:0:
120,183,173827,2,0,P|87:183|55:177,1,65.2499980087281,2|8,0:0|0:0,0:0:0:0:
46,262,174160,2,0,P|77:268|110:268,1,65.2499980087281,2|0,0:0|0:0,0:0:0:0:
190,239,174493,1,2,0:0:0:0:
237,309,174661,6,0,P|299:314|333:262,1,130.499996017456,0|2,1:2|1:2,0:0:0:0:
303,182,175161,1,0,0:0:0:0:
227,143,175327,2,0,P|199:159|167:157,1,65.2499980087281,10|0,0:0|1:2,0:0:0:0:
145,74,175661,2,0,P|172:57|204:59,1,65.2499980087281,2|0,0:0|1:2,0:0:0:0:
288,86,175994,6,0,P|321:85|352:76,1,65.2499980087281,2|8,0:0|0:0,0:0:0:0:
364,83,176244,1,8,0:0:0:0:
374,92,176327,2,0,P|383:123|384:155,1,65.2499980087281,0|0,1:2|0:0,0:0:0:0:
468,161,176661,6,0,P|468:117|458:75,2,86.9999973449708,10|2|2,0:0|1:2|1:2,0:0:0:0:
415,293,177327,6,0,P|374:246|312:254,1,130.499996017456,2|2,1:2|1:2,0:0:0:0:
231,279,177827,1,2,0:0:0:0:
186,351,177994,2,0,P|123:358|80:312,1,130.499996017456,8|2,0:0|0:0,0:0:0:0:
106,231,178494,6,0,P|104:164|93:101,1,130.499996017456,2|8,1:2|0:0,0:0:0:0:
105,88,178911,1,8,0:0:0:0:
118,77,178994,2,0,P|183:77|246:63,2,130.499996017456,2|10|2,1:2|0:0|0:0,0:0:0:0:
34,250,179994,6,0,P|75:203|138:209,1,130.499996017456,2|0,1:2|1:2,0:0:0:0:
195,272,180494,1,2,0:0:0:0:
270,226,180661,2,0,P|303:228|335:222,1,65.2499980087281,8|0,0:0|1:2,0:0:0:0:
338,314,180994,2,0,P|305:312|274:319,1,65.2499980087281,2|0,0:0|1:2,0:0:0:0:
412,267,181327,6,0,P|443:263|471:283,2,65.2499980087281,2|8|0,0:0|0:0|1:2,0:0:0:0:
355,205,181827,1,8,0:0:0:0:
355,205,181911,1,8,0:0:0:0:
355,205,181994,2,0,P|356:172|362:140,1,65.2499980087281,10|8,0:0|0:3,0:0:0:0:
341,58,182327,1,4,0:3:0:0:
269,140,182494,5,8,0:0:0:0:
269,140,182577,1,8,0:0:0:0:
269,140,182661,2,0,P|200:145|162:72,1,130.499996017456,6|2,1:2|1:2,0:0:0:0:
99,45,183161,1,2,0:0:0:0:
30,95,183328,2,0,P|19:125|17:158,1,65.2499980087281,10|2,0:0|0:0,0:0:0:0:
99,180,183661,2,0,P|109:210|111:243,1,65.2499980087281,2|10,0:0|0:0,0:0:0:0:
63,313,183994,6,0,P|32:294|0:296,2,65.2499980087281,2|10|2,1:2|0:0|1:2,0:0:0:0:
129,366,184494,2,0,P|160:369|194:355,1,65.2499980087281,2|8,0:0|0:0,0:0:0:0:
230,281,184827,2,0,P|228:248|222:216,1,65.2499980087281,2|0,1:2|0:0,0:0:0:0:
299,166,185161,5,10,0:0:0:0:
299,166,185244,1,8,0:0:0:0:
299,166,185327,2,0,P|315:227|321:301,1,130.499996017456,4|2,1:0|0:0,0:0:0:0:
394,337,185827,1,0,1:2:0:0:
405,252,185994,2,0,P|403:219|396:187,1,65.2499980087281,10|0,0:0|1:2,0:0:0:0:
417,105,186327,2,0,P|449:104|474:84,1,65.2499980087281,2|0,0:0|1:2,0:0:0:0:
407,21,186661,6,0,P|374:29|342:27,2,65.2499980087281,2|8|0,0:0|0:0|0:0,0:0:0:0:
323,109,187161,1,0,1:2:0:0:
240,89,187327,2,0,P|239:56|245:24,1,65.2499980087281,10|2,0:0|1:2,0:0:0:0:
160,19,187661,2,0,P|154:51|154:83,1,65.2499980087281,8|2,0:0|0:0,0:0:0:0:
196,168,187994,5,6,1:2:0:0:
114,337,188327,2,0,P|78:342|49:322,1,72.5,10|10,1:2|0:0,0:0:0:0:
74,231,188661,2,0,P|109:225|138:245,1,72.5,8|8,1:2|0:0,0:0:0:0:
112,353,188994,2,0,P|76:358|47:338,1,72.5,10|10,1:2|0:0,0:0:0:0:
221,315,189327,6,0,P|256:305|292:303,1,72.5,8|8,1:2|0:0,0:0:0:0:
283,198,189661,2,0,P|247:206|211:207,1,72.5,10|8,1:2|0:0,0:0:0:0:
366,246,189994,1,10,1:2:0:0:
366,246,190161,1,8,0:0:0:0:
430,177,190327,1,10,1:2:0:0:
430,177,190494,1,8,0:0:0:0:
367,106,190661,6,0,P|367:88|369:69,3,36.25,6|8|8|8,1:0|0:0|0:0|0:0,0:0:0:0:
333,39,190994,2,0,P|314:37|296:34,3,36.25,8|8|10|8,1:2|0:0|0:0|0:0,0:0:0:0:
265,70,191327,2,0,P|263:87|261:105,3,36.25,8|8|8|8,1:2|0:0|0:0|0:0,0:0:0:0:
298,137,191660,2,0,P|315:137|334:139,3,36.25,10|8|8|8,1:2|0:0|0:0|0:0,0:0:0:0:
356,182,191994,6,0,L|352:218,3,36.25,10|8|8|8,1:2|0:0|0:0|0:0,0:0:0:0:
312,243,192327,2,0,L|304:304,3,36.25,8|8|8|8,1:2|0:0|0:0|0:0,0:0:0:0:
321,320,192661,2,0,P|353:336|388:329,1,72.5,10|2,1:2|1:2,0:0:0:0:
96,192,193327,5,2,0:0:0:0:
240,22,195994,6,0,B|225:105|277:91|261:178,1,159.500004867554,6|8,1:0|0:0,0:0:0:0:
173,149,196494,2,0,P|134:146|103:171,1,79.7500024337769,2|0,0:0|1:2,0:0:0:0:
165,239,196827,1,0,1:2:0:0:
90,292,196994,1,10,0:0:0:0:
153,358,197161,6,0,P|229:366|281:310,1,159.500004867554,2|0,1:2|1:2,0:0:0:0:
351,250,197661,2,0,P|390:251|429:261,1,79.7500024337769,10|0,0:0|0:0,0:0:0:0:
403,158,197994,1,2,1:2:0:0:
491,124,198161,1,0,1:2:0:0:
461,40,198327,2,0,P|422:40|383:33,1,79.7500024337769,10|0,0:0|0:0,0:0:0:0:
290,93,198661,6,0,B|189:74|228:142|119:114,1,159.500004867554,2|8,1:2|0:0,0:0:0:0:
108,31,199161,1,2,0:0:0:0:
28,76,199327,2,0,P|17:114|18:154,1,79.7500024337769,0|0,1:2|1:2,0:0:0:0:
96,204,199661,1,10,0:0:0:0:
48,306,199827,6,0,P|103:253|179:266,1,159.500004867554,6|0,1:0|1:2,0:0:0:0:
237,338,200327,2,0,P|275:338|318:326,1,79.7500024337769,10|0,0:0|0:0,0:0:0:0:
387,270,200661,2,0,P|401:307|405:352,1,79.7500024337769,2|2,1:2|1:2,0:0:0:0:
492,264,200994,1,10,0:0:0:0:
450,174,201161,5,10,0:0:0:0:
450,174,201244,1,8,0:0:0:0:
450,174,201327,2,0,P|390:181|345:125,1,119.625003650665,6|0,1:0|0:0,0:0:0:0:
347,118,201661,2,0,P|351:78|363:40,1,79.7500024337769,10|0,0:0|0:0,0:0:0:0:
267,12,201994,1,2,1:2:0:0:
254,114,202161,1,0,1:2:0:0:
177,53,202327,2,0,P|137:53|98:43,1,79.7500024337769,10|0,0:0|1:2,0:0:0:0:
6,143,202661,6,0,P|80:126|123:188,1,159.500004867554,2|8,0:0|0:0,0:0:0:0:
123,280,203161,2,0,P|85:293|46:296,1,79.7500024337769,2|0,0:0|1:2,0:0:0:0:
194,227,203494,1,0,1:2:0:0:
204,324,203661,2,0,P|241:337|280:340,1,79.7500024337769,10|0,0:0|0:0,0:0:0:0:
356,273,203994,6,0,P|371:198|315:146,1,159.500004867554,2|8,1:2|0:0,0:0:0:0:
235,101,204494,2,0,P|236:61|247:23,1,79.7500024337769,2|8,1:2|0:0,0:0:0:0:
141,81,204827,1,8,0:3:0:0:
133,199,204994,5,10,0:0:0:0:
133,199,205077,1,8,0:0:0:0:
133,199,205161,2,0,B|225:184|182:241|289:227,1,159.500004867554,6|0,1:0|1:2,0:0:0:0:
347,161,205661,2,0,P|349:121|338:83,1,79.7500024337769,8|8,0:0|0:3,0:0:0:0:
437,94,205994,2,0,P|439:113|440:133,3,39.8750012168885,10|8|10|8,0:0|0:0|0:3|0:3,0:0:0:0:
468,172,206327,2,0,P|467:191|464:211,3,39.8750012168885,6|4|4|4,0:3|0:3|0:3|0:3,0:0:0:0:
450,249,206661,6,0,P|375:234|324:292,1,159.500004867554,6|8,1:2|0:0,0:0:0:0:
252,349,207161,1,2,0:0:0:0:
225,261,207327,1,0,1:2:0:0:
133,271,207494,2,0,P|122:309|121:349,1,79.7500024337769,0|10,1:2|0:0,0:0:0:0:
30,375,207827,6,0,P|32:295|54:219,1,159.500004867554,2|0,1:2|1:2,0:0:0:0:
14,123,208327,2,0,P|54:125|93:116,1,79.7500024337769,10|0,0:0|0:0,0:0:0:0:
176,76,208661,1,2,1:2:0:0:
217,164,208827,1,0,1:2:0:0:
301,127,208994,2,0,P|299:86|286:45,1,79.7500024337769,10|0,0:0|0:0,0:0:0:0:
373,16,209327,6,0,P|391:74|396:133,1,119.625003650665,2|0,1:2|0:0,0:0:0:0:
419,148,209661,1,10,0:0:0:0:
411,239,209827,2,0,P|372:231|339:252,1,79.7500024337769,2|0,0:0|1:2,0:0:0:0:
358,343,210161,2,0,P|396:350|429:329,1,79.7500024337769,2|8,1:2|0:0,0:0:0:0:
263,311,210494,6,0,B|169:302|206:358|111:343,1,159.500004867554,6|0,1:2|1:2,0:0:0:0:
46,278,210994,2,0,P|48:236|58:199,1,79.7500024337769,8|0,0:0|0:0,0:0:0:0:
142,164,211327,1,2,1:2:0:0:
78,97,211494,1,2,1:2:0:0:
159,54,211661,2,0,P|178:57|199:58,3,39.8750012168885,10|0|8|8,0:0|0:0|0:0|0:0,0:0:0:0:
236,41,211994,6,0,P|309:21|362:75,1,159.500004867554,6|8,1:0|0:0,0:0:0:0:
373,165,212494,2,0,P|412:176|451:176,1,79.7500024337769,2|0,0:0|1:2,0:0:0:0:
477,264,212827,1,0,1:2:0:0:
406,322,212994,1,10,0:0:0:0:
340,257,213161,6,0,P|264:243|212:299,1,159.500004867554,2|0,1:2|1:2,0:0:0:0:
130,362,213661,2,0,P|128:322|117:283,1,79.7500024337769,10|0,0:0|0:0,0:0:0:0:
54,216,213994,1,2,1:2:0:0:
133,170,214161,1,0,1:2:0:0:
72,101,214327,2,0,P|33:106|1:85,1,79.7500024337769,10|0,0:0|0:0,0:0:0:0:
148,10,214661,6,0,P|161:47|164:87,1,79.7500024337769,2|0,1:2|0:0,0:0:0:0:
118,194,214994,1,10,0:0:0:0:
217,261,215161,2,0,P|255:251|295:249,1,79.7500024337769,2|0,0:0|1:2,0:0:0:0:
282,152,215494,2,0,P|243:161|203:163,1,79.7500024337769,10|8,1:3|0:0,0:0:0:0:
381,190,215827,6,0,P|457:179|503:239,1,159.500004867554,6|0,1:0|1:2,0:0:0:0:
412,339,216327,2,0,P|413:299|423:260,1,79.7500024337769,14|0,0:0|0:0,0:0:0:0:
325,308,216660,2,0,L|281:304,3,39.8750012168885,2|8|8|8,1:2|0:3|0:0|0:0,0:0:0:0:
244,327,216994,2,0,L|204:322,3,39.8750012168885,10|8|4|0,0:0|0:3|0:3|1:2,0:0:0:0:
174,289,217327,5,10,0:0:0:0:
261,71,218494,5,10,1:2:0:0:
37,192,219161,6,0,P|34:170|30:156,2,36.25,0|0|10,1:2|1:2|0:0,0:0:0:0:
125,201,219494,2,0,P|121:152|106:105,1,97.8749970130921,2|0,1:2|0:0,0:0:0:0:
124,75,219827,6,0,P|189:53|238:102,1,145,6|0,1:0|1:2,0:0:0:0:
314,151,220327,2,0,P|350:152|385:146,1,72.5,10|0,0:0|0:0,0:0:0:0:
470,181,220661,1,2,1:2:0:0:
401,239,220827,2,0,P|365:247|329:247,1,72.5,2|10,1:2|0:0,0:0:0:0:
241,223,221161,6,0,P|221:292|214:364,1,145,2|2,1:2|1:2,0:0:0:0:
124,372,221661,1,10,0:0:0:0:
68,300,221827,2,0,P|50:296|32:296,2,36.25,2|2|2,0:0|0:0|1:2,0:0:0:0:
139,242,222161,1,2,1:2:0:0:
139,242,222327,1,8,0:0:0:0:
54,182,222494,6,0,P|78:118|146:117,1,145,2|0,1:2|1:2,0:0:0:0:
233,143,222994,2,0,P|232:105|222:66,1,72.5,10|0,0:0|0:0,0:0:0:0:
308,33,223327,1,2,1:2:0:0:
308,33,223494,1,2,1:2:0:0:
381,85,223661,1,10,0:0:0:0:
448,15,223827,6,0,P|464:85|467:157,1,145,2|2,1:2|1:2,0:0:0:0:
506,239,224327,1,10,0:0:0:0:
436,297,224494,1,2,1:2:0:0:
383,236,224661,1,8,0:0:0:0:
383,236,224744,1,8,0:0:0:0:
383,236,224827,2,0,P|357:234|325:233,3,36.25,10|8|10|8,0:0|0:0|0:0|0:0,0:0:0:0:
321,261,225161,6,0,B|238:246|264:299|170:280,1,145,6|2,1:2|1:2,0:0:0:0:
132,358,225661,1,10,0:0:0:0:
62,300,225827,2,0,P|61:263|71:229,1,72.5,2|0,0:0|1:2,0:0:0:0:
82,128,226161,2,0,P|50:145|14:144,1,72.5,2|8,1:2|0:0,0:0:0:0:
107,46,226494,6,0,P|175:35|220:88,1,145,2|2,1:2|1:2,0:0:0:0:
171,164,226994,1,10,0:0:0:0:
237,225,227161,2,0,P|274:227|304:207,1,72.5,2|0,0:0|1:2,0:0:0:0:
346,130,227494,1,2,1:2:0:0:
346,130,227661,1,8,0:0:0:0:
443,153,227827,6,0,P|460:223|466:295,1,145,6|2,1:1|1:2,0:0:0:0:
402,359,228327,2,0,P|364:361|332:336,1,72.5,10|2,0:0|1:2,0:0:0:0:
335,258,228661,1,8,0:0:0:0:
335,258,228744,1,8,0:0:0:0:
335,258,228827,2,0,P|336:236|342:207,3,36.25,2|0|8|0,1:2|1:2|0:0|1:2,0:0:0:0:
323,184,229161,6,0,P|271:174|233:213,1,108.75,14|0,0:0|0:0,0:0:0:0:
233,229,229494,1,10,0:0:0:0:
160,174,229661,1,10,0:0:0:0:
91,232,229827,2,0,P|88:249|86:267,2,36.25,10|8|8,0:0|0:0|0:0,0:0:0:0:
66,148,230161,1,10,0:3:0:0:
66,148,230327,1,4,0:3:0:0:
184,85,230494,5,6,1:1:0:0:
256,192,230577,12,0,236327,0:0:0:0:
