osu file format v14

[General]
AudioFilename: audio.mp3
AudioLeadIn: 0
PreviewTime: 130953
Countdown: 1
SampleSet: Normal
StackLeniency: 0.7
Mode: 1
LetterboxInBreaks: 0
WidescreenStoryboard: 0

[Editor]
DistanceSpacing: 1
BeatDivisor: 4
GridSize: 16
TimelineZoom: 3.099999

[Metadata]
Title:"Boku wa..." (Hamuza x Taka Kazuki Remix)
TitleUnicode:「僕は…」 (Hamuza x Taka Kazuki Remix)
Artist:Atarayo
ArtistUnicode:あたらよ
Creator:hoku
Version:Melt ^-^
Source:僕の心のヤバイやつ
Tags:(I am...) anime japanese electronic jcore j-core uk happy hardcore bootleg the dangers in my heart boku no kokoro yabai yatsu 第2期 second 2 ii season op opening bokuyaba ボクヤバ I am... Hamuzawa Plus
BeatmapID:4479730
BeatmapSetID:2130291

[Difficulty]
HPDrainRate:5
CircleSize:5
OverallDifficulty:6
ApproachRate:7.6
SliderMultiplier:1.4
SliderTickRate:1

[Events]
//Background and Video events
0,0,"arigato.jpg",0,60
//Break Periods
2,156524,166485
2,189438,193914
2,222353,232314
//Storyboard Layer 0 (Background)
//Storyboard Layer 1 (Fail)
//Storyboard Layer 2 (Pass)
//Storyboard Layer 3 (Foreground)
//Storyboard Layer 4 (Overlay)
//Storyboard Sound Samples

[TimingPoints]
1353,342.857142857143,4,1,0,100,1,0
2366,-111.111111111111,4,1,0,60,0,0
12223,-100,4,1,0,30,0,0
12310,-100,4,1,0,30,0,0
12482,-102.546012395762,4,1,0,30,0,0
12652,-105.224944625373,4,1,0,30,0,0
12824,-108.047718194263,4,1,0,30,0,0
12910,-109.516670079936,4,1,0,30,0,0
12995,-111.025991184536,4,1,0,30,0,0
13081,-112.577622270556,4,1,0,30,0,0
13167,-114.173237336475,4,1,0,30,0,0
13339,-117.504118519354,4,1,0,30,0,0
13595,-111.111111111111,4,1,0,70,0,0
19421,-125,4,1,0,70,0,0
19507,-124.352280061231,4,1,0,70,0,0
19678,-123.076923076923,4,1,0,70,0,0
19850,-121.827460640593,4,1,0,70,0,0
19936,-121.212121212121,4,1,0,70,0,0
20021,-120.602966591772,4,1,0,70,0,0
20107,-120.000048000019,4,1,0,70,0,0
20193,-119.402985074627,4,1,0,70,0,0
20364,-118.226647577004,4,1,0,70,0,0
20450,-117.647058823529,4,1,0,70,0,0
20536,-117.073125044634,4,1,0,70,0,0
20706,-115.942028985507,4,1,0,70,0,0
20878,-114.832579840222,4,1,0,70,0,0
20964,-114.285714285714,4,1,0,70,0,0
21050,-113.744032703684,4,1,0,70,0,0
21221,-112.676056338028,4,1,0,70,0,0
21307,-112.149490785237,4,1,0,70,0,0
21393,-111.627948512725,4,1,0,70,0,0
21478,-111.111111111111,4,1,0,70,0,0
21735,-109.89010989011,4,1,0,70,0,0
21820,-108.695652173913,4,1,0,70,0,0
21906,-107.52688172043,4,1,0,70,0,0
21992,-106.382978723404,4,1,0,70,0,0
22077,-105.263157894737,4,1,0,70,0,0
22163,-104.166666666667,4,1,0,70,0,0
22249,-103.092783505155,4,1,0,70,0,0
22335,-102.040816326531,4,1,0,70,0,0
22420,-101.010101010101,4,1,0,70,0,0
22506,-100,4,1,0,70,0,0
22592,-99.009900990099,4,1,0,70,0,0
22677,-98.0392156862745,4,1,0,70,0,0
22763,-97.0873786407767,4,1,0,70,0,0
22849,-96.1538461538461,4,1,0,70,0,0
22935,-95.2380952380952,4,1,0,70,0,0
23020,-94.3396226415094,4,1,0,70,0,0
23106,-93.4579439252336,4,1,0,70,0,0
23192,-92.5925925925926,4,1,0,70,0,0
23277,-91.743119266055,4,1,0,70,0,0
24995,-133.333333333333,4,1,0,70,0,0
35538,-117.647058823529,4,1,0,70,0,0
45138,-100,4,1,0,50,0,0
46680,-117.647058823529,4,1,0,50,0,0
57138,-111.111111111111,4,1,0,50,0,0
57309,-105.263157894737,4,1,0,50,0,0
57480,-100,4,1,0,70,0,0
68109,-125,4,1,0,70,0,0
68377,-100,4,1,0,70,0,0
71452,-111.111111111111,4,1,0,70,0,0
73938,-100,4,1,0,70,0,0
77021,-117.647058823529,4,1,0,70,0,0
79678,-116.279069767442,4,1,0,70,0,0
79850,-116.279069767442,4,1,0,70,0,0
80021,-114.942528735632,4,1,0,70,0,0
80364,-113.636363636364,4,1,0,70,0,0
80707,-112.359550561798,4,1,0,70,0,0
80878,-111.111111111111,4,1,0,70,0,0
80964,-109.89010989011,4,1,0,70,0,0
81050,-108.695652173913,4,1,0,70,0,0
81136,-107.52688172043,4,1,0,70,0,0
81221,-106.382978723404,4,1,0,70,0,0
81307,-105.263157894737,4,1,0,70,0,0
81393,-104.166666666667,4,1,0,70,0,0
81478,-103.092783505155,4,1,0,70,0,0
81564,-102.040816326531,4,1,0,70,0,0
81650,-101.010101010101,4,1,0,70,0,0
81736,-100,4,1,0,70,0,0
81821,-99.009900990099,4,1,0,70,0,0
81907,-98.0392156862745,4,1,0,70,0,0
81993,-97.0873786407767,4,1,0,70,0,0
82078,-96.1538461538461,4,1,0,70,0,0
82164,-95.2380952380952,4,1,0,5,0,0
84136,-133.333333333333,4,1,0,5,0,0
84821,-133.333333333333,4,1,0,50,0,0
96223,-128.205128205128,4,1,0,50,0,0
97595,-125,4,1,0,50,0,0
98966,-121.951219512195,4,1,0,50,0,0
100338,-119.047619047619,4,1,0,50,0,0
101366,-113.636363636364,4,1,0,50,0,0
102738,-108.695652173913,4,1,0,50,0,0
103953,-103.092783505155,4,1,0,50,0,0
104124,-95.2380952380952,4,1,0,50,0,0
108218,-95.2380952380952,4,1,0,50,0,0
109680,-95.2380952380952,4,1,0,80,0,0
119278,-95.2380952380952,4,1,0,30,0,0
119450,-97.0873786407767,4,1,0,30,0,0
119621,-99.009900990099,4,1,0,30,0,0
119793,-101.010101010101,4,1,0,30,0,0
119878,-103.092783505155,4,1,0,30,0,0
120050,-105.263157894737,4,1,0,30,0,0
120136,-107.52688172043,4,1,0,30,0,0
120221,-109.89010989011,4,1,0,30,0,0
120307,-112.359550561798,4,1,0,30,0,0
120393,-114.942528735632,4,1,0,30,0,0
120478,-117.647058823529,4,1,0,30,0,0
120650,-95.2380952380952,4,1,0,80,0,0
130166,-95.2380952380952,4,1,0,80,0,0
130850,-105.263157894737,4,1,0,80,0,0
131638,-95.2380952380952,4,1,0,80,0,1
141231,-96.1538461538461,4,1,0,30,0,1
141403,-97.0873786407767,4,1,0,30,0,1
141574,-98.0392156862745,4,1,0,30,0,1
141746,-99.009900990099,4,1,0,30,0,1
141831,-100,4,1,0,30,0,1
142003,-101.010101010101,4,1,0,30,0,1
142088,-102.040816326531,4,1,0,30,0,1
142174,-103.092783505155,4,1,0,30,0,1
142260,-104.166666666667,4,1,0,30,0,1
142346,-105.263157894737,4,1,0,30,0,1
142431,-106.382978723404,4,1,0,30,0,1
142603,-95.2380952380952,4,1,0,80,0,1
153488,-86.9565217391304,4,1,0,80,0,1
154875,-100,4,1,0,80,0,1
156324,-100,4,1,0,80,0,0
156571,-111.111111111111,4,1,0,30,0,0
168398,-100,4,1,0,30,0,0
169765,-125,4,1,0,50,0,0
178169,-99.9999999999999,4,1,0,70,0,0
188455,-117.647058823529,4,1,0,70,0,0
188626,-111.111111111111,4,1,0,70,0,0
188798,-105.263157894737,4,1,0,70,0,0
189120,-95.2380952380952,4,1,0,70,0,0
189400,-95.2380952380952,4,1,0,30,0,0
194626,-111.111111111111,4,1,0,70,0,0
197455,-106.382978723404,4,1,0,70,0,0
197541,-105.263157894737,4,1,0,70,0,0
197626,-104.166666666667,4,1,0,70,0,0
197712,-103.092783505155,4,1,0,70,0,0
197798,-102.040816326531,4,1,0,70,0,0
197883,-101.010101010101,4,1,0,70,0,0
197969,-100,4,1,0,70,0,0
198055,-99.009900990099,4,1,0,70,0,0
198141,-98.0392156862745,4,1,0,70,0,0
198226,-97.0873786407767,4,1,0,70,0,0
198312,-96.1538461538461,4,1,0,70,0,0
198398,-95.2380952380952,4,1,0,70,0,0
198483,-94.3396226415094,4,1,0,70,0,0
198569,-93.4579439252336,4,1,0,70,0,0
198655,-92.5925925925926,4,1,0,70,0,0
198741,-91.743119266055,4,1,0,70,0,0
198826,-90.9090909090909,4,1,0,70,0,0
199085,-111.111111111111,4,1,0,29,0,0
200112,-95.2380952380952,4,1,0,70,0,0
200198,-95.2380952380952,4,1,0,70,0,0
220683,-90.9090909090909,4,1,0,5,0,0
222055,-90.9090909090909,4,1,0,70,0,0
222141,-90.9090909090909,4,1,0,70,0,0
222314,-125,4,1,0,30,0,0
233071,-125,4,1,0,30,0,0
234657,-121.951219512195,4,1,0,30,0,0
235214,-119.047619047619,4,1,0,30,0,0
236071,-119.047619047619,4,1,0,30,0,0
237485,-116.279069767442,4,1,0,30,0,0
239628,-114.942528735632,4,1,0,30,0,0
239800,-113.636363636364,4,1,0,30,0,0
239971,-112.359550561798,4,1,0,30,0,0
240143,-111.111111111111,4,1,0,30,0,0
240314,-109.89010989011,4,1,0,30,0,0
240485,-108.695652173913,4,1,0,30,0,0
240657,-107.52688172043,4,1,0,30,0,0
240828,-106.382978723404,4,1,0,30,0,0
241000,-105.263157894737,4,1,0,30,0,0
241171,-104.166666666667,4,1,0,30,0,0
241343,-103.092783505155,4,1,0,30,0,0
241685,-102.040816326531,4,1,0,30,0,0
241857,-101.010101010101,4,1,0,34,0,0
242028,-100,4,1,0,45,0,0
242200,-99.009900990099,4,1,0,53,0,0
242371,-98.0392156862745,4,1,0,57,0,0
242543,-97.0873786407767,4,1,0,60,0,0
242714,-96.1538461538461,4,1,0,62,0,0
242885,-95.2380952380952,4,1,0,64,0,0
243057,-94.3396226415094,4,1,0,66,0,0
243228,-93.4579439252336,4,1,0,68,0,0
243400,-92.5925925925926,4,1,0,70,0,0
243571,-91.743119266055,4,1,0,72,0,0
243743,-90.9090909090909,4,1,0,74,0,0
243914,-90.0900900900901,4,1,0,76,0,0
244000,-66.6666666666667,4,1,0,76,0,0
245753,-133.333333333333,4,1,0,60,0,0
246657,-125,4,1,0,30,0,0
257714,-133.333333333333,4,1,0,50,0,0
259428,-129.87012987013,4,1,0,50,0,0
260800,-125,4,1,0,70,0,0
262088,-125,4,1,0,70,0,0
263200,-117.647058823529,4,1,0,70,0,0
264571,-111.111111111111,4,1,0,70,0,0
265857,-103.092783505155,4,1,0,70,0,0
265953,-95.2380952380952,4,1,0,70,0,0
272882,-125,4,1,0,70,0,0
273225,-119.047619047619,4,1,0,70,0,0
273397,-113.636363636364,4,1,0,70,0,0
273568,-108.695652173913,4,1,0,70,0,0
273740,-105.263157894737,4,1,0,70,0,0
273825,-104.166666666667,4,1,0,70,0,0
273911,-103.092783505155,4,1,0,70,0,0
274082,-100,4,1,0,70,0,0
274257,-95.2380952380952,4,1,0,70,0,0
281114,-95.2380952380952,4,1,0,29,0,0
281285,-97.0873786407767,4,1,0,29,0,0
281457,-99.009900990099,4,1,0,29,0,0
281628,-101.010101010101,4,1,0,29,0,0
281714,-103.092783505155,4,1,0,29,0,0
281885,-105.263157894737,4,1,0,29,0,0
281971,-107.52688172043,4,1,0,29,0,0
282057,-109.89010989011,4,1,0,29,0,0
282143,-112.359550561798,4,1,0,29,0,0
282228,-114.942528735632,4,1,0,29,0,0
282314,-117.647058823529,4,1,0,29,0,0
282485,-95.2380952380952,4,1,0,80,0,0
292085,-95.2380952380952,4,1,0,80,0,0
292514,-105.263157894737,4,1,0,80,0,0
293467,-95.2380952380952,4,1,0,80,0,1
303062,-95.2380952380952,4,1,0,30,0,1
303233,-97.0873786407767,4,1,0,30,0,1
303405,-99.009900990099,4,1,0,30,0,1
303576,-101.010101010101,4,1,0,30,0,1
303662,-103.092783505155,4,1,0,30,0,1
303833,-105.263157894737,4,1,0,30,0,1
303919,-107.52688172043,4,1,0,30,0,1
304090,-109.89010989011,4,1,0,70,0,1
304433,-95.2380952380952,4,1,0,80,0,1
315319,-86.9565217391304,4,1,0,80,0,1
318153,-86.9565217391304,4,1,0,80,0,0
318314,-100,4,1,0,80,0,0
327657,-100,4,1,0,30,0,0
327871,-102.040816326531,4,1,0,30,0,0
328043,-104.166666666667,4,1,0,30,0,0
328214,-106.382978723404,4,1,0,30,0,0
328300,-107.52688172043,4,1,0,30,0,0
328385,-108.695652173913,4,1,0,30,0,0
328471,-109.89010989011,4,1,0,30,0,0
328557,-111.111111111111,4,1,0,30,0,0
328685,-113.636363636364,4,1,0,30,0,0
329028,-100,4,1,0,80,0,0

[HitObjects]
168,150,2725,5,4,0:0:0:0:
169,160,3068,1,0,0:0:0:0:
170,161,3239,1,8,0:0:0:0:
170,161,3411,1,0,0:0:0:0:
160,205,3581,1,8,0:0:0:0:
160,205,3667,1,8,0:0:0:0:
146,208,3753,1,0,0:0:0:0:
146,210,3924,1,8,0:0:0:0:
138,207,4096,1,0,0:0:0:0:
125,204,4438,1,0,0:0:0:0:
125,205,4609,1,8,0:0:0:0:
125,211,4781,1,0,0:0:0:0:
119,210,4867,1,0,0:0:0:0:
117,210,4952,1,8,0:0:0:0:
117,210,5124,1,0,0:0:0:0:
111,209,5295,1,8,0:0:0:0:
112,212,5467,1,0,0:0:0:0:
231,178,5810,1,0,0:0:0:0:
225,168,5982,1,8,0:0:0:0:
224,167,6152,1,0,0:0:0:0:
228,160,6238,1,0,0:0:0:0:
228,160,6324,1,8,0:0:0:0:
229,160,6495,1,0,0:0:0:0:
231,159,6667,1,8,0:0:0:0:
231,159,6752,1,8,0:0:0:0:
231,159,6838,1,0,0:0:0:0:
233,162,7181,1,0,0:0:0:0:
202,184,7353,1,8,0:0:0:0:
186,179,7524,1,0,0:0:0:0:
190,173,7610,1,0,0:0:0:0:
191,173,7695,1,0,0:0:0:0:
191,173,7781,1,0,0:0:0:0:
193,175,7866,1,8,0:0:0:0:
185,178,8038,1,8,0:0:0:0:
185,178,8210,1,0,0:0:0:0:
212,146,8553,1,0,0:0:0:0:
212,146,8724,1,8,0:0:0:0:
188,178,8896,1,0,0:0:0:0:
188,178,8981,1,0,0:0:0:0:
185,178,9067,1,8,0:0:0:0:
185,178,9239,1,0,0:0:0:0:
188,178,9409,1,8,0:0:0:0:
188,178,9581,1,0,0:0:0:0:
188,178,9924,1,0,0:0:0:0:
173,58,10095,1,8,0:0:0:0:
169,91,10267,1,0,0:0:0:0:
169,91,10353,1,0,0:0:0:0:
169,91,10438,1,8,0:0:0:0:
169,91,10524,1,8,0:0:0:0:
169,91,10610,1,0,0:0:0:0:
169,91,10782,1,8,0:0:0:0:
167,97,10952,1,0,0:0:0:0:
227,136,11295,1,0,0:0:0:0:
227,136,11467,1,8,0:0:0:0:
214,148,11552,1,8,0:0:0:0:
214,148,11638,1,0,0:0:0:0:
214,148,11810,1,8,0:0:0:0:
214,148,11981,1,0,0:0:0:0:
172,315,12324,5,0,0:0:0:0:
172,315,12496,1,0,0:0:0:0:
172,315,12666,1,8,0:0:0:0:
156,324,12838,1,0,0:0:0:0:
154,330,12924,1,8,0:0:0:0:
154,335,13009,1,0,0:0:0:0:
150,323,13095,1,8,0:0:0:0:
149,326,13181,1,0,0:0:0:0:
145,337,13353,1,8,0:0:0:0:
194,197,13696,1,4,0:0:0:0:
205,109,14039,1,0,0:0:0:0:
203,132,14209,1,8,0:0:0:0:
200,136,14381,1,0,0:0:0:0:
171,177,14552,1,8,0:0:0:0:
171,177,14638,1,0,0:0:0:0:
171,177,14724,1,0,0:0:0:0:
171,177,14895,1,8,0:0:0:0:
171,177,15067,1,0,0:0:0:0:
152,186,15238,1,8,0:0:0:0:
152,187,15324,1,8,0:0:0:0:
161,165,15410,1,0,0:0:0:0:
161,165,15496,1,0,0:0:0:0:
160,171,15582,1,8,0:0:0:0:
161,179,15753,1,0,0:0:0:0:
225,123,15924,1,8,0:0:0:0:
225,128,16009,1,8,0:0:0:0:
221,134,16095,1,0,0:0:0:0:
219,139,16181,1,8,0:0:0:0:
220,140,16267,1,8,0:0:0:0:
219,139,16352,1,8,0:0:0:0:
219,139,16438,1,0,0:0:0:0:
219,140,16610,1,8,0:0:0:0:
217,140,16781,1,0,0:0:0:0:
217,140,16867,1,0,0:0:0:0:
217,145,16953,1,8,0:0:0:0:
216,144,17124,1,0,0:0:0:0:
203,143,17296,1,8,0:0:0:0:
203,147,17382,1,0,0:0:0:0:
203,149,17466,1,8,0:0:0:0:
203,151,17552,1,8,0:0:0:0:
203,149,17638,1,0,0:0:0:0:
203,149,17724,1,0,0:0:0:0:
204,149,17809,1,8,0:0:0:0:
224,111,17981,1,8,0:0:0:0:
224,111,18067,1,8,0:0:0:0:
222,117,18152,1,0,0:0:0:0:
221,120,18324,1,8,0:0:0:0:
220,120,18496,1,0,0:0:0:0:
220,120,18581,1,8,0:0:0:0:
220,120,18667,1,0,0:0:0:0:
220,121,18753,1,0,0:0:0:0:
220,121,18839,1,8,0:0:0:0:
221,125,19010,1,8,0:0:0:0:
221,128,19095,1,8,0:0:0:0:
220,132,19181,1,0,0:0:0:0:
215,133,19438,1,8,0:0:0:0:
214,134,19524,1,0,0:0:0:0:
214,143,19695,1,8,0:0:0:0:
211,143,19867,1,0,0:0:0:0:
211,143,19953,1,0,0:0:0:0:
211,149,20038,1,8,0:0:0:0:
167,81,20124,1,8,0:0:0:0:
167,81,20210,1,0,0:0:0:0:
206,144,20381,1,8,0:0:0:0:
206,146,20467,1,8,0:0:0:0:
206,147,20553,1,0,0:0:0:0:
206,147,20723,1,8,0:0:0:0:
204,146,20895,1,0,0:0:0:0:
204,147,20981,1,0,0:0:0:0:
205,146,21067,1,8,0:0:0:0:
182,57,21238,1,0,0:0:0:0:
185,126,21324,1,0,0:0:0:0:
183,118,21410,1,8,0:0:0:0:
166,88,21495,1,0,0:0:0:0:
166,88,21581,1,8,0:0:0:0:
164,92,21753,1,8,0:0:0:0:
164,92,21838,1,8,0:0:0:0:
164,93,21924,1,0,0:0:0:0:
163,96,22010,1,8,0:0:0:0:
163,96,22096,1,0,0:0:0:0:
164,101,22182,1,0,0:0:0:0:
164,105,22267,1,8,0:0:0:0:
162,105,22352,1,8,0:0:0:0:
162,105,22438,1,0,0:0:0:0:
160,103,22524,1,8,0:0:0:0:
160,103,22609,1,0,0:0:0:0:
160,105,22695,1,0,0:0:0:0:
160,107,22781,1,8,0:0:0:0:
160,107,22867,1,8,0:0:0:0:
160,107,22952,1,0,0:0:0:0:
150,111,23038,1,0,0:0:0:0:
150,111,23124,1,8,0:0:0:0:
150,112,23210,1,0,0:0:0:0:
150,112,23296,1,8,0:0:0:0:
138,118,23639,1,8,0:0:0:0:
124,123,23981,1,8,0:0:0:0:
170,82,24238,1,8,0:0:0:0:
126,131,24324,1,8,0:0:0:0:
170,82,24495,1,8,0:0:0:0:
160,149,24667,1,4,0:0:0:0:
197,185,26038,1,8,0:0:0:0:
197,185,27409,1,0,0:0:0:0:
180,187,28782,1,8,0:0:0:0:
174,190,29467,1,0,0:0:0:0:
175,197,29810,1,8,0:0:0:0:
175,197,30153,1,0,0:0:0:0:
174,197,31524,1,8,0:0:0:0:
159,202,32209,1,8,0:0:0:0:
162,206,32552,1,8,0:0:0:0:
166,213,32895,1,0,0:0:0:0:
153,233,34267,1,8,0:0:0:0:
143,237,34953,1,0,0:0:0:0:
140,246,35124,1,0,0:0:0:0:
140,246,35296,1,8,0:0:0:0:
136,251,35638,1,0,0:0:0:0:
176,154,36153,1,8,0:0:0:0:
176,154,36667,1,0,0:0:0:0:
155,148,37009,1,8,0:0:0:0:
154,151,37352,1,8,0:0:0:0:
148,158,37695,1,0,0:0:0:0:
148,160,38038,1,8,0:0:0:0:
148,165,38382,1,0,0:0:0:0:
141,176,38895,1,0,0:0:0:0:
136,171,39410,1,0,0:0:0:0:
147,127,39753,1,8,0:0:0:0:
136,171,40438,1,0,0:0:0:0:
137,177,40609,1,0,0:0:0:0:
137,181,40781,1,8,0:0:0:0:
134,184,40952,1,0,0:0:0:0:
134,184,41124,1,8,0:0:0:0:
191,133,41467,1,8,0:0:0:0:
190,140,41810,1,0,0:0:0:0:
190,140,42152,1,8,0:0:0:0:
185,142,42495,1,0,0:0:0:0:
185,148,42838,1,8,0:0:0:0:
185,146,43010,1,0,0:0:0:0:
170,91,43523,1,0,0:0:0:0:
150,132,43867,1,8,0:0:0:0:
150,132,44210,1,0,0:0:0:0:
150,132,44381,1,8,0:0:0:0:
142,144,44896,1,0,0:0:0:0:
143,149,45238,1,8,0:0:0:0:
139,153,45581,1,8,0:0:0:0:
177,114,45924,1,8,0:0:0:0:
168,136,46096,1,0,0:0:0:0:
136,157,46181,1,8,0:0:0:0:
136,161,46267,1,8,0:0:0:0:
137,164,46439,1,8,0:0:0:0:
139,165,46610,1,4,0:0:0:0:
185,180,46952,1,0,0:0:0:0:
167,191,47295,1,8,0:0:0:0:
191,193,47638,1,8,0:0:0:0:
183,186,47981,1,0,0:0:0:0:
152,210,48324,1,8,0:0:0:0:
147,208,48495,1,0,0:0:0:0:
144,207,48838,1,0,0:0:0:0:
144,207,49010,1,8,0:0:0:0:
143,207,49181,1,0,0:0:0:0:
144,209,49353,1,0,0:0:0:0:
190,180,49696,1,8,0:0:0:0:
176,176,50038,1,0,0:0:0:0:
168,184,50381,1,8,0:0:0:0:
168,184,50724,1,0,0:0:0:0:
160,184,51067,1,8,0:0:0:0:
160,184,51239,1,0,0:0:0:0:
160,128,51582,1,8,0:0:0:0:
160,192,51752,1,8,0:0:0:0:
160,192,51924,1,0,0:0:0:0:
160,200,52095,1,0,0:0:0:0:
152,136,52438,1,8,0:0:0:0:
144,144,52781,1,0,0:0:0:0:
144,152,53124,1,8,0:0:0:0:
144,152,53295,1,8,0:0:0:0:
144,160,53466,1,0,0:0:0:0:
128,168,53810,1,8,0:0:0:0:
128,176,53981,1,0,0:0:0:0:
128,176,54324,1,8,0:0:0:0:
128,176,54667,1,0,0:0:0:0:
160,80,54839,1,0,0:0:0:0:
144,120,55181,1,8,0:0:0:0:
192,160,55524,1,0,0:0:0:0:
192,168,55867,1,8,0:0:0:0:
168,152,56038,1,8,0:0:0:0:
168,160,56210,1,0,0:0:0:0:
168,160,56552,1,8,0:0:0:0:
160,168,56895,1,8,0:0:0:0:
152,176,57238,1,8,0:0:0:0:
152,176,57410,1,0,0:0:0:0:
152,184,57581,1,12,0:0:0:0:
168,64,57924,1,0,0:0:0:0:
128,176,58096,1,8,0:0:0:0:
128,176,58266,1,0,0:0:0:0:
128,176,58438,1,8,0:0:0:0:
128,184,58524,1,8,0:0:0:0:
128,192,58609,1,0,0:0:0:0:
128,192,58781,1,8,0:0:0:0:
128,192,58953,1,0,0:0:0:0:
256,136,59124,1,0,0:0:0:0:
256,136,59210,1,0,0:0:0:0:
256,144,59296,1,8,0:0:0:0:
248,152,59467,1,0,0:0:0:0:
240,160,59639,1,8,0:0:0:0:
240,168,59724,1,8,0:0:0:0:
240,168,59809,1,0,0:0:0:0:
240,176,59895,1,0,0:0:0:0:
240,176,59981,1,8,0:0:0:0:
240,176,60152,1,8,0:0:0:0:
232,176,60238,1,8,0:0:0:0:
240,176,60324,1,0,0:0:0:0:
208,120,60667,1,0,0:0:0:0:
200,120,60838,1,8,0:0:0:0:
200,96,61010,1,0,0:0:0:0:
200,96,61096,1,0,0:0:0:0:
200,96,61182,1,8,0:0:0:0:
200,104,61267,1,0,0:0:0:0:
192,112,61353,1,8,0:0:0:0:
192,112,61524,1,8,0:0:0:0:
192,112,61609,1,8,0:0:0:0:
200,112,61695,1,0,0:0:0:0:
200,112,61867,1,8,0:0:0:0:
192,112,62038,1,0,0:0:0:0:
200,72,62210,1,8,0:0:0:0:
192,80,62295,1,8,0:0:0:0:
192,96,62381,1,8,0:0:0:0:
192,104,62553,1,0,0:0:0:0:
224,96,62639,1,8,0:0:0:0:
184,96,62724,1,0,0:0:0:0:
224,104,62810,1,0,0:0:0:0:
184,104,62896,1,8,0:0:0:0:
208,112,62982,1,8,0:0:0:0:
184,112,63066,1,0,0:0:0:0:
208,128,63238,1,8,0:0:0:0:
208,128,63409,1,0,0:0:0:0:
208,128,63495,1,0,0:0:0:0:
208,128,63581,1,8,0:0:0:0:
208,136,63752,1,0,0:0:0:0:
192,136,63924,1,8,0:0:0:0:
192,144,64010,1,8,0:0:0:0:
192,144,64096,1,0,0:0:0:0:
192,144,64181,1,0,0:0:0:0:
192,144,64267,1,8,0:0:0:0:
192,152,64353,1,0,0:0:0:0:
192,152,64439,1,8,0:0:0:0:
192,152,64610,1,0,0:0:0:0:
192,160,64781,1,8,0:0:0:0:
192,160,64866,1,8,0:0:0:0:
192,160,64952,1,0,0:0:0:0:
192,168,65124,1,8,0:0:0:0:
192,160,65295,1,0,0:0:0:0:
192,168,65381,1,8,0:0:0:0:
192,176,65467,1,0,0:0:0:0:
192,176,65553,1,0,0:0:0:0:
192,176,65638,1,8,0:0:0:0:
192,176,65724,1,0,0:0:0:0:
192,176,65810,1,8,0:0:0:0:
192,168,65981,1,8,0:0:0:0:
192,168,66067,1,8,0:0:0:0:
192,176,66153,1,0,0:0:0:0:
192,176,66323,1,8,0:0:0:0:
192,168,66495,1,0,0:0:0:0:
192,168,66667,1,0,0:0:0:0:
192,168,66752,1,0,0:0:0:0:
192,168,66838,1,8,0:0:0:0:
192,168,66924,1,0,0:0:0:0:
192,168,67010,1,8,0:0:0:0:
192,168,67095,1,8,0:0:0:0:
192,168,67181,1,0,0:0:0:0:
184,176,68209,1,12,0:0:0:0:
184,176,68552,1,4,0:0:0:0:
176,232,68896,1,8,0:0:0:0:
189,120,68981,1,8,0:0:0:0:
176,232,69067,1,8,0:0:0:0:
258,156,69239,1,0,0:0:0:0:
233,52,69281,1,0,0:0:0:0:
189,104,69410,1,8,0:0:0:0:
196,21,69452,1,8,0:0:0:0:
194,45,69581,1,8,0:0:0:0:
209,41,69624,1,8,0:0:0:0:
241,72,69752,1,0,0:0:0:0:
210,144,70095,1,0,0:0:0:0:
221,123,70267,5,8,0:0:0:0:
190,66,70324,1,8,0:0:0:0:
190,66,70381,1,8,0:0:0:0:
194,69,70438,1,0,0:0:0:0:
216,69,70610,1,8,0:0:0:0:
178,104,70867,1,0,0:0:0:0:
183,108,70953,1,8,0:0:0:0:
184,108,71124,1,8,0:0:0:0:
277,67,71295,1,4,0:0:0:0:
185,117,71638,1,0,0:0:0:0:
268,91,71810,1,8,0:0:0:0:
268,91,71981,1,0,0:0:0:0:
201,47,72153,1,8,0:0:0:0:
201,38,72238,1,0,0:0:0:0:
201,52,72324,1,8,0:0:0:0:
209,95,72496,1,0,0:0:0:0:
209,95,72582,1,8,0:0:0:0:
209,95,72667,1,0,0:0:0:0:
199,154,72838,1,8,0:0:0:0:
262,136,72924,1,8,0:0:0:0:
199,154,73009,1,0,0:0:0:0:
199,154,73095,1,8,0:0:0:0:
200,159,73181,1,0,0:0:0:0:
200,161,73267,1,0,0:0:0:0:
200,161,73352,1,8,0:0:0:0:
195,169,73695,1,0,0:0:0:0:
196,175,74039,1,12,0:0:0:0:
179,196,74382,1,8,0:0:0:0:
179,196,74552,1,8,0:0:0:0:
178,192,74724,1,0,0:0:0:0:
289,120,74781,1,0,0:0:0:0:
289,120,74839,1,0,0:0:0:0:
290,125,74895,1,8,0:0:0:0:
301,117,74981,1,8,0:0:0:0:
301,117,75067,1,0,0:0:0:0:
293,127,75238,1,8,0:0:0:0:
289,136,75581,1,8,0:0:0:0:
289,136,75753,1,0,0:0:0:0:
288,142,75839,1,0,0:0:0:0:
288,142,75924,1,0,0:0:0:0:
288,144,76095,1,8,0:0:0:0:
199,49,76352,1,0,0:0:0:0:
204,61,76438,1,8,0:0:0:0:
206,65,76610,1,8,0:0:0:0:
244,56,76781,1,4,0:0:0:0:
235,114,77124,1,8,0:0:0:0:
228,97,77296,1,0,0:0:0:0:
235,114,77381,1,0,0:0:0:0:
235,114,77467,1,8,0:0:0:0:
235,114,77639,1,0,0:0:0:0:
236,116,77809,1,8,0:0:0:0:
186,85,77981,1,8,0:0:0:0:
186,85,78152,1,0,0:0:0:0:
179,96,78324,1,8,0:0:0:0:
182,71,78495,1,0,0:0:0:0:
193,64,78668,1,0,0:0:0:0:
193,90,78754,1,0,0:0:0:0:
164,93,78839,1,8,0:0:0:0:
193,92,79010,1,0,0:0:0:0:
193,99,79182,1,8,0:0:0:0:
193,99,79267,1,0,0:0:0:0:
193,99,79352,1,8,0:0:0:0:
193,100,79438,1,8,0:0:0:0:
193,100,79524,1,0,0:0:0:0:
192,100,79695,1,0,0:0:0:0:
193,100,79867,1,8,0:0:0:0:
195,102,80038,1,8,0:0:0:0:
195,104,80124,1,8,0:0:0:0:
200,110,80210,1,0,0:0:0:0:
200,110,80381,1,0,0:0:0:0:
203,104,80553,1,8,0:0:0:0:
198,99,80724,1,8,0:0:0:0:
202,102,80896,1,0,0:0:0:0:
202,102,80981,1,0,0:0:0:0:
203,104,81066,1,8,0:0:0:0:
203,105,81152,1,8,0:0:0:0:
205,107,81238,1,0,0:0:0:0:
205,107,81324,1,8,0:0:0:0:
204,103,81409,1,8,0:0:0:0:
204,104,81495,1,8,0:0:0:0:
205,111,81581,1,0,0:0:0:0:
206,113,81667,1,0,0:0:0:0:
206,111,81753,1,8,0:0:0:0:
206,111,81838,1,0,0:0:0:0:
206,113,81924,1,8,0:0:0:0:
206,113,82010,1,8,0:0:0:0:
209,113,82096,1,0,0:0:0:0:
256,192,82267,12,0,83638,0:0:0:0:
82,139,84324,5,0,0:0:0:0:
87,143,84495,1,0,0:0:0:0:
82,139,84667,1,8,0:0:0:0:
168,100,85010,1,4,0:0:0:0:
200,41,85524,1,8,0:0:0:0:
176,154,86039,1,0,0:0:0:0:
154,151,86724,1,8,0:0:0:0:
148,158,87067,1,0,0:0:0:0:
148,160,87410,1,8,0:0:0:0:
148,165,87753,1,0,0:0:0:0:
141,176,88267,1,0,0:0:0:0:
165,110,88781,1,8,0:0:0:0:
136,171,89810,1,0,0:0:0:0:
137,177,89981,1,0,0:0:0:0:
137,181,90153,1,8,0:0:0:0:
185,105,90495,1,4,0:0:0:0:
176,120,90838,1,8,0:0:0:0:
190,138,91010,1,8,0:0:0:0:
190,140,91182,1,0,0:0:0:0:
190,140,91524,1,8,0:0:0:0:
185,142,91867,1,0,0:0:0:0:
185,148,92210,1,8,0:0:0:0:
185,146,92382,1,0,0:0:0:0:
170,91,92895,1,0,0:0:0:0:
150,132,93238,1,8,0:0:0:0:
150,132,93581,1,0,0:0:0:0:
150,132,93753,1,8,0:0:0:0:
241,117,94266,1,8,0:0:0:0:
143,149,94610,1,8,0:0:0:0:
235,87,95296,5,0,0:0:0:0:
225,93,95467,1,0,0:0:0:0:
225,93,95638,1,8,0:0:0:0:
139,165,95982,1,4,0:0:0:0:
202,140,96324,1,0,0:0:0:0:
204,148,96495,1,8,0:0:0:0:
205,152,96667,1,0,0:0:0:0:
193,149,96839,1,8,0:0:0:0:
174,107,96924,1,8,0:0:0:0:
202,155,97010,1,0,0:0:0:0:
205,163,97182,1,8,0:0:0:0:
195,171,97352,1,0,0:0:0:0:
193,180,97695,1,0,0:0:0:0:
195,185,97867,1,8,0:0:0:0:
210,88,98038,1,0,0:0:0:0:
209,95,98124,1,8,0:0:0:0:
208,100,98210,1,0,0:0:0:0:
206,111,98381,1,8,0:0:0:0:
206,111,98553,1,8,0:0:0:0:
206,111,98639,1,8,0:0:0:0:
206,114,98724,1,0,0:0:0:0:
206,129,99066,1,0,0:0:0:0:
206,135,99238,1,8,0:0:0:0:
211,138,99324,1,0,0:0:0:0:
211,138,99410,1,0,0:0:0:0:
211,138,99581,1,8,0:0:0:0:
211,138,99753,1,0,0:0:0:0:
211,138,99838,1,0,0:0:0:0:
211,140,99924,1,8,0:0:0:0:
211,144,100096,1,0,0:0:0:0:
215,143,100439,1,0,0:0:0:0:
210,145,100609,1,8,0:0:0:0:
210,143,100781,1,0,0:0:0:0:
210,143,100867,1,0,0:0:0:0:
210,143,100952,1,8,0:0:0:0:
210,146,101038,1,8,0:0:0:0:
211,149,101124,1,0,0:0:0:0:
211,150,101295,1,8,0:0:0:0:
227,88,101467,1,4,0:0:0:0:
257,134,101638,1,0,0:0:0:0:
257,134,101810,1,8,0:0:0:0:
253,139,101982,1,8,0:0:0:0:
251,151,102067,1,8,0:0:0:0:
251,151,102152,1,0,0:0:0:0:
251,154,102324,1,0,0:0:0:0:
251,154,102495,1,8,0:0:0:0:
166,106,102581,1,0,0:0:0:0:
166,106,102667,1,8,0:0:0:0:
194,83,102838,1,4,0:0:0:0:
250,155,103010,1,0,0:0:0:0:
256,155,103181,1,8,0:0:0:0:
256,155,103353,1,8,0:0:0:0:
256,154,103439,1,8,0:0:0:0:
256,154,103524,1,0,0:0:0:0:
256,154,103610,1,8,0:0:0:0:
256,154,103696,1,0,0:0:0:0:
158,126,103781,1,0,0:0:0:0:
258,153,103866,1,8,0:0:0:0:
245,158,104038,1,0,0:0:0:0:
245,158,104209,1,8,0:0:0:0:
246,162,104295,1,8,0:0:0:0:
269,118,104381,1,0,0:0:0:0:
127,67,104467,1,8,0:0:0:0:
175,41,104553,1,0,0:0:0:0:
264,123,104638,1,0,0:0:0:0:
263,124,104724,1,8,0:0:0:0:
160,37,104810,1,0,0:0:0:0:
164,35,104895,1,8,0:0:0:0:
262,127,104981,1,8,0:0:0:0:
262,130,105067,1,0,0:0:0:0:
263,132,105153,1,0,0:0:0:0:
263,133,105239,1,8,0:0:0:0:
139,28,105324,1,8,0:0:0:0:
165,44,105410,1,8,0:0:0:0:
196,44,105495,1,8,0:0:0:0:
248,138,105581,1,0,0:0:0:0:
241,145,105666,1,0,0:0:0:0:
241,145,105752,1,8,0:0:0:0:
240,146,105838,1,8,0:0:0:0:
240,146,105924,1,0,0:0:0:0:
239,147,106010,1,0,0:0:0:0:
238,149,106095,1,8,0:0:0:0:
238,155,106181,1,0,0:0:0:0:
238,157,106267,1,8,0:0:0:0:
174,32,106324,1,8,0:0:0:0:
174,32,106381,1,8,0:0:0:0:
238,157,106438,1,0,0:0:0:0:
153,98,106524,1,8,0:0:0:0:
153,98,106610,1,0,0:0:0:0:
155,96,106696,1,0,0:0:0:0:
155,96,106782,1,8,0:0:0:0:
155,100,106867,1,0,0:0:0:0:
153,102,106953,1,8,0:0:0:0:
150,112,107124,1,0,0:0:0:0:
150,113,107295,1,0,0:0:0:0:
151,116,107467,1,8,0:0:0:0:
151,113,107638,1,0,0:0:0:0:
151,117,107724,1,0,0:0:0:0:
151,117,107810,1,0,0:0:0:0:
151,117,107981,1,8,0:0:0:0:
172,142,108152,1,0,0:0:0:0:
151,117,108324,1,8,0:0:0:0:
152,118,108666,1,8,0:0:0:0:
152,123,109009,1,8,0:0:0:0:
153,123,109267,1,8,0:0:0:0:
152,123,109352,1,8,0:0:0:0:
200,70,109524,1,8,0:0:0:0:
200,70,109696,1,4,0:0:0:0:
222,172,110039,1,0,0:0:0:0:
206,177,110210,1,8,0:0:0:0:
204,187,110381,1,0,0:0:0:0:
204,193,110552,1,8,0:0:0:0:
203,192,110638,1,8,0:0:0:0:
203,192,110724,1,0,0:0:0:0:
202,197,110895,1,8,0:0:0:0:
226,110,111067,1,0,0:0:0:0:
167,154,111238,1,0,0:0:0:0:
167,154,111324,1,0,0:0:0:0:
167,154,111410,1,8,0:0:0:0:
162,164,111581,1,0,0:0:0:0:
152,172,111753,1,8,0:0:0:0:
150,177,111839,1,8,0:0:0:0:
148,184,111923,1,0,0:0:0:0:
148,186,112009,1,0,0:0:0:0:
148,186,112095,1,8,0:0:0:0:
137,179,112267,1,8,0:0:0:0:
134,182,112352,1,8,0:0:0:0:
134,184,112438,1,0,0:0:0:0:
128,177,112610,1,0,0:0:0:0:
129,178,112781,1,8,0:0:0:0:
114,185,112953,1,0,0:0:0:0:
113,186,113038,1,0,0:0:0:0:
219,145,113124,1,8,0:0:0:0:
219,145,113296,1,8,0:0:0:0:
219,145,113382,1,0,0:0:0:0:
215,148,113467,1,8,0:0:0:0:
210,149,113552,1,8,0:0:0:0:
206,147,113638,1,0,0:0:0:0:
206,147,113724,1,0,0:0:0:0:
206,147,113809,1,8,0:0:0:0:
203,152,113981,1,0,0:0:0:0:
200,151,114152,1,8,0:0:0:0:
199,152,114238,1,8,0:0:0:0:
199,152,114324,1,0,0:0:0:0:
196,127,114496,1,8,0:0:0:0:
193,127,114667,1,0,0:0:0:0:
193,126,114753,1,0,0:0:0:0:
193,132,114839,1,8,0:0:0:0:
193,134,114924,1,0,0:0:0:0:
193,134,115010,1,8,0:0:0:0:
193,134,115096,1,8,0:0:0:0:
193,134,115181,1,0,0:0:0:0:
185,134,115352,1,8,0:0:0:0:
184,136,115524,1,0,0:0:0:0:
236,197,115695,1,8,0:0:0:0:
226,200,115781,1,8,0:0:0:0:
226,200,115867,1,0,0:0:0:0:
225,203,116038,1,0,0:0:0:0:
224,203,116124,1,8,0:0:0:0:
224,203,116210,1,0,0:0:0:0:
222,202,116296,1,0,0:0:0:0:
222,203,116381,1,8,0:0:0:0:
222,203,116467,1,0,0:0:0:0:
222,203,116553,1,8,0:0:0:0:
220,200,116724,1,8,0:0:0:0:
207,193,116809,1,8,0:0:0:0:
207,194,116895,1,0,0:0:0:0:
207,198,117066,1,8,0:0:0:0:
197,193,117238,1,0,0:0:0:0:
197,194,117324,1,0,0:0:0:0:
198,196,117410,1,8,0:0:0:0:
198,202,117495,1,0,0:0:0:0:
198,203,117581,1,8,0:0:0:0:
214,136,117753,1,8,0:0:0:0:
214,136,117838,1,8,0:0:0:0:
214,136,117924,1,0,0:0:0:0:
179,92,118096,1,8,0:0:0:0:
177,129,118267,1,0,0:0:0:0:
177,129,118353,1,0,0:0:0:0:
177,129,118438,1,8,0:0:0:0:
177,134,118524,1,8,0:0:0:0:
177,134,118609,1,0,0:0:0:0:
177,136,118781,1,8,0:0:0:0:
168,133,118952,1,0,0:0:0:0:
162,84,119295,1,0,0:0:0:0:
162,89,119467,1,0,0:0:0:0:
149,95,119639,1,8,0:0:0:0:
145,96,119810,1,0,0:0:0:0:
142,99,119896,1,8,0:0:0:0:
138,110,120066,1,8,0:0:0:0:
138,110,120152,1,8,0:0:0:0:
204,117,120238,1,8,0:0:0:0:
128,115,120324,1,0,0:0:0:0:
128,115,120409,1,0,0:0:0:0:
128,117,120495,1,8,0:0:0:0:
128,121,120667,1,4,0:0:0:0:
193,163,121010,1,0,0:0:0:0:
173,122,121181,1,8,0:0:0:0:
173,127,121353,1,0,0:0:0:0:
202,104,121439,1,0,0:0:0:0:
180,232,121524,1,8,0:0:0:0:
180,232,121695,1,0,0:0:0:0:
180,232,121866,1,8,0:0:0:0:
202,64,121952,1,0,0:0:0:0:
180,232,122038,1,0,0:0:0:0:
224,156,122210,1,8,0:0:0:0:
168,93,122381,1,0,0:0:0:0:
217,179,122553,1,0,0:0:0:0:
217,182,122638,1,0,0:0:0:0:
178,238,122724,1,8,0:0:0:0:
178,239,122810,1,8,0:0:0:0:
181,96,122896,1,0,0:0:0:0:
181,96,122981,1,8,0:0:0:0:
238,100,123067,1,0,0:0:0:0:
238,100,123153,1,0,0:0:0:0:
238,100,123239,1,8,0:0:0:0:
238,100,123323,1,8,0:0:0:0:
237,110,123409,1,0,0:0:0:0:
184,108,123581,1,8,0:0:0:0:
190,109,123752,1,0,0:0:0:0:
235,106,123924,1,8,0:0:0:0:
235,106,124010,1,8,0:0:0:0:
235,108,124095,1,0,0:0:0:0:
233,113,124267,1,8,0:0:0:0:
233,113,124438,1,0,0:0:0:0:
233,113,124524,1,0,0:0:0:0:
233,112,124610,1,8,0:0:0:0:
226,111,124696,1,0,0:0:0:0:
226,117,124782,1,8,0:0:0:0:
224,122,124952,1,8,0:0:0:0:
224,123,125038,1,8,0:0:0:0:
224,127,125124,1,0,0:0:0:0:
220,124,125295,1,8,0:0:0:0:
215,121,125467,1,0,0:0:0:0:
215,121,125552,1,8,0:0:0:0:
215,121,125638,1,0,0:0:0:0:
216,128,125810,1,8,0:0:0:0:
212,138,125981,1,0,0:0:0:0:
212,136,126153,1,12,0:0:0:0:
227,91,126496,1,0,0:0:0:0:
227,91,126666,1,8,0:0:0:0:
227,91,126752,1,8,0:0:0:0:
227,91,126838,1,0,0:0:0:0:
225,98,127009,1,8,0:0:0:0:
214,76,127181,1,0,0:0:0:0:
214,76,127267,1,8,0:0:0:0:
214,76,127353,1,0,0:0:0:0:
210,80,127438,1,0,0:0:0:0:
210,81,127524,1,8,0:0:0:0:
210,83,127696,1,8,0:0:0:0:
206,78,127867,1,0,0:0:0:0:
195,88,128039,1,0,0:0:0:0:
194,88,128124,1,0,0:0:0:0:
193,94,128209,1,8,0:0:0:0:
189,92,128381,1,8,0:0:0:0:
189,95,128466,1,0,0:0:0:0:
188,102,128552,1,8,0:0:0:0:
187,108,128638,1,8,0:0:0:0:
187,108,128724,1,0,0:0:0:0:
187,108,128810,1,8,0:0:0:0:
187,108,128895,1,0,0:0:0:0:
186,108,129067,1,0,0:0:0:0:
186,109,129238,1,8,0:0:0:0:
182,112,129410,1,0,0:0:0:0:
182,115,129496,1,0,0:0:0:0:
182,116,129582,1,8,0:0:0:0:
182,116,129667,1,0,0:0:0:0:
182,116,129753,1,0,0:0:0:0:
182,116,129838,1,0,0:0:0:0:
182,118,129924,1,8,0:0:0:0:
218,35,130095,1,0,0:0:0:0:
215,43,130267,1,8,0:0:0:0:
191,68,130610,1,8,0:0:0:0:
192,75,130953,1,0,0:0:0:0:
192,75,131124,1,8,0:0:0:0:
192,75,131210,1,0,0:0:0:0:
191,81,131296,1,8,0:0:0:0:
191,85,131466,1,8,0:0:0:0:
187,80,131638,1,4,0:0:0:0:
222,172,131981,1,0,0:0:0:0:
206,177,132152,1,8,0:0:0:0:
204,187,132323,1,0,0:0:0:0:
204,193,132494,1,8,0:0:0:0:
203,192,132580,1,8,0:0:0:0:
203,192,132666,1,0,0:0:0:0:
202,197,132838,1,8,0:0:0:0:
226,110,133009,1,0,0:0:0:0:
167,154,133181,1,0,0:0:0:0:
167,154,133266,1,0,0:0:0:0:
167,154,133352,1,8,0:0:0:0:
162,164,133524,1,0,0:0:0:0:
171,107,133610,1,0,0:0:0:0:
152,172,133695,1,8,0:0:0:0:
170,53,133781,1,0,0:0:0:0:
244,123,133867,1,8,0:0:0:0:
239,161,133953,1,8,0:0:0:0:
239,161,134038,1,0,0:0:0:0:
137,179,134209,1,8,0:0:0:0:
134,184,134380,1,0,0:0:0:0:
128,177,134552,1,0,0:0:0:0:
171,123,134639,1,0,0:0:0:0:
129,178,134723,1,8,0:0:0:0:
220,51,134895,1,8,0:0:0:0:
214,58,134981,1,8,0:0:0:0:
174,70,135067,1,0,0:0:0:0:
219,145,135238,1,8,0:0:0:0:
168,31,135324,1,0,0:0:0:0:
215,148,135410,1,8,0:0:0:0:
210,149,135494,1,8,0:0:0:0:
206,147,135580,1,0,0:0:0:0:
206,147,135666,1,0,0:0:0:0:
206,147,135752,1,8,0:0:0:0:
203,152,135923,1,0,0:0:0:0:
232,61,136096,1,8,0:0:0:0:
232,61,136182,1,0,0:0:0:0:
232,61,136267,1,0,0:0:0:0:
232,61,136352,1,0,0:0:0:0:
196,127,136438,1,8,0:0:0:0:
193,127,136609,1,0,0:0:0:0:
144,65,136695,1,0,0:0:0:0:
193,132,136781,1,8,0:0:0:0:
171,52,136867,1,8,0:0:0:0:
186,58,136952,1,0,0:0:0:0:
193,134,137038,1,8,0:0:0:0:
193,134,137123,1,0,0:0:0:0:
185,134,137294,1,8,0:0:0:0:
184,136,137466,1,0,0:0:0:0:
236,197,137638,1,8,0:0:0:0:
226,200,137723,1,8,0:0:0:0:
226,200,137809,1,0,0:0:0:0:
225,203,137981,1,0,0:0:0:0:
224,203,138066,1,8,0:0:0:0:
224,203,138152,1,0,0:0:0:0:
222,202,138238,1,0,0:0:0:0:
222,203,138324,1,8,0:0:0:0:
222,203,138409,1,0,0:0:0:0:
222,203,138495,1,8,0:0:0:0:
220,200,138668,1,8,0:0:0:0:
207,193,138752,1,8,0:0:0:0:
207,194,138838,1,0,0:0:0:0:
207,198,139009,1,8,0:0:0:0:
197,193,139180,1,0,0:0:0:0:
197,194,139266,1,0,0:0:0:0:
198,196,139352,1,8,0:0:0:0:
198,202,139438,1,0,0:0:0:0:
198,203,139523,1,8,0:0:0:0:
214,136,139695,1,8,0:0:0:0:
214,136,139781,1,8,0:0:0:0:
214,136,139866,1,0,0:0:0:0:
179,92,140038,1,8,0:0:0:0:
177,129,140210,1,0,0:0:0:0:
177,129,140295,1,0,0:0:0:0:
177,129,140380,1,8,0:0:0:0:
177,134,140466,1,8,0:0:0:0:
177,134,140552,1,0,0:0:0:0:
177,136,140723,1,8,0:0:0:0:
204,150,140810,1,0,0:0:0:0:
168,133,140895,1,0,0:0:0:0:
162,84,141238,1,0,0:0:0:0:
162,89,141409,1,0,0:0:0:0:
149,95,141581,1,8,0:0:0:0:
145,96,141752,1,0,0:0:0:0:
142,99,141838,1,8,0:0:0:0:
138,110,142009,1,8,0:0:0:0:
196,90,142095,1,0,0:0:0:0:
196,90,142181,1,0,0:0:0:0:
190,29,142267,1,8,0:0:0:0:
128,115,142352,1,0,0:0:0:0:
128,117,142437,1,8,0:0:0:0:
128,121,142609,1,4,0:0:0:0:
193,163,142952,1,0,0:0:0:0:
173,122,143124,1,8,0:0:0:0:
173,127,143295,1,0,0:0:0:0:
180,232,143467,1,8,0:0:0:0:
180,68,143552,1,8,0:0:0:0:
180,232,143637,1,0,0:0:0:0:
180,232,143809,1,8,0:0:0:0:
202,64,143894,1,0,0:0:0:0:
180,232,143980,1,0,0:0:0:0:
224,156,144152,1,8,0:0:0:0:
168,93,144323,1,0,0:0:0:0:
212,131,144410,1,8,0:0:0:0:
217,179,144495,1,0,0:0:0:0:
217,182,144581,1,0,0:0:0:0:
178,238,144666,1,8,0:0:0:0:
165,80,144838,1,8,0:0:0:0:
151,59,144924,1,0,0:0:0:0:
153,68,145010,1,0,0:0:0:0:
153,70,145095,1,0,0:0:0:0:
238,100,145181,1,8,0:0:0:0:
167,51,145267,1,8,0:0:0:0:
161,102,145353,1,0,0:0:0:0:
160,44,145524,1,8,0:0:0:0:
148,75,145610,1,8,0:0:0:0:
147,67,145696,1,0,0:0:0:0:
160,48,145781,1,8,0:0:0:0:
188,28,145953,1,8,0:0:0:0:
188,35,146039,1,0,0:0:0:0:
233,113,146209,1,8,0:0:0:0:
233,113,146381,1,0,0:0:0:0:
233,113,146467,1,0,0:0:0:0:
233,112,146552,1,8,0:0:0:0:
226,111,146638,1,0,0:0:0:0:
226,117,146724,1,8,0:0:0:0:
224,122,146894,1,8,0:0:0:0:
224,123,146980,1,8,0:0:0:0:
224,127,147066,1,0,0:0:0:0:
220,124,147237,1,8,0:0:0:0:
215,121,147409,1,0,0:0:0:0:
215,121,147580,1,0,0:0:0:0:
174,72,147667,1,0,0:0:0:0:
216,128,147752,1,8,0:0:0:0:
192,62,147924,1,8,0:0:0:0:
192,75,148095,1,4,0:0:0:0:
227,91,148438,1,0,0:0:0:0:
227,91,148609,1,8,0:0:0:0:
227,91,148694,1,8,0:0:0:0:
227,91,148780,1,0,0:0:0:0:
225,98,148952,1,8,0:0:0:0:
192,151,149039,1,0,0:0:0:0:
174,59,149124,1,8,0:0:0:0:
214,76,149209,1,8,0:0:0:0:
214,76,149295,1,0,0:0:0:0:
210,80,149381,1,0,0:0:0:0:
210,81,149466,1,8,0:0:0:0:
210,83,149638,1,8,0:0:0:0:
206,78,149809,1,0,0:0:0:0:
195,88,149981,1,0,0:0:0:0:
194,88,150067,1,0,0:0:0:0:
193,94,150153,1,8,0:0:0:0:
162,80,150324,1,0,0:0:0:0:
188,102,150495,1,8,0:0:0:0:
171,34,150581,1,0,0:0:0:0:
179,56,150667,1,8,0:0:0:0:
179,56,150753,1,8,0:0:0:0:
187,108,150838,1,0,0:0:0:0:
186,108,151009,1,0,0:0:0:0:
216,86,151095,1,0,0:0:0:0:
186,109,151181,1,8,0:0:0:0:
192,86,151352,1,8,0:0:0:0:
182,115,151438,1,0,0:0:0:0:
182,116,151524,1,8,0:0:0:0:
177,29,151610,1,8,0:0:0:0:
177,35,151695,1,0,0:0:0:0:
188,20,151781,1,8,0:0:0:0:
185,27,151867,1,0,0:0:0:0:
187,33,151953,1,0,0:0:0:0:
180,55,152038,1,8,0:0:0:0:
182,100,152124,1,8,0:0:0:0:
180,108,152209,1,0,0:0:0:0:
181,50,152381,1,8,0:0:0:0:
191,68,152552,1,8,0:0:0:0:
182,97,152638,1,8,0:0:0:0:
182,98,152724,1,0,0:0:0:0:
171,45,152809,5,0,0:0:0:0:
182,73,152895,1,8,0:0:0:0:
169,53,152981,1,0,0:0:0:0:
203,101,153067,1,0,0:0:0:0:
205,91,153152,1,0,0:0:0:0:
191,81,153238,1,8,0:0:0:0:
191,85,153409,1,8,0:0:0:0:
199,120,153581,1,4,0:0:0:0:
199,118,154096,1,4,0:0:0:0:
199,129,154609,1,12,0:0:0:0:
193,116,154952,1,8,0:0:0:0:
192,128,155124,1,0,0:0:0:0:
229,86,155467,1,0,0:0:0:0:
155,46,155810,1,0,0:0:0:0:
178,102,155895,1,0,0:0:0:0:
160,62,155981,1,8,0:0:0:0:
159,73,156152,1,0,0:0:0:0:
163,91,156324,1,12,0:0:0:0:
145,189,167295,5,4,0:0:0:0:
227,79,168667,1,8,0:0:0:0:
227,79,169009,1,8,0:0:0:0:
227,84,169352,1,8,0:0:0:0:
225,90,170038,1,4,0:0:0:0:
211,200,170382,1,0,0:0:0:0:
217,207,170724,1,8,0:0:0:0:
216,207,170895,1,0,0:0:0:0:
164,161,171238,1,0,0:0:0:0:
152,114,171581,1,0,0:0:0:0:
158,165,171753,1,0,0:0:0:0:
150,165,172096,1,8,0:0:0:0:
136,178,172438,1,8,0:0:0:0:
135,172,172609,1,8,0:0:0:0:
135,175,172781,1,0,0:0:0:0:
176,168,173124,1,0,0:0:0:0:
157,107,173467,1,8,0:0:0:0:
151,116,173639,1,8,0:0:0:0:
147,127,173981,1,0,0:0:0:0:
141,132,174324,1,8,0:0:0:0:
134,143,174495,1,0,0:0:0:0:
135,143,174838,1,8,0:0:0:0:
132,141,175010,1,0,0:0:0:0:
132,146,175182,1,8,0:0:0:0:
132,148,175353,1,0,0:0:0:0:
124,143,175524,1,0,0:0:0:0:
195,102,175867,1,0,0:0:0:0:
173,125,176210,1,8,0:0:0:0:
161,131,176553,1,0,0:0:0:0:
167,119,176724,1,0,0:0:0:0:
145,137,176896,1,0,0:0:0:0:
142,140,177066,1,0,0:0:0:0:
142,142,177152,1,0,0:0:0:0:
142,142,177238,1,8,0:0:0:0:
155,124,177409,1,8,0:0:0:0:
140,135,177495,1,0,0:0:0:0:
140,135,177581,1,8,0:0:0:0:
134,140,177752,1,0,0:0:0:0:
151,116,177924,1,8,0:0:0:0:
150,123,178010,1,8,0:0:0:0:
149,126,178096,1,0,0:0:0:0:
148,129,178267,1,12,0:0:0:0:
168,64,178610,1,0,0:0:0:0:
128,176,178782,1,8,0:0:0:0:
128,176,178952,1,0,0:0:0:0:
172,61,179038,1,0,0:0:0:0:
128,176,179124,1,8,0:0:0:0:
128,184,179210,1,8,0:0:0:0:
128,192,179295,1,0,0:0:0:0:
128,192,179467,1,8,0:0:0:0:
128,192,179638,1,0,0:0:0:0:
256,136,179810,1,0,0:0:0:0:
256,136,179896,1,0,0:0:0:0:
256,144,179981,1,8,0:0:0:0:
248,152,180153,1,0,0:0:0:0:
190,125,180239,1,8,0:0:0:0:
215,131,180324,1,0,0:0:0:0:
178,65,180410,1,0,0:0:0:0:
186,145,180495,1,8,0:0:0:0:
186,145,180581,1,8,0:0:0:0:
186,145,180667,1,0,0:0:0:0:
190,81,180838,1,8,0:0:0:0:
229,115,180924,1,0,0:0:0:0:
240,176,181010,1,0,0:0:0:0:
251,176,181181,1,8,0:0:0:0:
247,177,181267,1,8,0:0:0:0:
208,120,181353,1,0,0:0:0:0:
200,120,181524,1,8,0:0:0:0:
200,96,181696,1,0,0:0:0:0:
200,96,181782,1,0,0:0:0:0:
200,96,181867,1,8,0:0:0:0:
200,104,181953,1,0,0:0:0:0:
192,112,182039,1,8,0:0:0:0:
192,112,182209,1,8,0:0:0:0:
192,112,182295,1,8,0:0:0:0:
200,112,182381,1,0,0:0:0:0:
200,112,182552,1,8,0:0:0:0:
192,112,182724,1,0,0:0:0:0:
183,80,182810,1,0,0:0:0:0:
200,72,182896,1,8,0:0:0:0:
192,80,182981,1,8,0:0:0:0:
192,96,183067,1,8,0:0:0:0:
192,104,183239,1,0,0:0:0:0:
198,118,183410,1,8,0:0:0:0:
224,104,183496,1,0,0:0:0:0:
184,104,183582,1,8,0:0:0:0:
208,112,183667,1,8,0:0:0:0:
184,112,183752,1,0,0:0:0:0:
208,128,183924,1,8,0:0:0:0:
208,128,184095,1,0,0:0:0:0:
208,128,184181,1,0,0:0:0:0:
208,128,184267,1,8,0:0:0:0:
208,136,184438,1,0,0:0:0:0:
192,136,184610,1,8,0:0:0:0:
192,144,184696,1,8,0:0:0:0:
192,144,184781,1,0,0:0:0:0:
192,144,184953,1,8,0:0:0:0:
198,87,185124,1,0,0:0:0:0:
192,152,185296,1,0,0:0:0:0:
198,134,185381,1,0,0:0:0:0:
192,160,185466,1,8,0:0:0:0:
192,160,185552,1,8,0:0:0:0:
192,160,185638,1,0,0:0:0:0:
192,168,185810,1,8,0:0:0:0:
192,160,185981,1,0,0:0:0:0:
192,168,186067,1,8,0:0:0:0:
192,176,186153,1,0,0:0:0:0:
192,176,186238,1,0,0:0:0:0:
192,176,186324,1,8,0:0:0:0:
177,72,186410,1,8,0:0:0:0:
188,35,186496,1,0,0:0:0:0:
192,168,186667,1,8,0:0:0:0:
192,168,186753,1,8,0:0:0:0:
192,176,186839,1,0,0:0:0:0:
192,176,187009,1,8,0:0:0:0:
178,84,187095,1,8,0:0:0:0:
192,168,187181,1,0,0:0:0:0:
183,78,187267,1,0,0:0:0:0:
174,40,187352,1,8,0:0:0:0:
192,168,187438,1,0,0:0:0:0:
192,168,187524,1,8,0:0:0:0:
177,64,187695,1,0,0:0:0:0:
175,47,187867,1,8,0:0:0:0:
169,114,188552,1,8,0:0:0:0:
169,114,188724,1,0,0:0:0:0:
169,114,188895,1,8,0:0:0:0:
169,119,189238,1,12,0:0:0:0:
192,177,194724,5,12,0:0:0:0:
187,188,194896,1,0,0:0:0:0:
187,188,195066,1,8,0:0:0:0:
187,190,195238,1,8,0:0:0:0:
187,193,195409,1,0,0:0:0:0:
173,191,195581,1,0,0:0:0:0:
173,191,195753,1,8,0:0:0:0:
173,191,195924,1,8,0:0:0:0:
204,79,196010,1,8,0:0:0:0:
202,90,196096,1,0,0:0:0:0:
191,116,196267,1,0,0:0:0:0:
191,116,196439,1,8,0:0:0:0:
211,68,196524,1,0,0:0:0:0:
191,116,196609,1,8,0:0:0:0:
214,74,196695,1,0,0:0:0:0:
191,116,196781,1,0,0:0:0:0:
191,116,196952,1,8,0:0:0:0:
191,116,197124,1,0,0:0:0:0:
215,107,197210,1,0,0:0:0:0:
215,108,197295,1,8,0:0:0:0:
215,110,197467,1,0,0:0:0:0:
216,116,197553,1,8,0:0:0:0:
216,116,197638,1,0,0:0:0:0:
217,118,197724,1,0,0:0:0:0:
219,122,197810,1,8,0:0:0:0:
219,122,197896,1,8,0:0:0:0:
219,122,197982,1,0,0:0:0:0:
217,121,198067,1,0,0:0:0:0:
217,121,198153,1,8,0:0:0:0:
216,119,198238,1,8,0:0:0:0:
216,119,198324,1,8,0:0:0:0:
217,122,198409,1,8,0:0:0:0:
217,122,198495,1,0,0:0:0:0:
217,122,198581,1,8,0:0:0:0:
217,122,198667,1,0,0:0:0:0:
217,126,198752,1,0,0:0:0:0:
217,127,198838,1,8,0:0:0:0:
217,128,199181,1,8,0:0:0:0:
216,129,199524,1,8,0:0:0:0:
216,132,199696,1,8,0:0:0:0:
215,133,199866,1,8,0:0:0:0:
215,133,199952,1,8,0:0:0:0:
215,133,200038,1,8,0:0:0:0:
216,138,200209,1,4,0:0:0:0:
291,154,200552,1,0,0:0:0:0:
343,79,200724,1,8,0:0:0:0:
344,95,200810,1,8,0:0:0:0:
343,102,200896,1,0,0:0:0:0:
343,104,201067,1,8,0:0:0:0:
343,104,201153,1,0,0:0:0:0:
343,104,201239,1,8,0:0:0:0:
343,105,201324,1,8,0:0:0:0:
343,105,201410,1,0,0:0:0:0:
344,105,201495,1,8,0:0:0:0:
344,105,201581,1,0,0:0:0:0:
230,156,201752,1,8,0:0:0:0:
342,121,201838,1,0,0:0:0:0:
343,124,201924,1,8,0:0:0:0:
378,81,202095,1,8,0:0:0:0:
378,81,202153,1,8,0:0:0:0:
379,88,202209,1,8,0:0:0:0:
380,92,202267,1,0,0:0:0:0:
237,84,202438,1,8,0:0:0:0:
108,104,202610,1,0,0:0:0:0:
262,53,202667,1,0,0:0:0:0:
251,72,202724,1,0,0:0:0:0:
184,55,202781,1,8,0:0:0:0:
376,149,202953,1,8,0:0:0:0:
309,203,203039,1,8,0:0:0:0:
309,203,203123,1,0,0:0:0:0:
301,209,203209,1,8,0:0:0:0:
301,209,203295,1,0,0:0:0:0:
225,72,203467,1,8,0:0:0:0:
187,64,203638,1,0,0:0:0:0:
176,64,203724,1,0,0:0:0:0:
238,106,203810,1,8,0:0:0:0:
249,137,203981,1,0,0:0:0:0:
252,142,204153,1,8,0:0:0:0:
167,78,204238,1,0,0:0:0:0:
253,147,204324,1,0,0:0:0:0:
168,81,204409,1,0,0:0:0:0:
200,116,204495,1,8,0:0:0:0:
256,125,204582,1,8,0:0:0:0:
256,130,204667,1,0,0:0:0:0:
120,123,204838,1,0,0:0:0:0:
253,142,204924,1,8,0:0:0:0:
254,149,205009,1,0,0:0:0:0:
242,90,205067,1,0,0:0:0:0:
246,101,205124,1,0,0:0:0:0:
245,96,205181,1,8,0:0:0:0:
391,57,205352,1,8,0:0:0:0:
389,62,205410,1,0,0:0:0:0:
388,67,205466,1,0,0:0:0:0:
388,67,205524,1,8,0:0:0:0:
327,92,205610,1,8,0:0:0:0:
387,72,205696,1,0,0:0:0:0:
377,81,206039,1,0,0:0:0:0:
152,141,206210,1,8,0:0:0:0:
153,149,206296,1,8,0:0:0:0:
153,154,206381,1,0,0:0:0:0:
189,107,206552,1,8,0:0:0:0:
182,106,206724,1,0,0:0:0:0:
179,110,206809,1,8,0:0:0:0:
177,115,206981,1,8,0:0:0:0:
193,82,207066,1,0,0:0:0:0:
168,77,207152,1,0,0:0:0:0:
204,110,207238,1,8,0:0:0:0:
193,82,207324,1,0,0:0:0:0:
185,94,207409,1,8,0:0:0:0:
195,112,207581,1,8,0:0:0:0:
269,120,207638,1,8,0:0:0:0:
261,127,207695,1,8,0:0:0:0:
178,96,207753,1,0,0:0:0:0:
209,78,207924,1,8,0:0:0:0:
199,47,208095,1,0,0:0:0:0:
187,41,208152,1,8,0:0:0:0:
187,41,208210,1,8,0:0:0:0:
187,41,208266,1,0,0:0:0:0:
216,45,208353,1,0,0:0:0:0:
206,44,208438,1,8,0:0:0:0:
187,132,208610,1,8,0:0:0:0:
174,231,208695,1,0,0:0:0:0:
225,132,208781,1,0,0:0:0:0:
225,137,208867,1,0,0:0:0:0:
224,140,208953,1,8,0:0:0:0:
224,144,209124,1,0,0:0:0:0:
222,144,209296,1,8,0:0:0:0:
222,144,209382,1,8,0:0:0:0:
224,149,209467,1,0,0:0:0:0:
222,148,209553,1,0,0:0:0:0:
223,153,209638,1,8,0:0:0:0:
216,170,209724,1,0,0:0:0:0:
216,170,209809,1,8,0:0:0:0:
178,57,210067,1,8,0:0:0:0:
194,179,210152,1,0,0:0:0:0:
196,76,210324,1,8,0:0:0:0:
196,76,210410,1,8,0:0:0:0:
189,185,210495,1,0,0:0:0:0:
189,187,210667,1,8,0:0:0:0:
189,187,210839,1,8,0:0:0:0:
184,192,210924,1,8,0:0:0:0:
188,188,211010,1,8,0:0:0:0:
184,192,211182,1,4,0:0:0:0:
182,92,211524,1,8,0:0:0:0:
36,206,211609,1,0,0:0:0:0:
212,113,211695,1,0,0:0:0:0:
208,68,211781,1,0,0:0:0:0:
184,51,211866,1,8,0:0:0:0:
138,131,211953,1,8,0:0:0:0:
206,121,212038,1,0,0:0:0:0:
184,51,212124,1,0,0:0:0:0:
176,120,212210,1,8,0:0:0:0:
176,120,212296,1,0,0:0:0:0:
176,121,212381,1,8,0:0:0:0:
176,123,212467,1,8,0:0:0:0:
176,128,212553,1,0,0:0:0:0:
187,111,212724,1,0,0:0:0:0:
185,117,212810,1,0,0:0:0:0:
177,128,212895,1,8,0:0:0:0:
183,125,212981,1,0,0:0:0:0:
180,128,213066,1,8,0:0:0:0:
339,86,213124,1,8,0:0:0:0:
339,86,213182,1,8,0:0:0:0:
339,86,213238,1,0,0:0:0:0:
382,65,213410,1,8,0:0:0:0:
378,69,213495,1,0,0:0:0:0:
176,128,213581,1,8,0:0:0:0:
222,98,213639,1,0,0:0:0:0:
222,98,213695,1,0,0:0:0:0:
222,98,213753,1,8,0:0:0:0:
344,102,213838,1,8,0:0:0:0:
344,102,213924,1,0,0:0:0:0:
300,120,214096,1,8,0:0:0:0:
289,123,214267,1,0,0:0:0:0:
145,107,214352,1,0,0:0:0:0:
289,123,214439,1,8,0:0:0:0:
285,124,214609,1,0,0:0:0:0:
285,128,214781,1,8,0:0:0:0:
195,103,214952,1,0,0:0:0:0:
195,103,215038,1,0,0:0:0:0:
195,103,215124,1,8,0:0:0:0:
163,60,215210,1,0,0:0:0:0:
215,85,215295,1,8,0:0:0:0:
183,121,215381,1,8,0:0:0:0:
183,125,215467,1,0,0:0:0:0:
165,129,215638,1,8,0:0:0:0:
339,78,215695,1,8,0:0:0:0:
339,78,215752,1,8,0:0:0:0:
339,78,215810,1,0,0:0:0:0:
194,83,215895,1,0,0:0:0:0:
186,159,215982,1,8,0:0:0:0:
180,163,216152,1,8,0:0:0:0:
180,166,216238,1,8,0:0:0:0:
165,129,216324,1,8,0:0:0:0:
180,172,216495,1,8,0:0:0:0:
192,80,216667,1,4,0:0:0:0:
192,96,217010,1,8,0:0:0:0:
128,128,217181,1,0,0:0:0:0:
131,51,217266,1,0,0:0:0:0:
193,53,217352,1,8,0:0:0:0:
110,102,217438,1,0,0:0:0:0:
128,128,217524,1,8,0:0:0:0:
128,128,217610,1,8,0:0:0:0:
128,128,217696,1,0,0:0:0:0:
128,128,217781,1,8,0:0:0:0:
128,128,217866,1,0,0:0:0:0:
128,128,217952,1,0,0:0:0:0:
128,128,218038,1,8,0:0:0:0:
128,128,218209,1,0,0:0:0:0:
208,120,218295,1,8,0:0:0:0:
176,111,218381,1,0,0:0:0:0:
144,128,218467,1,0,0:0:0:0:
101,102,218553,1,8,0:0:0:0:
88,105,218610,1,8,0:0:0:0:
272,42,218667,1,8,0:0:0:0:
168,44,218724,1,0,0:0:0:0:
203,140,218810,1,0,0:0:0:0:
203,141,218895,1,8,0:0:0:0:
299,80,219066,1,0,0:0:0:0:
368,89,219124,1,0,0:0:0:0:
358,92,219181,1,0,0:0:0:0:
272,113,219238,1,8,0:0:0:0:
173,72,219324,1,8,0:0:0:0:
188,28,219409,1,0,0:0:0:0:
193,90,219495,1,0,0:0:0:0:
203,63,219581,1,8,0:0:0:0:
196,158,219666,1,0,0:0:0:0:
192,64,219752,1,8,0:0:0:0:
199,41,219838,1,8,0:0:0:0:
195,30,219924,1,0,0:0:0:0:
195,87,220010,1,8,0:0:0:0:
194,186,220095,1,0,0:0:0:0:
194,186,220181,1,0,0:0:0:0:
194,186,220267,1,8,0:0:0:0:
194,186,220353,1,0,0:0:0:0:
194,186,220438,1,8,0:0:0:0:
195,190,220524,1,8,0:0:0:0:
195,190,220610,1,0,0:0:0:0:
256,192,220782,12,8,221981,0:0:0:0:
368,113,222153,5,12,0:0:0:0:
199,127,233124,5,0,0:0:0:0:
271,189,233467,1,0,0:0:0:0:
271,189,233639,1,8,0:0:0:0:
199,138,233810,1,0,0:0:0:0:
271,189,233982,1,0,0:0:0:0:
211,144,234152,1,8,0:0:0:0:
176,41,234324,1,8,0:0:0:0:
190,152,234495,1,0,0:0:0:0:
187,153,234838,1,8,0:0:0:0:
185,158,235010,1,0,0:0:0:0:
155,157,235353,1,0,0:0:0:0:
205,133,235524,1,8,0:0:0:0:
130,148,235695,1,8,0:0:0:0:
130,148,235866,1,0,0:0:0:0:
201,79,236210,1,8,0:0:0:0:
178,124,236553,1,0,0:0:0:0:
178,124,236724,1,0,0:0:0:0:
179,136,236896,1,8,0:0:0:0:
203,134,237067,1,8,0:0:0:0:
181,139,237239,1,0,0:0:0:0:
270,161,237581,1,8,0:0:0:0:
178,124,237752,1,0,0:0:0:0:
264,161,237924,1,0,0:0:0:0:
264,170,238095,1,0,0:0:0:0:
264,175,238267,1,8,0:0:0:0:
265,177,238438,1,8,0:0:0:0:
265,181,238610,1,0,0:0:0:0:
257,175,238952,1,8,0:0:0:0:
257,175,239124,1,8,0:0:0:0:
222,79,239295,1,0,0:0:0:0:
251,176,239638,1,8,0:0:0:0:
251,176,239810,1,8,0:0:0:0:
184,48,239981,1,0,0:0:0:0:
193,86,240153,1,8,0:0:0:0:
193,86,240324,1,0,0:0:0:0:
181,100,240496,1,0,0:0:0:0:
181,104,240666,1,8,0:0:0:0:
222,81,240838,1,0,0:0:0:0:
169,108,241009,1,8,0:0:0:0:
222,90,241181,1,8,0:0:0:0:
166,118,241353,1,0,0:0:0:0:
169,51,241696,1,8,0:0:0:0:
170,94,241867,1,0,0:0:0:0:
208,88,242039,1,8,0:0:0:0:
170,95,242209,1,0,0:0:0:0:
170,94,242381,1,8,0:0:0:0:
161,91,242552,1,0,0:0:0:0:
155,91,242724,1,8,0:0:0:0:
139,107,242895,1,8,0:0:0:0:
156,98,243067,1,0,0:0:0:0:
140,105,243238,1,0,0:0:0:0:
141,106,243410,1,8,0:0:0:0:
141,106,243582,1,0,0:0:0:0:
142,114,243753,1,8,0:0:0:0:
144,117,243924,1,8,0:0:0:0:
147,164,246153,1,0,0:0:0:0:
147,164,246324,1,0,0:0:0:0:
147,164,246495,1,8,0:0:0:0:
168,100,246839,1,4,0:0:0:0:
200,41,247353,1,8,0:0:0:0:
176,154,247868,1,0,0:0:0:0:
154,151,248553,1,8,0:0:0:0:
148,158,248896,1,0,0:0:0:0:
148,160,249239,1,8,0:0:0:0:
148,165,249582,1,0,0:0:0:0:
141,176,250096,1,0,0:0:0:0:
150,105,250609,1,0,0:0:0:0:
156,132,250952,1,8,0:0:0:0:
136,171,251639,1,0,0:0:0:0:
137,177,251810,1,0,0:0:0:0:
137,181,251982,1,8,0:0:0:0:
148,120,252152,1,8,0:0:0:0:
176,96,252324,1,0,0:0:0:0:
191,133,252668,1,8,0:0:0:0:
190,138,252839,1,8,0:0:0:0:
190,140,253011,1,0,0:0:0:0:
190,140,253353,1,8,0:0:0:0:
185,142,253696,1,0,0:0:0:0:
185,148,254039,1,8,0:0:0:0:
185,146,254211,1,0,0:0:0:0:
138,92,254553,1,0,0:0:0:0:
185,103,254724,1,8,0:0:0:0:
150,132,255067,1,8,0:0:0:0:
150,132,255410,1,0,0:0:0:0:
150,132,255582,1,8,0:0:0:0:
164,96,256095,1,0,0:0:0:0:
143,149,256439,1,8,0:0:0:0:
235,87,257125,5,0,0:0:0:0:
225,93,257296,1,0,0:0:0:0:
225,93,257467,1,8,0:0:0:0:
139,165,257811,1,4,0:0:0:0:
202,140,258153,1,0,0:0:0:0:
204,148,258324,1,8,0:0:0:0:
205,152,258496,1,0,0:0:0:0:
193,149,258668,1,8,0:0:0:0:
174,107,258753,1,8,0:0:0:0:
202,155,258839,1,0,0:0:0:0:
205,163,259011,1,8,0:0:0:0:
195,171,259181,1,0,0:0:0:0:
193,180,259524,1,0,0:0:0:0:
195,185,259696,1,8,0:0:0:0:
210,88,259867,1,0,0:0:0:0:
209,95,259953,1,8,0:0:0:0:
208,100,260039,1,0,0:0:0:0:
206,111,260210,1,8,0:0:0:0:
206,111,260382,1,8,0:0:0:0:
206,111,260468,1,8,0:0:0:0:
206,114,260553,1,0,0:0:0:0:
206,129,260895,1,0,0:0:0:0:
206,135,261067,1,8,0:0:0:0:
211,138,261153,1,0,0:0:0:0:
211,138,261238,1,0,0:0:0:0:
211,138,261410,1,8,0:0:0:0:
211,138,261582,1,0,0:0:0:0:
211,138,261667,1,0,0:0:0:0:
211,140,261753,1,8,0:0:0:0:
211,144,261925,1,0,0:0:0:0:
215,143,262268,1,0,0:0:0:0:
210,145,262438,1,8,0:0:0:0:
210,143,262610,1,0,0:0:0:0:
210,143,262696,1,0,0:0:0:0:
210,143,262781,1,8,0:0:0:0:
210,146,262867,1,8,0:0:0:0:
211,149,262953,1,0,0:0:0:0:
211,150,263124,1,8,0:0:0:0:
227,88,263296,1,4,0:0:0:0:
257,134,263467,1,0,0:0:0:0:
257,134,263639,1,8,0:0:0:0:
253,139,263811,1,8,0:0:0:0:
251,151,263896,1,8,0:0:0:0:
251,151,263981,1,0,0:0:0:0:
251,154,264153,1,0,0:0:0:0:
251,154,264324,1,8,0:0:0:0:
166,106,264410,1,0,0:0:0:0:
166,106,264496,1,8,0:0:0:0:
194,83,264667,1,4,0:0:0:0:
250,155,264839,1,0,0:0:0:0:
256,155,265010,1,8,0:0:0:0:
256,155,265182,1,8,0:0:0:0:
256,154,265268,1,8,0:0:0:0:
256,154,265353,1,0,0:0:0:0:
256,154,265439,1,8,0:0:0:0:
256,154,265525,1,0,0:0:0:0:
142,113,265610,1,0,0:0:0:0:
258,153,265695,1,8,0:0:0:0:
245,158,265867,1,0,0:0:0:0:
245,158,266038,1,8,0:0:0:0:
246,162,266124,1,8,0:0:0:0:
269,118,266210,1,0,0:0:0:0:
269,118,266296,1,0,0:0:0:0:
265,123,266382,1,8,0:0:0:0:
264,123,266467,1,0,0:0:0:0:
263,124,266553,1,8,0:0:0:0:
262,127,266639,1,8,0:0:0:0:
262,127,266725,1,0,0:0:0:0:
262,127,266810,1,8,0:0:0:0:
262,130,266896,1,0,0:0:0:0:
263,132,266982,1,0,0:0:0:0:
263,133,267068,1,8,0:0:0:0:
251,137,267153,1,0,0:0:0:0:
249,135,267238,1,8,0:0:0:0:
249,135,267324,1,8,0:0:0:0:
248,138,267410,1,0,0:0:0:0:
241,145,267495,1,0,0:0:0:0:
241,145,267581,1,8,0:0:0:0:
240,146,267667,1,8,0:0:0:0:
240,146,267753,1,0,0:0:0:0:
239,147,267839,1,0,0:0:0:0:
238,149,267924,1,8,0:0:0:0:
238,155,268010,1,0,0:0:0:0:
238,157,268096,1,8,0:0:0:0:
203,58,268152,1,8,0:0:0:0:
203,58,268210,1,8,0:0:0:0:
203,58,268266,1,0,0:0:0:0:
382,99,268353,1,0,0:0:0:0:
219,73,268438,1,8,0:0:0:0:
219,73,268524,1,8,0:0:0:0:
193,16,268610,1,0,0:0:0:0:
222,21,268695,1,8,0:0:0:0:
222,21,268781,1,0,0:0:0:0:
211,42,270153,1,8,0:0:0:0:
189,71,270496,1,8,0:0:0:0:
189,71,270839,1,8,0:0:0:0:
187,65,271095,1,8,0:0:0:0:
189,71,271182,1,8,0:0:0:0:
198,49,271354,1,8,0:0:0:0:
197,54,271524,1,4,0:0:0:0:
164,100,272896,1,8,0:0:0:0:
164,100,273238,1,8,0:0:0:0:
164,100,273409,1,0,0:0:0:0:
150,106,273581,1,8,0:0:0:0:
142,99,273752,1,0,0:0:0:0:
141,101,273838,1,0,0:0:0:0:
141,101,273924,1,8,0:0:0:0:
141,104,274096,1,8,0:0:0:0:
200,70,274267,1,4,0:0:0:0:
222,172,274610,1,0,0:0:0:0:
206,177,274782,1,8,0:0:0:0:
204,187,274952,1,0,0:0:0:0:
223,153,275038,1,0,0:0:0:0:
204,193,275124,1,8,0:0:0:0:
203,192,275209,1,8,0:0:0:0:
203,192,275295,1,0,0:0:0:0:
202,197,275467,1,8,0:0:0:0:
226,110,275552,1,8,0:0:0:0:
226,110,275638,1,0,0:0:0:0:
167,154,275810,1,0,0:0:0:0:
167,154,275896,1,0,0:0:0:0:
167,154,275981,1,8,0:0:0:0:
162,164,276153,1,0,0:0:0:0:
216,155,276239,1,0,0:0:0:0:
152,172,276324,1,8,0:0:0:0:
150,177,276410,1,8,0:0:0:0:
148,184,276495,1,0,0:0:0:0:
148,186,276581,1,0,0:0:0:0:
148,186,276666,1,8,0:0:0:0:
219,99,276752,1,0,0:0:0:0:
219,99,276838,1,8,0:0:0:0:
134,182,276924,1,8,0:0:0:0:
134,184,277010,1,0,0:0:0:0:
128,177,277181,1,0,0:0:0:0:
129,178,277353,1,8,0:0:0:0:
194,78,277438,1,0,0:0:0:0:
114,185,277524,1,0,0:0:0:0:
113,186,277610,1,0,0:0:0:0:
219,145,277696,1,8,0:0:0:0:
219,145,277867,1,8,0:0:0:0:
219,145,277953,1,0,0:0:0:0:
215,148,278039,1,8,0:0:0:0:
210,149,278124,1,8,0:0:0:0:
206,147,278209,1,0,0:0:0:0:
206,147,278295,1,0,0:0:0:0:
206,147,278381,1,8,0:0:0:0:
203,152,278552,1,0,0:0:0:0:
200,151,278724,1,8,0:0:0:0:
199,152,278810,1,8,0:0:0:0:
199,152,278895,1,0,0:0:0:0:
161,108,278981,1,0,0:0:0:0:
196,127,279067,1,8,0:0:0:0:
208,91,279153,1,0,0:0:0:0:
193,127,279239,1,0,0:0:0:0:
193,126,279324,1,0,0:0:0:0:
193,132,279410,1,8,0:0:0:0:
193,134,279496,1,0,0:0:0:0:
193,134,279582,1,8,0:0:0:0:
193,134,279667,1,8,0:0:0:0:
193,134,279752,1,0,0:0:0:0:
185,134,279924,1,8,0:0:0:0:
184,136,280095,1,0,0:0:0:0:
236,197,280267,1,8,0:0:0:0:
226,200,280352,1,8,0:0:0:0:
226,200,280438,1,0,0:0:0:0:
225,203,280610,1,0,0:0:0:0:
224,203,280696,1,8,0:0:0:0:
224,203,280781,1,0,0:0:0:0:
209,124,281124,1,0,0:0:0:0:
160,85,281295,1,0,0:0:0:0:
162,102,281466,1,8,0:0:0:0:
162,102,281638,1,8,0:0:0:0:
162,102,281724,1,8,0:0:0:0:
197,194,281895,1,0,0:0:0:0:
198,196,281981,1,8,0:0:0:0:
198,202,282067,1,0,0:0:0:0:
198,203,282153,1,8,0:0:0:0:
232,72,282238,1,8,0:0:0:0:
232,72,282324,1,8,0:0:0:0:
232,78,282496,1,4,0:0:0:0:
177,129,282839,1,0,0:0:0:0:
177,129,283009,1,8,0:0:0:0:
177,134,283095,1,8,0:0:0:0:
177,134,283181,1,0,0:0:0:0:
177,136,283352,1,8,0:0:0:0:
168,133,283524,1,0,0:0:0:0:
167,65,283610,1,0,0:0:0:0:
167,65,283695,1,8,0:0:0:0:
167,65,283781,1,8,0:0:0:0:
162,84,283867,1,0,0:0:0:0:
185,25,284038,1,8,0:0:0:0:
185,47,284210,1,0,0:0:0:0:
176,40,284296,1,0,0:0:0:0:
197,36,284382,1,8,0:0:0:0:
171,44,284467,1,0,0:0:0:0:
171,44,284552,1,8,0:0:0:0:
188,115,284638,1,8,0:0:0:0:
194,114,284724,1,0,0:0:0:0:
188,115,284809,1,8,0:0:0:0:
188,115,284895,1,0,0:0:0:0:
187,121,284981,1,0,0:0:0:0:
128,117,285067,1,8,0:0:0:0:
188,115,285152,1,8,0:0:0:0:
193,86,285238,5,0,0:0:0:0:
193,86,285410,1,8,0:0:0:0:
193,163,285581,1,0,0:0:0:0:
209,85,285667,1,8,0:0:0:0:
209,85,285753,1,8,0:0:0:0:
209,86,285839,1,8,0:0:0:0:
173,127,285924,1,0,0:0:0:0:
180,232,286096,1,8,0:0:0:0:
180,76,286181,1,8,0:0:0:0:
180,232,286266,1,0,0:0:0:0:
160,26,286352,1,8,0:0:0:0:
173,48,286438,1,0,0:0:0:0:
202,64,286524,1,0,0:0:0:0:
173,48,286609,1,8,0:0:0:0:
194,0,286781,1,0,0:0:0:0:
181,36,286867,1,0,0:0:0:0:
182,14,286953,1,8,0:0:0:0:
160,26,287038,1,8,0:0:0:0:
160,26,287124,1,0,0:0:0:0:
158,35,287210,1,0,0:0:0:0:
178,238,287296,1,8,0:0:0:0:
160,37,287381,1,0,0:0:0:0:
222,123,287466,1,8,0:0:0:0:
181,96,287553,1,8,0:0:0:0:
238,100,287639,1,0,0:0:0:0:
238,100,287810,1,8,0:0:0:0:
197,105,287981,1,4,0:0:0:0:
190,109,288324,1,0,0:0:0:0:
235,106,288495,1,8,0:0:0:0:
235,106,288581,1,8,0:0:0:0:
235,108,288667,1,0,0:0:0:0:
233,113,288838,1,8,0:0:0:0:
169,53,288924,1,0,0:0:0:0:
233,113,289010,1,0,0:0:0:0:
233,113,289096,1,0,0:0:0:0:
233,112,289182,1,8,0:0:0:0:
226,111,289267,1,0,0:0:0:0:
226,117,289353,1,8,0:0:0:0:
224,122,289524,1,8,0:0:0:0:
224,123,289609,1,8,0:0:0:0:
224,127,289695,1,0,0:0:0:0:
220,124,289867,1,8,0:0:0:0:
247,109,289952,1,0,0:0:0:0:
215,121,290038,1,0,0:0:0:0:
215,121,290124,1,8,0:0:0:0:
215,121,290210,1,0,0:0:0:0:
236,92,290295,1,0,0:0:0:0:
216,128,290381,1,8,0:0:0:0:
159,68,290553,1,0,0:0:0:0:
159,68,290639,1,0,0:0:0:0:
184,44,290724,1,8,0:0:0:0:
184,68,290810,1,8,0:0:0:0:
185,76,290896,1,0,0:0:0:0:
185,79,290982,1,8,0:0:0:0:
227,91,291067,1,0,0:0:0:0:
182,32,291152,1,0,0:0:0:0:
184,44,291238,1,8,0:0:0:0:
184,49,291324,1,8,0:0:0:0:
184,49,291409,1,0,0:0:0:0:
174,55,291495,1,0,0:0:0:0:
188,4,291581,1,8,0:0:0:0:
184,44,291667,1,0,0:0:0:0:
189,13,291752,1,8,0:0:0:0:
214,76,291924,1,0,0:0:0:0:
210,81,292096,1,8,0:0:0:0:
255,15,292439,1,8,0:0:0:0:
189,37,292781,1,0,0:0:0:0:
193,64,292952,1,0,0:0:0:0:
193,64,293038,1,0,0:0:0:0:
193,64,293124,1,8,0:0:0:0:
193,64,293295,1,8,0:0:0:0:
193,64,293467,1,4,0:0:0:0:
222,172,293810,1,0,0:0:0:0:
206,177,293981,1,8,0:0:0:0:
250,112,294066,1,0,0:0:0:0:
204,187,294152,1,0,0:0:0:0:
173,76,294239,1,0,0:0:0:0:
204,193,294323,1,8,0:0:0:0:
203,192,294409,1,8,0:0:0:0:
203,192,294495,1,0,0:0:0:0:
202,197,294667,1,8,0:0:0:0:
226,110,294838,1,0,0:0:0:0:
167,154,295010,1,0,0:0:0:0:
167,154,295095,1,0,0:0:0:0:
167,154,295181,1,8,0:0:0:0:
162,164,295353,1,0,0:0:0:0:
171,107,295438,1,0,0:0:0:0:
152,172,295524,1,8,0:0:0:0:
170,53,295610,1,0,0:0:0:0:
244,123,295696,1,8,0:0:0:0:
239,161,295782,1,8,0:0:0:0:
239,161,295867,1,0,0:0:0:0:
137,179,296038,1,8,0:0:0:0:
134,184,296209,1,0,0:0:0:0:
128,177,296381,1,0,0:0:0:0:
171,123,296468,1,0,0:0:0:0:
129,178,296552,1,8,0:0:0:0:
220,51,296724,1,8,0:0:0:0:
214,58,296810,1,8,0:0:0:0:
174,70,296896,1,0,0:0:0:0:
219,145,297067,1,8,0:0:0:0:
168,31,297153,1,0,0:0:0:0:
215,148,297239,1,8,0:0:0:0:
210,149,297323,1,8,0:0:0:0:
206,147,297409,1,0,0:0:0:0:
206,147,297495,1,0,0:0:0:0:
206,147,297581,1,8,0:0:0:0:
203,152,297752,1,0,0:0:0:0:
259,126,297838,1,0,0:0:0:0:
232,61,297925,1,8,0:0:0:0:
232,61,298011,1,0,0:0:0:0:
232,61,298096,1,0,0:0:0:0:
232,61,298181,1,0,0:0:0:0:
196,127,298267,1,8,0:0:0:0:
166,53,298353,1,8,0:0:0:0:
193,127,298438,1,0,0:0:0:0:
182,44,298524,1,8,0:0:0:0:
199,35,298610,1,0,0:0:0:0:
200,36,298696,1,0,0:0:0:0:
200,19,298781,1,8,0:0:0:0:
193,134,298867,1,8,0:0:0:0:
193,134,298952,1,0,0:0:0:0:
185,134,299123,1,8,0:0:0:0:
184,136,299295,1,0,0:0:0:0:
236,197,299466,1,8,0:0:0:0:
226,200,299552,1,8,0:0:0:0:
226,200,299638,1,0,0:0:0:0:
225,203,299810,1,0,0:0:0:0:
224,203,299895,1,8,0:0:0:0:
224,203,299981,1,0,0:0:0:0:
222,202,300067,1,0,0:0:0:0:
222,203,300153,1,8,0:0:0:0:
222,203,300238,1,0,0:0:0:0:
222,203,300324,1,8,0:0:0:0:
220,200,300496,1,8,0:0:0:0:
207,193,300580,1,8,0:0:0:0:
207,194,300666,1,0,0:0:0:0:
207,198,300838,1,8,0:0:0:0:
246,83,300924,1,8,0:0:0:0:
197,193,301009,1,0,0:0:0:0:
197,194,301095,1,0,0:0:0:0:
102,95,301181,1,8,0:0:0:0:
103,104,301266,1,0,0:0:0:0:
104,103,301352,1,8,0:0:0:0:
104,103,301438,1,8,0:0:0:0:
70,113,301524,1,0,0:0:0:0:
214,136,301610,1,8,0:0:0:0:
214,136,301695,1,0,0:0:0:0:
179,92,301867,1,8,0:0:0:0:
177,129,302039,1,0,0:0:0:0:
177,129,302124,1,0,0:0:0:0:
177,129,302209,1,8,0:0:0:0:
177,134,302295,1,8,0:0:0:0:
177,134,302381,1,0,0:0:0:0:
177,136,302552,1,8,0:0:0:0:
204,150,302639,1,0,0:0:0:0:
168,133,302724,1,0,0:0:0:0:
162,84,303067,1,0,0:0:0:0:
162,89,303238,1,0,0:0:0:0:
149,95,303410,1,8,0:0:0:0:
145,96,303581,1,0,0:0:0:0:
142,99,303667,1,8,0:0:0:0:
138,110,303838,1,8,0:0:0:0:
196,90,303924,1,0,0:0:0:0:
163,95,304095,1,12,0:0:0:0:
128,121,304438,1,4,0:0:0:0:
193,163,304781,1,0,0:0:0:0:
173,122,304953,1,8,0:0:0:0:
144,94,305038,1,8,0:0:0:0:
173,127,305124,1,0,0:0:0:0:
188,82,305295,1,0,0:0:0:0:
188,82,305381,1,8,0:0:0:0:
188,61,305466,1,8,0:0:0:0:
188,37,305552,1,0,0:0:0:0:
207,60,305638,1,8,0:0:0:0:
207,60,305724,1,8,0:0:0:0:
183,52,305809,1,0,0:0:0:0:
224,156,305981,1,8,0:0:0:0:
168,93,306152,1,0,0:0:0:0:
217,179,306324,1,0,0:0:0:0:
217,182,306410,1,0,0:0:0:0:
178,238,306495,1,8,0:0:0:0:
18,129,306581,1,8,0:0:0:0:
166,24,306666,1,0,0:0:0:0:
151,59,306753,1,0,0:0:0:0:
189,10,306838,1,8,0:0:0:0:
153,70,306924,1,0,0:0:0:0:
238,100,307010,1,8,0:0:0:0:
167,51,307096,1,8,0:0:0:0:
161,102,307182,1,0,0:0:0:0:
160,44,307353,1,8,0:0:0:0:
148,75,307439,1,8,0:0:0:0:
147,67,307525,1,0,0:0:0:0:
160,48,307610,1,8,0:0:0:0:
216,98,307695,1,8,0:0:0:0:
188,28,307782,1,8,0:0:0:0:
188,35,307868,1,0,0:0:0:0:
178,74,308038,1,0,0:0:0:0:
192,111,308124,1,8,0:0:0:0:
233,113,308210,1,0,0:0:0:0:
233,113,308296,1,0,0:0:0:0:
233,112,308381,1,8,0:0:0:0:
226,111,308467,1,0,0:0:0:0:
226,117,308553,1,8,0:0:0:0:
224,122,308723,1,8,0:0:0:0:
224,123,308809,1,8,0:0:0:0:
224,127,308895,1,0,0:0:0:0:
220,124,309066,1,8,0:0:0:0:
87,142,309152,1,0,0:0:0:0:
215,121,309238,1,0,0:0:0:0:
217,129,309324,1,8,0:0:0:0:
215,121,309409,1,0,0:0:0:0:
174,72,309496,1,0,0:0:0:0:
216,128,309581,1,8,0:0:0:0:
192,62,309753,1,8,0:0:0:0:
192,75,309924,1,4,0:0:0:0:
227,91,310267,1,0,0:0:0:0:
227,91,310438,1,8,0:0:0:0:
227,91,310523,1,8,0:0:0:0:
227,91,310609,1,0,0:0:0:0:
182,44,310781,1,0,0:0:0:0:
192,151,310868,1,0,0:0:0:0:
174,59,310953,1,8,0:0:0:0:
214,76,311038,1,8,0:0:0:0:
214,76,311124,1,0,0:0:0:0:
210,80,311210,1,0,0:0:0:0:
210,81,311295,1,8,0:0:0:0:
191,82,311467,1,0,0:0:0:0:
191,93,311553,1,0,0:0:0:0:
161,74,311638,1,8,0:0:0:0:
161,74,311724,1,0,0:0:0:0:
203,36,311810,1,8,0:0:0:0:
203,36,311896,1,8,0:0:0:0:
203,42,311982,1,0,0:0:0:0:
169,19,312066,1,0,0:0:0:0:
198,67,312152,1,8,0:0:0:0:
173,56,312238,1,0,0:0:0:0:
188,102,312324,1,8,0:0:0:0:
185,6,312409,1,8,0:0:0:0:
193,8,312495,1,0,0:0:0:0:
179,56,312582,1,8,0:0:0:0:
187,108,312667,1,0,0:0:0:0:
182,44,312752,1,0,0:0:0:0:
180,50,312838,1,8,0:0:0:0:
203,41,312924,1,0,0:0:0:0:
198,64,313009,1,0,0:0:0:0:
213,18,313095,1,0,0:0:0:0:
182,32,313181,1,8,0:0:0:0:
204,51,313266,1,0,0:0:0:0:
194,51,313352,1,8,0:0:0:0:
212,12,313438,1,8,0:0:0:0:
206,32,313524,1,0,0:0:0:0:
188,20,313610,1,8,0:0:0:0:
175,66,313696,1,0,0:0:0:0:
195,47,313781,1,0,0:0:0:0:
184,30,313866,1,8,0:0:0:0:
184,32,313952,1,8,0:0:0:0:
189,24,314038,1,0,0:0:0:0:
190,26,314124,1,8,0:0:0:0:
171,59,314209,1,0,0:0:0:0:
171,44,314295,1,0,0:0:0:0:
191,68,314381,1,8,0:0:0:0:
193,30,314467,1,0,0:0:0:0:
228,20,314552,1,8,0:0:0:0:
212,41,314638,1,8,0:0:0:0:
203,17,314724,1,0,0:0:0:0:
212,41,314810,1,8,0:0:0:0:
204,24,314896,1,0,0:0:0:0:
176,51,314981,1,0,0:0:0:0:
204,12,315067,1,8,0:0:0:0:
199,120,315410,1,4,0:0:0:0:
188,53,315924,1,4,0:0:0:0:
188,53,316438,1,12,0:0:0:0:
178,70,316781,1,8,0:0:0:0:
178,70,316953,1,0,0:0:0:0:
192,80,317295,1,0,0:0:0:0:
192,80,317638,1,0,0:0:0:0:
162,58,317810,1,8,0:0:0:0:
162,65,317981,1,0,0:0:0:0:
162,67,318153,1,12,0:0:0:0:
169,160,318496,1,0,0:0:0:0:
170,161,318667,1,8,0:0:0:0:
170,161,318839,1,0,0:0:0:0:
160,205,319009,1,8,0:0:0:0:
160,205,319095,1,8,0:0:0:0:
146,208,319181,1,0,0:0:0:0:
146,210,319352,1,8,0:0:0:0:
138,207,319524,1,0,0:0:0:0:
125,204,319866,1,0,0:0:0:0:
125,205,320038,1,8,0:0:0:0:
125,211,320209,1,0,0:0:0:0:
119,210,320295,1,0,0:0:0:0:
117,210,320381,1,8,0:0:0:0:
117,210,320552,1,0,0:0:0:0:
111,209,320724,1,8,0:0:0:0:
112,212,320895,1,0,0:0:0:0:
231,178,321238,1,0,0:0:0:0:
225,168,321410,1,8,0:0:0:0:
224,167,321580,1,0,0:0:0:0:
228,160,321666,1,0,0:0:0:0:
228,160,321752,1,8,0:0:0:0:
229,160,321923,1,0,0:0:0:0:
231,159,322095,1,8,0:0:0:0:
231,159,322181,1,8,0:0:0:0:
231,159,322266,1,0,0:0:0:0:
233,162,322610,1,0,0:0:0:0:
202,184,322781,1,8,0:0:0:0:
186,179,322953,1,0,0:0:0:0:
190,173,323038,1,0,0:0:0:0:
191,173,323123,1,0,0:0:0:0:
191,173,323209,1,0,0:0:0:0:
193,175,323295,1,8,0:0:0:0:
185,178,323466,1,8,0:0:0:0:
185,178,323638,1,0,0:0:0:0:
212,146,323981,1,0,0:0:0:0:
212,146,324152,1,8,0:0:0:0:
188,178,324324,1,0,0:0:0:0:
188,178,324410,1,0,0:0:0:0:
185,178,324495,1,8,0:0:0:0:
185,178,324667,1,0,0:0:0:0:
188,178,324837,1,8,0:0:0:0:
188,178,325009,1,0,0:0:0:0:
188,178,325352,1,0,0:0:0:0:
173,58,325524,1,8,0:0:0:0:
169,91,325695,1,0,0:0:0:0:
169,91,325781,1,0,0:0:0:0:
169,91,325867,1,8,0:0:0:0:
169,91,325952,1,8,0:0:0:0:
169,91,326038,1,0,0:0:0:0:
169,91,326210,1,8,0:0:0:0:
167,97,326380,1,0,0:0:0:0:
227,136,326723,1,0,0:0:0:0:
227,136,326895,1,8,0:0:0:0:
214,148,326981,1,8,0:0:0:0:
214,148,327066,1,0,0:0:0:0:
214,148,327238,1,8,0:0:0:0:
214,148,327410,1,0,0:0:0:0:
172,315,327753,5,0,0:0:0:0:
172,315,327924,1,0,0:0:0:0:
172,315,328095,1,8,0:0:0:0:
156,324,328266,1,0,0:0:0:0:
154,330,328352,1,8,0:0:0:0:
154,335,328438,1,0,0:0:0:0:
150,323,328523,1,8,0:0:0:0:
149,326,328609,1,0,0:0:0:0:
145,337,328781,1,8,0:0:0:0:
194,197,329124,1,4,0:0:0:0:
205,109,329467,1,0,0:0:0:0:
203,132,329637,1,8,0:0:0:0:
200,136,329809,1,0,0:0:0:0:
171,177,329980,1,8,0:0:0:0:
171,177,330066,1,0,0:0:0:0:
171,177,330152,1,0,0:0:0:0:
171,177,330324,1,8,0:0:0:0:
171,177,330495,1,0,0:0:0:0:
152,186,330667,1,8,0:0:0:0:
152,187,330752,1,8,0:0:0:0:
161,165,330838,1,0,0:0:0:0:
161,165,330924,1,0,0:0:0:0:
160,171,331010,1,8,0:0:0:0:
161,179,331181,1,0,0:0:0:0:
225,123,331352,1,8,0:0:0:0:
225,128,331438,1,8,0:0:0:0:
221,134,331523,1,0,0:0:0:0:
219,139,331609,1,8,0:0:0:0:
220,140,331695,1,8,0:0:0:0:
219,139,331781,1,8,0:0:0:0:
219,139,331866,1,0,0:0:0:0:
219,140,332038,1,8,0:0:0:0:
217,140,332209,1,0,0:0:0:0:
217,140,332295,1,0,0:0:0:0:
217,145,332381,1,8,0:0:0:0:
216,144,332553,1,0,0:0:0:0:
203,143,332724,1,8,0:0:0:0:
203,147,332810,1,0,0:0:0:0:
203,149,332895,1,8,0:0:0:0:
203,151,332980,1,8,0:0:0:0:
203,149,333066,1,0,0:0:0:0:
203,149,333152,1,0,0:0:0:0:
204,149,333238,1,8,0:0:0:0:
224,111,333409,1,8,0:0:0:0:
224,111,333495,1,8,0:0:0:0:
222,117,333581,1,0,0:0:0:0:
221,120,333752,1,8,0:0:0:0:
220,120,333924,1,0,0:0:0:0:
220,120,334010,1,8,0:0:0:0:
220,120,334095,1,0,0:0:0:0:
220,121,334181,1,0,0:0:0:0:
220,121,334267,1,8,0:0:0:0:
221,125,334438,1,8,0:0:0:0:
221,128,334523,1,8,0:0:0:0:
220,132,334609,1,0,0:0:0:0:
215,133,334866,1,8,0:0:0:0:
214,134,334952,1,0,0:0:0:0:
214,143,335124,1,8,0:0:0:0:
211,143,335295,1,0,0:0:0:0:
211,143,335381,1,0,0:0:0:0:
211,149,335467,1,8,0:0:0:0:
167,81,335552,1,8,0:0:0:0:
167,81,335638,1,0,0:0:0:0:
206,144,335810,1,8,0:0:0:0:
206,146,335895,1,8,0:0:0:0:
206,147,335981,1,0,0:0:0:0:
206,147,336152,1,8,0:0:0:0:
204,146,336323,1,0,0:0:0:0:
204,147,336409,1,0,0:0:0:0:
205,146,336495,1,8,0:0:0:0:
182,57,336666,1,0,0:0:0:0:
185,126,336752,1,0,0:0:0:0:
183,118,336838,1,8,0:0:0:0:
166,88,336924,1,0,0:0:0:0:
166,88,337009,1,8,0:0:0:0:
201,185,337181,1,8,0:0:0:0:
201,185,337267,1,8,0:0:0:0:
198,189,337352,1,0,0:0:0:0:
198,189,337438,1,8,0:0:0:0:
197,193,337524,1,0,0:0:0:0:
197,193,337610,1,0,0:0:0:0:
196,195,337696,1,8,0:0:0:0:
196,194,337781,1,0,0:0:0:0:
193,191,337867,1,8,0:0:0:0:
192,191,337953,1,8,0:0:0:0:
192,195,338039,1,0,0:0:0:0:
192,197,338124,1,0,0:0:0:0:
192,197,338210,1,8,0:0:0:0:
192,197,338295,1,8,0:0:0:0:
192,197,338381,1,0,0:0:0:0:
192,197,338466,1,8,0:0:0:0:
182,197,338552,1,0,0:0:0:0:
256,192,338724,12,0,339923,0:0:0:0:
214,120,340095,5,12,0:0:0:0:
