osu file format v14

[General]
AudioFilename: audio.mp3
AudioLeadIn: 0
PreviewTime: -1
Countdown: 0
SampleSet: Normal
StackLeniency: 0.7
Mode: 3
LetterboxInBreaks: 0
SpecialStyle: 0
WidescreenStoryboard: 0

[Editor]
DistanceSpacing: 2.5
BeatDivisor: 4
GridSize: 32
TimelineZoom: 1.6

[Metadata]
Title:Euphoria
TitleUnicode:Euphoria
Artist:Ata
ArtistUnicode:Ata
Creator:jeremy1344
Version:Insane
Source:
Tags:
BeatmapID:1414468
BeatmapSetID:668624

[Difficulty]
HPDrainRate:8
CircleSize:4
OverallDifficulty:8.5
ApproachRate:5
SliderMultiplier:1.4
SliderTickRate:1

[Events]
//Background and Video events
//Break Periods
//Storyboard Layer 0 (Background)
//Storyboard Layer 1 (Fail)
//Storyboard Layer 2 (Pass)
//Storyboard Layer 3 (Foreground)
//Storyboard Sound Samples

[TimingPoints]
29,315.789473684211,4,1,0,29,1,0

[HitObjects]
64,192,423,128,0,2555:0:0:0:0:
448,192,423,128,0,2555:0:0:0:0:
64,192,2792,128,0,3186:0:0:0:0:
64,192,3818,128,0,9186:0:0:0:0:
192,192,5081,128,0,8239:0:0:0:0:
320,192,6344,128,0,8239:0:0:0:0:
192,192,8397,128,0,8713:0:0:0:0:
320,192,8397,128,0,8713:0:0:0:0:
448,192,8397,128,0,8713:0:0:0:0:
448,192,9029,128,0,9186:0:0:0:0:
64,192,9502,128,0,12344:0:0:0:0:
320,192,11713,128,0,12344:0:0:0:0:
448,192,11713,128,0,12344:0:0:0:0:
64,192,12976,128,0,18660:0:0:0:0:
192,192,15976,128,0,16923:0:0:0:0:
320,192,15976,128,0,16923:0:0:0:0:
448,192,15976,128,0,16923:0:0:0:0:
192,192,17081,128,0,18344:0:0:0:0:
448,192,17081,128,0,18344:0:0:0:0:
320,192,18660,1,0,0:0:0:0:
448,192,18660,1,0,0:0:0:0:
320,192,18976,1,0,0:0:0:0:
448,192,18976,1,0,0:0:0:0:
320,192,19292,1,0,0:0:0:0:
448,192,19292,1,0,0:0:0:0:
320,192,19607,1,0,0:0:0:0:
448,192,19607,1,0,0:0:0:0:
320,192,19923,1,0,0:0:0:0:
448,192,19923,1,0,0:0:0:0:
320,192,20239,1,0,0:0:0:0:
448,192,20239,1,0,0:0:0:0:
320,192,20555,1,0,0:0:0:0:
448,192,20555,1,0,0:0:0:0:
448,192,20871,1,0,0:0:0:0:
320,192,20871,1,0,0:0:0:0:
320,192,21186,1,0,0:0:0:0:
448,192,21186,1,0,0:0:0:0:
320,192,21502,1,0,0:0:0:0:
448,192,21502,1,0,0:0:0:0:
320,192,21818,1,0,0:0:0:0:
448,192,21818,1,0,0:0:0:0:
320,192,22134,1,0,0:0:0:0:
448,192,22134,1,0,0:0:0:0:
448,192,22450,1,0,0:0:0:0:
320,192,22450,1,0,0:0:0:0:
320,192,22765,1,0,0:0:0:0:
448,192,22765,1,0,0:0:0:0:
448,192,23081,1,0,0:0:0:0:
320,192,23081,1,0,0:0:0:0:
320,192,23397,1,0,0:0:0:0:
448,192,23397,1,0,0:0:0:0:
448,192,23713,1,0,0:0:0:0:
320,192,23713,1,0,0:0:0:0:
320,192,24029,1,0,0:0:0:0:
448,192,24029,1,0,0:0:0:0:
448,192,24344,1,0,0:0:0:0:
320,192,24344,1,0,0:0:0:0:
320,192,24660,1,0,0:0:0:0:
448,192,24660,1,0,0:0:0:0:
448,192,24976,1,0,0:0:0:0:
320,192,24976,1,0,0:0:0:0:
320,192,25292,1,0,0:0:0:0:
448,192,25292,1,0,0:0:0:0:
64,192,25607,128,0,30029:0:0:0:0:
192,192,25607,128,0,27502:0:0:0:0:
448,192,25607,1,0,0:0:0:0:
320,192,25607,1,0,0:0:0:0:
320,192,25923,1,0,0:0:0:0:
448,192,25923,1,0,0:0:0:0:
448,192,26239,1,0,0:0:0:0:
320,192,26239,1,0,0:0:0:0:
320,192,26555,1,0,0:0:0:0:
448,192,26555,1,0,0:0:0:0:
448,192,26871,1,0,0:0:0:0:
320,192,26871,1,0,0:0:0:0:
320,192,27186,1,0,0:0:0:0:
448,192,27186,1,0,0:0:0:0:
448,192,27502,1,0,0:0:0:0:
320,192,27502,1,0,0:0:0:0:
192,192,27818,128,0,30029:0:0:0:0:
320,192,27818,1,0,0:0:0:0:
448,192,27818,1,0,0:0:0:0:
448,192,28134,1,0,0:0:0:0:
320,192,28134,1,0,0:0:0:0:
320,192,28450,1,0,0:0:0:0:
448,192,28450,1,0,0:0:0:0:
448,192,28765,1,0,0:0:0:0:
320,192,28765,1,0,0:0:0:0:
320,192,29081,1,0,0:0:0:0:
448,192,29081,1,0,0:0:0:0:
448,192,29397,1,0,0:0:0:0:
320,192,29397,1,0,0:0:0:0:
320,192,29713,1,0,0:0:0:0:
448,192,29713,1,0,0:0:0:0:
448,192,30029,1,0,0:0:0:0:
320,192,30029,1,0,0:0:0:0:
320,192,30344,1,0,0:0:0:0:
448,192,30344,1,0,0:0:0:0:
448,192,30660,1,0,0:0:0:0:
320,192,30660,1,0,0:0:0:0:
320,192,30976,1,0,0:0:0:0:
448,192,30976,1,0,0:0:0:0:
448,192,31292,1,0,0:0:0:0:
320,192,31292,1,0,0:0:0:0:
64,192,31450,1,0,0:0:0:0:
192,192,31529,1,0,0:0:0:0:
320,192,31607,1,0,0:0:0:0:
448,192,31607,1,0,0:0:0:0:
64,192,31765,1,0,0:0:0:0:
192,192,31844,1,0,0:0:0:0:
448,192,31923,1,0,0:0:0:0:
320,192,31923,1,0,0:0:0:0:
64,192,32081,1,0,0:0:0:0:
192,192,32160,1,0,0:0:0:0:
320,192,32239,1,0,0:0:0:0:
448,192,32239,1,0,0:0:0:0:
64,192,32397,1,0,0:0:0:0:
192,192,32476,1,0,0:0:0:0:
448,192,32555,1,0,0:0:0:0:
320,192,32555,1,0,0:0:0:0:
192,192,32713,1,0,0:0:0:0:
320,192,32792,1,0,0:0:0:0:
64,192,32871,1,0,0:0:0:0:
448,192,32871,1,0,0:0:0:0:
192,192,33029,1,0,0:0:0:0:
320,192,33107,1,0,0:0:0:0:
64,192,33186,1,0,0:0:0:0:
448,192,33186,1,0,0:0:0:0:
192,192,33344,1,0,0:0:0:0:
320,192,33423,1,0,0:0:0:0:
448,192,33502,1,0,0:0:0:0:
64,192,33502,1,0,0:0:0:0:
192,192,33660,1,0,0:0:0:0:
320,192,33739,1,0,0:0:0:0:
64,192,33818,1,0,0:0:0:0:
448,192,33818,1,0,0:0:0:0:
320,192,33976,1,0,0:0:0:0:
448,192,34055,1,0,0:0:0:0:
64,192,34134,1,0,0:0:0:0:
192,192,34134,1,0,0:0:0:0:
320,192,34292,1,0,0:0:0:0:
448,192,34371,1,0,0:0:0:0:
192,192,34450,1,0,0:0:0:0:
64,192,34450,1,0,0:0:0:0:
320,192,34607,1,0,0:0:0:0:
448,192,34686,1,0,0:0:0:0:
64,192,34765,1,0,0:0:0:0:
192,192,34765,1,0,0:0:0:0:
320,192,34923,1,0,0:0:0:0:
448,192,35002,1,0,0:0:0:0:
192,192,35081,1,0,0:0:0:0:
64,192,35081,1,0,0:0:0:0:
448,192,35239,1,0,0:0:0:0:
320,192,35318,1,0,0:0:0:0:
64,192,35397,1,0,0:0:0:0:
192,192,35397,1,0,0:0:0:0:
448,192,35555,1,0,0:0:0:0:
320,192,35634,1,0,0:0:0:0:
64,192,35713,1,0,0:0:0:0:
192,192,35713,1,0,0:0:0:0:
448,192,35871,1,0,0:0:0:0:
320,192,35950,1,0,0:0:0:0:
192,192,36029,1,0,0:0:0:0:
64,192,36029,1,0,0:0:0:0:
448,192,36186,1,0,0:0:0:0:
320,192,36265,1,0,0:0:0:0:
64,192,36344,1,0,0:0:0:0:
192,192,36344,1,0,0:0:0:0:
448,192,36502,1,0,0:0:0:0:
320,192,36581,1,0,0:0:0:0:
192,192,36660,1,0,0:0:0:0:
64,192,36660,1,0,0:0:0:0:
320,192,36818,1,0,0:0:0:0:
448,192,36897,1,0,0:0:0:0:
64,192,36976,1,0,0:0:0:0:
192,192,36976,1,0,0:0:0:0:
448,192,37134,1,0,0:0:0:0:
320,192,37213,1,0,0:0:0:0:
64,192,37292,1,0,0:0:0:0:
192,192,37292,1,0,0:0:0:0:
320,192,37450,1,0,0:0:0:0:
448,192,37529,1,0,0:0:0:0:
192,192,37607,1,0,0:0:0:0:
64,192,37607,1,0,0:0:0:0:
448,192,37765,1,0,0:0:0:0:
320,192,37844,1,0,0:0:0:0:
192,192,37923,1,0,0:0:0:0:
64,192,37923,1,0,0:0:0:0:
320,192,38081,1,0,0:0:0:0:
448,192,38160,1,0,0:0:0:0:
64,192,38239,1,0,0:0:0:0:
192,192,38239,1,0,0:0:0:0:
448,192,38397,1,0,0:0:0:0:
320,192,38476,1,0,0:0:0:0:
64,192,38555,1,0,0:0:0:0:
192,192,38555,1,0,0:0:0:0:
320,192,38713,1,0,0:0:0:0:
448,192,38792,1,0,0:0:0:0:
192,192,38871,1,0,0:0:0:0:
64,192,38871,1,0,0:0:0:0:
448,192,39029,1,0,0:0:0:0:
320,192,39107,1,0,0:0:0:0:
192,192,39186,1,0,0:0:0:0:
64,192,39186,1,0,0:0:0:0:
320,192,39344,1,0,0:0:0:0:
448,192,39423,1,0,0:0:0:0:
64,192,39502,1,0,0:0:0:0:
192,192,39502,1,0,0:0:0:0:
448,192,39660,1,0,0:0:0:0:
320,192,39739,1,0,0:0:0:0:
64,192,39818,1,0,0:0:0:0:
192,192,39818,1,0,0:0:0:0:
320,192,39976,1,0,0:0:0:0:
448,192,40055,1,0,0:0:0:0:
192,192,40134,1,0,0:0:0:0:
64,192,40134,1,0,0:0:0:0:
448,192,40292,1,0,0:0:0:0:
320,192,40371,1,0,0:0:0:0:
192,192,40450,128,0,42976:0:0:0:0:
64,192,40450,128,0,42976:0:0:0:0:
320,192,40765,1,0,0:0:0:0:
448,192,40765,1,0,0:0:0:0:
448,192,41081,1,0,0:0:0:0:
320,192,41081,1,0,0:0:0:0:
320,192,41397,1,0,0:0:0:0:
448,192,41397,1,0,0:0:0:0:
448,192,41713,1,0,0:0:0:0:
320,192,41713,1,0,0:0:0:0:
320,192,42029,1,0,0:0:0:0:
448,192,42029,1,0,0:0:0:0:
448,192,42344,1,0,0:0:0:0:
320,192,42344,1,0,0:0:0:0:
320,192,42660,1,0,0:0:0:0:
448,192,42660,1,0,0:0:0:0:
320,192,42976,1,0,0:0:0:0:
448,192,42976,1,0,0:0:0:0:
320,192,43292,1,0,0:0:0:0:
448,192,43292,1,0,0:0:0:0:
448,192,43607,1,0,0:0:0:0:
320,192,43607,1,0,0:0:0:0:
448,192,43923,1,0,0:0:0:0:
320,192,43923,1,0,0:0:0:0:
192,192,43923,1,0,0:0:0:0:
448,192,44239,1,0,0:0:0:0:
320,192,44239,1,0,0:0:0:0:
64,192,44239,1,0,0:0:0:0:
448,192,44555,1,0,0:0:0:0:
192,192,44555,1,0,0:0:0:0:
64,192,44555,1,0,0:0:0:0:
320,192,44871,1,0,0:0:0:0:
192,192,44871,1,0,0:0:0:0:
64,192,44871,1,0,0:0:0:0:
320,192,45186,1,0,0:0:0:0:
448,192,45186,1,0,0:0:0:0:
64,192,45186,1,0,0:0:0:0:
192,192,45186,1,0,0:0:0:0:
448,192,45502,1,0,0:0:0:0:
320,192,45502,1,0,0:0:0:0:
320,192,45660,1,0,0:0:0:0:
64,192,45660,1,0,0:0:0:0:
192,192,45818,1,0,0:0:0:0:
320,192,45818,1,0,0:0:0:0:
448,192,45976,1,0,0:0:0:0:
192,192,45976,1,0,0:0:0:0:
64,192,46134,1,0,0:0:0:0:
448,192,46134,1,0,0:0:0:0:
192,192,46292,1,0,0:0:0:0:
64,192,46292,1,0,0:0:0:0:
320,192,46450,1,0,0:0:0:0:
192,192,46450,1,0,0:0:0:0:
448,192,46607,1,0,0:0:0:0:
320,192,46607,1,0,0:0:0:0:
192,192,46765,1,0,0:0:0:0:
448,192,46765,1,0,0:0:0:0:
192,192,46923,1,0,0:0:0:0:
64,192,46923,1,0,0:0:0:0:
448,192,47081,1,0,0:0:0:0:
64,192,47081,1,0,0:0:0:0:
448,192,47239,1,0,0:0:0:0:
192,192,47239,1,0,0:0:0:0:
320,192,47397,1,0,0:0:0:0:
192,192,47397,1,0,0:0:0:0:
320,192,47555,1,0,0:0:0:0:
64,192,47555,1,0,0:0:0:0:
64,192,47713,1,0,0:0:0:0:
448,192,47713,1,0,0:0:0:0:
448,192,47871,1,0,0:0:0:0:
192,192,47871,1,0,0:0:0:0:
64,192,48029,1,0,0:0:0:0:
448,192,48029,1,0,0:0:0:0:
320,192,48186,1,0,0:0:0:0:
448,192,48186,1,0,0:0:0:0:
320,192,48344,1,0,0:0:0:0:
64,192,48344,1,0,0:0:0:0:
64,192,48502,1,0,0:0:0:0:
448,192,48502,1,0,0:0:0:0:
320,192,48660,1,0,0:0:0:0:
448,192,48660,1,0,0:0:0:0:
320,192,48818,1,0,0:0:0:0:
64,192,48818,1,0,0:0:0:0:
192,192,48976,1,0,0:0:0:0:
64,192,48976,1,0,0:0:0:0:
448,192,49134,1,0,0:0:0:0:
192,192,49134,1,0,0:0:0:0:
448,192,49292,1,0,0:0:0:0:
320,192,49292,1,0,0:0:0:0:
320,192,49450,1,0,0:0:0:0:
64,192,49450,1,0,0:0:0:0:
192,192,49607,1,0,0:0:0:0:
64,192,49607,1,0,0:0:0:0:
192,192,49765,1,0,0:0:0:0:
448,192,49765,1,0,0:0:0:0:
64,192,49923,1,0,0:0:0:0:
448,192,49923,1,0,0:0:0:0:
192,192,50081,1,0,0:0:0:0:
64,192,50081,1,0,0:0:0:0:
448,192,50239,1,0,0:0:0:0:
320,192,50239,1,0,0:0:0:0:
64,192,50397,1,0,0:0:0:0:
320,192,50397,1,0,0:0:0:0:
64,192,50555,1,0,0:0:0:0:
448,192,50555,1,0,0:0:0:0:
448,192,50713,1,0,0:0:0:0:
192,192,50713,1,0,0:0:0:0:
448,192,50871,1,0,0:0:0:0:
320,192,50871,1,0,0:0:0:0:
64,192,51029,1,0,0:0:0:0:
192,192,51029,1,0,0:0:0:0:
448,192,51186,1,0,0:0:0:0:
192,192,51186,1,0,0:0:0:0:
448,192,51344,1,0,0:0:0:0:
320,192,51344,1,0,0:0:0:0:
64,192,51502,1,0,0:0:0:0:
320,192,51502,1,0,0:0:0:0:
448,192,51660,1,0,0:0:0:0:
64,192,51660,1,0,0:0:0:0:
192,192,51818,1,0,0:0:0:0:
320,192,51818,1,0,0:0:0:0:
448,192,51976,1,0,0:0:0:0:
192,192,51976,1,0,0:0:0:0:
448,192,52134,1,0,0:0:0:0:
64,192,52134,1,0,0:0:0:0:
64,192,52292,1,0,0:0:0:0:
320,192,52292,1,0,0:0:0:0:
448,192,52450,1,0,0:0:0:0:
320,192,52450,1,0,0:0:0:0:
448,192,52607,1,0,0:0:0:0:
64,192,52607,1,0,0:0:0:0:
192,192,52765,1,0,0:0:0:0:
64,192,52765,1,0,0:0:0:0:
448,192,52923,1,0,0:0:0:0:
192,192,52923,1,0,0:0:0:0:
448,192,53081,1,0,0:0:0:0:
320,192,53081,1,0,0:0:0:0:
320,192,53239,1,0,0:0:0:0:
64,192,53239,1,0,0:0:0:0:
448,192,53397,1,0,0:0:0:0:
64,192,53397,1,0,0:0:0:0:
448,192,53555,1,0,0:0:0:0:
320,192,53555,1,0,0:0:0:0:
448,192,53713,1,0,0:0:0:0:
320,192,53713,1,0,0:0:0:0:
192,192,53713,1,0,0:0:0:0:
448,192,53871,1,0,0:0:0:0:
320,192,53871,1,0,0:0:0:0:
192,192,53871,1,0,0:0:0:0:
448,192,54029,1,0,0:0:0:0:
320,192,54029,1,0,0:0:0:0:
64,192,54029,1,0,0:0:0:0:
448,192,54186,1,0,0:0:0:0:
320,192,54186,1,0,0:0:0:0:
64,192,54186,1,0,0:0:0:0:
320,192,54344,1,0,0:0:0:0:
192,192,54344,1,0,0:0:0:0:
64,192,54344,1,0,0:0:0:0:
320,192,54502,1,0,0:0:0:0:
192,192,54502,1,0,0:0:0:0:
64,192,54502,1,0,0:0:0:0:
448,192,54660,1,0,0:0:0:0:
192,192,54660,1,0,0:0:0:0:
64,192,54660,1,0,0:0:0:0:
448,192,54818,1,0,0:0:0:0:
192,192,54818,1,0,0:0:0:0:
64,192,54818,1,0,0:0:0:0:
448,192,54976,1,0,0:0:0:0:
320,192,54976,1,0,0:0:0:0:
192,192,54976,1,0,0:0:0:0:
448,192,55134,1,0,0:0:0:0:
320,192,55134,1,0,0:0:0:0:
192,192,55134,1,0,0:0:0:0:
448,192,55292,1,0,0:0:0:0:
192,192,55292,1,0,0:0:0:0:
64,192,55292,1,0,0:0:0:0:
448,192,55450,1,0,0:0:0:0:
192,192,55450,1,0,0:0:0:0:
64,192,55450,1,0,0:0:0:0:
64,192,55607,1,0,0:0:0:0:
192,192,55607,1,0,0:0:0:0:
448,192,55686,1,0,0:0:0:0:
320,192,55686,1,0,0:0:0:0:
192,192,55765,1,0,0:0:0:0:
64,192,55765,1,0,0:0:0:0:
448,192,55844,1,0,0:0:0:0:
320,192,55844,1,0,0:0:0:0:
64,192,55923,1,0,0:0:0:0:
192,192,55923,1,0,0:0:0:0:
320,192,56002,1,0,0:0:0:0:
448,192,56002,1,0,0:0:0:0:
192,192,56081,1,0,0:0:0:0:
64,192,56081,1,0,0:0:0:0:
448,192,56160,1,0,0:0:0:0:
320,192,56160,1,0,0:0:0:0:
64,192,56239,1,0,0:0:0:0:
192,192,56239,1,0,0:0:0:0:
320,192,56318,1,0,0:0:0:0:
448,192,56318,1,0,0:0:0:0:
192,192,56397,1,0,0:0:0:0:
64,192,56397,1,0,0:0:0:0:
448,192,56476,1,0,0:0:0:0:
320,192,56476,1,0,0:0:0:0:
64,192,56555,1,0,0:0:0:0:
192,192,56555,1,0,0:0:0:0:
320,192,56634,1,0,0:0:0:0:
448,192,56634,1,0,0:0:0:0:
192,192,56713,1,0,0:0:0:0:
64,192,56713,1,0,0:0:0:0:
448,192,56792,1,0,0:0:0:0:
320,192,56792,1,0,0:0:0:0:
64,192,56871,1,0,0:0:0:0:
192,192,56871,1,0,0:0:0:0:
320,192,56950,1,0,0:0:0:0:
448,192,56950,1,0,0:0:0:0:
192,192,57029,1,0,0:0:0:0:
64,192,57029,1,0,0:0:0:0:
448,192,57107,1,0,0:0:0:0:
320,192,57107,1,0,0:0:0:0:
64,192,57186,1,0,0:0:0:0:
192,192,57186,1,0,0:0:0:0:
320,192,57265,1,0,0:0:0:0:
448,192,57265,1,0,0:0:0:0:
192,192,57344,1,0,0:0:0:0:
64,192,57344,1,0,0:0:0:0:
448,192,57423,1,0,0:0:0:0:
320,192,57423,1,0,0:0:0:0:
64,192,57502,1,0,0:0:0:0:
192,192,57502,1,0,0:0:0:0:
320,192,57581,1,0,0:0:0:0:
448,192,57581,1,0,0:0:0:0:
192,192,57660,1,0,0:0:0:0:
64,192,57660,1,0,0:0:0:0:
448,192,57739,1,0,0:0:0:0:
320,192,57739,1,0,0:0:0:0:
64,192,57818,1,0,0:0:0:0:
192,192,57818,1,0,0:0:0:0:
320,192,57897,1,0,0:0:0:0:
448,192,57897,1,0,0:0:0:0:
64,192,57976,1,0,0:0:0:0:
192,192,57976,1,0,0:0:0:0:
320,192,58055,1,0,0:0:0:0:
448,192,58055,1,0,0:0:0:0:
64,192,58134,128,0,60344:0:0:0:0:
192,192,58134,128,0,60344:0:0:0:0:
320,192,58134,128,0,60344:0:0:0:0:
448,192,58134,128,0,60344:0:0:0:0:
64,192,60660,1,0,0:0:0:0:
192,192,60660,1,0,0:0:0:0:
320,192,60739,1,0,0:0:0:0:
448,192,60818,1,0,0:0:0:0:
192,192,60897,1,0,0:0:0:0:
64,192,60976,1,0,0:0:0:0:
320,192,60976,1,0,0:0:0:0:
448,192,61055,1,0,0:0:0:0:
320,192,61134,1,0,0:0:0:0:
192,192,61213,1,0,0:0:0:0:
64,192,61292,1,0,0:0:0:0:
448,192,61292,1,0,0:0:0:0:
320,192,61371,1,0,0:0:0:0:
64,192,61450,1,0,0:0:0:0:
192,192,61529,1,0,0:0:0:0:
320,192,61607,1,0,0:0:0:0:
448,192,61607,1,0,0:0:0:0:
192,192,61686,1,0,0:0:0:0:
64,192,61765,1,0,0:0:0:0:
320,192,61844,1,0,0:0:0:0:
64,192,61923,1,0,0:0:0:0:
192,192,61923,1,0,0:0:0:0:
320,192,62002,1,0,0:0:0:0:
448,192,62081,1,0,0:0:0:0:
192,192,62160,1,0,0:0:0:0:
64,192,62239,1,0,0:0:0:0:
320,192,62239,1,0,0:0:0:0:
448,192,62318,1,0,0:0:0:0:
192,192,62397,1,0,0:0:0:0:
320,192,62476,1,0,0:0:0:0:
64,192,62555,1,0,0:0:0:0:
448,192,62555,1,0,0:0:0:0:
320,192,62634,1,0,0:0:0:0:
192,192,62713,1,0,0:0:0:0:
64,192,62792,1,0,0:0:0:0:
320,192,62871,1,0,0:0:0:0:
448,192,62871,1,0,0:0:0:0:
192,192,62950,1,0,0:0:0:0:
64,192,63029,1,0,0:0:0:0:
320,192,63107,1,0,0:0:0:0:
64,192,63186,1,0,0:0:0:0:
192,192,63186,1,0,0:0:0:0:
320,192,63265,1,0,0:0:0:0:
448,192,63344,1,0,0:0:0:0:
192,192,63423,1,0,0:0:0:0:
64,192,63502,1,0,0:0:0:0:
320,192,63502,1,0,0:0:0:0:
448,192,63581,1,0,0:0:0:0:
320,192,63660,1,0,0:0:0:0:
192,192,63739,1,0,0:0:0:0:
64,192,63818,1,0,0:0:0:0:
448,192,63818,1,0,0:0:0:0:
192,192,63897,1,0,0:0:0:0:
64,192,63976,1,0,0:0:0:0:
192,192,64055,1,0,0:0:0:0:
320,192,64134,1,0,0:0:0:0:
448,192,64134,1,0,0:0:0:0:
192,192,64213,1,0,0:0:0:0:
64,192,64292,1,0,0:0:0:0:
320,192,64371,1,0,0:0:0:0:
64,192,64450,1,0,0:0:0:0:
192,192,64450,1,0,0:0:0:0:
320,192,64529,1,0,0:0:0:0:
448,192,64607,1,0,0:0:0:0:
192,192,64686,1,0,0:0:0:0:
64,192,64765,1,0,0:0:0:0:
320,192,64765,1,0,0:0:0:0:
448,192,64844,1,0,0:0:0:0:
320,192,64923,1,0,0:0:0:0:
192,192,65002,1,0,0:0:0:0:
64,192,65081,1,0,0:0:0:0:
448,192,65081,1,0,0:0:0:0:
320,192,65160,1,0,0:0:0:0:
64,192,65239,1,0,0:0:0:0:
192,192,65318,1,0,0:0:0:0:
320,192,65397,1,0,0:0:0:0:
448,192,65397,1,0,0:0:0:0:
192,192,65476,1,0,0:0:0:0:
64,192,65555,1,0,0:0:0:0:
320,192,65634,1,0,0:0:0:0:
192,192,65713,1,0,0:0:0:0:
64,192,65713,1,0,0:0:0:0:
448,192,65792,1,0,0:0:0:0:
320,192,65871,1,0,0:0:0:0:
64,192,65950,1,0,0:0:0:0:
448,192,66029,1,0,0:0:0:0:
320,192,66029,1,0,0:0:0:0:
64,192,66107,1,0,0:0:0:0:
192,192,66186,1,0,0:0:0:0:
64,192,66265,1,0,0:0:0:0:
320,192,66344,1,0,0:0:0:0:
448,192,66344,1,0,0:0:0:0:
64,192,66423,1,0,0:0:0:0:
192,192,66502,1,0,0:0:0:0:
320,192,66581,1,0,0:0:0:0:
448,192,66660,1,0,0:0:0:0:
64,192,66660,1,0,0:0:0:0:
192,192,66739,1,0,0:0:0:0:
448,192,66818,1,0,0:0:0:0:
320,192,66897,1,0,0:0:0:0:
192,192,66976,1,0,0:0:0:0:
64,192,66976,1,0,0:0:0:0:
320,192,67055,1,0,0:0:0:0:
448,192,67134,1,0,0:0:0:0:
64,192,67213,1,0,0:0:0:0:
320,192,67292,1,0,0:0:0:0:
192,192,67292,1,0,0:0:0:0:
448,192,67371,1,0,0:0:0:0:
320,192,67450,1,0,0:0:0:0:
64,192,67529,1,0,0:0:0:0:
192,192,67607,1,0,0:0:0:0:
448,192,67607,1,0,0:0:0:0:
320,192,67686,1,0,0:0:0:0:
64,192,67765,1,0,0:0:0:0:
192,192,67844,1,0,0:0:0:0:
448,192,67923,1,0,0:0:0:0:
320,192,67923,1,0,0:0:0:0:
192,192,68002,1,0,0:0:0:0:
448,192,68081,1,0,0:0:0:0:
320,192,68160,1,0,0:0:0:0:
64,192,68239,1,0,0:0:0:0:
192,192,68239,1,0,0:0:0:0:
448,192,68318,1,0,0:0:0:0:
320,192,68397,1,0,0:0:0:0:
64,192,68476,1,0,0:0:0:0:
192,192,68555,1,0,0:0:0:0:
448,192,68555,1,0,0:0:0:0:
320,192,68634,1,0,0:0:0:0:
448,192,68713,1,0,0:0:0:0:
320,192,68792,1,0,0:0:0:0:
192,192,68871,1,0,0:0:0:0:
448,192,68871,1,0,0:0:0:0:
64,192,68950,1,0,0:0:0:0:
192,192,69029,1,0,0:0:0:0:
320,192,69107,1,0,0:0:0:0:
64,192,69186,1,0,0:0:0:0:
448,192,69186,1,0,0:0:0:0:
192,192,69265,1,0,0:0:0:0:
448,192,69344,1,0,0:0:0:0:
320,192,69423,1,0,0:0:0:0:
64,192,69502,1,0,0:0:0:0:
192,192,69502,1,0,0:0:0:0:
320,192,69581,1,0,0:0:0:0:
448,192,69660,1,0,0:0:0:0:
64,192,69739,1,0,0:0:0:0:
192,192,69818,1,0,0:0:0:0:
320,192,69818,1,0,0:0:0:0:
448,192,69897,1,0,0:0:0:0:
320,192,69976,1,0,0:0:0:0:
64,192,70055,1,0,0:0:0:0:
448,192,70134,1,0,0:0:0:0:
192,192,70134,1,0,0:0:0:0:
320,192,70213,1,0,0:0:0:0:
64,192,70292,1,0,0:0:0:0:
192,192,70371,1,0,0:0:0:0:
320,192,70450,1,0,0:0:0:0:
448,192,70450,1,0,0:0:0:0:
192,192,70529,1,0,0:0:0:0:
448,192,70607,1,0,0:0:0:0:
320,192,70686,1,0,0:0:0:0:
192,192,70765,1,0,0:0:0:0:
64,192,70765,128,0,72344:0:0:0:0:
320,192,70844,1,0,0:0:0:0:
448,192,70923,1,0,0:0:0:0:
320,192,71002,1,0,0:0:0:0:
192,192,71081,1,0,0:0:0:0:
320,192,71160,1,0,0:0:0:0:
448,192,71239,1,0,0:0:0:0:
320,192,71318,1,0,0:0:0:0:
192,192,71397,1,0,0:0:0:0:
448,192,71397,1,0,0:0:0:0:
320,192,71476,1,0,0:0:0:0:
448,192,71555,1,0,0:0:0:0:
320,192,71634,1,0,0:0:0:0:
192,192,71713,1,0,0:0:0:0:
320,192,71792,1,0,0:0:0:0:
448,192,71871,1,0,0:0:0:0:
320,192,71950,1,0,0:0:0:0:
192,192,72029,1,0,0:0:0:0:
448,192,72029,1,0,0:0:0:0:
320,192,72107,1,0,0:0:0:0:
448,192,72186,1,0,0:0:0:0:
320,192,72265,1,0,0:0:0:0:
192,192,72344,1,0,0:0:0:0:
320,192,72423,1,0,0:0:0:0:
448,192,72502,1,0,0:0:0:0:
192,192,72581,1,0,0:0:0:0:
64,192,72660,1,0,0:0:0:0:
320,192,72660,1,0,0:0:0:0:
448,192,72739,1,0,0:0:0:0:
320,192,72818,1,0,0:0:0:0:
192,192,72897,1,0,0:0:0:0:
64,192,72976,1,0,0:0:0:0:
448,192,72976,1,0,0:0:0:0:
320,192,73055,1,0,0:0:0:0:
64,192,73134,1,0,0:0:0:0:
192,192,73213,1,0,0:0:0:0:
320,192,73292,1,0,0:0:0:0:
448,192,73292,1,0,0:0:0:0:
192,192,73371,1,0,0:0:0:0:
64,192,73450,1,0,0:0:0:0:
320,192,73529,1,0,0:0:0:0:
64,192,73607,1,0,0:0:0:0:
192,192,73607,1,0,0:0:0:0:
320,192,73686,1,0,0:0:0:0:
448,192,73765,1,0,0:0:0:0:
192,192,73844,1,0,0:0:0:0:
64,192,73923,1,0,0:0:0:0:
320,192,73923,1,0,0:0:0:0:
448,192,74002,1,0,0:0:0:0:
320,192,74081,1,0,0:0:0:0:
192,192,74160,1,0,0:0:0:0:
64,192,74239,1,0,0:0:0:0:
448,192,74239,1,0,0:0:0:0:
320,192,74318,1,0,0:0:0:0:
64,192,74397,1,0,0:0:0:0:
192,192,74476,1,0,0:0:0:0:
320,192,74555,1,0,0:0:0:0:
448,192,74555,1,0,0:0:0:0:
192,192,74634,1,0,0:0:0:0:
64,192,74713,1,0,0:0:0:0:
320,192,74792,1,0,0:0:0:0:
64,192,74871,1,0,0:0:0:0:
192,192,74871,1,0,0:0:0:0:
320,192,74950,1,0,0:0:0:0:
448,192,75029,1,0,0:0:0:0:
192,192,75107,1,0,0:0:0:0:
64,192,75186,1,0,0:0:0:0:
320,192,75186,1,0,0:0:0:0:
448,192,75265,1,0,0:0:0:0:
320,192,75344,1,0,0:0:0:0:
192,192,75423,1,0,0:0:0:0:
64,192,75502,1,0,0:0:0:0:
448,192,75502,1,0,0:0:0:0:
192,192,75581,1,0,0:0:0:0:
320,192,75660,1,0,0:0:0:0:
192,192,75739,1,0,0:0:0:0:
320,192,75818,1,0,0:0:0:0:
64,192,75818,1,0,0:0:0:0:
448,192,75818,128,0,75897:0:0:0:0:
192,192,75897,1,0,0:0:0:0:
64,192,75976,1,0,0:0:0:0:
320,192,76055,1,0,0:0:0:0:
64,192,76134,1,0,0:0:0:0:
192,192,76134,1,0,0:0:0:0:
320,192,76213,1,0,0:0:0:0:
448,192,76292,1,0,0:0:0:0:
192,192,76371,1,0,0:0:0:0:
64,192,76450,1,0,0:0:0:0:
320,192,76450,1,0,0:0:0:0:
448,192,76529,1,0,0:0:0:0:
320,192,76607,1,0,0:0:0:0:
192,192,76686,1,0,0:0:0:0:
64,192,76765,1,0,0:0:0:0:
448,192,76765,1,0,0:0:0:0:
320,192,76844,1,0,0:0:0:0:
64,192,76923,1,0,0:0:0:0:
192,192,77002,1,0,0:0:0:0:
320,192,77081,1,0,0:0:0:0:
448,192,77081,1,0,0:0:0:0:
192,192,77160,1,0,0:0:0:0:
64,192,77239,1,0,0:0:0:0:
320,192,77318,1,0,0:0:0:0:
192,192,77397,1,0,0:0:0:0:
64,192,77397,1,0,0:0:0:0:
448,192,77476,1,0,0:0:0:0:
320,192,77555,1,0,0:0:0:0:
64,192,77634,1,0,0:0:0:0:
448,192,77713,1,0,0:0:0:0:
192,192,77713,1,0,0:0:0:0:
320,192,77792,1,0,0:0:0:0:
448,192,77871,1,0,0:0:0:0:
320,192,77950,1,0,0:0:0:0:
448,192,78029,1,0,0:0:0:0:
192,192,78029,1,0,0:0:0:0:
64,192,78107,1,0,0:0:0:0:
192,192,78186,1,0,0:0:0:0:
320,192,78265,1,0,0:0:0:0:
448,192,78344,1,0,0:0:0:0:
64,192,78344,1,0,0:0:0:0:
192,192,78423,1,0,0:0:0:0:
448,192,78502,1,0,0:0:0:0:
320,192,78581,1,0,0:0:0:0:
192,192,78660,1,0,0:0:0:0:
64,192,78660,1,0,0:0:0:0:
320,192,78739,1,0,0:0:0:0:
448,192,78818,1,0,0:0:0:0:
64,192,78897,1,0,0:0:0:0:
320,192,78976,1,0,0:0:0:0:
192,192,78976,1,0,0:0:0:0:
448,192,79055,1,0,0:0:0:0:
320,192,79134,1,0,0:0:0:0:
64,192,79213,1,0,0:0:0:0:
192,192,79292,1,0,0:0:0:0:
448,192,79292,1,0,0:0:0:0:
320,192,79371,1,0,0:0:0:0:
64,192,79450,1,0,0:0:0:0:
192,192,79529,1,0,0:0:0:0:
448,192,79607,1,0,0:0:0:0:
320,192,79607,1,0,0:0:0:0:
192,192,79686,1,0,0:0:0:0:
64,192,79765,1,0,0:0:0:0:
320,192,79844,1,0,0:0:0:0:
64,192,79923,1,0,0:0:0:0:
192,192,79923,1,0,0:0:0:0:
448,192,80002,1,0,0:0:0:0:
320,192,80081,1,0,0:0:0:0:
64,192,80160,1,0,0:0:0:0:
192,192,80239,1,0,0:0:0:0:
448,192,80239,1,0,0:0:0:0:
64,192,80318,1,0,0:0:0:0:
448,192,80397,1,0,0:0:0:0:
320,192,80476,1,0,0:0:0:0:
192,192,80555,1,0,0:0:0:0:
448,192,80555,1,0,0:0:0:0:
64,192,80634,1,0,0:0:0:0:
192,192,80713,1,0,0:0:0:0:
320,192,80792,1,0,0:0:0:0:
64,192,80871,1,0,0:0:0:0:
448,192,80871,1,0,0:0:0:0:
192,192,80950,1,0,0:0:0:0:
448,192,81029,1,0,0:0:0:0:
320,192,81107,1,0,0:0:0:0:
64,192,81186,1,0,0:0:0:0:
192,192,81186,1,0,0:0:0:0:
320,192,81265,1,0,0:0:0:0:
448,192,81344,1,0,0:0:0:0:
64,192,81423,1,0,0:0:0:0:
192,192,81502,1,0,0:0:0:0:
320,192,81502,1,0,0:0:0:0:
448,192,81581,1,0,0:0:0:0:
320,192,81660,1,0,0:0:0:0:
64,192,81739,1,0,0:0:0:0:
448,192,81818,1,0,0:0:0:0:
192,192,81818,1,0,0:0:0:0:
320,192,81897,1,0,0:0:0:0:
64,192,81976,1,0,0:0:0:0:
192,192,82055,1,0,0:0:0:0:
320,192,82134,1,0,0:0:0:0:
448,192,82134,1,0,0:0:0:0:
192,192,82213,1,0,0:0:0:0:
448,192,82292,1,0,0:0:0:0:
320,192,82371,1,0,0:0:0:0:
448,192,82450,1,0,0:0:0:0:
64,192,82450,1,0,0:0:0:0:
320,192,82529,1,0,0:0:0:0:
192,192,82607,1,0,0:0:0:0:
64,192,82686,1,0,0:0:0:0:
448,192,82765,1,0,0:0:0:0:
320,192,82765,1,0,0:0:0:0:
64,192,82844,1,0,0:0:0:0:
448,192,82923,1,0,0:0:0:0:
192,192,83002,1,0,0:0:0:0:
64,192,83081,1,0,0:0:0:0:
320,192,83081,1,0,0:0:0:0:
448,192,83160,1,0,0:0:0:0:
192,192,83239,1,0,0:0:0:0:
320,192,83318,1,0,0:0:0:0:
192,192,83397,1,0,0:0:0:0:
64,192,83397,1,0,0:0:0:0:
448,192,83476,1,0,0:0:0:0:
320,192,83555,1,0,0:0:0:0:
64,192,83634,1,0,0:0:0:0:
192,192,83713,1,0,0:0:0:0:
448,192,83713,1,0,0:0:0:0:
320,192,83792,1,0,0:0:0:0:
192,192,83871,1,0,0:0:0:0:
448,192,83950,1,0,0:0:0:0:
192,192,84029,1,0,0:0:0:0:
320,192,84029,1,0,0:0:0:0:
64,192,84107,1,0,0:0:0:0:
192,192,84186,1,0,0:0:0:0:
320,192,84265,1,0,0:0:0:0:
64,192,84344,1,0,0:0:0:0:
448,192,84344,1,0,0:0:0:0:
192,192,84423,1,0,0:0:0:0:
448,192,84502,1,0,0:0:0:0:
320,192,84581,1,0,0:0:0:0:
64,192,84660,1,0,0:0:0:0:
192,192,84660,1,0,0:0:0:0:
320,192,84739,1,0,0:0:0:0:
448,192,84818,1,0,0:0:0:0:
64,192,84897,1,0,0:0:0:0:
192,192,84976,1,0,0:0:0:0:
320,192,84976,1,0,0:0:0:0:
448,192,84976,1,0,0:0:0:0:
64,192,85055,1,0,0:0:0:0:
320,192,85134,1,0,0:0:0:0:
64,192,85213,1,0,0:0:0:0:
448,192,85292,1,0,0:0:0:0:
192,192,85292,1,0,0:0:0:0:
320,192,85371,1,0,0:0:0:0:
64,192,85450,1,0,0:0:0:0:
192,192,85529,1,0,0:0:0:0:
320,192,85607,1,0,0:0:0:0:
448,192,85607,1,0,0:0:0:0:
64,192,85607,1,0,0:0:0:0:
192,192,85686,1,0,0:0:0:0:
64,192,85765,1,0,0:0:0:0:
320,192,85844,1,0,0:0:0:0:
448,192,85923,1,0,0:0:0:0:
64,192,85923,1,0,0:0:0:0:
320,192,86002,1,0,0:0:0:0:
192,192,86081,1,0,0:0:0:0:
64,192,86160,1,0,0:0:0:0:
448,192,86239,1,0,0:0:0:0:
320,192,86239,1,0,0:0:0:0:
192,192,86239,1,0,0:0:0:0:
64,192,86318,1,0,0:0:0:0:
448,192,86397,1,0,0:0:0:0:
192,192,86476,1,0,0:0:0:0:
64,192,86555,1,0,0:0:0:0:
320,192,86555,1,0,0:0:0:0:
192,192,86634,1,0,0:0:0:0:
320,192,86713,1,0,0:0:0:0:
448,192,86792,1,0,0:0:0:0:
192,192,86871,1,0,0:0:0:0:
64,192,86871,1,0,0:0:0:0:
320,192,86871,1,0,0:0:0:0:
448,192,86950,1,0,0:0:0:0:
320,192,87029,1,0,0:0:0:0:
64,192,87107,1,0,0:0:0:0:
320,192,87186,1,0,0:0:0:0:
192,192,87186,1,0,0:0:0:0:
448,192,87265,1,0,0:0:0:0:
64,192,87344,1,0,0:0:0:0:
320,192,87423,1,0,0:0:0:0:
64,192,87502,1,0,0:0:0:0:
192,192,87502,1,0,0:0:0:0:
448,192,87502,1,0,0:0:0:0:
320,192,87581,1,0,0:0:0:0:
64,192,87660,1,0,0:0:0:0:
192,192,87739,1,0,0:0:0:0:
320,192,87818,1,0,0:0:0:0:
448,192,87818,1,0,0:0:0:0:
64,192,87897,1,0,0:0:0:0:
192,192,87976,1,0,0:0:0:0:
320,192,88055,1,0,0:0:0:0:
192,192,88134,1,0,0:0:0:0:
64,192,88134,1,0,0:0:0:0:
448,192,88134,1,0,0:0:0:0:
320,192,88213,1,0,0:0:0:0:
192,192,88292,1,0,0:0:0:0:
64,192,88371,1,0,0:0:0:0:
320,192,88450,1,0,0:0:0:0:
448,192,88450,1,0,0:0:0:0:
64,192,88529,1,0,0:0:0:0:
192,192,88607,1,0,0:0:0:0:
320,192,88686,1,0,0:0:0:0:
64,192,88765,1,0,0:0:0:0:
192,192,88765,1,0,0:0:0:0:
448,192,88765,1,0,0:0:0:0:
320,192,88844,1,0,0:0:0:0:
192,192,88923,1,0,0:0:0:0:
64,192,89002,1,0,0:0:0:0:
192,192,89081,1,0,0:0:0:0:
448,192,89081,1,0,0:0:0:0:
320,192,89160,1,0,0:0:0:0:
448,192,89239,1,0,0:0:0:0:
192,192,89318,1,0,0:0:0:0:
64,192,89397,1,0,0:0:0:0:
320,192,89397,1,0,0:0:0:0:
448,192,89397,1,0,0:0:0:0:
192,192,89476,1,0,0:0:0:0:
64,192,89555,1,0,0:0:0:0:
192,192,89634,1,0,0:0:0:0:
448,192,89713,1,0,0:0:0:0:
320,192,89713,1,0,0:0:0:0:
64,192,89792,1,0,0:0:0:0:
192,192,89871,1,0,0:0:0:0:
64,192,89950,1,0,0:0:0:0:
320,192,90029,1,0,0:0:0:0:
448,192,90029,1,0,0:0:0:0:
192,192,90029,1,0,0:0:0:0:
64,192,90107,1,0,0:0:0:0:
448,192,90186,1,0,0:0:0:0:
320,192,90265,1,0,0:0:0:0:
64,192,90344,1,0,0:0:0:0:
192,192,90344,1,0,0:0:0:0:
320,192,90423,1,0,0:0:0:0:
448,192,90502,1,0,0:0:0:0:
192,192,90581,1,0,0:0:0:0:
448,192,90660,1,0,0:0:0:0:
64,192,90660,1,0,0:0:0:0:
320,192,90660,1,0,0:0:0:0:
192,192,90739,1,0,0:0:0:0:
64,192,90818,1,0,0:0:0:0:
192,192,90897,1,0,0:0:0:0:
64,192,90976,1,0,0:0:0:0:
448,192,90976,1,0,0:0:0:0:
320,192,91055,1,0,0:0:0:0:
448,192,91134,1,0,0:0:0:0:
192,192,91213,1,0,0:0:0:0:
448,192,91292,1,0,0:0:0:0:
64,192,91292,1,0,0:0:0:0:
320,192,91292,1,0,0:0:0:0:
192,192,91371,1,0,0:0:0:0:
320,192,91450,1,0,0:0:0:0:
192,192,91529,1,0,0:0:0:0:
320,192,91607,1,0,0:0:0:0:
64,192,91607,1,0,0:0:0:0:
448,192,91686,1,0,0:0:0:0:
320,192,91765,1,0,0:0:0:0:
64,192,91844,1,0,0:0:0:0:
192,192,91923,1,0,0:0:0:0:
320,192,91923,1,0,0:0:0:0:
448,192,91923,1,0,0:0:0:0:
64,192,92002,1,0,0:0:0:0:
448,192,92081,1,0,0:0:0:0:
192,192,92160,1,0,0:0:0:0:
64,192,92239,1,0,0:0:0:0:
320,192,92239,1,0,0:0:0:0:
192,192,92318,1,0,0:0:0:0:
320,192,92397,1,0,0:0:0:0:
448,192,92476,1,0,0:0:0:0:
192,192,92555,1,0,0:0:0:0:
64,192,92555,1,0,0:0:0:0:
320,192,92555,1,0,0:0:0:0:
448,192,92634,1,0,0:0:0:0:
320,192,92713,1,0,0:0:0:0:
64,192,92792,1,0,0:0:0:0:
320,192,92871,1,0,0:0:0:0:
192,192,92871,1,0,0:0:0:0:
448,192,92950,1,0,0:0:0:0:
64,192,93029,1,0,0:0:0:0:
320,192,93107,1,0,0:0:0:0:
64,192,93186,1,0,0:0:0:0:
192,192,93186,1,0,0:0:0:0:
448,192,93186,1,0,0:0:0:0:
320,192,93265,1,0,0:0:0:0:
64,192,93344,1,0,0:0:0:0:
192,192,93423,1,0,0:0:0:0:
320,192,93502,1,0,0:0:0:0:
448,192,93502,1,0,0:0:0:0:
64,192,93581,1,0,0:0:0:0:
192,192,93660,1,0,0:0:0:0:
320,192,93739,1,0,0:0:0:0:
192,192,93818,1,0,0:0:0:0:
64,192,93818,1,0,0:0:0:0:
448,192,93818,1,0,0:0:0:0:
320,192,93897,1,0,0:0:0:0:
192,192,93976,1,0,0:0:0:0:
64,192,94055,1,0,0:0:0:0:
320,192,94134,1,0,0:0:0:0:
448,192,94134,1,0,0:0:0:0:
64,192,94213,1,0,0:0:0:0:
192,192,94292,1,0,0:0:0:0:
320,192,94371,1,0,0:0:0:0:
64,192,94450,1,0,0:0:0:0:
192,192,94450,1,0,0:0:0:0:
448,192,94450,1,0,0:0:0:0:
320,192,94529,1,0,0:0:0:0:
192,192,94607,1,0,0:0:0:0:
64,192,94686,1,0,0:0:0:0:
192,192,94765,1,0,0:0:0:0:
448,192,94765,1,0,0:0:0:0:
320,192,94844,1,0,0:0:0:0:
448,192,94923,1,0,0:0:0:0:
192,192,95002,1,0,0:0:0:0:
64,192,95081,1,0,0:0:0:0:
320,192,95081,1,0,0:0:0:0:
448,192,95081,1,0,0:0:0:0:
192,192,95160,1,0,0:0:0:0:
64,192,95239,1,0,0:0:0:0:
192,192,95318,1,0,0:0:0:0:
448,192,95397,1,0,0:0:0:0:
320,192,95397,1,0,0:0:0:0:
64,192,95476,1,0,0:0:0:0:
192,192,95555,1,0,0:0:0:0:
64,192,95634,1,0,0:0:0:0:
320,192,95713,1,0,0:0:0:0:
448,192,95713,1,0,0:0:0:0:
192,192,95713,1,0,0:0:0:0:
64,192,95792,1,0,0:0:0:0:
448,192,95871,1,0,0:0:0:0:
320,192,95950,1,0,0:0:0:0:
64,192,96029,1,0,0:0:0:0:
192,192,96029,1,0,0:0:0:0:
320,192,96107,1,0,0:0:0:0:
448,192,96186,1,0,0:0:0:0:
192,192,96265,1,0,0:0:0:0:
448,192,96344,1,0,0:0:0:0:
64,192,96344,1,0,0:0:0:0:
320,192,96344,1,0,0:0:0:0:
192,192,96423,1,0,0:0:0:0:
64,192,96502,1,0,0:0:0:0:
192,192,96581,1,0,0:0:0:0:
64,192,96660,1,0,0:0:0:0:
448,192,96660,1,0,0:0:0:0:
320,192,96739,1,0,0:0:0:0:
448,192,96818,1,0,0:0:0:0:
320,192,96897,1,0,0:0:0:0:
448,192,96976,1,0,0:0:0:0:
64,192,96976,1,0,0:0:0:0:
320,192,97055,1,0,0:0:0:0:
448,192,97134,1,0,0:0:0:0:
320,192,97213,1,0,0:0:0:0:
448,192,97292,1,0,0:0:0:0:
320,192,97371,1,0,0:0:0:0:
448,192,97450,1,0,0:0:0:0:
320,192,97529,1,0,0:0:0:0:
64,192,97607,1,0,0:0:0:0:
192,192,97607,1,0,0:0:0:0:
320,192,97686,1,0,0:0:0:0:
448,192,97765,1,0,0:0:0:0:
320,192,97844,1,0,0:0:0:0:
64,192,97923,1,0,0:0:0:0:
192,192,97923,1,0,0:0:0:0:
320,192,98002,1,0,0:0:0:0:
448,192,98081,1,0,0:0:0:0:
320,192,98160,1,0,0:0:0:0:
64,192,98239,1,0,0:0:0:0:
448,192,98318,1,0,0:0:0:0:
192,192,98397,1,0,0:0:0:0:
320,192,98476,1,0,0:0:0:0:
64,192,98555,1,0,0:0:0:0:
448,192,98634,1,0,0:0:0:0:
320,192,98634,1,0,0:0:0:0:
192,192,98713,1,0,0:0:0:0:
64,192,98713,1,0,0:0:0:0:
320,192,98792,1,0,0:0:0:0:
64,192,98871,1,0,0:0:0:0:
192,192,98871,1,0,0:0:0:0:
320,192,98950,1,0,0:0:0:0:
192,192,99029,1,0,0:0:0:0:
448,192,99029,1,0,0:0:0:0:
64,192,99107,1,0,0:0:0:0:
192,192,99186,1,0,0:0:0:0:
448,192,99186,1,0,0:0:0:0:
320,192,99265,1,0,0:0:0:0:
64,192,99344,1,0,0:0:0:0:
320,192,99423,1,0,0:0:0:0:
192,192,99502,1,0,0:0:0:0:
448,192,99502,1,0,0:0:0:0:
320,192,99581,1,0,0:0:0:0:
64,192,99660,1,0,0:0:0:0:
192,192,99739,1,0,0:0:0:0:
320,192,99818,1,0,0:0:0:0:
448,192,99871,1,0,0:0:0:0:
320,192,99923,1,0,0:0:0:0:
448,192,99976,1,0,0:0:0:0:
320,192,100029,1,0,0:0:0:0:
448,192,100081,1,0,0:0:0:0:
320,192,100134,1,0,0:0:0:0:
448,192,100213,1,0,0:0:0:0:
320,192,100292,1,0,0:0:0:0:
448,192,100371,1,0,0:0:0:0:
320,192,100450,1,0,0:0:0:0:
448,192,100607,1,0,0:0:0:0:
448,192,100765,1,0,0:0:0:0:
448,192,100923,1,0,0:0:0:0:
64,192,101081,1,0,0:0:0:0:
192,192,101081,1,0,0:0:0:0:
448,192,101081,1,0,0:0:0:0:
320,192,101160,1,0,0:0:0:0:
192,192,101239,1,0,0:0:0:0:
64,192,101318,1,0,0:0:0:0:
192,192,101397,1,0,0:0:0:0:
448,192,101397,1,0,0:0:0:0:
320,192,101476,1,0,0:0:0:0:
192,192,101555,1,0,0:0:0:0:
320,192,101634,1,0,0:0:0:0:
192,192,101713,1,0,0:0:0:0:
64,192,101713,128,0,102344:0:0:0:0:
448,192,101713,128,0,101871:0:0:0:0:
320,192,101871,1,0,0:0:0:0:
192,192,102029,128,0,102186:0:0:0:0:
320,192,102029,1,0,0:0:0:0:
448,192,102186,1,0,0:0:0:0:
448,192,102344,128,0,102502:0:0:0:0:
320,192,102344,1,0,0:0:0:0:
320,192,102502,1,0,0:0:0:0:
192,192,102581,1,0,0:0:0:0:
64,192,102660,128,0,102818:0:0:0:0:
448,192,102660,1,0,0:0:0:0:
192,192,102897,1,0,0:0:0:0:
448,192,102976,128,0,103055:0:0:0:0:
320,192,102976,1,0,0:0:0:0:
192,192,103055,1,0,0:0:0:0:
64,192,103055,128,0,103134:0:0:0:0:
320,192,103134,1,0,0:0:0:0:
320,192,103213,128,0,103371:0:0:0:0:
192,192,103292,1,0,0:0:0:0:
448,192,103292,1,0,0:0:0:0:
192,192,103450,1,0,0:0:0:0:
64,192,103450,128,0,103607:0:0:0:0:
448,192,103607,128,0,103923:0:0:0:0:
320,192,103686,1,0,0:0:0:0:
192,192,103765,1,0,0:0:0:0:
64,192,103844,1,0,0:0:0:0:
320,192,103923,128,0,105186:0:0:0:0:
192,192,103923,1,0,0:0:0:0:
448,192,104002,1,0,0:0:0:0:
192,192,104081,1,0,0:0:0:0:
64,192,104160,1,0,0:0:0:0:
192,192,104239,1,0,0:0:0:0:
448,192,104239,1,0,0:0:0:0:
64,192,104318,1,0,0:0:0:0:
192,192,104397,1,0,0:0:0:0:
448,192,104476,1,0,0:0:0:0:
192,192,104555,1,0,0:0:0:0:
64,192,104555,1,0,0:0:0:0:
448,192,104634,1,0,0:0:0:0:
192,192,104713,1,0,0:0:0:0:
64,192,104792,1,0,0:0:0:0:
192,192,104871,1,0,0:0:0:0:
448,192,104871,1,0,0:0:0:0:
192,192,105029,1,0,0:0:0:0:
448,192,105107,128,0,105186:0:0:0:0:
192,192,105186,1,0,0:0:0:0:
64,192,105265,1,0,0:0:0:0:
192,192,105344,1,0,0:0:0:0:
320,192,105423,1,0,0:0:0:0:
448,192,105502,1,0,0:0:0:0:
192,192,105502,128,0,105581:0:0:0:0:
320,192,105581,1,0,0:0:0:0:
448,192,105660,128,0,105739:0:0:0:0:
320,192,105739,1,0,0:0:0:0:
192,192,105818,1,0,0:0:0:0:
64,192,105818,128,0,105897:0:0:0:0:
320,192,105897,1,0,0:0:0:0:
192,192,105976,1,0,0:0:0:0:
448,192,105976,128,0,106055:0:0:0:0:
64,192,106055,1,0,0:0:0:0:
192,192,106134,1,0,0:0:0:0:
320,192,106134,1,0,0:0:0:0:
