osu file format v14

[General]
AudioFilename: audio.mp3
AudioLeadIn: 0
PreviewTime: 101081
Countdown: 0
SampleSet: None
StackLeniency: 0.7
Mode: 3
LetterboxInBreaks: 0
SpecialStyle: 0
WidescreenStoryboard: 0

[Editor]
Bookmarks: 171818
DistanceSpacing: 0.8
BeatDivisor: 4
GridSize: 4
TimelineZoom: 1.8

[Metadata]
Title:Euphoria
TitleUnicode:Euphoria
Artist:Ata
ArtistUnicode:Ata
Creator:ddfgit
Version:MX that got deleted
Source:
Tags:iceman fort ata psytrance infinite potential
BeatmapID:1365584
BeatmapSetID:644298

[Difficulty]
HPDrainRate:4
CircleSize:4
OverallDifficulty:9.3
ApproachRate:5
SliderMultiplier:1.4
SliderTickRate:1

[Events]
//Background and Video events
0,0,"BG.jpg",0,0
//Break Periods
//Storyboard Layer 0 (Background)
//Storyboard Layer 1 (Fail)
//Storyboard Layer 2 (Pass)
//Storyboard Layer 3 (Foreground)
//Storyboard Sound Samples

[TimingPoints]
29,315.789473684211,4,3,0,0,1,0

[Colours]
Combo1 : 255,255,255
Combo2 : 255,255,255

[HitObjects]
448,192,18976,5,0,0:0:0:0:
320,192,19292,1,0,0:0:0:0:
192,192,19607,1,0,0:0:0:0:
64,192,19923,1,0,0:0:0:0:
448,192,20239,1,0,0:0:0:0:
320,192,20555,1,0,0:0:0:0:
192,192,20871,1,0,0:0:0:0:
320,192,21186,1,0,0:0:0:0:
192,192,21502,1,0,0:0:0:0:
320,192,21818,1,0,0:0:0:0:
192,192,22134,1,0,0:0:0:0:
448,192,22450,1,0,0:0:0:0:
64,192,22765,1,0,0:0:0:0:
448,192,23081,1,0,0:0:0:0:
192,192,23397,1,0,0:0:0:0:
192,192,23713,1,0,0:0:0:0:
448,192,24029,1,0,0:0:0:0:
192,192,24344,1,0,0:0:0:0:
64,192,24660,1,0,0:0:0:0:
64,192,24976,1,0,0:0:0:0:
448,192,25292,1,0,0:0:0:0:
320,192,25607,1,0,0:0:0:0:
192,192,25923,1,0,0:0:0:0:
64,192,26239,1,0,0:0:0:0:
448,192,26555,1,0,0:0:0:0:
320,192,26871,1,0,0:0:0:0:
192,192,27186,1,0,0:0:0:0:
64,192,27502,1,0,0:0:0:0:
320,192,27818,128,0,28134:0:0:0:0:
192,192,28450,1,0,0:0:0:0:
64,192,28765,1,0,0:0:0:0:
64,192,29081,1,0,0:0:0:0:
448,192,29397,1,0,0:0:0:0:
320,192,29713,1,0,0:0:0:0:
192,192,30029,1,0,0:0:0:0:
64,192,30344,1,0,0:0:0:0:
448,192,30660,1,0,0:0:0:0:
320,192,30976,1,0,0:0:0:0:
192,192,31292,1,0,0:0:0:0:
64,192,31607,1,0,0:0:0:0:
448,192,31923,1,0,0:0:0:0:
320,192,32239,1,0,0:0:0:0:
192,192,32555,1,0,0:0:0:0:
64,192,32871,1,0,0:0:0:0:
448,192,33186,1,0,0:0:0:0:
320,192,33502,1,0,0:0:0:0:
192,192,33818,1,0,0:0:0:0:
64,192,34134,1,0,0:0:0:0:
64,192,34450,1,0,0:0:0:0:
192,192,34765,1,0,0:0:0:0:
320,192,35081,1,0,0:0:0:0:
448,192,35397,128,0,35713:0:0:0:0:
320,192,36029,1,0,0:0:0:0:
192,192,36344,1,0,0:0:0:0:
64,192,36660,1,0,0:0:0:0:
448,192,36976,1,0,0:0:0:0:
320,192,37292,1,0,0:0:0:0:
192,192,37607,1,0,0:0:0:0:
64,192,37923,1,0,0:0:0:0:
448,192,38239,1,0,0:0:0:0:
320,192,38555,1,0,0:0:0:0:
192,192,38871,1,0,0:0:0:0:
64,192,39186,1,0,0:0:0:0:
448,192,39502,1,0,0:0:0:0:
320,192,39818,1,0,0:0:0:0:
192,192,40134,1,0,0:0:0:0:
64,192,40292,1,0,0:0:0:0:
192,192,40371,1,0,0:0:0:0:
64,192,40450,1,0,0:0:0:0:
448,192,40607,1,0,0:0:0:0:
320,192,40686,1,0,0:0:0:0:
448,192,40765,1,0,0:0:0:0:
320,192,40923,1,0,0:0:0:0:
192,192,41002,1,0,0:0:0:0:
320,192,41081,1,0,0:0:0:0:
192,192,41239,1,0,0:0:0:0:
320,192,41318,1,0,0:0:0:0:
192,192,41397,1,0,0:0:0:0:
64,192,41555,1,0,0:0:0:0:
192,192,41634,1,0,0:0:0:0:
64,192,41713,1,0,0:0:0:0:
448,192,41871,1,0,0:0:0:0:
320,192,41950,1,0,0:0:0:0:
448,192,42029,1,0,0:0:0:0:
192,192,42186,1,0,0:0:0:0:
320,192,42265,1,0,0:0:0:0:
192,192,42344,1,0,0:0:0:0:
64,192,42660,1,0,0:0:0:0:
448,192,42976,1,0,0:0:0:0:
192,192,43292,1,0,0:0:0:0:
320,192,43607,1,0,0:0:0:0:
448,192,43923,1,0,0:0:0:0:
64,192,44239,1,0,0:0:0:0:
320,192,44555,1,0,0:0:0:0:
64,192,44871,1,0,0:0:0:0:
320,192,45186,1,0,0:0:0:0:
192,192,45502,1,0,0:0:0:0:
192,192,45660,1,0,0:0:0:0:
320,192,45818,1,0,0:0:0:0:
320,192,45976,1,0,0:0:0:0:
64,192,46134,1,0,0:0:0:0:
64,192,46292,1,0,0:0:0:0:
448,192,46450,1,0,0:0:0:0:
448,192,46607,1,0,0:0:0:0:
320,192,46765,1,0,0:0:0:0:
320,192,46923,1,0,0:0:0:0:
320,192,47081,128,0,47134:0:0:0:0:
192,192,47239,128,0,47292:0:0:0:0:
448,192,47397,128,0,47450:0:0:0:0:
320,192,47555,128,0,47607:0:0:0:0:
64,192,47713,128,0,47765:0:0:0:0:
320,192,47871,128,0,47923:0:0:0:0:
448,192,48029,128,0,48081:0:0:0:0:
192,192,48186,128,0,48239:0:0:0:0:
320,192,48344,128,0,48397:0:0:0:0:
320,192,48502,128,0,48555:0:0:0:0:
64,192,48660,128,0,48713:0:0:0:0:
448,192,48818,128,0,48871:0:0:0:0:
320,192,48976,128,0,49029:0:0:0:0:
192,192,49134,128,0,49186:0:0:0:0:
64,192,49292,128,0,49344:0:0:0:0:
448,192,49450,128,0,49502:0:0:0:0:
320,192,49607,128,0,49660:0:0:0:0:
192,192,49765,128,0,49818:0:0:0:0:
64,192,49923,128,0,49976:0:0:0:0:
448,192,50081,128,0,50134:0:0:0:0:
320,192,50239,128,0,50292:0:0:0:0:
64,192,50397,128,0,50450:0:0:0:0:
320,192,50555,128,0,50871:0:0:0:0:
192,192,51029,128,0,51081:0:0:0:0:
448,192,51186,128,0,51239:0:0:0:0:
192,192,51344,128,0,51397:0:0:0:0:
448,192,51502,128,0,51555:0:0:0:0:
192,192,51660,128,0,51713:0:0:0:0:
320,192,51818,128,0,51871:0:0:0:0:
64,192,51976,128,0,52029:0:0:0:0:
448,192,52134,128,0,52186:0:0:0:0:
192,192,52292,128,0,52344:0:0:0:0:
320,192,52450,128,0,52502:0:0:0:0:
192,192,52607,128,0,52660:0:0:0:0:
448,192,52765,128,0,52844:0:0:0:0:
64,192,52923,1,0,0:0:0:0:
192,192,52923,1,0,0:0:0:0:
320,192,53081,1,0,0:0:0:0:
448,192,53081,1,0,0:0:0:0:
192,192,53239,1,0,0:0:0:0:
320,192,53239,1,0,0:0:0:0:
64,192,53397,1,0,0:0:0:0:
320,192,53397,1,0,0:0:0:0:
192,192,53555,1,0,0:0:0:0:
320,192,53555,1,0,0:0:0:0:
320,192,53713,1,0,0:0:0:0:
448,192,53713,1,0,0:0:0:0:
320,192,53871,1,0,0:0:0:0:
64,192,53871,1,0,0:0:0:0:
192,192,54029,1,0,0:0:0:0:
320,192,54029,1,0,0:0:0:0:
64,192,54186,1,0,0:0:0:0:
192,192,54186,1,0,0:0:0:0:
320,192,54344,1,0,0:0:0:0:
448,192,54344,1,0,0:0:0:0:
64,192,54502,1,0,0:0:0:0:
192,192,54502,1,0,0:0:0:0:
320,192,54660,1,0,0:0:0:0:
448,192,54660,1,0,0:0:0:0:
64,192,54818,1,0,0:0:0:0:
192,192,54818,1,0,0:0:0:0:
320,192,54976,1,0,0:0:0:0:
448,192,54976,1,0,0:0:0:0:
192,192,55134,1,0,0:0:0:0:
320,192,55134,1,0,0:0:0:0:
192,192,55292,1,0,0:0:0:0:
64,192,55292,1,0,0:0:0:0:
320,192,55450,1,0,0:0:0:0:
448,192,55450,1,0,0:0:0:0:
64,192,55607,1,0,0:0:0:0:
192,192,55607,1,0,0:0:0:0:
320,192,55686,1,0,0:0:0:0:
448,192,55686,1,0,0:0:0:0:
64,192,55765,1,0,0:0:0:0:
192,192,55765,1,0,0:0:0:0:
320,192,55844,1,0,0:0:0:0:
448,192,55844,1,0,0:0:0:0:
64,192,55923,1,0,0:0:0:0:
192,192,55923,1,0,0:0:0:0:
320,192,56002,1,0,0:0:0:0:
448,192,56002,1,0,0:0:0:0:
64,192,56081,1,0,0:0:0:0:
192,192,56081,1,0,0:0:0:0:
320,192,56160,1,0,0:0:0:0:
448,192,56160,1,0,0:0:0:0:
64,192,56239,1,0,0:0:0:0:
192,192,56239,1,0,0:0:0:0:
320,192,56318,1,0,0:0:0:0:
448,192,56318,1,0,0:0:0:0:
64,192,56397,1,0,0:0:0:0:
192,192,56397,1,0,0:0:0:0:
320,192,56476,1,0,0:0:0:0:
448,192,56476,1,0,0:0:0:0:
64,192,56555,1,0,0:0:0:0:
192,192,56555,1,0,0:0:0:0:
320,192,56634,1,0,0:0:0:0:
448,192,56634,1,0,0:0:0:0:
64,192,56713,1,0,0:0:0:0:
192,192,56713,1,0,0:0:0:0:
320,192,56792,1,0,0:0:0:0:
448,192,56792,1,0,0:0:0:0:
64,192,56871,1,0,0:0:0:0:
192,192,56871,1,0,0:0:0:0:
320,192,56950,1,0,0:0:0:0:
448,192,56950,1,0,0:0:0:0:
64,192,57029,1,0,0:0:0:0:
192,192,57029,1,0,0:0:0:0:
320,192,57107,1,0,0:0:0:0:
448,192,57107,1,0,0:0:0:0:
64,192,57186,1,0,0:0:0:0:
192,192,57186,1,0,0:0:0:0:
320,192,57265,1,0,0:0:0:0:
448,192,57265,1,0,0:0:0:0:
64,192,57344,1,0,0:0:0:0:
192,192,57344,1,0,0:0:0:0:
320,192,57423,1,0,0:0:0:0:
448,192,57423,1,0,0:0:0:0:
64,192,57502,1,0,0:0:0:0:
192,192,57502,1,0,0:0:0:0:
320,192,57581,1,0,0:0:0:0:
448,192,57581,1,0,0:0:0:0:
320,192,60660,1,0,0:0:0:0:
64,192,60739,1,0,0:0:0:0:
192,192,60739,1,0,0:0:0:0:
448,192,60818,1,0,0:0:0:0:
320,192,60897,1,0,0:0:0:0:
64,192,60976,1,0,0:0:0:0:
192,192,60976,1,0,0:0:0:0:
320,192,61055,1,0,0:0:0:0:
448,192,61134,1,0,0:0:0:0:
320,192,61213,1,0,0:0:0:0:
192,192,61213,1,0,0:0:0:0:
64,192,61292,1,0,0:0:0:0:
192,192,61371,1,0,0:0:0:0:
320,192,61450,1,0,0:0:0:0:
448,192,61450,1,0,0:0:0:0:
192,192,61529,1,0,0:0:0:0:
64,192,61607,1,0,0:0:0:0:
192,192,61686,1,0,0:0:0:0:
320,192,61686,1,0,0:0:0:0:
448,192,61765,1,0,0:0:0:0:
320,192,61844,1,0,0:0:0:0:
192,192,61923,1,0,0:0:0:0:
64,192,61923,1,0,0:0:0:0:
320,192,62002,1,0,0:0:0:0:
448,192,62081,1,0,0:0:0:0:
320,192,62160,1,0,0:0:0:0:
192,192,62160,1,0,0:0:0:0:
64,192,62239,1,0,0:0:0:0:
448,192,62318,1,0,0:0:0:0:
64,192,62397,1,0,0:0:0:0:
320,192,62397,1,0,0:0:0:0:
192,192,62476,1,0,0:0:0:0:
320,192,62555,1,0,0:0:0:0:
64,192,62634,1,0,0:0:0:0:
192,192,62634,1,0,0:0:0:0:
320,192,62713,1,0,0:0:0:0:
448,192,62792,1,0,0:0:0:0:
320,192,62871,1,0,0:0:0:0:
192,192,62871,1,0,0:0:0:0:
64,192,62950,1,0,0:0:0:0:
192,192,63029,1,0,0:0:0:0:
320,192,63107,1,0,0:0:0:0:
448,192,63107,1,0,0:0:0:0:
64,192,63186,1,0,0:0:0:0:
192,192,63265,1,0,0:0:0:0:
320,192,63344,1,0,0:0:0:0:
448,192,63344,1,0,0:0:0:0:
192,192,63423,1,0,0:0:0:0:
64,192,63502,1,0,0:0:0:0:
192,192,63581,1,0,0:0:0:0:
320,192,63581,1,0,0:0:0:0:
64,192,63660,1,0,0:0:0:0:
192,192,63739,1,0,0:0:0:0:
320,192,63818,1,0,0:0:0:0:
448,192,63818,1,0,0:0:0:0:
64,192,63897,1,0,0:0:0:0:
192,192,63976,1,0,0:0:0:0:
320,192,64055,1,0,0:0:0:0:
448,192,64055,1,0,0:0:0:0:
192,192,64134,1,0,0:0:0:0:
64,192,64213,1,0,0:0:0:0:
320,192,64292,1,0,0:0:0:0:
192,192,64292,1,0,0:0:0:0:
448,192,64371,1,0,0:0:0:0:
320,192,64450,1,0,0:0:0:0:
64,192,64450,1,0,0:0:0:0:
448,192,64529,1,0,0:0:0:0:
320,192,64607,1,0,0:0:0:0:
192,192,64686,1,0,0:0:0:0:
64,192,64686,1,0,0:0:0:0:
320,192,64765,1,0,0:0:0:0:
448,192,64844,1,0,0:0:0:0:
64,192,64923,1,0,0:0:0:0:
192,192,64923,1,0,0:0:0:0:
320,192,65002,1,0,0:0:0:0:
448,192,65081,1,0,0:0:0:0:
320,192,65160,1,0,0:0:0:0:
192,192,65160,1,0,0:0:0:0:
64,192,65239,1,0,0:0:0:0:
192,192,65318,1,0,0:0:0:0:
320,192,65397,1,0,0:0:0:0:
448,192,65397,1,0,0:0:0:0:
192,192,65476,1,0,0:0:0:0:
64,192,65555,1,0,0:0:0:0:
448,192,65634,1,0,0:0:0:0:
320,192,65634,1,0,0:0:0:0:
192,192,65713,1,0,0:0:0:0:
64,192,65792,1,0,0:0:0:0:
192,192,65871,1,0,0:0:0:0:
320,192,65871,1,0,0:0:0:0:
64,192,65950,1,0,0:0:0:0:
448,192,66029,1,0,0:0:0:0:
192,192,66107,1,0,0:0:0:0:
64,192,66107,1,0,0:0:0:0:
320,192,66186,1,0,0:0:0:0:
64,192,66265,1,0,0:0:0:0:
320,192,66344,1,0,0:0:0:0:
448,192,66344,1,0,0:0:0:0:
192,192,66423,1,0,0:0:0:0:
64,192,66502,1,0,0:0:0:0:
448,192,66581,1,0,0:0:0:0:
320,192,66581,1,0,0:0:0:0:
192,192,66660,1,0,0:0:0:0:
448,192,66739,1,0,0:0:0:0:
64,192,66818,1,0,0:0:0:0:
192,192,66818,1,0,0:0:0:0:
448,192,66897,1,0,0:0:0:0:
64,192,66976,1,0,0:0:0:0:
320,192,67055,1,0,0:0:0:0:
192,192,67055,1,0,0:0:0:0:
64,192,67134,1,0,0:0:0:0:
448,192,67213,1,0,0:0:0:0:
64,192,67292,1,0,0:0:0:0:
192,192,67292,1,0,0:0:0:0:
320,192,67371,1,0,0:0:0:0:
192,192,67450,1,0,0:0:0:0:
320,192,67529,1,0,0:0:0:0:
64,192,67529,1,0,0:0:0:0:
192,192,67607,1,0,0:0:0:0:
320,192,67686,1,0,0:0:0:0:
64,192,67765,1,0,0:0:0:0:
192,192,67765,1,0,0:0:0:0:
320,192,67844,1,0,0:0:0:0:
448,192,67923,1,0,0:0:0:0:
64,192,68002,1,0,0:0:0:0:
192,192,68002,1,0,0:0:0:0:
320,192,68081,1,0,0:0:0:0:
448,192,68160,1,0,0:0:0:0:
64,192,68239,1,0,0:0:0:0:
192,192,68239,1,0,0:0:0:0:
448,192,68318,1,0,0:0:0:0:
64,192,68397,1,0,0:0:0:0:
320,192,68476,1,0,0:0:0:0:
448,192,68476,1,0,0:0:0:0:
192,192,68555,1,0,0:0:0:0:
448,192,68634,1,0,0:0:0:0:
64,192,68713,1,0,0:0:0:0:
192,192,68713,1,0,0:0:0:0:
320,192,68792,1,0,0:0:0:0:
192,192,68871,1,0,0:0:0:0:
320,192,68950,1,0,0:0:0:0:
448,192,68950,1,0,0:0:0:0:
192,192,69029,1,0,0:0:0:0:
64,192,69107,1,0,0:0:0:0:
320,192,69186,1,0,0:0:0:0:
448,192,69186,1,0,0:0:0:0:
64,192,69265,1,0,0:0:0:0:
192,192,69344,1,0,0:0:0:0:
320,192,69423,1,0,0:0:0:0:
448,192,69423,1,0,0:0:0:0:
64,192,69502,1,0,0:0:0:0:
192,192,69581,1,0,0:0:0:0:
320,192,69660,1,0,0:0:0:0:
448,192,69660,1,0,0:0:0:0:
192,192,69739,1,0,0:0:0:0:
64,192,69818,1,0,0:0:0:0:
448,192,69897,1,0,0:0:0:0:
320,192,69897,1,0,0:0:0:0:
192,192,69976,1,0,0:0:0:0:
64,192,70055,1,0,0:0:0:0:
192,192,70134,1,0,0:0:0:0:
320,192,70134,1,0,0:0:0:0:
64,192,70213,1,0,0:0:0:0:
448,192,70292,1,0,0:0:0:0:
192,192,70371,1,0,0:0:0:0:
64,192,70371,1,0,0:0:0:0:
320,192,70450,1,0,0:0:0:0:
192,192,70529,1,0,0:0:0:0:
64,192,70607,1,0,0:0:0:0:
320,192,70607,1,0,0:0:0:0:
192,192,70686,1,0,0:0:0:0:
448,192,70765,1,0,0:0:0:0:
64,192,70765,128,0,71160:0:0:0:0:
192,192,70844,1,0,0:0:0:0:
320,192,70923,1,0,0:0:0:0:
192,192,71002,1,0,0:0:0:0:
320,192,71081,1,0,0:0:0:0:
448,192,71160,1,0,0:0:0:0:
192,192,71239,1,0,0:0:0:0:
320,192,71318,1,0,0:0:0:0:
192,192,71397,1,0,0:0:0:0:
64,192,71397,1,0,0:0:0:0:
320,192,71476,1,0,0:0:0:0:
448,192,71555,1,0,0:0:0:0:
64,192,71634,1,0,0:0:0:0:
192,192,71634,1,0,0:0:0:0:
320,192,71713,1,0,0:0:0:0:
64,192,71792,1,0,0:0:0:0:
192,192,71792,1,0,0:0:0:0:
320,192,71871,1,0,0:0:0:0:
64,192,71950,1,0,0:0:0:0:
320,192,72029,1,0,0:0:0:0:
448,192,72029,1,0,0:0:0:0:
192,192,72107,1,0,0:0:0:0:
320,192,72186,1,0,0:0:0:0:
64,192,72265,1,0,0:0:0:0:
448,192,72265,1,0,0:0:0:0:
192,192,72344,1,0,0:0:0:0:
448,192,72423,1,0,0:0:0:0:
64,192,72502,1,0,0:0:0:0:
192,192,72502,1,0,0:0:0:0:
320,192,72581,1,0,0:0:0:0:
448,192,72660,1,0,0:0:0:0:
64,192,72739,1,0,0:0:0:0:
192,192,72739,1,0,0:0:0:0:
320,192,72818,1,0,0:0:0:0:
448,192,72897,1,0,0:0:0:0:
64,192,72976,1,0,0:0:0:0:
192,192,72976,1,0,0:0:0:0:
320,192,73055,1,0,0:0:0:0:
448,192,73134,1,0,0:0:0:0:
64,192,73213,1,0,0:0:0:0:
192,192,73213,1,0,0:0:0:0:
448,192,73292,1,0,0:0:0:0:
320,192,73371,1,0,0:0:0:0:
64,192,73450,1,0,0:0:0:0:
192,192,73450,1,0,0:0:0:0:
448,192,73529,1,0,0:0:0:0:
320,192,73607,1,0,0:0:0:0:
64,192,73686,1,0,0:0:0:0:
192,192,73686,1,0,0:0:0:0:
320,192,73765,1,0,0:0:0:0:
448,192,73844,1,0,0:0:0:0:
64,192,73923,1,0,0:0:0:0:
192,192,73923,1,0,0:0:0:0:
320,192,74002,1,0,0:0:0:0:
448,192,74081,1,0,0:0:0:0:
192,192,74081,1,0,0:0:0:0:
320,192,74160,1,0,0:0:0:0:
192,192,74239,1,0,0:0:0:0:
320,192,74318,1,0,0:0:0:0:
448,192,74318,1,0,0:0:0:0:
64,192,74397,1,0,0:0:0:0:
192,192,74476,1,0,0:0:0:0:
320,192,74555,1,0,0:0:0:0:
448,192,74555,1,0,0:0:0:0:
192,192,74634,1,0,0:0:0:0:
64,192,74713,1,0,0:0:0:0:
192,192,74792,1,0,0:0:0:0:
320,192,74792,1,0,0:0:0:0:
64,192,74871,1,0,0:0:0:0:
192,192,74950,1,0,0:0:0:0:
320,192,75029,1,0,0:0:0:0:
448,192,75029,1,0,0:0:0:0:
192,192,75107,1,0,0:0:0:0:
64,192,75186,1,0,0:0:0:0:
320,192,75265,1,0,0:0:0:0:
448,192,75265,1,0,0:0:0:0:
192,192,75344,1,0,0:0:0:0:
320,192,75423,1,0,0:0:0:0:
64,192,75502,1,0,0:0:0:0:
448,192,75502,1,0,0:0:0:0:
320,192,75581,1,0,0:0:0:0:
192,192,75660,1,0,0:0:0:0:
64,192,75739,1,0,0:0:0:0:
448,192,75739,1,0,0:0:0:0:
192,192,75818,1,0,0:0:0:0:
320,192,75897,1,0,0:0:0:0:
64,192,75976,1,0,0:0:0:0:
448,192,75976,1,0,0:0:0:0:
320,192,76055,1,0,0:0:0:0:
192,192,76134,1,0,0:0:0:0:
64,192,76213,1,0,0:0:0:0:
448,192,76213,1,0,0:0:0:0:
192,192,76292,1,0,0:0:0:0:
320,192,76371,1,0,0:0:0:0:
64,192,76450,1,0,0:0:0:0:
448,192,76450,1,0,0:0:0:0:
192,192,76529,1,0,0:0:0:0:
320,192,76607,1,0,0:0:0:0:
448,192,76686,1,0,0:0:0:0:
64,192,76686,1,0,0:0:0:0:
320,192,76765,1,0,0:0:0:0:
192,192,76844,1,0,0:0:0:0:
64,192,76923,1,0,0:0:0:0:
448,192,76923,1,0,0:0:0:0:
320,192,77002,1,0,0:0:0:0:
192,192,77081,1,0,0:0:0:0:
64,192,77160,1,0,0:0:0:0:
448,192,77160,1,0,0:0:0:0:
192,192,77239,1,0,0:0:0:0:
320,192,77318,1,0,0:0:0:0:
64,192,77397,1,0,0:0:0:0:
448,192,77397,1,0,0:0:0:0:
192,192,77476,1,0,0:0:0:0:
320,192,77555,1,0,0:0:0:0:
192,192,77634,1,0,0:0:0:0:
64,192,77634,1,0,0:0:0:0:
320,192,77713,1,0,0:0:0:0:
192,192,77792,1,0,0:0:0:0:
448,192,77871,1,0,0:0:0:0:
320,192,77871,1,0,0:0:0:0:
192,192,77950,1,0,0:0:0:0:
64,192,78029,1,0,0:0:0:0:
192,192,78107,1,0,0:0:0:0:
320,192,78107,1,0,0:0:0:0:
64,192,78186,1,0,0:0:0:0:
192,192,78265,1,0,0:0:0:0:
64,192,78344,1,0,0:0:0:0:
448,192,78344,1,0,0:0:0:0:
320,192,78423,1,0,0:0:0:0:
448,192,78502,1,0,0:0:0:0:
64,192,78581,1,0,0:0:0:0:
320,192,78581,1,0,0:0:0:0:
192,192,78660,1,0,0:0:0:0:
320,192,78739,1,0,0:0:0:0:
64,192,78818,1,0,0:0:0:0:
192,192,78818,1,0,0:0:0:0:
320,192,78897,1,0,0:0:0:0:
192,192,78976,1,0,0:0:0:0:
64,192,78976,1,0,0:0:0:0:
448,192,79055,1,0,0:0:0:0:
320,192,79134,1,0,0:0:0:0:
192,192,79213,1,0,0:0:0:0:
448,192,79213,1,0,0:0:0:0:
64,192,79292,1,0,0:0:0:0:
320,192,79371,1,0,0:0:0:0:
192,192,79450,1,0,0:0:0:0:
64,192,79450,1,0,0:0:0:0:
448,192,79529,1,0,0:0:0:0:
320,192,79607,1,0,0:0:0:0:
64,192,79686,1,0,0:0:0:0:
192,192,79686,1,0,0:0:0:0:
320,192,79765,1,0,0:0:0:0:
64,192,79844,1,0,0:0:0:0:
320,192,79923,1,0,0:0:0:0:
192,192,79923,1,0,0:0:0:0:
320,192,80002,1,0,0:0:0:0:
64,192,80081,1,0,0:0:0:0:
448,192,80160,128,0,80476:0:0:0:0:
192,192,80160,1,0,0:0:0:0:
64,192,80239,1,0,0:0:0:0:
320,192,80318,1,0,0:0:0:0:
192,192,80397,1,0,0:0:0:0:
64,192,80476,1,0,0:0:0:0:
192,192,80555,1,0,0:0:0:0:
320,192,80634,1,0,0:0:0:0:
192,192,80713,1,0,0:0:0:0:
64,192,80713,1,0,0:0:0:0:
320,192,80792,1,0,0:0:0:0:
192,192,80871,1,0,0:0:0:0:
320,192,80950,1,0,0:0:0:0:
448,192,80950,1,0,0:0:0:0:
64,192,80950,128,0,81344:0:0:0:0:
192,192,81029,1,0,0:0:0:0:
448,192,81107,1,0,0:0:0:0:
320,192,81186,1,0,0:0:0:0:
192,192,81265,1,0,0:0:0:0:
448,192,81344,1,0,0:0:0:0:
320,192,81423,1,0,0:0:0:0:
192,192,81502,1,0,0:0:0:0:
64,192,81581,1,0,0:0:0:0:
320,192,81581,1,0,0:0:0:0:
192,192,81660,1,0,0:0:0:0:
320,192,81739,1,0,0:0:0:0:
192,192,81818,1,0,0:0:0:0:
64,192,81818,1,0,0:0:0:0:
448,192,81897,1,0,0:0:0:0:
320,192,81976,1,0,0:0:0:0:
64,192,82055,1,0,0:0:0:0:
192,192,82055,1,0,0:0:0:0:
320,192,82134,1,0,0:0:0:0:
448,192,82213,1,0,0:0:0:0:
192,192,82292,1,0,0:0:0:0:
320,192,82292,1,0,0:0:0:0:
448,192,82371,1,0,0:0:0:0:
64,192,82450,1,0,0:0:0:0:
192,192,82529,1,0,0:0:0:0:
320,192,82529,1,0,0:0:0:0:
448,192,82607,1,0,0:0:0:0:
64,192,82686,1,0,0:0:0:0:
192,192,82765,1,0,0:0:0:0:
320,192,82765,1,0,0:0:0:0:
64,192,82844,1,0,0:0:0:0:
448,192,82923,1,0,0:0:0:0:
64,192,83002,1,0,0:0:0:0:
192,192,83002,1,0,0:0:0:0:
320,192,83081,1,0,0:0:0:0:
448,192,83160,1,0,0:0:0:0:
64,192,83239,1,0,0:0:0:0:
192,192,83239,1,0,0:0:0:0:
448,192,83318,1,0,0:0:0:0:
320,192,83397,1,0,0:0:0:0:
64,192,83476,1,0,0:0:0:0:
192,192,83476,1,0,0:0:0:0:
320,192,83555,1,0,0:0:0:0:
192,192,83634,1,0,0:0:0:0:
64,192,83713,1,0,0:0:0:0:
448,192,83713,1,0,0:0:0:0:
320,192,83792,1,0,0:0:0:0:
192,192,83871,1,0,0:0:0:0:
64,192,83950,1,0,0:0:0:0:
448,192,83950,1,0,0:0:0:0:
320,192,84029,1,0,0:0:0:0:
192,192,84107,1,0,0:0:0:0:
64,192,84186,1,0,0:0:0:0:
448,192,84186,1,0,0:0:0:0:
320,192,84265,1,0,0:0:0:0:
64,192,84344,128,0,84384:0:0:0:0:
448,192,84423,1,0,0:0:0:0:
320,192,84423,128,0,84463:0:0:0:0:
192,192,84502,128,0,84542:0:0:0:0:
64,192,84581,128,0,84621:0:0:0:0:
192,192,84660,1,0,0:0:0:0:
448,192,84660,128,0,84700:0:0:0:0:
320,192,84739,128,0,84779:0:0:0:0:
64,192,84818,128,0,84857:0:0:0:0:
192,192,84897,1,0,0:0:0:0:
320,192,84897,128,0,84936:0:0:0:0:
448,192,84976,128,0,85015:0:0:0:0:
192,192,85055,128,0,85094:0:0:0:0:
64,192,85134,128,0,85173:0:0:0:0:
320,192,85134,1,0,0:0:0:0:
448,192,85213,1,0,0:0:0:0:
192,192,85292,1,0,0:0:0:0:
320,192,85371,1,0,0:0:0:0:
448,192,85371,1,0,0:0:0:0:
192,192,85450,1,0,0:0:0:0:
64,192,85529,1,0,0:0:0:0:
320,192,85607,1,0,0:0:0:0:
448,192,85607,128,0,85647:0:0:0:0:
192,192,85686,128,0,85726:0:0:0:0:
64,192,85765,128,0,85805:0:0:0:0:
320,192,85844,1,0,0:0:0:0:
448,192,85844,1,0,0:0:0:0:
64,192,85923,128,0,85963:0:0:0:0:
320,192,86002,128,0,86042:0:0:0:0:
64,192,86081,1,0,0:0:0:0:
192,192,86081,1,0,0:0:0:0:
448,192,86160,128,0,86200:0:0:0:0:
320,192,86239,128,0,86279:0:0:0:0:
448,192,86318,1,0,0:0:0:0:
64,192,86318,128,0,86357:0:0:0:0:
192,192,86397,128,0,86436:0:0:0:0:
64,192,86476,128,0,86515:0:0:0:0:
320,192,86476,1,0,0:0:0:0:
192,192,86555,128,0,86594:0:0:0:0:
448,192,86634,128,0,86673:0:0:0:0:
192,192,86713,1,0,0:0:0:0:
320,192,86713,128,0,86752:0:0:0:0:
64,192,86792,128,0,86831:0:0:0:0:
192,192,86871,128,0,86910:0:0:0:0:
320,192,86950,1,0,0:0:0:0:
448,192,86950,128,0,86989:0:0:0:0:
192,192,87029,128,0,87068:0:0:0:0:
64,192,87107,128,0,87147:0:0:0:0:
320,192,87186,1,0,0:0:0:0:
448,192,87186,128,0,87226:0:0:0:0:
64,192,87265,128,0,87305:0:0:0:0:
192,192,87344,128,0,87384:0:0:0:0:
320,192,87423,1,0,0:0:0:0:
448,192,87423,128,0,87463:0:0:0:0:
192,192,87502,128,0,87542:0:0:0:0:
64,192,87581,128,0,87621:0:0:0:0:
320,192,87660,1,0,0:0:0:0:
448,192,87660,128,0,87700:0:0:0:0:
64,192,87739,128,0,87779:0:0:0:0:
192,192,87818,128,0,87857:0:0:0:0:
320,192,87897,1,0,0:0:0:0:
448,192,87897,128,0,87936:0:0:0:0:
192,192,87976,128,0,88015:0:0:0:0:
64,192,88055,128,0,88094:0:0:0:0:
320,192,88134,1,0,0:0:0:0:
448,192,88134,128,0,88173:0:0:0:0:
192,192,88213,1,0,0:0:0:0:
448,192,88292,1,0,0:0:0:0:
64,192,88371,1,0,0:0:0:0:
192,192,88371,1,0,0:0:0:0:
320,192,88450,1,0,0:0:0:0:
192,192,88450,128,0,89081:0:0:0:0:
448,192,88529,1,0,0:0:0:0:
64,192,88607,1,0,0:0:0:0:
448,192,88686,1,0,0:0:0:0:
320,192,88765,1,0,0:0:0:0:
64,192,88844,1,0,0:0:0:0:
320,192,88923,1,0,0:0:0:0:
448,192,89002,1,0,0:0:0:0:
64,192,89081,1,0,0:0:0:0:
448,192,89160,1,0,0:0:0:0:
320,192,89239,1,0,0:0:0:0:
64,192,89292,128,0,89344:0:0:0:0:
320,192,89397,128,0,89450:0:0:0:0:
448,192,89476,128,0,89515:0:0:0:0:
64,192,89555,1,0,0:0:0:0:
192,192,89555,128,0,89594:0:0:0:0:
448,192,89634,128,0,89673:0:0:0:0:
320,192,89713,128,0,89752:0:0:0:0:
448,192,89792,1,0,0:0:0:0:
64,192,89792,128,0,89831:0:0:0:0:
192,192,89871,128,0,89910:0:0:0:0:
320,192,89950,128,0,89989:0:0:0:0:
64,192,90029,1,0,0:0:0:0:
448,192,90029,128,0,90068:0:0:0:0:
192,192,90107,128,0,90147:0:0:0:0:
320,192,90186,128,0,90226:0:0:0:0:
192,192,90265,1,0,0:0:0:0:
64,192,90265,128,0,90305:0:0:0:0:
320,192,90344,128,0,90384:0:0:0:0:
448,192,90423,128,0,90463:0:0:0:0:
64,192,90502,1,0,0:0:0:0:
192,192,90502,128,0,90542:0:0:0:0:
448,192,90581,128,0,90621:0:0:0:0:
320,192,90660,128,0,90700:0:0:0:0:
448,192,90739,1,0,0:0:0:0:
320,192,90779,1,0,0:0:0:0:
192,192,90818,1,0,0:0:0:0:
64,192,90857,1,0,0:0:0:0:
448,192,90857,1,0,0:0:0:0:
320,192,90897,1,0,0:0:0:0:
192,192,90936,1,0,0:0:0:0:
448,192,90976,128,0,91015:0:0:0:0:
64,192,90976,1,0,0:0:0:0:
64,192,91055,128,0,91094:0:0:0:0:
192,192,91134,1,0,0:0:0:0:
64,192,91213,1,0,0:0:0:0:
448,192,91213,128,0,91252:0:0:0:0:
320,192,91292,128,0,91331:0:0:0:0:
448,192,91371,128,0,91410:0:0:0:0:
64,192,91450,1,0,0:0:0:0:
192,192,91450,128,0,91489:0:0:0:0:
320,192,91529,1,0,0:0:0:0:
448,192,91607,1,0,0:0:0:0:
64,192,91686,1,0,0:0:0:0:
192,192,91686,128,0,91726:0:0:0:0:
320,192,91765,128,0,91805:0:0:0:0:
448,192,91844,128,0,91884:0:0:0:0:
320,192,91923,1,0,0:0:0:0:
192,192,91923,128,0,91963:0:0:0:0:
448,192,92002,128,0,92042:0:0:0:0:
64,192,92081,128,0,92121:0:0:0:0:
192,192,92160,1,0,0:0:0:0:
448,192,92160,128,0,92200:0:0:0:0:
320,192,92239,128,0,92279:0:0:0:0:
192,192,92318,128,0,92357:0:0:0:0:
320,192,92397,1,0,0:0:0:0:
64,192,92397,128,0,92436:0:0:0:0:
192,192,92476,128,0,92515:0:0:0:0:
448,192,92555,128,0,92594:0:0:0:0:
320,192,92634,1,0,0:0:0:0:
64,192,92634,128,0,92673:0:0:0:0:
192,192,92713,128,0,92752:0:0:0:0:
448,192,92792,128,0,92831:0:0:0:0:
192,192,92871,1,0,0:0:0:0:
320,192,92871,128,0,92910:0:0:0:0:
64,192,92950,128,0,92989:0:0:0:0:
448,192,93029,128,0,93068:0:0:0:0:
192,192,93107,1,0,0:0:0:0:
320,192,93107,128,0,93147:0:0:0:0:
64,192,93186,128,0,93226:0:0:0:0:
320,192,93265,128,0,93305:0:0:0:0:
192,192,93344,1,0,0:0:0:0:
64,192,93344,128,0,93384:0:0:0:0:
448,192,93423,128,0,93463:0:0:0:0:
192,192,93502,128,0,93542:0:0:0:0:
320,192,93581,1,0,0:0:0:0:
448,192,93581,128,0,93621:0:0:0:0:
64,192,93660,128,0,93700:0:0:0:0:
192,192,93739,128,0,93779:0:0:0:0:
320,192,93818,1,0,0:0:0:0:
448,192,93818,128,0,93857:0:0:0:0:
64,192,93897,128,0,93936:0:0:0:0:
192,192,93976,128,0,94015:0:0:0:0:
320,192,94055,1,0,0:0:0:0:
448,192,94055,128,0,94094:0:0:0:0:
192,192,94134,128,0,94173:0:0:0:0:
64,192,94213,128,0,94252:0:0:0:0:
320,192,94292,1,0,0:0:0:0:
448,192,94292,128,0,94331:0:0:0:0:
192,192,94371,128,0,94410:0:0:0:0:
64,192,94450,128,0,94489:0:0:0:0:
320,192,94529,1,0,0:0:0:0:
448,192,94529,128,0,94568:0:0:0:0:
64,192,94607,128,0,94647:0:0:0:0:
192,192,94686,128,0,94726:0:0:0:0:
320,192,94765,1,0,0:0:0:0:
448,192,94765,128,0,94805:0:0:0:0:
192,192,94844,128,0,94884:0:0:0:0:
64,192,94923,128,0,94963:0:0:0:0:
192,192,95002,1,0,0:0:0:0:
320,192,95002,128,0,95042:0:0:0:0:
64,192,95081,128,0,95121:0:0:0:0:
448,192,95160,128,0,95200:0:0:0:0:
320,192,95239,1,0,0:0:0:0:
192,192,95239,128,0,95279:0:0:0:0:
448,192,95318,128,0,95357:0:0:0:0:
64,192,95397,128,0,95436:0:0:0:0:
192,192,95476,1,0,0:0:0:0:
448,192,95476,128,0,95515:0:0:0:0:
320,192,95555,128,0,95594:0:0:0:0:
192,192,95634,128,0,95673:0:0:0:0:
320,192,95713,1,0,0:0:0:0:
64,192,95713,128,0,95752:0:0:0:0:
192,192,95792,128,0,95831:0:0:0:0:
448,192,95871,128,0,95910:0:0:0:0:
320,192,95950,1,0,0:0:0:0:
192,192,95950,128,0,95989:0:0:0:0:
64,192,96029,128,0,96068:0:0:0:0:
320,192,96107,128,0,96147:0:0:0:0:
64,192,96186,128,0,96226:0:0:0:0:
192,192,96186,128,0,96226:0:0:0:0:
320,192,96265,128,0,96305:0:0:0:0:
448,192,96344,128,0,96384:0:0:0:0:
192,192,96423,128,0,96463:0:0:0:0:
64,192,96423,128,0,96463:0:0:0:0:
320,192,96502,128,0,96542:0:0:0:0:
448,192,96581,128,0,96621:0:0:0:0:
320,192,96660,128,0,96700:0:0:0:0:
192,192,96660,128,0,96700:0:0:0:0:
64,192,96739,128,0,96779:0:0:0:0:
192,192,96818,128,0,96857:0:0:0:0:
64,192,96897,128,0,96936:0:0:0:0:
320,192,96897,128,0,96936:0:0:0:0:
448,192,96976,128,0,97015:0:0:0:0:
320,192,97055,128,0,97094:0:0:0:0:
192,192,97134,128,0,97173:0:0:0:0:
448,192,97134,128,0,97173:0:0:0:0:
64,192,97213,128,0,97252:0:0:0:0:
448,192,97292,128,0,97331:0:0:0:0:
320,192,97371,128,0,97410:0:0:0:0:
64,192,97371,128,0,97410:0:0:0:0:
192,192,97450,128,0,97489:0:0:0:0:
448,192,97529,128,0,97568:0:0:0:0:
192,192,97607,128,0,97647:0:0:0:0:
64,192,97607,128,0,97647:0:0:0:0:
320,192,97686,128,0,97726:0:0:0:0:
448,192,97765,128,0,97805:0:0:0:0:
320,192,97844,128,0,97884:0:0:0:0:
192,192,97844,128,0,97884:0:0:0:0:
64,192,97923,128,0,97963:0:0:0:0:
448,192,98002,128,0,98042:0:0:0:0:
320,192,98081,128,0,98121:0:0:0:0:
192,192,98081,128,0,98121:0:0:0:0:
64,192,98160,128,0,98200:0:0:0:0:
320,192,98239,128,0,98279:0:0:0:0:
192,192,98318,128,0,98357:0:0:0:0:
64,192,98318,128,0,98357:0:0:0:0:
448,192,98397,128,0,98436:0:0:0:0:
320,192,98476,128,0,98515:0:0:0:0:
192,192,98555,128,0,98594:0:0:0:0:
64,192,98555,128,0,98594:0:0:0:0:
320,192,98634,128,0,98673:0:0:0:0:
448,192,98713,128,0,98752:0:0:0:0:
64,192,98792,128,0,98831:0:0:0:0:
192,192,98792,128,0,98831:0:0:0:0:
320,192,98871,128,0,98910:0:0:0:0:
448,192,98950,128,0,98989:0:0:0:0:
192,192,99029,128,0,99068:0:0:0:0:
64,192,99029,128,0,99068:0:0:0:0:
320,192,99107,128,0,99147:0:0:0:0:
64,192,99186,128,0,99226:0:0:0:0:
320,192,99265,128,0,99305:0:0:0:0:
192,192,99265,128,0,99305:0:0:0:0:
448,192,99344,128,0,99384:0:0:0:0:
64,192,99502,128,0,101081:0:0:0:0:
192,192,99502,128,0,101081:0:0:0:0:
320,192,99502,128,0,101081:0:0:0:0:
448,192,99502,128,0,101081:0:0:0:0:
192,192,101160,1,0,0:0:0:0:
64,192,101239,1,0,0:0:0:0:
320,192,101318,1,0,0:0:0:0:
448,192,101318,1,0,0:0:0:0:
64,192,101397,1,0,0:0:0:0:
192,192,101476,1,0,0:0:0:0:
320,192,101555,1,0,0:0:0:0:
448,192,101555,1,0,0:0:0:0:
64,192,101634,1,0,0:0:0:0:
192,192,101713,1,0,0:0:0:0:
64,192,101792,1,0,0:0:0:0:
448,192,101792,1,0,0:0:0:0:
192,192,101871,1,0,0:0:0:0:
320,192,101950,1,0,0:0:0:0:
64,192,102029,1,0,0:0:0:0:
448,192,102029,1,0,0:0:0:0:
192,192,102107,1,0,0:0:0:0:
320,192,102186,1,0,0:0:0:0:
448,192,102186,1,0,0:0:0:0:
192,192,102265,1,0,0:0:0:0:
64,192,102344,1,0,0:0:0:0:
320,192,102423,1,0,0:0:0:0:
448,192,102423,1,0,0:0:0:0:
64,192,102502,1,0,0:0:0:0:
448,192,102581,1,0,0:0:0:0:
64,192,102660,1,0,0:0:0:0:
192,192,102660,1,0,0:0:0:0:
448,192,102739,1,0,0:0:0:0:
320,192,102818,1,0,0:0:0:0:
448,192,102897,1,0,0:0:0:0:
192,192,102897,1,0,0:0:0:0:
64,192,102976,1,0,0:0:0:0:
448,192,103055,1,0,0:0:0:0:
64,192,103134,1,0,0:0:0:0:
192,192,103134,1,0,0:0:0:0:
320,192,103213,1,0,0:0:0:0:
64,192,103292,1,0,0:0:0:0:
320,192,103371,1,0,0:0:0:0:
448,192,103371,1,0,0:0:0:0:
64,192,103450,1,0,0:0:0:0:
192,192,103529,1,0,0:0:0:0:
320,192,103607,1,0,0:0:0:0:
448,192,103607,1,0,0:0:0:0:
64,192,103686,1,0,0:0:0:0:
448,192,103765,1,0,0:0:0:0:
64,192,103844,1,0,0:0:0:0:
192,192,103844,1,0,0:0:0:0:
320,192,103923,1,0,0:0:0:0:
448,192,104002,1,0,0:0:0:0:
64,192,104081,1,0,0:0:0:0:
192,192,104081,1,0,0:0:0:0:
448,192,104160,1,0,0:0:0:0:
320,192,104239,1,0,0:0:0:0:
64,192,104318,1,0,0:0:0:0:
192,192,104318,1,0,0:0:0:0:
320,192,104397,1,0,0:0:0:0:
64,192,104476,1,0,0:0:0:0:
320,192,104555,1,0,0:0:0:0:
448,192,104555,1,0,0:0:0:0:
192,192,104634,1,0,0:0:0:0:
448,192,104713,1,0,0:0:0:0:
64,192,104792,1,0,0:0:0:0:
320,192,104792,1,0,0:0:0:0:
192,192,104871,1,0,0:0:0:0:
448,192,104950,1,0,0:0:0:0:
192,192,105029,1,0,0:0:0:0:
320,192,105029,1,0,0:0:0:0:
448,192,105107,1,0,0:0:0:0:
64,192,105186,1,0,0:0:0:0:
192,192,105265,1,0,0:0:0:0:
320,192,105265,1,0,0:0:0:0:
448,192,105344,1,0,0:0:0:0:
64,192,105423,1,0,0:0:0:0:
320,192,105502,1,0,0:0:0:0:
448,192,105502,1,0,0:0:0:0:
192,192,105581,1,0,0:0:0:0:
64,192,105660,1,0,0:0:0:0:
448,192,105739,1,0,0:0:0:0:
320,192,105739,1,0,0:0:0:0:
64,192,105818,1,0,0:0:0:0:
448,192,105897,1,0,0:0:0:0:
64,192,105976,1,0,0:0:0:0:
192,192,105976,1,0,0:0:0:0:
320,192,106055,1,0,0:0:0:0:
448,192,106134,1,0,0:0:0:0:
64,192,106213,1,0,0:0:0:0:
192,192,106213,1,0,0:0:0:0:
448,192,106292,1,0,0:0:0:0:
64,192,106371,1,0,0:0:0:0:
320,192,106450,1,0,0:0:0:0:
192,192,106450,1,0,0:0:0:0:
448,192,106529,1,0,0:0:0:0:
64,192,106607,1,0,0:0:0:0:
320,192,106686,1,0,0:0:0:0:
192,192,106686,1,0,0:0:0:0:
448,192,106765,1,0,0:0:0:0:
64,192,106844,1,0,0:0:0:0:
192,192,106923,1,0,0:0:0:0:
320,192,106923,1,0,0:0:0:0:
448,192,107002,1,0,0:0:0:0:
320,192,107081,1,0,0:0:0:0:
192,192,107160,1,0,0:0:0:0:
64,192,107160,1,0,0:0:0:0:
320,192,107239,1,0,0:0:0:0:
448,192,107318,1,0,0:0:0:0:
320,192,107397,1,0,0:0:0:0:
192,192,107397,1,0,0:0:0:0:
64,192,107476,1,0,0:0:0:0:
448,192,107555,1,0,0:0:0:0:
320,192,107634,1,0,0:0:0:0:
192,192,107634,1,0,0:0:0:0:
64,192,107713,1,0,0:0:0:0:
448,192,107792,1,0,0:0:0:0:
64,192,107871,1,0,0:0:0:0:
192,192,107950,1,0,0:0:0:0:
320,192,107950,1,0,0:0:0:0:
448,192,108029,1,0,0:0:0:0:
64,192,108107,1,0,0:0:0:0:
192,192,108186,1,0,0:0:0:0:
320,192,108186,1,0,0:0:0:0:
448,192,108265,1,0,0:0:0:0:
320,192,108344,1,0,0:0:0:0:
192,192,108423,1,0,0:0:0:0:
64,192,108423,1,0,0:0:0:0:
448,192,108502,1,0,0:0:0:0:
64,192,108581,1,0,0:0:0:0:
320,192,108660,1,0,0:0:0:0:
192,192,108660,1,0,0:0:0:0:
448,192,108739,1,0,0:0:0:0:
320,192,108818,1,0,0:0:0:0:
64,192,108897,1,0,0:0:0:0:
192,192,108897,1,0,0:0:0:0:
320,192,108976,1,0,0:0:0:0:
448,192,109055,1,0,0:0:0:0:
320,192,109134,1,0,0:0:0:0:
192,192,109134,1,0,0:0:0:0:
448,192,109213,1,0,0:0:0:0:
320,192,109292,1,0,0:0:0:0:
64,192,109371,1,0,0:0:0:0:
192,192,109371,1,0,0:0:0:0:
320,192,109450,1,0,0:0:0:0:
448,192,109529,1,0,0:0:0:0:
64,192,109607,1,0,0:0:0:0:
192,192,109607,1,0,0:0:0:0:
448,192,109686,1,0,0:0:0:0:
320,192,109765,1,0,0:0:0:0:
64,192,109844,1,0,0:0:0:0:
192,192,109844,1,0,0:0:0:0:
320,192,109923,1,0,0:0:0:0:
448,192,110002,1,0,0:0:0:0:
64,192,110081,1,0,0:0:0:0:
192,192,110081,1,0,0:0:0:0:
448,192,110160,1,0,0:0:0:0:
320,192,110239,1,0,0:0:0:0:
192,192,110318,1,0,0:0:0:0:
448,192,110318,1,0,0:0:0:0:
64,192,110397,1,0,0:0:0:0:
192,192,110476,1,0,0:0:0:0:
64,192,110555,1,0,0:0:0:0:
320,192,110555,1,0,0:0:0:0:
448,192,110634,1,0,0:0:0:0:
320,192,110713,1,0,0:0:0:0:
64,192,110792,1,0,0:0:0:0:
192,192,110792,1,0,0:0:0:0:
320,192,110871,1,0,0:0:0:0:
448,192,110950,1,0,0:0:0:0:
192,192,111029,1,0,0:0:0:0:
320,192,111029,1,0,0:0:0:0:
64,192,111107,1,0,0:0:0:0:
192,192,111186,1,0,0:0:0:0:
320,192,111265,1,0,0:0:0:0:
448,192,111265,1,0,0:0:0:0:
64,192,111344,1,0,0:0:0:0:
192,192,111423,1,0,0:0:0:0:
320,192,111502,1,0,0:0:0:0:
448,192,111502,1,0,0:0:0:0:
192,192,111581,1,0,0:0:0:0:
64,192,111660,1,0,0:0:0:0:
448,192,111739,1,0,0:0:0:0:
320,192,111739,1,0,0:0:0:0:
192,192,111818,1,0,0:0:0:0:
320,192,111897,1,0,0:0:0:0:
192,192,111976,1,0,0:0:0:0:
64,192,111976,1,0,0:0:0:0:
320,192,112055,1,0,0:0:0:0:
192,192,112134,1,0,0:0:0:0:
320,192,112213,1,0,0:0:0:0:
448,192,112213,1,0,0:0:0:0:
192,192,112292,1,0,0:0:0:0:
64,192,112371,1,0,0:0:0:0:
320,192,112450,1,0,0:0:0:0:
448,192,112450,1,0,0:0:0:0:
192,192,112529,1,0,0:0:0:0:
64,192,112607,1,0,0:0:0:0:
192,192,112686,1,0,0:0:0:0:
320,192,112686,1,0,0:0:0:0:
64,192,112765,1,0,0:0:0:0:
448,192,112844,1,0,0:0:0:0:
320,192,112923,1,0,0:0:0:0:
192,192,112923,1,0,0:0:0:0:
64,192,113002,1,0,0:0:0:0:
448,192,113081,1,0,0:0:0:0:
64,192,113160,1,0,0:0:0:0:
192,192,113160,1,0,0:0:0:0:
320,192,113239,1,0,0:0:0:0:
448,192,113318,1,0,0:0:0:0:
192,192,113397,1,0,0:0:0:0:
64,192,113476,1,0,0:0:0:0:
192,192,113555,1,0,0:0:0:0:
320,192,113555,1,0,0:0:0:0:
448,192,113634,1,0,0:0:0:0:
64,192,113713,1,0,0:0:0:0:
192,192,113792,1,0,0:0:0:0:
320,192,113792,1,0,0:0:0:0:
448,192,113871,1,0,0:0:0:0:
64,192,113950,1,0,0:0:0:0:
192,192,114029,1,0,0:0:0:0:
320,192,114029,1,0,0:0:0:0:
448,192,114107,1,0,0:0:0:0:
64,192,114186,1,0,0:0:0:0:
192,192,114265,1,0,0:0:0:0:
320,192,114265,1,0,0:0:0:0:
448,192,114344,1,0,0:0:0:0:
320,192,114423,1,0,0:0:0:0:
192,192,114502,1,0,0:0:0:0:
64,192,114502,1,0,0:0:0:0:
448,192,114581,1,0,0:0:0:0:
320,192,114660,1,0,0:0:0:0:
64,192,114739,1,0,0:0:0:0:
192,192,114739,1,0,0:0:0:0:
320,192,114818,1,0,0:0:0:0:
448,192,114897,1,0,0:0:0:0:
64,192,114976,1,0,0:0:0:0:
192,192,114976,1,0,0:0:0:0:
320,192,115055,1,0,0:0:0:0:
448,192,115134,1,0,0:0:0:0:
192,192,115213,1,0,0:0:0:0:
320,192,115213,1,0,0:0:0:0:
448,192,115292,1,0,0:0:0:0:
64,192,115371,1,0,0:0:0:0:
192,192,115450,1,0,0:0:0:0:
320,192,115450,1,0,0:0:0:0:
448,192,115529,1,0,0:0:0:0:
64,192,115607,1,0,0:0:0:0:
192,192,115686,1,0,0:0:0:0:
320,192,115686,1,0,0:0:0:0:
448,192,115765,1,0,0:0:0:0:
64,192,115844,1,0,0:0:0:0:
192,192,115923,1,0,0:0:0:0:
320,192,115923,1,0,0:0:0:0:
448,192,116002,1,0,0:0:0:0:
64,192,116081,1,0,0:0:0:0:
192,192,116160,1,0,0:0:0:0:
320,192,116160,1,0,0:0:0:0:
448,192,116239,1,0,0:0:0:0:
320,192,116318,1,0,0:0:0:0:
192,192,116397,1,0,0:0:0:0:
64,192,116397,1,0,0:0:0:0:
448,192,116476,1,0,0:0:0:0:
320,192,116555,1,0,0:0:0:0:
64,192,116634,1,0,0:0:0:0:
192,192,116634,1,0,0:0:0:0:
448,192,116713,1,0,0:0:0:0:
192,192,116792,1,0,0:0:0:0:
320,192,116871,1,0,0:0:0:0:
448,192,116871,1,0,0:0:0:0:
64,192,116950,1,0,0:0:0:0:
320,192,117029,1,0,0:0:0:0:
192,192,117107,1,0,0:0:0:0:
64,192,117107,1,0,0:0:0:0:
448,192,117186,1,0,0:0:0:0:
64,192,117265,1,0,0:0:0:0:
448,192,117344,1,0,0:0:0:0:
320,192,117344,1,0,0:0:0:0:
192,192,117423,1,0,0:0:0:0:
64,192,117502,1,0,0:0:0:0:
448,192,117581,1,0,0:0:0:0:
320,192,117581,1,0,0:0:0:0:
64,192,117660,1,0,0:0:0:0:
448,192,117739,1,0,0:0:0:0:
320,192,117818,1,0,0:0:0:0:
192,192,117818,1,0,0:0:0:0:
64,192,117897,1,0,0:0:0:0:
448,192,117976,1,0,0:0:0:0:
320,192,118055,1,0,0:0:0:0:
192,192,118055,1,0,0:0:0:0:
64,192,118134,1,0,0:0:0:0:
192,192,118213,1,0,0:0:0:0:
320,192,118292,1,0,0:0:0:0:
448,192,118292,1,0,0:0:0:0:
64,192,118371,1,0,0:0:0:0:
192,192,118450,1,0,0:0:0:0:
64,192,118529,1,0,0:0:0:0:
448,192,118529,1,0,0:0:0:0:
320,192,118607,1,0,0:0:0:0:
192,192,118686,1,0,0:0:0:0:
64,192,118765,1,0,0:0:0:0:
448,192,118765,1,0,0:0:0:0:
192,192,118844,1,0,0:0:0:0:
320,192,118923,1,0,0:0:0:0:
448,192,119002,1,0,0:0:0:0:
64,192,119002,1,0,0:0:0:0:
192,192,119081,1,0,0:0:0:0:
320,192,119160,1,0,0:0:0:0:
64,192,119239,1,0,0:0:0:0:
448,192,119239,1,0,0:0:0:0:
192,192,119318,1,0,0:0:0:0:
64,192,119397,1,0,0:0:0:0:
448,192,119476,1,0,0:0:0:0:
320,192,119476,1,0,0:0:0:0:
192,192,119555,1,0,0:0:0:0:
64,192,119634,1,0,0:0:0:0:
448,192,119713,1,0,0:0:0:0:
320,192,119713,1,0,0:0:0:0:
192,192,119792,1,0,0:0:0:0:
64,192,119871,1,0,0:0:0:0:
320,192,119950,1,0,0:0:0:0:
448,192,119950,1,0,0:0:0:0:
64,192,120029,1,0,0:0:0:0:
192,192,120107,1,0,0:0:0:0:
320,192,120186,1,0,0:0:0:0:
448,192,120186,1,0,0:0:0:0:
192,192,120265,1,0,0:0:0:0:
64,192,120344,1,0,0:0:0:0:
448,192,120423,1,0,0:0:0:0:
320,192,120423,1,0,0:0:0:0:
64,192,120502,1,0,0:0:0:0:
192,192,120581,1,0,0:0:0:0:
64,192,120660,1,0,0:0:0:0:
448,192,120660,1,0,0:0:0:0:
320,192,120739,1,0,0:0:0:0:
64,192,120818,1,0,0:0:0:0:
192,192,120818,1,0,0:0:0:0:
320,192,120897,1,0,0:0:0:0:
448,192,120897,1,0,0:0:0:0:
64,192,120976,1,0,0:0:0:0:
192,192,120976,1,0,0:0:0:0:
320,192,121055,1,0,0:0:0:0:
448,192,121055,1,0,0:0:0:0:
64,192,121134,1,0,0:0:0:0:
192,192,121134,1,0,0:0:0:0:
320,192,121213,1,0,0:0:0:0:
448,192,121213,1,0,0:0:0:0:
64,192,121292,1,0,0:0:0:0:
192,192,121371,1,0,0:0:0:0:
320,192,121371,1,0,0:0:0:0:
64,192,121450,1,0,0:0:0:0:
448,192,121529,1,0,0:0:0:0:
320,192,121607,1,0,0:0:0:0:
192,192,121607,1,0,0:0:0:0:
64,192,121686,1,0,0:0:0:0:
448,192,121765,1,0,0:0:0:0:
64,192,121844,1,0,0:0:0:0:
192,192,121844,1,0,0:0:0:0:
320,192,121923,1,0,0:0:0:0:
448,192,122002,1,0,0:0:0:0:
192,192,122081,1,0,0:0:0:0:
64,192,122160,1,0,0:0:0:0:
192,192,122239,1,0,0:0:0:0:
320,192,122239,1,0,0:0:0:0:
448,192,122318,1,0,0:0:0:0:
64,192,122397,1,0,0:0:0:0:
192,192,122476,1,0,0:0:0:0:
320,192,122476,1,0,0:0:0:0:
64,192,122555,1,0,0:0:0:0:
320,192,122634,1,0,0:0:0:0:
192,192,122634,1,0,0:0:0:0:
64,192,122713,1,0,0:0:0:0:
448,192,122792,1,0,0:0:0:0:
192,192,122871,1,0,0:0:0:0:
320,192,122871,1,0,0:0:0:0:
64,192,122950,1,0,0:0:0:0:
448,192,123029,1,0,0:0:0:0:
192,192,123107,1,0,0:0:0:0:
64,192,123107,1,0,0:0:0:0:
320,192,123186,1,0,0:0:0:0:
448,192,123265,1,0,0:0:0:0:
192,192,123344,1,0,0:0:0:0:
64,192,123423,1,0,0:0:0:0:
320,192,123502,1,0,0:0:0:0:
192,192,123502,1,0,0:0:0:0:
448,192,123581,1,0,0:0:0:0:
64,192,123660,1,0,0:0:0:0:
320,192,123739,1,0,0:0:0:0:
192,192,123739,1,0,0:0:0:0:
64,192,123818,1,0,0:0:0:0:
192,192,123897,1,0,0:0:0:0:
320,192,123897,1,0,0:0:0:0:
64,192,123976,1,0,0:0:0:0:
448,192,124055,1,0,0:0:0:0:
320,192,124134,1,0,0:0:0:0:
192,192,124134,1,0,0:0:0:0:
64,192,124213,1,0,0:0:0:0:
448,192,124292,1,0,0:0:0:0:
64,192,124371,1,0,0:0:0:0:
192,192,124371,1,0,0:0:0:0:
320,192,124450,1,0,0:0:0:0:
448,192,124529,1,0,0:0:0:0:
192,192,124607,1,0,0:0:0:0:
64,192,124686,1,0,0:0:0:0:
192,192,124765,1,0,0:0:0:0:
320,192,124765,1,0,0:0:0:0:
448,192,124844,1,0,0:0:0:0:
64,192,124923,1,0,0:0:0:0:
192,192,125002,1,0,0:0:0:0:
320,192,125002,1,0,0:0:0:0:
64,192,125081,1,0,0:0:0:0:
320,192,125160,1,0,0:0:0:0:
192,192,125160,1,0,0:0:0:0:
64,192,125239,1,0,0:0:0:0:
448,192,125318,1,0,0:0:0:0:
192,192,125397,1,0,0:0:0:0:
320,192,125397,1,0,0:0:0:0:
64,192,125476,1,0,0:0:0:0:
448,192,125555,1,0,0:0:0:0:
192,192,125634,1,0,0:0:0:0:
64,192,125634,1,0,0:0:0:0:
320,192,125713,1,0,0:0:0:0:
448,192,125792,1,0,0:0:0:0:
192,192,125871,1,0,0:0:0:0:
64,192,125950,1,0,0:0:0:0:
320,192,126029,1,0,0:0:0:0:
192,192,126029,1,0,0:0:0:0:
448,192,126107,1,0,0:0:0:0:
64,192,126186,1,0,0:0:0:0:
320,192,126265,1,0,0:0:0:0:
192,192,126265,1,0,0:0:0:0:
64,192,126344,1,0,0:0:0:0:
192,192,126423,1,0,0:0:0:0:
320,192,126423,1,0,0:0:0:0:
64,192,126502,1,0,0:0:0:0:
448,192,126581,1,0,0:0:0:0:
320,192,126660,1,0,0:0:0:0:
192,192,126660,1,0,0:0:0:0:
64,192,126739,1,0,0:0:0:0:
448,192,126818,1,0,0:0:0:0:
64,192,126897,1,0,0:0:0:0:
192,192,126897,1,0,0:0:0:0:
320,192,126976,1,0,0:0:0:0:
448,192,127055,1,0,0:0:0:0:
192,192,127134,1,0,0:0:0:0:
64,192,127213,1,0,0:0:0:0:
192,192,127292,1,0,0:0:0:0:
320,192,127292,1,0,0:0:0:0:
448,192,127371,1,0,0:0:0:0:
64,192,127450,1,0,0:0:0:0:
192,192,127529,1,0,0:0:0:0:
320,192,127529,1,0,0:0:0:0:
448,192,127607,1,0,0:0:0:0:
320,192,127686,1,0,0:0:0:0:
192,192,127686,1,0,0:0:0:0:
64,192,127765,1,0,0:0:0:0:
448,192,127844,1,0,0:0:0:0:
320,192,127923,1,0,0:0:0:0:
192,192,127923,1,0,0:0:0:0:
64,192,128002,1,0,0:0:0:0:
448,192,128081,1,0,0:0:0:0:
320,192,128160,1,0,0:0:0:0:
192,192,128160,1,0,0:0:0:0:
64,192,128239,1,0,0:0:0:0:
448,192,128318,1,0,0:0:0:0:
320,192,128397,1,0,0:0:0:0:
192,192,128397,1,0,0:0:0:0:
64,192,128476,1,0,0:0:0:0:
448,192,128555,1,0,0:0:0:0:
192,192,128634,1,0,0:0:0:0:
320,192,128634,1,0,0:0:0:0:
64,192,128713,1,0,0:0:0:0:
448,192,128792,1,0,0:0:0:0:
192,192,128871,1,0,0:0:0:0:
320,192,128871,1,0,0:0:0:0:
64,192,128950,1,0,0:0:0:0:
192,192,129029,1,0,0:0:0:0:
320,192,129107,1,0,0:0:0:0:
448,192,129107,1,0,0:0:0:0:
192,192,129186,1,0,0:0:0:0:
64,192,129265,1,0,0:0:0:0:
448,192,129344,1,0,0:0:0:0:
320,192,129344,1,0,0:0:0:0:
192,192,129423,1,0,0:0:0:0:
320,192,129502,1,0,0:0:0:0:
64,192,129581,1,0,0:0:0:0:
192,192,129581,1,0,0:0:0:0:
320,192,129660,1,0,0:0:0:0:
192,192,129739,1,0,0:0:0:0:
320,192,129818,1,0,0:0:0:0:
448,192,129818,1,0,0:0:0:0:
64,192,129897,1,0,0:0:0:0:
448,192,129976,1,0,0:0:0:0:
192,192,130055,1,0,0:0:0:0:
64,192,130055,1,0,0:0:0:0:
320,192,130134,1,0,0:0:0:0:
448,192,130213,1,0,0:0:0:0:
192,192,130292,1,0,0:0:0:0:
64,192,130292,1,0,0:0:0:0:
320,192,130371,1,0,0:0:0:0:
64,192,130450,1,0,0:0:0:0:
320,192,130529,1,0,0:0:0:0:
448,192,130529,1,0,0:0:0:0:
64,192,130607,1,0,0:0:0:0:
320,192,130686,1,0,0:0:0:0:
192,192,130686,1,0,0:0:0:0:
448,192,130765,1,0,0:0:0:0:
320,192,130844,1,0,0:0:0:0:
192,192,130923,1,0,0:0:0:0:
64,192,130923,1,0,0:0:0:0:
320,192,131002,1,0,0:0:0:0:
64,192,131081,1,0,0:0:0:0:
320,192,131160,1,0,0:0:0:0:
448,192,131160,1,0,0:0:0:0:
64,192,131239,1,0,0:0:0:0:
448,192,131318,1,0,0:0:0:0:
192,192,131397,1,0,0:0:0:0:
320,192,131397,1,0,0:0:0:0:
64,192,131476,1,0,0:0:0:0:
192,192,131555,1,0,0:0:0:0:
320,192,131634,1,0,0:0:0:0:
448,192,131634,1,0,0:0:0:0:
192,192,131713,1,0,0:0:0:0:
64,192,131792,1,0,0:0:0:0:
448,192,131871,1,0,0:0:0:0:
320,192,131871,1,0,0:0:0:0:
192,192,131950,1,0,0:0:0:0:
320,192,132029,1,0,0:0:0:0:
64,192,132107,1,0,0:0:0:0:
192,192,132107,1,0,0:0:0:0:
320,192,132186,1,0,0:0:0:0:
192,192,132265,1,0,0:0:0:0:
320,192,132344,1,0,0:0:0:0:
448,192,132344,1,0,0:0:0:0:
64,192,132423,1,0,0:0:0:0:
448,192,132502,1,0,0:0:0:0:
192,192,132581,1,0,0:0:0:0:
64,192,132581,1,0,0:0:0:0:
320,192,132660,1,0,0:0:0:0:
448,192,132739,1,0,0:0:0:0:
192,192,132818,1,0,0:0:0:0:
64,192,132818,1,0,0:0:0:0:
320,192,132897,1,0,0:0:0:0:
64,192,132976,1,0,0:0:0:0:
320,192,133055,1,0,0:0:0:0:
448,192,133055,1,0,0:0:0:0:
64,192,133134,1,0,0:0:0:0:
320,192,133213,1,0,0:0:0:0:
192,192,133213,1,0,0:0:0:0:
448,192,133292,1,0,0:0:0:0:
320,192,133371,1,0,0:0:0:0:
192,192,133450,1,0,0:0:0:0:
64,192,133450,1,0,0:0:0:0:
320,192,133529,1,0,0:0:0:0:
64,192,133607,1,0,0:0:0:0:
320,192,133686,1,0,0:0:0:0:
448,192,133686,1,0,0:0:0:0:
64,192,133765,1,0,0:0:0:0:
448,192,133844,1,0,0:0:0:0:
320,192,133923,1,0,0:0:0:0:
192,192,133923,1,0,0:0:0:0:
64,192,134002,1,0,0:0:0:0:
192,192,134081,1,0,0:0:0:0:
448,192,134160,1,0,0:0:0:0:
320,192,134160,1,0,0:0:0:0:
192,192,134239,1,0,0:0:0:0:
64,192,134318,1,0,0:0:0:0:
320,192,134397,1,0,0:0:0:0:
448,192,134397,1,0,0:0:0:0:
192,192,134476,1,0,0:0:0:0:
320,192,134555,1,0,0:0:0:0:
192,192,134634,1,0,0:0:0:0:
64,192,134634,1,0,0:0:0:0:
320,192,134713,1,0,0:0:0:0:
192,192,134792,1,0,0:0:0:0:
448,192,134871,1,0,0:0:0:0:
320,192,134871,1,0,0:0:0:0:
64,192,134950,1,0,0:0:0:0:
448,192,135029,1,0,0:0:0:0:
64,192,135107,1,0,0:0:0:0:
192,192,135107,1,0,0:0:0:0:
320,192,135186,1,0,0:0:0:0:
448,192,135265,1,0,0:0:0:0:
64,192,135344,1,0,0:0:0:0:
192,192,135344,1,0,0:0:0:0:
320,192,135423,1,0,0:0:0:0:
64,192,135502,1,0,0:0:0:0:
448,192,135581,1,0,0:0:0:0:
320,192,135581,1,0,0:0:0:0:
64,192,135660,1,0,0:0:0:0:
192,192,135739,1,0,0:0:0:0:
320,192,135739,1,0,0:0:0:0:
448,192,135818,1,0,0:0:0:0:
320,192,135897,1,0,0:0:0:0:
64,192,135976,1,0,0:0:0:0:
192,192,135976,1,0,0:0:0:0:
320,192,136055,1,0,0:0:0:0:
64,192,136134,1,0,0:0:0:0:
448,192,136213,1,0,0:0:0:0:
320,192,136213,1,0,0:0:0:0:
64,192,136292,1,0,0:0:0:0:
448,192,136371,1,0,0:0:0:0:
192,192,136450,1,0,0:0:0:0:
320,192,136450,1,0,0:0:0:0:
64,192,136529,1,0,0:0:0:0:
192,192,136607,1,0,0:0:0:0:
320,192,136686,1,0,0:0:0:0:
448,192,136686,1,0,0:0:0:0:
192,192,136765,1,0,0:0:0:0:
64,192,136844,1,0,0:0:0:0:
448,192,136923,1,0,0:0:0:0:
320,192,136923,1,0,0:0:0:0:
192,192,137002,1,0,0:0:0:0:
320,192,137081,1,0,0:0:0:0:
64,192,137160,1,0,0:0:0:0:
192,192,137160,1,0,0:0:0:0:
320,192,137239,1,0,0:0:0:0:
192,192,137318,1,0,0:0:0:0:
320,192,137397,1,0,0:0:0:0:
448,192,137397,1,0,0:0:0:0:
64,192,137476,1,0,0:0:0:0:
448,192,137555,1,0,0:0:0:0:
192,192,137634,1,0,0:0:0:0:
64,192,137634,1,0,0:0:0:0:
320,192,137713,1,0,0:0:0:0:
448,192,137792,1,0,0:0:0:0:
192,192,137871,1,0,0:0:0:0:
64,192,137871,1,0,0:0:0:0:
320,192,137950,1,0,0:0:0:0:
64,192,138029,1,0,0:0:0:0:
320,192,138107,1,0,0:0:0:0:
448,192,138107,1,0,0:0:0:0:
64,192,138186,1,0,0:0:0:0:
320,192,138265,1,0,0:0:0:0:
192,192,138265,1,0,0:0:0:0:
448,192,138344,1,0,0:0:0:0:
320,192,138423,1,0,0:0:0:0:
192,192,138502,1,0,0:0:0:0:
64,192,138502,1,0,0:0:0:0:
320,192,138581,1,0,0:0:0:0:
64,192,138660,1,0,0:0:0:0:
320,192,138739,1,0,0:0:0:0:
448,192,138739,1,0,0:0:0:0:
64,192,138818,1,0,0:0:0:0:
448,192,138897,1,0,0:0:0:0:
320,192,138976,1,0,0:0:0:0:
192,192,138976,1,0,0:0:0:0:
64,192,139055,1,0,0:0:0:0:
192,192,139134,1,0,0:0:0:0:
448,192,139213,1,0,0:0:0:0:
320,192,139213,1,0,0:0:0:0:
192,192,139292,1,0,0:0:0:0:
64,192,139371,1,0,0:0:0:0:
320,192,139450,1,0,0:0:0:0:
448,192,139450,1,0,0:0:0:0:
192,192,139529,1,0,0:0:0:0:
320,192,139607,1,0,0:0:0:0:
192,192,139686,1,0,0:0:0:0:
64,192,139686,1,0,0:0:0:0:
320,192,139765,1,0,0:0:0:0:
192,192,139844,1,0,0:0:0:0:
448,192,139923,1,0,0:0:0:0:
320,192,139923,1,0,0:0:0:0:
64,192,140002,1,0,0:0:0:0:
448,192,140081,1,0,0:0:0:0:
64,192,140160,1,0,0:0:0:0:
192,192,140160,1,0,0:0:0:0:
320,192,140239,1,0,0:0:0:0:
448,192,140318,1,0,0:0:0:0:
64,192,140397,1,0,0:0:0:0:
192,192,140397,1,0,0:0:0:0:
320,192,140476,1,0,0:0:0:0:
64,192,140555,1,0,0:0:0:0:
448,192,140634,1,0,0:0:0:0:
320,192,140634,1,0,0:0:0:0:
64,192,140713,1,0,0:0:0:0:
192,192,140792,1,0,0:0:0:0:
320,192,140792,1,0,0:0:0:0:
448,192,140871,1,0,0:0:0:0:
320,192,140950,1,0,0:0:0:0:
64,192,141029,1,0,0:0:0:0:
192,192,141029,1,0,0:0:0:0:
320,192,141107,1,0,0:0:0:0:
64,192,141186,1,0,0:0:0:0:
448,192,141265,1,0,0:0:0:0:
320,192,141265,1,0,0:0:0:0:
192,192,141344,1,0,0:0:0:0:
64,192,141344,1,0,0:0:0:0:
320,192,141423,1,0,0:0:0:0:
192,192,141502,1,0,0:0:0:0:
64,192,141502,1,0,0:0:0:0:
320,192,141581,1,0,0:0:0:0:
192,192,141660,1,0,0:0:0:0:
448,192,141660,1,0,0:0:0:0:
320,192,141739,1,0,0:0:0:0:
64,192,141818,1,0,0:0:0:0:
192,192,141818,1,0,0:0:0:0:
320,192,141897,1,0,0:0:0:0:
192,192,141976,1,0,0:0:0:0:
448,192,141976,1,0,0:0:0:0:
320,192,142055,1,0,0:0:0:0:
64,192,142134,1,0,0:0:0:0:
192,192,142134,1,0,0:0:0:0:
448,192,142213,1,0,0:0:0:0:
320,192,142292,1,0,0:0:0:0:
192,192,142292,1,0,0:0:0:0:
64,192,142371,1,0,0:0:0:0:
192,192,142450,1,0,0:0:0:0:
320,192,142450,1,0,0:0:0:0:
64,192,142529,128,0,142765:0:0:0:0:
448,192,142529,1,0,0:0:0:0:
320,192,142607,1,0,0:0:0:0:
192,192,142686,1,0,0:0:0:0:
448,192,142765,1,0,0:0:0:0:
64,192,142844,1,0,0:0:0:0:
320,192,142923,1,0,0:0:0:0:
448,192,142923,1,0,0:0:0:0:
192,192,143002,1,0,0:0:0:0:
64,192,143081,1,0,0:0:0:0:
192,192,143160,1,0,0:0:0:0:
320,192,143160,1,0,0:0:0:0:
448,192,143239,1,0,0:0:0:0:
320,192,143318,1,0,0:0:0:0:
64,192,143397,1,0,0:0:0:0:
192,192,143397,1,0,0:0:0:0:
320,192,143476,1,0,0:0:0:0:
192,192,143555,1,0,0:0:0:0:
448,192,143634,1,0,0:0:0:0:
320,192,143634,1,0,0:0:0:0:
64,192,143713,1,0,0:0:0:0:
192,192,143713,128,0,143950:0:0:0:0:
320,192,143792,1,0,0:0:0:0:
64,192,143871,1,0,0:0:0:0:
448,192,143950,1,0,0:0:0:0:
320,192,144029,1,0,0:0:0:0:
192,192,144107,1,0,0:0:0:0:
64,192,144107,1,0,0:0:0:0:
448,192,144186,1,0,0:0:0:0:
320,192,144265,1,0,0:0:0:0:
192,192,144344,1,0,0:0:0:0:
64,192,144344,1,0,0:0:0:0:
320,192,144423,1,0,0:0:0:0:
448,192,144502,1,0,0:0:0:0:
320,192,144581,1,0,0:0:0:0:
192,192,144581,1,0,0:0:0:0:
64,192,144660,1,0,0:0:0:0:
448,192,144739,1,0,0:0:0:0:
192,192,144818,1,0,0:0:0:0:
64,192,144818,1,0,0:0:0:0:
320,192,144897,1,0,0:0:0:0:
448,192,144976,1,0,0:0:0:0:
192,192,145055,1,0,0:0:0:0:
320,192,145055,1,0,0:0:0:0:
64,192,145134,1,0,0:0:0:0:
320,192,145213,1,0,0:0:0:0:
192,192,145292,1,0,0:0:0:0:
64,192,145292,1,0,0:0:0:0:
448,192,145292,1,0,0:0:0:0:
320,192,145607,1,0,0:0:0:0:
192,192,145607,1,0,0:0:0:0:
64,192,145607,1,0,0:0:0:0:
448,192,145686,1,0,0:0:0:0:
192,192,145765,1,0,0:0:0:0:
320,192,145765,1,0,0:0:0:0:
64,192,145844,1,0,0:0:0:0:
192,192,145923,1,0,0:0:0:0:
320,192,145923,1,0,0:0:0:0:
448,192,145923,1,0,0:0:0:0:
64,192,146002,1,0,0:0:0:0:
320,192,146081,1,0,0:0:0:0:
448,192,146081,1,0,0:0:0:0:
192,192,146160,1,0,0:0:0:0:
64,192,146239,1,0,0:0:0:0:
192,192,146239,1,0,0:0:0:0:
320,192,146239,1,0,0:0:0:0:
448,192,146318,1,0,0:0:0:0:
64,192,146397,1,0,0:0:0:0:
192,192,146397,1,0,0:0:0:0:
320,192,146476,1,0,0:0:0:0:
192,192,146555,1,0,0:0:0:0:
320,192,146555,1,0,0:0:0:0:
448,192,146555,1,0,0:0:0:0:
64,192,146634,128,0,147107:0:0:0:0:
448,192,146634,1,0,0:0:0:0:
320,192,146713,1,0,0:0:0:0:
192,192,146792,1,0,0:0:0:0:
320,192,146871,1,0,0:0:0:0:
448,192,146950,1,0,0:0:0:0:
320,192,147029,1,0,0:0:0:0:
192,192,147107,1,0,0:0:0:0:
448,192,147186,128,0,149476:0:0:0:0:
320,192,147186,1,0,0:0:0:0:
192,192,147265,1,0,0:0:0:0:
64,192,147344,1,0,0:0:0:0:
320,192,147423,1,0,0:0:0:0:
192,192,147502,1,0,0:0:0:0:
64,192,147581,1,0,0:0:0:0:
320,192,147660,1,0,0:0:0:0:
192,192,147739,1,0,0:0:0:0:
64,192,147818,1,0,0:0:0:0:
320,192,147897,1,0,0:0:0:0:
192,192,147976,1,0,0:0:0:0:
64,192,148055,1,0,0:0:0:0:
320,192,148134,1,0,0:0:0:0:
192,192,148213,1,0,0:0:0:0:
64,192,148292,1,0,0:0:0:0:
192,192,148371,1,0,0:0:0:0:
320,192,148450,1,0,0:0:0:0:
64,192,148529,1,0,0:0:0:0:
192,192,148607,1,0,0:0:0:0:
320,192,148686,1,0,0:0:0:0:
192,192,148765,1,0,0:0:0:0:
64,192,148844,1,0,0:0:0:0:
192,192,148923,1,0,0:0:0:0:
320,192,149002,1,0,0:0:0:0:
192,192,149081,1,0,0:0:0:0:
64,192,149160,1,0,0:0:0:0:
320,192,149239,1,0,0:0:0:0:
192,192,149318,1,0,0:0:0:0:
320,192,149397,1,0,0:0:0:0:
64,192,149476,1,0,0:0:0:0:
320,192,149476,128,0,149950:0:0:0:0:
192,192,149555,1,0,0:0:0:0:
64,192,149634,1,0,0:0:0:0:
448,192,149713,1,0,0:0:0:0:
192,192,149792,1,0,0:0:0:0:
64,192,149871,1,0,0:0:0:0:
448,192,149950,1,0,0:0:0:0:
64,192,150029,1,0,0:0:0:0:
192,192,150107,128,0,150660:0:0:0:0:
448,192,150107,1,0,0:0:0:0:
64,192,150186,1,0,0:0:0:0:
320,192,150265,1,0,0:0:0:0:
64,192,150344,1,0,0:0:0:0:
448,192,150423,1,0,0:0:0:0:
64,192,150502,1,0,0:0:0:0:
320,192,150581,1,0,0:0:0:0:
448,192,150660,1,0,0:0:0:0:
64,192,150739,1,0,0:0:0:0:
192,192,150739,1,0,0:0:0:0:
320,192,150818,1,0,0:0:0:0:
448,192,150818,1,0,0:0:0:0:
64,192,150897,1,0,0:0:0:0:
192,192,150897,1,0,0:0:0:0:
320,192,150976,1,0,0:0:0:0:
448,192,150976,1,0,0:0:0:0:
64,192,151055,1,0,0:0:0:0:
192,192,151055,1,0,0:0:0:0:
320,192,151134,1,0,0:0:0:0:
448,192,151134,1,0,0:0:0:0:
192,192,151186,1,0,0:0:0:0:
64,192,151186,1,0,0:0:0:0:
320,192,151239,1,0,0:0:0:0:
448,192,151239,1,0,0:0:0:0:
192,192,151292,1,0,0:0:0:0:
64,192,151292,1,0,0:0:0:0:
320,192,151344,1,0,0:0:0:0:
448,192,151344,1,0,0:0:0:0:
192,192,151397,1,0,0:0:0:0:
64,192,151397,1,0,0:0:0:0:
320,192,151450,1,0,0:0:0:0:
448,192,151450,1,0,0:0:0:0:
64,192,151502,1,0,0:0:0:0:
192,192,151502,1,0,0:0:0:0:
320,192,151555,1,0,0:0:0:0:
448,192,151555,1,0,0:0:0:0:
64,192,151607,1,0,0:0:0:0:
448,192,151686,1,0,0:0:0:0:
192,192,151765,1,0,0:0:0:0:
320,192,151765,1,0,0:0:0:0:
64,192,151844,1,0,0:0:0:0:
192,192,151923,1,0,0:0:0:0:
320,192,152002,1,0,0:0:0:0:
448,192,152002,1,0,0:0:0:0:
192,192,152081,1,0,0:0:0:0:
64,192,152160,1,0,0:0:0:0:
448,192,152239,1,0,0:0:0:0:
320,192,152239,1,0,0:0:0:0:
192,192,152318,1,0,0:0:0:0:
320,192,152397,1,0,0:0:0:0:
64,192,152476,1,0,0:0:0:0:
192,192,152476,1,0,0:0:0:0:
320,192,152555,1,0,0:0:0:0:
192,192,152634,1,0,0:0:0:0:
320,192,152713,1,0,0:0:0:0:
448,192,152713,1,0,0:0:0:0:
64,192,152792,1,0,0:0:0:0:
448,192,152871,1,0,0:0:0:0:
192,192,152950,1,0,0:0:0:0:
64,192,152950,1,0,0:0:0:0:
320,192,153029,1,0,0:0:0:0:
448,192,153107,1,0,0:0:0:0:
192,192,153186,1,0,0:0:0:0:
64,192,153186,1,0,0:0:0:0:
320,192,153265,1,0,0:0:0:0:
64,192,153344,1,0,0:0:0:0:
320,192,153423,1,0,0:0:0:0:
448,192,153423,1,0,0:0:0:0:
64,192,153502,1,0,0:0:0:0:
320,192,153581,1,0,0:0:0:0:
192,192,153581,1,0,0:0:0:0:
448,192,153660,1,0,0:0:0:0:
320,192,153739,1,0,0:0:0:0:
192,192,153818,1,0,0:0:0:0:
64,192,153818,1,0,0:0:0:0:
320,192,153897,1,0,0:0:0:0:
64,192,153976,1,0,0:0:0:0:
320,192,154055,1,0,0:0:0:0:
448,192,154055,1,0,0:0:0:0:
64,192,154134,1,0,0:0:0:0:
448,192,154213,1,0,0:0:0:0:
64,192,154292,1,0,0:0:0:0:
192,192,154292,1,0,0:0:0:0:
320,192,154371,1,0,0:0:0:0:
448,192,154450,1,0,0:0:0:0:
320,192,154529,1,0,0:0:0:0:
192,192,154529,1,0,0:0:0:0:
64,192,154607,1,0,0:0:0:0:
448,192,154686,1,0,0:0:0:0:
320,192,154765,1,0,0:0:0:0:
192,192,154765,1,0,0:0:0:0:
64,192,154844,1,0,0:0:0:0:
448,192,154923,1,0,0:0:0:0:
320,192,155002,1,0,0:0:0:0:
192,192,155002,1,0,0:0:0:0:
64,192,155081,1,0,0:0:0:0:
192,192,155160,1,0,0:0:0:0:
320,192,155160,1,0,0:0:0:0:
448,192,155239,1,0,0:0:0:0:
64,192,155318,1,0,0:0:0:0:
192,192,155397,1,0,0:0:0:0:
320,192,155397,1,0,0:0:0:0:
64,192,155397,1,0,0:0:0:0:
448,192,155476,1,0,0:0:0:0:
320,192,155555,1,0,0:0:0:0:
192,192,155555,1,0,0:0:0:0:
64,192,155634,1,0,0:0:0:0:
320,192,155713,1,0,0:0:0:0:
448,192,155713,1,0,0:0:0:0:
192,192,155713,1,0,0:0:0:0:
448,192,155792,1,0,0:0:0:0:
64,192,155871,1,0,0:0:0:0:
192,192,155871,1,0,0:0:0:0:
320,192,155950,1,0,0:0:0:0:
448,192,156029,1,0,0:0:0:0:
64,192,156029,1,0,0:0:0:0:
192,192,156029,1,0,0:0:0:0:
320,192,156107,1,0,0:0:0:0:
192,192,156186,1,0,0:0:0:0:
64,192,156265,1,0,0:0:0:0:
192,192,156344,1,0,0:0:0:0:
320,192,156344,1,0,0:0:0:0:
448,192,156344,1,0,0:0:0:0:
320,192,156423,1,0,0:0:0:0:
448,192,156502,1,0,0:0:0:0:
192,192,156502,1,0,0:0:0:0:
64,192,156581,1,0,0:0:0:0:
192,192,156660,1,0,0:0:0:0:
320,192,156660,1,0,0:0:0:0:
448,192,156660,1,0,0:0:0:0:
64,192,156739,1,0,0:0:0:0:
320,192,156818,1,0,0:0:0:0:
192,192,156897,1,0,0:0:0:0:
64,192,156897,1,0,0:0:0:0:
320,192,156976,1,0,0:0:0:0:
448,192,157055,1,0,0:0:0:0:
320,192,157134,1,0,0:0:0:0:
192,192,157134,1,0,0:0:0:0:
64,192,157213,1,0,0:0:0:0:
192,192,157292,1,0,0:0:0:0:
448,192,157371,1,0,0:0:0:0:
64,192,157371,1,0,0:0:0:0:
320,192,157450,1,0,0:0:0:0:
192,192,157529,1,0,0:0:0:0:
64,192,157607,1,0,0:0:0:0:
448,192,157607,1,0,0:0:0:0:
192,192,157686,1,0,0:0:0:0:
320,192,157765,1,0,0:0:0:0:
64,192,157844,1,0,0:0:0:0:
448,192,157844,1,0,0:0:0:0:
320,192,157923,1,0,0:0:0:0:
192,192,158002,1,0,0:0:0:0:
64,192,158081,1,0,0:0:0:0:
320,192,158081,1,0,0:0:0:0:
192,192,158160,1,0,0:0:0:0:
320,192,158239,1,0,0:0:0:0:
64,192,158318,1,0,0:0:0:0:
192,192,158318,1,0,0:0:0:0:
448,192,158397,1,0,0:0:0:0:
64,192,158476,1,0,0:0:0:0:
192,192,158555,1,0,0:0:0:0:
320,192,158555,1,0,0:0:0:0:
448,192,158634,1,0,0:0:0:0:
64,192,158713,1,0,0:0:0:0:
320,192,158792,1,0,0:0:0:0:
448,192,158792,1,0,0:0:0:0:
64,192,158871,1,0,0:0:0:0:
448,192,158950,1,0,0:0:0:0:
64,192,159029,1,0,0:0:0:0:
192,192,159029,1,0,0:0:0:0:
320,192,159107,1,0,0:0:0:0:
448,192,159186,1,0,0:0:0:0:
320,192,159265,1,0,0:0:0:0:
192,192,159265,1,0,0:0:0:0:
64,192,159344,1,0,0:0:0:0:
192,192,159423,1,0,0:0:0:0:
448,192,159502,1,0,0:0:0:0:
320,192,159502,1,0,0:0:0:0:
192,192,159581,1,0,0:0:0:0:
64,192,159660,1,0,0:0:0:0:
320,192,159739,1,0,0:0:0:0:
448,192,159739,1,0,0:0:0:0:
192,192,159818,1,0,0:0:0:0:
320,192,159897,1,0,0:0:0:0:
192,192,159976,1,0,0:0:0:0:
64,192,159976,1,0,0:0:0:0:
320,192,160055,1,0,0:0:0:0:
192,192,160134,1,0,0:0:0:0:
448,192,160213,1,0,0:0:0:0:
320,192,160213,1,0,0:0:0:0:
64,192,160292,1,0,0:0:0:0:
448,192,160371,1,0,0:0:0:0:
64,192,160450,1,0,0:0:0:0:
192,192,160450,1,0,0:0:0:0:
320,192,160529,1,0,0:0:0:0:
448,192,160607,1,0,0:0:0:0:
64,192,160686,1,0,0:0:0:0:
192,192,160686,1,0,0:0:0:0:
320,192,160765,1,0,0:0:0:0:
64,192,160844,1,0,0:0:0:0:
448,192,160923,1,0,0:0:0:0:
320,192,160923,1,0,0:0:0:0:
64,192,161002,1,0,0:0:0:0:
192,192,161081,1,0,0:0:0:0:
320,192,161081,1,0,0:0:0:0:
448,192,161160,1,0,0:0:0:0:
320,192,161239,1,0,0:0:0:0:
64,192,161318,1,0,0:0:0:0:
192,192,161318,1,0,0:0:0:0:
320,192,161397,1,0,0:0:0:0:
64,192,161476,1,0,0:0:0:0:
192,192,161476,1,0,0:0:0:0:
448,192,161555,1,0,0:0:0:0:
64,192,161634,1,0,0:0:0:0:
448,192,161713,1,0,0:0:0:0:
320,192,161713,1,0,0:0:0:0:
192,192,161713,1,0,0:0:0:0:
64,192,161792,1,0,0:0:0:0:
320,192,161871,1,0,0:0:0:0:
192,192,161871,1,0,0:0:0:0:
64,192,161950,1,0,0:0:0:0:
448,192,162029,1,0,0:0:0:0:
64,192,162107,1,0,0:0:0:0:
192,192,162107,1,0,0:0:0:0:
320,192,162186,1,0,0:0:0:0:
448,192,162265,1,0,0:0:0:0:
64,192,162344,1,0,0:0:0:0:
192,192,162344,1,0,0:0:0:0:
448,192,162423,1,0,0:0:0:0:
320,192,162502,1,0,0:0:0:0:
64,192,162581,1,0,0:0:0:0:
192,192,162581,1,0,0:0:0:0:
320,192,162660,1,0,0:0:0:0:
448,192,162739,1,0,0:0:0:0:
320,192,162818,1,0,0:0:0:0:
192,192,162818,1,0,0:0:0:0:
64,192,162897,1,0,0:0:0:0:
320,192,162976,1,0,0:0:0:0:
192,192,163055,1,0,0:0:0:0:
64,192,163055,1,0,0:0:0:0:
320,192,163134,1,0,0:0:0:0:
448,192,163213,1,0,0:0:0:0:
192,192,163292,1,0,0:0:0:0:
320,192,163292,1,0,0:0:0:0:
64,192,163371,1,0,0:0:0:0:
448,192,163450,1,0,0:0:0:0:
192,192,163529,1,0,0:0:0:0:
64,192,163529,1,0,0:0:0:0:
320,192,163607,1,0,0:0:0:0:
448,192,163686,1,0,0:0:0:0:
192,192,163765,1,0,0:0:0:0:
64,192,163765,1,0,0:0:0:0:
448,192,163844,1,0,0:0:0:0:
320,192,163923,1,0,0:0:0:0:
192,192,164002,1,0,0:0:0:0:
448,192,164002,1,0,0:0:0:0:
64,192,164081,1,0,0:0:0:0:
320,192,164160,1,0,0:0:0:0:
192,192,164239,1,0,0:0:0:0:
448,192,164239,1,0,0:0:0:0:
320,192,164318,1,0,0:0:0:0:
64,192,164397,1,0,0:0:0:0:
192,192,164397,1,0,0:0:0:0:
320,192,164476,1,0,0:0:0:0:
448,192,164555,1,0,0:0:0:0:
192,192,164634,1,0,0:0:0:0:
448,192,164713,1,0,0:0:0:0:
320,192,164713,1,0,0:0:0:0:
64,192,164792,1,0,0:0:0:0:
448,192,164871,1,0,0:0:0:0:
320,192,164950,1,0,0:0:0:0:
192,192,164950,1,0,0:0:0:0:
64,192,165029,1,0,0:0:0:0:
448,192,165107,1,0,0:0:0:0:
320,192,165186,1,0,0:0:0:0:
192,192,165186,1,0,0:0:0:0:
64,192,165265,1,0,0:0:0:0:
320,192,165344,1,0,0:0:0:0:
192,192,165423,1,0,0:0:0:0:
64,192,165423,1,0,0:0:0:0:
448,192,165502,1,0,0:0:0:0:
320,192,165581,1,0,0:0:0:0:
64,192,165660,1,0,0:0:0:0:
192,192,165660,1,0,0:0:0:0:
320,192,165739,1,0,0:0:0:0:
448,192,165818,1,0,0:0:0:0:
192,192,165897,1,0,0:0:0:0:
320,192,165897,1,0,0:0:0:0:
64,192,165976,1,0,0:0:0:0:
448,192,166055,1,0,0:0:0:0:
320,192,166134,1,0,0:0:0:0:
192,192,166134,1,0,0:0:0:0:
64,192,166213,1,0,0:0:0:0:
192,192,166292,1,0,0:0:0:0:
320,192,166371,1,0,0:0:0:0:
64,192,166371,1,0,0:0:0:0:
448,192,166450,1,0,0:0:0:0:
320,192,166529,1,0,0:0:0:0:
192,192,166607,1,0,0:0:0:0:
64,192,166607,1,0,0:0:0:0:
320,192,166686,1,0,0:0:0:0:
448,192,166765,1,0,0:0:0:0:
64,192,166844,1,0,0:0:0:0:
192,192,166844,1,0,0:0:0:0:
320,192,166923,1,0,0:0:0:0:
192,192,167002,1,0,0:0:0:0:
320,192,167081,1,0,0:0:0:0:
448,192,167081,1,0,0:0:0:0:
192,192,167160,1,0,0:0:0:0:
448,192,167239,1,0,0:0:0:0:
64,192,167318,1,0,0:0:0:0:
192,192,167318,1,0,0:0:0:0:
320,192,167397,1,0,0:0:0:0:
448,192,167476,1,0,0:0:0:0:
64,192,167555,1,0,0:0:0:0:
192,192,167555,1,0,0:0:0:0:
448,192,167634,1,0,0:0:0:0:
64,192,167713,1,0,0:0:0:0:
448,192,167792,1,0,0:0:0:0:
320,192,167792,1,0,0:0:0:0:
64,192,167871,1,0,0:0:0:0:
192,192,167950,1,0,0:0:0:0:
320,192,168029,1,0,0:0:0:0:
448,192,168029,1,0,0:0:0:0:
192,192,168107,1,0,0:0:0:0:
64,192,168186,1,0,0:0:0:0:
320,192,168265,1,0,0:0:0:0:
448,192,168265,1,0,0:0:0:0:
192,192,168344,1,0,0:0:0:0:
320,192,168423,1,0,0:0:0:0:
192,192,168502,1,0,0:0:0:0:
64,192,168502,1,0,0:0:0:0:
320,192,168581,1,0,0:0:0:0:
448,192,168660,1,0,0:0:0:0:
192,192,168739,1,0,0:0:0:0:
64,192,168739,1,0,0:0:0:0:
448,192,168818,1,0,0:0:0:0:
64,192,168897,1,0,0:0:0:0:
64,192,168976,1,0,0:0:0:0:
192,192,168976,1,0,0:0:0:0:
320,192,168976,1,0,0:0:0:0:
448,192,168976,1,0,0:0:0:0:
192,192,169134,1,0,0:0:0:0:
64,192,169134,1,0,0:0:0:0:
320,192,169292,1,0,0:0:0:0:
448,192,169292,1,0,0:0:0:0:
192,192,169450,1,0,0:0:0:0:
64,192,169450,1,0,0:0:0:0:
320,192,169607,1,0,0:0:0:0:
448,192,169607,1,0,0:0:0:0:
64,192,169765,1,0,0:0:0:0:
192,192,169765,1,0,0:0:0:0:
320,192,169923,1,0,0:0:0:0:
448,192,169923,1,0,0:0:0:0:
64,192,170081,1,0,0:0:0:0:
192,192,170081,1,0,0:0:0:0:
448,192,170239,1,0,0:0:0:0:
320,192,170239,1,0,0:0:0:0:
64,192,170397,1,0,0:0:0:0:
192,192,170397,1,0,0:0:0:0:
320,192,170555,1,0,0:0:0:0:
448,192,170555,1,0,0:0:0:0:
64,192,170634,1,0,0:0:0:0:
192,192,170634,1,0,0:0:0:0:
320,192,170713,1,0,0:0:0:0:
448,192,170713,1,0,0:0:0:0:
192,192,170792,1,0,0:0:0:0:
64,192,170792,1,0,0:0:0:0:
320,192,170871,1,0,0:0:0:0:
448,192,170871,1,0,0:0:0:0:
192,192,170950,1,0,0:0:0:0:
64,192,170950,1,0,0:0:0:0:
448,192,171029,1,0,0:0:0:0:
320,192,171029,1,0,0:0:0:0:
192,192,171107,1,0,0:0:0:0:
64,192,171107,1,0,0:0:0:0:
320,192,171186,1,0,0:0:0:0:
448,192,171186,1,0,0:0:0:0:
192,192,171265,1,0,0:0:0:0:
64,192,171265,1,0,0:0:0:0:
448,192,171344,5,0,0:0:0:0:
320,192,171344,1,0,0:0:0:0:
192,192,171344,1,0,0:0:0:0:
64,192,171344,1,0,0:0:0:0:
64,192,171818,5,0,0:0:0:0:
320,192,172134,1,0,0:0:0:0:
192,192,172450,1,0,0:0:0:0:
64,192,172765,1,0,0:0:0:0:
448,192,173081,1,0,0:0:0:0:
320,192,173397,1,0,0:0:0:0:
192,192,173713,1,0,0:0:0:0:
64,192,174029,1,0,0:0:0:0:
320,192,174344,1,0,0:0:0:0:
448,192,174660,1,0,0:0:0:0:
320,192,174976,1,0,0:0:0:0:
64,192,175292,1,0,0:0:0:0:
320,192,175607,1,0,0:0:0:0:
192,192,175923,1,0,0:0:0:0:
64,192,176239,1,0,0:0:0:0:
320,192,176555,1,0,0:0:0:0:
64,192,176871,1,0,0:0:0:0:
192,192,176871,1,0,0:0:0:0:
192,192,177029,1,0,0:0:0:0:
320,192,177029,1,0,0:0:0:0:
64,192,177186,1,0,0:0:0:0:
448,192,177186,1,0,0:0:0:0:
320,192,177344,1,0,0:0:0:0:
192,192,177344,1,0,0:0:0:0:
192,192,177502,1,0,0:0:0:0:
64,192,177502,1,0,0:0:0:0:
320,192,177660,1,0,0:0:0:0:
448,192,177660,1,0,0:0:0:0:
192,192,177818,1,0,0:0:0:0:
64,192,177818,1,0,0:0:0:0:
320,192,177976,1,0,0:0:0:0:
448,192,177976,1,0,0:0:0:0:
192,192,178134,1,0,0:0:0:0:
64,192,178134,1,0,0:0:0:0:
320,192,178213,1,0,0:0:0:0:
448,192,178213,1,0,0:0:0:0:
192,192,178292,1,0,0:0:0:0:
64,192,178292,1,0,0:0:0:0:
320,192,178371,1,0,0:0:0:0:
448,192,178371,1,0,0:0:0:0:
64,192,178450,1,0,0:0:0:0:
192,192,178450,1,0,0:0:0:0:
320,192,178529,1,0,0:0:0:0:
448,192,178529,1,0,0:0:0:0:
64,192,178607,1,0,0:0:0:0:
192,192,178607,1,0,0:0:0:0:
320,192,178686,1,0,0:0:0:0:
448,192,178686,1,0,0:0:0:0:
64,192,178765,1,0,0:0:0:0:
192,192,178765,1,0,0:0:0:0:
320,192,178844,1,0,0:0:0:0:
448,192,178844,1,0,0:0:0:0:
192,192,178923,1,0,0:0:0:0:
64,192,178923,1,0,0:0:0:0:
320,192,179002,1,0,0:0:0:0:
448,192,179002,1,0,0:0:0:0:
192,192,179081,1,0,0:0:0:0:
320,192,179160,1,0,0:0:0:0:
192,192,179239,1,0,0:0:0:0:
320,192,179318,1,0,0:0:0:0:
192,192,179397,1,0,0:0:0:0:
64,192,180660,1,0,0:0:0:0:
192,192,180660,1,0,0:0:0:0:
320,192,180660,1,0,0:0:0:0:
448,192,180660,1,0,0:0:0:0:
64,192,180976,1,0,0:0:0:0:
192,192,180976,1,0,0:0:0:0:
320,192,180976,1,0,0:0:0:0:
448,192,180976,1,0,0:0:0:0:
64,192,181292,1,0,0:0:0:0:
192,192,181292,1,0,0:0:0:0:
320,192,181292,1,0,0:0:0:0:
448,192,181292,1,0,0:0:0:0:
64,192,181397,1,0,0:0:0:0:
192,192,181397,1,0,0:0:0:0:
320,192,181397,1,0,0:0:0:0:
448,192,181502,1,0,0:0:0:0:
320,192,181502,1,0,0:0:0:0:
192,192,181502,1,0,0:0:0:0:
64,192,181607,1,0,0:0:0:0:
192,192,181607,1,0,0:0:0:0:
320,192,181607,1,0,0:0:0:0:
64,192,181713,1,0,0:0:0:0:
192,192,181713,1,0,0:0:0:0:
448,192,181713,1,0,0:0:0:0:
192,192,181818,1,0,0:0:0:0:
320,192,181818,1,0,0:0:0:0:
192,192,181923,1,0,0:0:0:0:
320,192,182029,1,0,0:0:0:0:
448,192,182029,1,0,0:0:0:0:
448,192,182134,1,0,0:0:0:0:
320,192,182239,1,0,0:0:0:0:
192,192,182239,1,0,0:0:0:0:
320,192,182344,1,0,0:0:0:0:
64,192,182450,1,0,0:0:0:0:
192,192,182450,1,0,0:0:0:0:
192,192,182555,1,0,0:0:0:0:
320,192,182660,1,0,0:0:0:0:
448,192,182660,1,0,0:0:0:0:
448,192,182765,1,0,0:0:0:0:
64,192,182871,1,0,0:0:0:0:
192,192,182871,1,0,0:0:0:0:
64,192,182976,1,0,0:0:0:0:
192,192,183081,1,0,0:0:0:0:
320,192,183081,1,0,0:0:0:0:
320,192,183186,1,0,0:0:0:0:
192,192,183292,1,0,0:0:0:0:
64,192,183292,1,0,0:0:0:0:
192,192,183397,1,0,0:0:0:0:
448,192,183502,1,0,0:0:0:0:
320,192,183502,1,0,0:0:0:0:
320,192,183607,1,0,0:0:0:0:
192,192,183713,1,0,0:0:0:0:
64,192,183713,1,0,0:0:0:0:
320,192,183818,1,0,0:0:0:0:
448,192,183818,1,0,0:0:0:0:
192,192,183923,1,0,0:0:0:0:
64,192,183923,1,0,0:0:0:0:
320,192,184029,1,0,0:0:0:0:
448,192,184029,1,0,0:0:0:0:
320,192,184134,1,0,0:0:0:0:
448,192,184239,1,0,0:0:0:0:
192,192,184239,1,0,0:0:0:0:
192,192,184344,1,0,0:0:0:0:
320,192,184450,1,0,0:0:0:0:
64,192,184450,1,0,0:0:0:0:
64,192,184555,1,0,0:0:0:0:
320,192,184660,1,0,0:0:0:0:
448,192,184660,1,0,0:0:0:0:
448,192,184765,1,0,0:0:0:0:
192,192,184871,1,0,0:0:0:0:
64,192,184871,1,0,0:0:0:0:
64,192,184976,1,0,0:0:0:0:
192,192,185081,1,0,0:0:0:0:
320,192,185081,1,0,0:0:0:0:
192,192,185186,1,0,0:0:0:0:
448,192,185292,1,0,0:0:0:0:
64,192,185292,1,0,0:0:0:0:
448,192,185397,1,0,0:0:0:0:
64,192,185502,1,0,0:0:0:0:
192,192,185502,1,0,0:0:0:0:
64,192,185607,1,0,0:0:0:0:
320,192,185713,1,0,0:0:0:0:
448,192,185713,1,0,0:0:0:0:
448,192,185818,1,0,0:0:0:0:
64,192,185923,1,0,0:0:0:0:
192,192,185923,1,0,0:0:0:0:
64,192,186029,1,0,0:0:0:0:
320,192,186134,1,0,0:0:0:0:
448,192,186134,1,0,0:0:0:0:
320,192,186239,1,0,0:0:0:0:
64,192,186344,1,0,0:0:0:0:
192,192,186344,1,0,0:0:0:0:
192,192,186450,1,0,0:0:0:0:
64,192,186555,1,0,0:0:0:0:
320,192,186555,1,0,0:0:0:0:
320,192,186660,1,0,0:0:0:0:
64,192,186765,1,0,0:0:0:0:
192,192,186765,1,0,0:0:0:0:
64,192,186871,1,0,0:0:0:0:
192,192,186976,1,0,0:0:0:0:
320,192,186976,1,0,0:0:0:0:
320,192,187081,1,0,0:0:0:0:
64,192,187186,1,0,0:0:0:0:
192,192,187186,1,0,0:0:0:0:
192,192,187292,1,0,0:0:0:0:
192,192,187397,1,0,0:0:0:0:
320,192,187397,1,0,0:0:0:0:
320,192,187502,1,0,0:0:0:0:
64,192,187607,1,0,0:0:0:0:
192,192,187607,1,0,0:0:0:0:
64,192,187713,1,0,0:0:0:0:
320,192,187818,1,0,0:0:0:0:
448,192,187818,1,0,0:0:0:0:
448,192,187923,1,0,0:0:0:0:
64,192,188029,1,0,0:0:0:0:
192,192,188029,1,0,0:0:0:0:
192,192,188134,1,0,0:0:0:0:
320,192,188239,1,0,0:0:0:0:
448,192,188239,1,0,0:0:0:0:
320,192,188344,1,0,0:0:0:0:
192,192,188450,1,0,0:0:0:0:
64,192,188450,1,0,0:0:0:0:
192,192,188555,1,0,0:0:0:0:
320,192,188660,1,0,0:0:0:0:
448,192,188660,1,0,0:0:0:0:
448,192,188765,1,0,0:0:0:0:
64,192,188871,1,0,0:0:0:0:
192,192,188871,1,0,0:0:0:0:
192,192,188976,1,0,0:0:0:0:
320,192,189081,1,0,0:0:0:0:
448,192,189081,1,0,0:0:0:0:
448,192,189186,1,0,0:0:0:0:
192,192,189292,1,0,0:0:0:0:
320,192,189292,1,0,0:0:0:0:
192,192,189397,1,0,0:0:0:0:
64,192,189502,1,0,0:0:0:0:
192,192,189502,1,0,0:0:0:0:
192,192,189607,1,0,0:0:0:0:
320,192,189713,1,0,0:0:0:0:
448,192,189713,1,0,0:0:0:0:
320,192,189818,1,0,0:0:0:0:
192,192,189923,1,0,0:0:0:0:
64,192,189923,1,0,0:0:0:0:
192,192,190029,1,0,0:0:0:0:
448,192,190134,1,0,0:0:0:0:
320,192,190134,1,0,0:0:0:0:
320,192,190239,1,0,0:0:0:0:
64,192,190344,1,0,0:0:0:0:
192,192,190344,1,0,0:0:0:0:
192,192,190450,1,0,0:0:0:0:
320,192,190555,1,0,0:0:0:0:
448,192,190555,1,0,0:0:0:0:
320,192,190660,1,0,0:0:0:0:
64,192,190765,1,0,0:0:0:0:
192,192,190765,1,0,0:0:0:0:
192,192,190871,1,0,0:0:0:0:
192,192,190976,1,0,0:0:0:0:
320,192,190976,1,0,0:0:0:0:
320,192,191081,1,0,0:0:0:0:
64,192,191186,1,0,0:0:0:0:
192,192,191186,1,0,0:0:0:0:
192,192,191292,1,0,0:0:0:0:
192,192,191397,1,0,0:0:0:0:
320,192,191397,1,0,0:0:0:0:
192,192,191607,1,0,0:0:0:0:
64,192,191607,1,0,0:0:0:0:
64,192,191713,1,0,0:0:0:0:
320,192,191818,1,0,0:0:0:0:
448,192,191818,1,0,0:0:0:0:
448,192,191923,1,0,0:0:0:0:
64,192,192029,1,0,0:0:0:0:
192,192,192029,1,0,0:0:0:0:
64,192,192134,1,0,0:0:0:0:
320,192,192239,1,0,0:0:0:0:
448,192,192239,1,0,0:0:0:0:
448,192,192344,1,0,0:0:0:0:
192,192,192450,1,0,0:0:0:0:
320,192,192450,1,0,0:0:0:0:
192,192,192555,1,0,0:0:0:0:
64,192,192660,1,0,0:0:0:0:
192,192,192660,1,0,0:0:0:0:
64,192,192765,1,0,0:0:0:0:
320,192,192871,1,0,0:0:0:0:
448,192,192871,1,0,0:0:0:0:
448,192,192976,1,0,0:0:0:0:
64,192,193081,1,0,0:0:0:0:
192,192,193081,1,0,0:0:0:0:
64,192,193186,1,0,0:0:0:0:
320,192,193292,1,0,0:0:0:0:
448,192,193292,1,0,0:0:0:0:
448,192,193397,1,0,0:0:0:0:
64,192,193502,1,0,0:0:0:0:
192,192,193502,1,0,0:0:0:0:
64,192,193607,1,0,0:0:0:0:
192,192,193713,1,0,0:0:0:0:
320,192,193713,1,0,0:0:0:0:
320,192,193818,1,0,0:0:0:0:
64,192,193923,1,0,0:0:0:0:
192,192,193923,1,0,0:0:0:0:
192,192,194029,1,0,0:0:0:0:
320,192,194134,1,0,0:0:0:0:
448,192,194134,1,0,0:0:0:0:
448,192,194239,1,0,0:0:0:0:
64,192,194344,1,0,0:0:0:0:
192,192,194344,1,0,0:0:0:0:
64,192,194450,1,0,0:0:0:0:
320,192,194555,1,0,0:0:0:0:
448,192,194555,1,0,0:0:0:0:
448,192,194660,1,0,0:0:0:0:
64,192,194765,1,0,0:0:0:0:
192,192,194765,1,0,0:0:0:0:
64,192,194871,1,0,0:0:0:0:
320,192,194976,1,0,0:0:0:0:
448,192,194976,1,0,0:0:0:0:
448,192,195081,1,0,0:0:0:0:
192,192,195186,1,0,0:0:0:0:
320,192,195186,1,0,0:0:0:0:
320,192,195292,1,0,0:0:0:0:
64,192,195397,1,0,0:0:0:0:
192,192,195397,1,0,0:0:0:0:
64,192,195502,1,0,0:0:0:0:
448,192,195607,1,0,0:0:0:0:
320,192,195607,1,0,0:0:0:0:
448,192,195713,1,0,0:0:0:0:
64,192,195818,1,0,0:0:0:0:
192,192,195818,1,0,0:0:0:0:
64,192,195923,1,0,0:0:0:0:
320,192,196029,1,0,0:0:0:0:
448,192,196029,1,0,0:0:0:0:
448,192,196134,1,0,0:0:0:0:
64,192,196239,1,0,0:0:0:0:
192,192,196239,1,0,0:0:0:0:
64,192,196344,1,0,0:0:0:0:
320,192,196450,1,0,0:0:0:0:
448,192,196450,1,0,0:0:0:0:
448,192,196555,1,0,0:0:0:0:
64,192,196660,1,0,0:0:0:0:
192,192,196660,1,0,0:0:0:0:
64,192,196765,1,0,0:0:0:0:
320,192,196871,1,0,0:0:0:0:
448,192,196871,1,0,0:0:0:0:
448,192,196976,1,0,0:0:0:0:
64,192,197081,1,0,0:0:0:0:
192,192,197081,1,0,0:0:0:0:
64,192,197186,1,0,0:0:0:0:
320,192,197292,1,0,0:0:0:0:
448,192,197292,1,0,0:0:0:0:
448,192,197397,1,0,0:0:0:0:
192,192,197502,1,0,0:0:0:0:
64,192,197502,1,0,0:0:0:0:
64,192,197607,1,0,0:0:0:0:
320,192,197713,1,0,0:0:0:0:
448,192,197713,1,0,0:0:0:0:
320,192,197818,1,0,0:0:0:0:
64,192,197923,1,0,0:0:0:0:
192,192,197923,1,0,0:0:0:0:
64,192,198029,1,0,0:0:0:0:
320,192,198134,1,0,0:0:0:0:
448,192,198134,1,0,0:0:0:0:
448,192,198239,1,0,0:0:0:0:
64,192,198344,1,0,0:0:0:0:
192,192,198344,1,0,0:0:0:0:
64,192,198450,1,0,0:0:0:0:
320,192,198555,1,0,0:0:0:0:
448,192,198555,1,0,0:0:0:0:
448,192,198660,1,0,0:0:0:0:
64,192,198765,1,0,0:0:0:0:
192,192,198765,1,0,0:0:0:0:
64,192,198871,1,0,0:0:0:0:
192,192,198976,1,0,0:0:0:0:
320,192,198976,1,0,0:0:0:0:
192,192,199081,1,0,0:0:0:0:
320,192,199186,1,0,0:0:0:0:
448,192,199186,1,0,0:0:0:0:
448,192,199292,1,0,0:0:0:0:
64,192,199397,1,0,0:0:0:0:
192,192,199397,1,0,0:0:0:0:
64,192,199502,1,0,0:0:0:0:
320,192,199607,1,0,0:0:0:0:
448,192,199607,1,0,0:0:0:0:
448,192,199713,1,0,0:0:0:0:
64,192,199818,1,0,0:0:0:0:
192,192,199818,1,0,0:0:0:0:
192,192,199923,1,0,0:0:0:0:
320,192,200029,1,0,0:0:0:0:
448,192,200029,1,0,0:0:0:0:
448,192,200134,1,0,0:0:0:0:
192,192,200239,1,0,0:0:0:0:
320,192,200239,1,0,0:0:0:0:
192,192,200344,1,0,0:0:0:0:
64,192,200450,1,0,0:0:0:0:
320,192,200450,1,0,0:0:0:0:
320,192,200555,1,0,0:0:0:0:
64,192,200660,1,0,0:0:0:0:
192,192,200660,1,0,0:0:0:0:
192,192,200765,1,0,0:0:0:0:
320,192,200871,1,0,0:0:0:0:
448,192,200871,1,0,0:0:0:0:
448,192,200976,1,0,0:0:0:0:
64,192,201081,1,0,0:0:0:0:
192,192,201081,1,0,0:0:0:0:
64,192,201186,1,0,0:0:0:0:
320,192,201292,1,0,0:0:0:0:
448,192,201292,1,0,0:0:0:0:
320,192,201397,1,0,0:0:0:0:
192,192,201502,1,0,0:0:0:0:
64,192,201502,1,0,0:0:0:0:
64,192,201607,1,0,0:0:0:0:
320,192,201713,1,0,0:0:0:0:
448,192,201713,1,0,0:0:0:0:
448,192,201818,1,0,0:0:0:0:
192,192,201923,1,0,0:0:0:0:
64,192,201923,1,0,0:0:0:0:
64,192,202029,1,0,0:0:0:0:
320,192,202134,1,0,0:0:0:0:
448,192,202134,1,0,0:0:0:0:
448,192,202239,1,0,0:0:0:0:
64,192,202344,1,0,0:0:0:0:
192,192,202344,1,0,0:0:0:0:
64,192,202450,1,0,0:0:0:0:
320,192,202555,1,0,0:0:0:0:
448,192,202555,1,0,0:0:0:0:
448,192,202660,1,0,0:0:0:0:
192,192,202765,1,0,0:0:0:0:
320,192,202765,1,0,0:0:0:0:
192,192,202871,1,0,0:0:0:0:
64,192,202976,1,0,0:0:0:0:
320,192,202976,1,0,0:0:0:0:
448,192,203081,1,0,0:0:0:0:
320,192,203081,1,0,0:0:0:0:
320,192,203186,1,0,0:0:0:0:
192,192,203186,1,0,0:0:0:0:
192,192,203292,1,0,0:0:0:0:
64,192,203292,1,0,0:0:0:0:
448,192,203397,1,0,0:0:0:0:
320,192,203397,1,0,0:0:0:0:
320,192,203502,1,0,0:0:0:0:
192,192,203502,1,0,0:0:0:0:
192,192,203607,1,0,0:0:0:0:
64,192,203607,1,0,0:0:0:0:
192,192,203713,1,0,0:0:0:0:
320,192,203818,1,0,0:0:0:0:
448,192,203818,1,0,0:0:0:0:
448,192,203923,1,0,0:0:0:0:
192,192,204029,1,0,0:0:0:0:
64,192,204029,1,0,0:0:0:0:
64,192,204134,1,0,0:0:0:0:
448,192,204239,1,0,0:0:0:0:
320,192,204239,1,0,0:0:0:0:
448,192,204344,1,0,0:0:0:0:
64,192,204450,1,0,0:0:0:0:
192,192,204450,1,0,0:0:0:0:
192,192,204555,1,0,0:0:0:0:
320,192,204660,1,0,0:0:0:0:
448,192,204660,1,0,0:0:0:0:
448,192,204765,1,0,0:0:0:0:
320,192,204871,1,0,0:0:0:0:
192,192,204871,1,0,0:0:0:0:
192,192,204976,1,0,0:0:0:0:
320,192,205081,1,0,0:0:0:0:
448,192,205081,1,0,0:0:0:0:
448,192,205186,1,0,0:0:0:0:
64,192,205292,1,0,0:0:0:0:
192,192,205292,1,0,0:0:0:0:
64,192,205397,1,0,0:0:0:0:
320,192,205502,1,0,0:0:0:0:
448,192,205502,1,0,0:0:0:0:
448,192,205607,1,0,0:0:0:0:
192,192,205713,1,0,0:0:0:0:
64,192,205713,1,0,0:0:0:0:
192,192,205818,1,0,0:0:0:0:
320,192,205923,1,0,0:0:0:0:
448,192,205923,1,0,0:0:0:0:
320,192,206029,1,0,0:0:0:0:
64,192,206134,1,0,0:0:0:0:
192,192,206134,1,0,0:0:0:0:
64,192,206239,1,0,0:0:0:0:
448,192,206344,1,0,0:0:0:0:
320,192,206344,1,0,0:0:0:0:
320,192,206450,1,0,0:0:0:0:
64,192,206555,1,0,0:0:0:0:
192,192,206555,1,0,0:0:0:0:
64,192,206660,1,0,0:0:0:0:
192,192,206765,1,0,0:0:0:0:
320,192,206765,1,0,0:0:0:0:
320,192,206871,1,0,0:0:0:0:
64,192,206976,1,0,0:0:0:0:
192,192,206976,1,0,0:0:0:0:
64,192,207081,1,0,0:0:0:0:
320,192,207186,1,0,0:0:0:0:
448,192,207186,1,0,0:0:0:0:
448,192,207292,1,0,0:0:0:0:
64,192,207397,1,0,0:0:0:0:
192,192,207397,1,0,0:0:0:0:
64,192,207502,1,0,0:0:0:0:
320,192,207607,1,0,0:0:0:0:
448,192,207607,1,0,0:0:0:0:
448,192,207713,1,0,0:0:0:0:
64,192,207818,1,0,0:0:0:0:
192,192,207818,1,0,0:0:0:0:
64,192,207923,1,0,0:0:0:0:
320,192,208029,1,0,0:0:0:0:
192,192,208029,1,0,0:0:0:0:
320,192,208134,1,0,0:0:0:0:
192,192,208239,1,0,0:0:0:0:
64,192,208239,1,0,0:0:0:0:
64,192,208344,1,0,0:0:0:0:
320,192,208450,1,0,0:0:0:0:
448,192,208450,1,0,0:0:0:0:
448,192,208555,1,0,0:0:0:0:
64,192,208660,1,0,0:0:0:0:
192,192,208660,1,0,0:0:0:0:
64,192,208765,1,0,0:0:0:0:
320,192,208871,1,0,0:0:0:0:
448,192,208871,1,0,0:0:0:0:
448,192,208976,1,0,0:0:0:0:
64,192,209081,1,0,0:0:0:0:
192,192,209081,1,0,0:0:0:0:
64,192,209186,1,0,0:0:0:0:
320,192,209292,1,0,0:0:0:0:
448,192,209292,1,0,0:0:0:0:
448,192,209397,1,0,0:0:0:0:
64,192,209502,1,0,0:0:0:0:
192,192,209502,1,0,0:0:0:0:
64,192,209607,1,0,0:0:0:0:
320,192,209713,1,0,0:0:0:0:
448,192,209713,1,0,0:0:0:0:
448,192,209818,1,0,0:0:0:0:
192,192,209923,1,0,0:0:0:0:
320,192,209923,1,0,0:0:0:0:
192,192,210029,1,0,0:0:0:0:
320,192,210134,1,0,0:0:0:0:
448,192,210134,1,0,0:0:0:0:
448,192,210239,1,0,0:0:0:0:
64,192,210344,1,0,0:0:0:0:
192,192,210344,1,0,0:0:0:0:
64,192,210450,1,0,0:0:0:0:
192,192,210555,1,0,0:0:0:0:
320,192,210555,1,0,0:0:0:0:
320,192,210660,1,0,0:0:0:0:
64,192,210765,1,0,0:0:0:0:
192,192,210765,1,0,0:0:0:0:
64,192,210871,1,0,0:0:0:0:
320,192,210976,1,0,0:0:0:0:
448,192,210976,1,0,0:0:0:0:
448,192,211081,1,0,0:0:0:0:
64,192,211186,1,0,0:0:0:0:
192,192,211186,1,0,0:0:0:0:
64,192,211292,1,0,0:0:0:0:
320,192,211397,1,0,0:0:0:0:
448,192,211397,1,0,0:0:0:0:
448,192,211502,1,0,0:0:0:0:
64,192,211607,1,0,0:0:0:0:
192,192,211607,1,0,0:0:0:0:
64,192,211713,1,0,0:0:0:0:
320,192,211818,1,0,0:0:0:0:
448,192,211818,1,0,0:0:0:0:
448,192,211923,1,0,0:0:0:0:
64,192,212029,1,0,0:0:0:0:
192,192,212029,1,0,0:0:0:0:
64,192,212134,1,0,0:0:0:0:
320,192,212239,1,0,0:0:0:0:
448,192,212239,1,0,0:0:0:0:
320,192,212344,1,0,0:0:0:0:
64,192,212450,1,0,0:0:0:0:
192,192,212450,1,0,0:0:0:0:
192,192,212555,1,0,0:0:0:0:
320,192,212660,1,0,0:0:0:0:
448,192,212660,1,0,0:0:0:0:
448,192,212765,1,0,0:0:0:0:
64,192,212871,1,0,0:0:0:0:
192,192,212871,1,0,0:0:0:0:
64,192,212976,1,0,0:0:0:0:
448,192,213081,1,0,0:0:0:0:
320,192,213081,1,0,0:0:0:0:
448,192,213186,1,0,0:0:0:0:
320,192,213292,1,0,0:0:0:0:
192,192,213292,1,0,0:0:0:0:
192,192,213397,1,0,0:0:0:0:
320,192,213502,1,0,0:0:0:0:
448,192,213502,1,0,0:0:0:0:
448,192,213607,1,0,0:0:0:0:
64,192,213713,1,0,0:0:0:0:
192,192,213713,1,0,0:0:0:0:
192,192,213818,1,0,0:0:0:0:
320,192,213923,1,0,0:0:0:0:
448,192,213923,1,0,0:0:0:0:
448,192,214029,1,0,0:0:0:0:
192,192,214134,1,0,0:0:0:0:
320,192,214134,1,0,0:0:0:0:
192,192,214239,1,0,0:0:0:0:
192,192,214344,1,0,0:0:0:0:
320,192,214344,1,0,0:0:0:0:
64,192,214450,1,0,0:0:0:0:
192,192,214555,1,0,0:0:0:0:
320,192,214555,1,0,0:0:0:0:
448,192,214660,1,0,0:0:0:0:
320,192,214765,1,0,0:0:0:0:
192,192,214765,1,0,0:0:0:0:
64,192,214871,1,0,0:0:0:0:
320,192,214976,1,0,0:0:0:0:
448,192,214976,1,0,0:0:0:0:
192,192,215081,1,0,0:0:0:0:
64,192,215186,1,0,0:0:0:0:
320,192,215186,1,0,0:0:0:0:
192,192,215292,1,0,0:0:0:0:
320,192,215397,1,0,0:0:0:0:
448,192,215397,1,0,0:0:0:0:
192,192,215502,1,0,0:0:0:0:
320,192,215607,1,0,0:0:0:0:
448,192,215607,1,0,0:0:0:0:
192,192,215713,1,0,0:0:0:0:
64,192,215818,1,0,0:0:0:0:
320,192,215818,1,0,0:0:0:0:
192,192,215923,1,0,0:0:0:0:
320,192,216029,1,0,0:0:0:0:
448,192,216029,1,0,0:0:0:0:
192,192,216134,1,0,0:0:0:0:
64,192,216239,1,0,0:0:0:0:
320,192,216239,1,0,0:0:0:0:
192,192,216344,1,0,0:0:0:0:
320,192,216344,1,0,0:0:0:0:
448,192,216450,1,0,0:0:0:0:
192,192,216555,1,0,0:0:0:0:
320,192,216555,1,0,0:0:0:0:
64,192,216660,1,0,0:0:0:0:
320,192,216765,1,0,0:0:0:0:
448,192,216765,1,0,0:0:0:0:
64,192,216871,1,0,0:0:0:0:
320,192,216976,1,0,0:0:0:0:
192,192,217081,1,0,0:0:0:0:
448,192,217081,1,0,0:0:0:0:
64,192,217186,1,0,0:0:0:0:
320,192,217292,1,0,0:0:0:0:
448,192,217292,1,0,0:0:0:0:
192,192,217397,1,0,0:0:0:0:
64,192,217502,1,0,0:0:0:0:
320,192,217502,1,0,0:0:0:0:
192,192,217607,1,0,0:0:0:0:
64,192,217713,1,0,0:0:0:0:
320,192,217713,1,0,0:0:0:0:
192,192,217818,1,0,0:0:0:0:
320,192,217923,1,0,0:0:0:0:
448,192,217923,1,0,0:0:0:0:
192,192,218029,1,0,0:0:0:0:
64,192,218134,1,0,0:0:0:0:
320,192,218134,1,0,0:0:0:0:
192,192,218239,1,0,0:0:0:0:
320,192,218239,1,0,0:0:0:0:
448,192,218344,1,0,0:0:0:0:
192,192,218450,1,0,0:0:0:0:
320,192,218450,1,0,0:0:0:0:
64,192,218555,1,0,0:0:0:0:
320,192,218660,1,0,0:0:0:0:
448,192,218660,1,0,0:0:0:0:
64,192,218765,1,0,0:0:0:0:
320,192,218871,1,0,0:0:0:0:
192,192,218976,1,0,0:0:0:0:
448,192,218976,1,0,0:0:0:0:
64,192,219081,1,0,0:0:0:0:
320,192,219186,1,0,0:0:0:0:
448,192,219186,1,0,0:0:0:0:
192,192,219292,1,0,0:0:0:0:
64,192,219397,1,0,0:0:0:0:
320,192,219397,1,0,0:0:0:0:
192,192,219502,1,0,0:0:0:0:
320,192,219607,1,0,0:0:0:0:
64,192,219607,1,0,0:0:0:0:
192,192,219713,1,0,0:0:0:0:
448,192,219818,1,0,0:0:0:0:
320,192,219818,1,0,0:0:0:0:
192,192,219923,1,0,0:0:0:0:
320,192,220029,1,0,0:0:0:0:
64,192,220029,1,0,0:0:0:0:
320,192,220134,1,0,0:0:0:0:
192,192,220134,1,0,0:0:0:0:
448,192,220239,1,0,0:0:0:0:
320,192,220344,1,0,0:0:0:0:
192,192,220344,1,0,0:0:0:0:
64,192,220450,1,0,0:0:0:0:
448,192,220555,1,0,0:0:0:0:
320,192,220555,1,0,0:0:0:0:
64,192,220660,1,0,0:0:0:0:
320,192,220765,1,0,0:0:0:0:
448,192,220871,1,0,0:0:0:0:
192,192,220871,1,0,0:0:0:0:
64,192,220976,1,0,0:0:0:0:
448,192,221081,1,0,0:0:0:0:
320,192,221081,1,0,0:0:0:0:
192,192,221186,1,0,0:0:0:0:
320,192,221292,1,0,0:0:0:0:
64,192,221292,1,0,0:0:0:0:
192,192,221397,1,0,0:0:0:0:
320,192,221502,1,0,0:0:0:0:
448,192,221502,1,0,0:0:0:0:
192,192,221607,1,0,0:0:0:0:
320,192,221713,1,0,0:0:0:0:
448,192,221713,1,0,0:0:0:0:
192,192,221818,1,0,0:0:0:0:
64,192,221923,1,0,0:0:0:0:
320,192,221923,1,0,0:0:0:0:
192,192,222029,1,0,0:0:0:0:
320,192,222134,1,0,0:0:0:0:
448,192,222134,1,0,0:0:0:0:
192,192,222239,1,0,0:0:0:0:
64,192,222344,1,0,0:0:0:0:
320,192,222344,1,0,0:0:0:0:
192,192,222660,1,0,0:0:0:0:
320,192,222660,1,0,0:0:0:0:
64,192,222976,1,0,0:0:0:0:
192,192,222976,1,0,0:0:0:0:
192,192,223292,1,0,0:0:0:0:
320,192,223292,1,0,0:0:0:0:
64,192,223607,1,0,0:0:0:0:
192,192,223607,1,0,0:0:0:0:
320,192,223923,1,0,0:0:0:0:
448,192,223923,1,0,0:0:0:0:
192,192,224239,1,0,0:0:0:0:
320,192,224239,1,0,0:0:0:0:
64,192,224555,1,0,0:0:0:0:
192,192,224555,1,0,0:0:0:0:
320,192,224871,1,0,0:0:0:0:
448,192,224871,1,0,0:0:0:0:
64,192,225186,1,0,0:0:0:0:
448,192,225186,1,0,0:0:0:0:
64,192,225502,1,0,0:0:0:0:
320,192,225502,1,0,0:0:0:0:
64,192,225818,1,0,0:0:0:0:
192,192,225818,1,0,0:0:0:0:
320,192,225897,1,0,0:0:0:0:
448,192,225976,1,0,0:0:0:0:
320,192,226055,1,0,0:0:0:0:
448,192,226134,1,0,0:0:0:0:
320,192,226213,1,0,0:0:0:0:
448,192,226292,1,0,0:0:0:0:
320,192,226371,1,0,0:0:0:0:
448,192,226450,1,0,0:0:0:0:
320,192,226529,1,0,0:0:0:0:
448,192,226607,1,0,0:0:0:0:
320,192,226686,1,0,0:0:0:0:
448,192,226765,1,0,0:0:0:0:
192,192,226844,1,0,0:0:0:0:
64,192,226923,1,0,0:0:0:0:
192,192,227002,1,0,0:0:0:0:
64,192,227081,1,0,0:0:0:0:
192,192,227160,1,0,0:0:0:0:
64,192,227239,1,0,0:0:0:0:
192,192,227318,1,0,0:0:0:0:
64,192,227397,1,0,0:0:0:0:
192,192,227476,1,0,0:0:0:0:
64,192,227555,1,0,0:0:0:0:
192,192,227634,1,0,0:0:0:0:
64,192,227713,1,0,0:0:0:0:
448,192,227792,1,0,0:0:0:0:
320,192,227871,1,0,0:0:0:0:
192,192,227950,1,0,0:0:0:0:
64,192,228029,1,0,0:0:0:0:
448,192,228107,1,0,0:0:0:0:
320,192,228186,1,0,0:0:0:0:
192,192,228265,1,0,0:0:0:0:
64,192,228344,1,0,0:0:0:0:
448,192,228423,1,0,0:0:0:0:
320,192,228502,1,0,0:0:0:0:
192,192,228581,1,0,0:0:0:0:
64,192,228660,1,0,0:0:0:0:
448,192,228739,1,0,0:0:0:0:
320,192,228818,1,0,0:0:0:0:
192,192,228897,1,0,0:0:0:0:
64,192,228976,1,0,0:0:0:0:
192,192,229055,1,0,0:0:0:0:
64,192,229134,1,0,0:0:0:0:
192,192,229213,1,0,0:0:0:0:
448,192,229292,1,0,0:0:0:0:
320,192,229371,1,0,0:0:0:0:
448,192,229450,1,0,0:0:0:0:
320,192,229529,1,0,0:0:0:0:
448,192,229607,1,0,0:0:0:0:
320,192,229686,1,0,0:0:0:0:
64,192,229765,1,0,0:0:0:0:
192,192,229844,1,0,0:0:0:0:
64,192,229923,1,0,0:0:0:0:
192,192,230002,1,0,0:0:0:0:
448,192,230081,1,0,0:0:0:0:
320,192,230160,1,0,0:0:0:0:
448,192,230239,1,0,0:0:0:0:
320,192,230318,1,0,0:0:0:0:
192,192,230397,1,0,0:0:0:0:
64,192,230476,1,0,0:0:0:0:
448,192,230555,1,0,0:0:0:0:
320,192,230634,1,0,0:0:0:0:
192,192,230713,1,0,0:0:0:0:
64,192,230792,1,0,0:0:0:0:
192,192,230871,1,0,0:0:0:0:
64,192,230950,1,0,0:0:0:0:
192,192,231029,1,0,0:0:0:0:
320,192,231107,1,0,0:0:0:0:
448,192,231186,1,0,0:0:0:0:
64,192,231265,1,0,0:0:0:0:
192,192,231344,1,0,0:0:0:0:
320,192,231423,1,0,0:0:0:0:
448,192,231502,1,0,0:0:0:0:
64,192,231581,1,0,0:0:0:0:
192,192,231660,1,0,0:0:0:0:
320,192,231739,1,0,0:0:0:0:
448,192,231818,1,0,0:0:0:0:
64,192,231897,1,0,0:0:0:0:
192,192,231976,1,0,0:0:0:0:
64,192,232055,1,0,0:0:0:0:
192,192,232134,1,0,0:0:0:0:
64,192,232213,1,0,0:0:0:0:
192,192,232292,1,0,0:0:0:0:
320,192,232371,1,0,0:0:0:0:
448,192,232450,1,0,0:0:0:0:
64,192,232529,1,0,0:0:0:0:
192,192,232607,1,0,0:0:0:0:
320,192,232686,1,0,0:0:0:0:
448,192,232765,1,0,0:0:0:0:
64,192,232844,1,0,0:0:0:0:
192,192,232923,1,0,0:0:0:0:
320,192,233002,1,0,0:0:0:0:
448,192,233081,1,0,0:0:0:0:
64,192,233160,1,0,0:0:0:0:
448,192,233239,1,0,0:0:0:0:
320,192,233318,1,0,0:0:0:0:
192,192,233397,1,0,0:0:0:0:
64,192,233476,1,0,0:0:0:0:
448,192,233555,1,0,0:0:0:0:
320,192,233634,1,0,0:0:0:0:
448,192,233713,1,0,0:0:0:0:
320,192,233792,1,0,0:0:0:0:
64,192,233871,1,0,0:0:0:0:
192,192,233950,1,0,0:0:0:0:
448,192,234029,1,0,0:0:0:0:
320,192,234107,1,0,0:0:0:0:
64,192,234186,1,0,0:0:0:0:
192,192,234265,1,0,0:0:0:0:
320,192,234344,1,0,0:0:0:0:
448,192,234423,1,0,0:0:0:0:
64,192,234502,1,0,0:0:0:0:
192,192,234581,1,0,0:0:0:0:
320,192,234660,1,0,0:0:0:0:
448,192,234739,1,0,0:0:0:0:
320,192,234818,1,0,0:0:0:0:
448,192,234897,1,0,0:0:0:0:
320,192,234976,1,0,0:0:0:0:
64,192,235055,1,0,0:0:0:0:
192,192,235134,1,0,0:0:0:0:
64,192,235213,1,0,0:0:0:0:
192,192,235292,1,0,0:0:0:0:
64,192,235371,1,0,0:0:0:0:
192,192,235450,1,0,0:0:0:0:
448,192,235529,1,0,0:0:0:0:
320,192,235607,1,0,0:0:0:0:
192,192,235686,1,0,0:0:0:0:
64,192,235765,1,0,0:0:0:0:
320,192,235844,1,0,0:0:0:0:
448,192,235923,1,0,0:0:0:0:
192,192,236002,1,0,0:0:0:0:
64,192,236081,1,0,0:0:0:0:
64,192,236239,1,0,0:0:0:0:
448,192,236555,1,0,0:0:0:0:
320,192,236871,1,0,0:0:0:0:
192,192,237186,1,0,0:0:0:0:
448,192,237502,1,0,0:0:0:0:
64,192,237818,1,0,0:0:0:0:
320,192,238134,1,0,0:0:0:0:
192,192,238450,1,0,0:0:0:0:
64,192,238765,1,0,0:0:0:0:
320,192,239081,1,0,0:0:0:0:
64,192,239397,1,0,0:0:0:0:
320,192,239713,1,0,0:0:0:0:
320,192,240029,1,0,0:0:0:0:
192,192,240344,1,0,0:0:0:0:
448,192,240660,1,0,0:0:0:0:
64,192,240976,1,0,0:0:0:0:
64,192,241134,1,0,0:0:0:0:
192,192,241134,1,0,0:0:0:0:
320,192,241213,1,0,0:0:0:0:
448,192,241213,1,0,0:0:0:0:
64,192,241292,1,0,0:0:0:0:
192,192,241292,1,0,0:0:0:0:
320,192,241371,1,0,0:0:0:0:
448,192,241371,1,0,0:0:0:0:
64,192,241450,1,0,0:0:0:0:
192,192,241450,1,0,0:0:0:0:
320,192,241529,1,0,0:0:0:0:
448,192,241529,1,0,0:0:0:0:
64,192,241607,1,0,0:0:0:0:
192,192,241607,1,0,0:0:0:0:
320,192,241686,1,0,0:0:0:0:
448,192,241686,1,0,0:0:0:0:
64,192,241765,1,0,0:0:0:0:
192,192,241765,1,0,0:0:0:0:
192,192,241923,1,0,0:0:0:0:
320,192,241923,1,0,0:0:0:0:
448,192,241923,1,0,0:0:0:0:
64,192,242081,1,0,0:0:0:0:
192,192,242081,1,0,0:0:0:0:
320,192,242081,1,0,0:0:0:0:
64,192,242160,1,0,0:0:0:0:
192,192,242160,1,0,0:0:0:0:
320,192,242239,1,0,0:0:0:0:
448,192,242318,1,0,0:0:0:0:
64,192,242397,1,0,0:0:0:0:
192,192,242397,1,0,0:0:0:0:
320,192,242397,1,0,0:0:0:0:
448,192,242476,1,0,0:0:0:0:
192,192,242555,1,0,0:0:0:0:
64,192,242634,1,0,0:0:0:0:
320,192,242634,1,0,0:0:0:0:
448,192,242634,1,0,0:0:0:0:
192,192,242713,1,0,0:0:0:0:
320,192,242792,1,0,0:0:0:0:
64,192,242871,1,0,0:0:0:0:
192,192,242871,1,0,0:0:0:0:
448,192,242871,1,0,0:0:0:0:
320,192,242950,1,0,0:0:0:0:
64,192,243029,1,0,0:0:0:0:
192,192,243107,1,0,0:0:0:0:
320,192,243107,1,0,0:0:0:0:
448,192,243107,1,0,0:0:0:0:
64,192,243186,1,0,0:0:0:0:
448,192,243265,1,0,0:0:0:0:
64,192,243344,1,0,0:0:0:0:
320,192,243344,1,0,0:0:0:0:
192,192,243344,1,0,0:0:0:0:
448,192,243423,1,0,0:0:0:0:
192,192,243502,1,0,0:0:0:0:
64,192,243581,1,0,0:0:0:0:
320,192,243581,1,0,0:0:0:0:
448,192,243581,1,0,0:0:0:0:
192,192,243660,1,0,0:0:0:0:
320,192,243739,1,0,0:0:0:0:
64,192,243818,1,0,0:0:0:0:
192,192,243818,1,0,0:0:0:0:
448,192,243818,1,0,0:0:0:0:
320,192,243897,1,0,0:0:0:0:
192,192,243976,1,0,0:0:0:0:
64,192,244055,1,0,0:0:0:0:
320,192,244055,1,0,0:0:0:0:
448,192,244055,1,0,0:0:0:0:
192,192,244134,1,0,0:0:0:0:
320,192,244213,1,0,0:0:0:0:
64,192,244292,1,0,0:0:0:0:
192,192,244292,1,0,0:0:0:0:
448,192,244292,1,0,0:0:0:0:
320,192,244371,1,0,0:0:0:0:
448,192,244450,1,0,0:0:0:0:
64,192,244529,1,0,0:0:0:0:
192,192,244529,1,0,0:0:0:0:
320,192,244529,1,0,0:0:0:0:
448,192,244607,1,0,0:0:0:0:
64,192,244686,1,0,0:0:0:0:
192,192,244765,1,0,0:0:0:0:
320,192,244765,1,0,0:0:0:0:
448,192,244765,1,0,0:0:0:0:
64,192,244844,1,0,0:0:0:0:
192,192,244923,1,0,0:0:0:0:
64,192,245002,1,0,0:0:0:0:
320,192,245002,1,0,0:0:0:0:
448,192,245002,1,0,0:0:0:0:
192,192,245081,1,0,0:0:0:0:
448,192,245160,1,0,0:0:0:0:
64,192,245239,1,0,0:0:0:0:
192,192,245239,1,0,0:0:0:0:
320,192,245239,1,0,0:0:0:0:
448,192,245318,1,0,0:0:0:0:
192,192,245397,1,0,0:0:0:0:
320,192,245476,1,0,0:0:0:0:
448,192,245476,1,0,0:0:0:0:
64,192,245476,1,0,0:0:0:0:
192,192,245555,1,0,0:0:0:0:
448,192,245634,1,0,0:0:0:0:
64,192,245713,1,0,0:0:0:0:
192,192,245713,1,0,0:0:0:0:
320,192,245713,1,0,0:0:0:0:
448,192,245792,1,0,0:0:0:0:
64,192,245871,1,0,0:0:0:0:
192,192,245950,1,0,0:0:0:0:
320,192,245950,1,0,0:0:0:0:
448,192,245950,1,0,0:0:0:0:
64,192,246029,1,0,0:0:0:0:
448,192,246107,1,0,0:0:0:0:
320,192,246186,1,0,0:0:0:0:
192,192,246186,1,0,0:0:0:0:
64,192,246186,1,0,0:0:0:0:
448,192,246265,1,0,0:0:0:0:
192,192,246344,1,0,0:0:0:0:
64,192,246423,1,0,0:0:0:0:
320,192,246423,1,0,0:0:0:0:
448,192,246423,1,0,0:0:0:0:
192,192,246502,1,0,0:0:0:0:
320,192,246581,1,0,0:0:0:0:
64,192,246660,1,0,0:0:0:0:
192,192,246660,1,0,0:0:0:0:
448,192,246660,1,0,0:0:0:0:
320,192,246739,1,0,0:0:0:0:
192,192,246818,1,0,0:0:0:0:
64,192,246897,1,0,0:0:0:0:
320,192,246897,1,0,0:0:0:0:
448,192,246897,1,0,0:0:0:0:
192,192,246976,1,0,0:0:0:0:
320,192,247055,1,0,0:0:0:0:
448,192,247055,1,0,0:0:0:0:
64,192,247055,1,0,0:0:0:0:
192,192,247134,1,0,0:0:0:0:
448,192,247213,1,0,0:0:0:0:
64,192,247292,1,0,0:0:0:0:
192,192,247292,1,0,0:0:0:0:
320,192,247292,1,0,0:0:0:0:
448,192,247371,1,0,0:0:0:0:
64,192,247450,1,0,0:0:0:0:
192,192,247529,1,0,0:0:0:0:
320,192,247529,1,0,0:0:0:0:
448,192,247529,1,0,0:0:0:0:
64,192,247607,1,0,0:0:0:0:
320,192,247686,1,0,0:0:0:0:
64,192,247765,1,0,0:0:0:0:
192,192,247765,1,0,0:0:0:0:
448,192,247765,1,0,0:0:0:0:
320,192,247844,1,0,0:0:0:0:
192,192,247923,1,0,0:0:0:0:
64,192,248002,1,0,0:0:0:0:
320,192,248002,1,0,0:0:0:0:
448,192,248002,1,0,0:0:0:0:
192,192,248081,1,0,0:0:0:0:
64,192,248160,1,0,0:0:0:0:
320,192,248239,1,0,0:0:0:0:
448,192,248239,1,0,0:0:0:0:
192,192,248239,1,0,0:0:0:0:
64,192,248318,1,0,0:0:0:0:
448,192,248397,1,0,0:0:0:0:
320,192,248476,1,0,0:0:0:0:
192,192,248476,1,0,0:0:0:0:
64,192,248476,1,0,0:0:0:0:
448,192,248555,1,0,0:0:0:0:
192,192,248634,1,0,0:0:0:0:
64,192,248713,1,0,0:0:0:0:
320,192,248713,1,0,0:0:0:0:
448,192,248713,1,0,0:0:0:0:
192,192,248792,1,0,0:0:0:0:
448,192,248871,1,0,0:0:0:0:
64,192,248950,1,0,0:0:0:0:
192,192,248950,1,0,0:0:0:0:
320,192,248950,1,0,0:0:0:0:
448,192,249029,1,0,0:0:0:0:
64,192,249107,1,0,0:0:0:0:
192,192,249186,1,0,0:0:0:0:
320,192,249186,1,0,0:0:0:0:
448,192,249186,1,0,0:0:0:0:
64,192,249265,1,0,0:0:0:0:
320,192,249344,1,0,0:0:0:0:
64,192,249423,1,0,0:0:0:0:
192,192,249423,1,0,0:0:0:0:
448,192,249423,1,0,0:0:0:0:
320,192,249502,1,0,0:0:0:0:
192,192,249581,1,0,0:0:0:0:
64,192,249660,1,0,0:0:0:0:
320,192,249660,1,0,0:0:0:0:
448,192,249660,1,0,0:0:0:0:
192,192,249739,1,0,0:0:0:0:
448,192,249818,1,0,0:0:0:0:
320,192,249897,1,0,0:0:0:0:
192,192,249897,1,0,0:0:0:0:
64,192,249897,1,0,0:0:0:0:
448,192,249976,1,0,0:0:0:0:
64,192,250055,1,0,0:0:0:0:
192,192,250134,1,0,0:0:0:0:
320,192,250134,1,0,0:0:0:0:
448,192,250134,1,0,0:0:0:0:
64,192,250213,1,0,0:0:0:0:
448,192,250292,1,0,0:0:0:0:
64,192,250371,1,0,0:0:0:0:
192,192,250371,1,0,0:0:0:0:
320,192,250371,1,0,0:0:0:0:
448,192,250450,1,0,0:0:0:0:
320,192,250529,1,0,0:0:0:0:
192,192,250529,1,0,0:0:0:0:
64,192,250529,1,0,0:0:0:0:
448,192,250607,1,0,0:0:0:0:
192,192,250686,1,0,0:0:0:0:
64,192,250765,1,0,0:0:0:0:
320,192,250765,1,0,0:0:0:0:
448,192,250765,1,0,0:0:0:0:
192,192,250844,1,0,0:0:0:0:
448,192,250923,1,0,0:0:0:0:
320,192,251002,1,0,0:0:0:0:
192,192,251002,1,0,0:0:0:0:
64,192,251002,1,0,0:0:0:0:
448,192,251081,1,0,0:0:0:0:
192,192,251160,1,0,0:0:0:0:
64,192,251239,1,0,0:0:0:0:
320,192,251239,1,0,0:0:0:0:
448,192,251239,1,0,0:0:0:0:
192,192,251318,1,0,0:0:0:0:
320,192,251397,1,0,0:0:0:0:
64,192,251476,1,0,0:0:0:0:
192,192,251476,1,0,0:0:0:0:
448,192,251476,1,0,0:0:0:0:
320,192,251555,1,0,0:0:0:0:
64,192,251634,1,0,0:0:0:0:
192,192,251713,1,0,0:0:0:0:
320,192,251713,1,0,0:0:0:0:
448,192,251713,1,0,0:0:0:0:
64,192,251792,1,0,0:0:0:0:
448,192,251871,1,0,0:0:0:0:
320,192,251950,1,0,0:0:0:0:
192,192,251950,1,0,0:0:0:0:
64,192,251950,1,0,0:0:0:0:
448,192,252029,1,0,0:0:0:0:
192,192,252107,1,0,0:0:0:0:
64,192,252186,1,0,0:0:0:0:
320,192,252186,1,0,0:0:0:0:
448,192,252186,1,0,0:0:0:0:
192,192,252265,1,0,0:0:0:0:
448,192,252344,1,0,0:0:0:0:
320,192,252423,1,0,0:0:0:0:
192,192,252423,1,0,0:0:0:0:
64,192,252423,1,0,0:0:0:0:
448,192,252502,1,0,0:0:0:0:
192,192,252581,1,0,0:0:0:0:
64,192,252660,1,0,0:0:0:0:
320,192,252660,1,0,0:0:0:0:
448,192,252660,1,0,0:0:0:0:
192,192,252739,1,0,0:0:0:0:
448,192,252818,1,0,0:0:0:0:
64,192,252897,1,0,0:0:0:0:
192,192,252897,1,0,0:0:0:0:
320,192,252897,1,0,0:0:0:0:
448,192,252976,1,0,0:0:0:0:
320,192,253055,1,0,0:0:0:0:
192,192,253134,1,0,0:0:0:0:
64,192,253134,1,0,0:0:0:0:
448,192,253134,1,0,0:0:0:0:
320,192,253213,1,0,0:0:0:0:
192,192,253292,1,0,0:0:0:0:
448,192,253371,1,0,0:0:0:0:
320,192,253371,1,0,0:0:0:0:
64,192,253371,1,0,0:0:0:0:
192,192,253450,1,0,0:0:0:0:
448,192,253529,1,0,0:0:0:0:
64,192,253607,1,0,0:0:0:0:
192,192,253607,1,0,0:0:0:0:
320,192,253607,1,0,0:0:0:0:
448,192,253686,1,0,0:0:0:0:
192,192,253765,1,0,0:0:0:0:
64,192,253844,1,0,0:0:0:0:
320,192,253844,1,0,0:0:0:0:
448,192,253844,1,0,0:0:0:0:
192,192,253923,1,0,0:0:0:0:
448,192,254002,1,0,0:0:0:0:
192,192,254081,1,0,0:0:0:0:
64,192,254081,1,0,0:0:0:0:
320,192,254081,1,0,0:0:0:0:
448,192,254160,1,0,0:0:0:0:
64,192,254239,1,0,0:0:0:0:
192,192,254318,1,0,0:0:0:0:
320,192,254318,1,0,0:0:0:0:
448,192,254318,1,0,0:0:0:0:
64,192,254397,1,0,0:0:0:0:
448,192,254476,1,0,0:0:0:0:
320,192,254555,1,0,0:0:0:0:
192,192,254555,1,0,0:0:0:0:
64,192,254555,1,0,0:0:0:0:
448,192,254634,1,0,0:0:0:0:
192,192,254713,1,0,0:0:0:0:
64,192,254792,1,0,0:0:0:0:
320,192,254792,1,0,0:0:0:0:
448,192,254792,1,0,0:0:0:0:
192,192,254871,1,0,0:0:0:0:
320,192,254950,1,0,0:0:0:0:
64,192,255029,1,0,0:0:0:0:
192,192,255029,1,0,0:0:0:0:
448,192,255029,1,0,0:0:0:0:
320,192,255107,1,0,0:0:0:0:
64,192,255186,1,0,0:0:0:0:
192,192,255265,1,0,0:0:0:0:
320,192,255265,1,0,0:0:0:0:
448,192,255265,1,0,0:0:0:0:
64,192,255344,1,0,0:0:0:0:
448,192,255423,1,0,0:0:0:0:
320,192,255502,1,0,0:0:0:0:
192,192,255502,1,0,0:0:0:0:
64,192,255502,1,0,0:0:0:0:
448,192,255581,1,0,0:0:0:0:
64,192,255660,1,0,0:0:0:0:
192,192,255739,1,0,0:0:0:0:
320,192,255739,1,0,0:0:0:0:
448,192,255739,1,0,0:0:0:0:
64,192,255818,1,0,0:0:0:0:
320,192,255897,1,0,0:0:0:0:
192,192,255976,1,0,0:0:0:0:
64,192,255976,1,0,0:0:0:0:
448,192,255976,1,0,0:0:0:0:
320,192,256055,1,0,0:0:0:0:
192,192,256134,1,0,0:0:0:0:
64,192,256213,1,0,0:0:0:0:
320,192,256213,1,0,0:0:0:0:
448,192,256213,1,0,0:0:0:0:
192,192,256292,1,0,0:0:0:0:
320,192,256371,1,0,0:0:0:0:
64,192,256450,1,0,0:0:0:0:
192,192,256450,1,0,0:0:0:0:
448,192,256450,1,0,0:0:0:0:
320,192,256529,1,0,0:0:0:0:
64,192,256607,1,0,0:0:0:0:
192,192,256686,1,0,0:0:0:0:
320,192,256686,1,0,0:0:0:0:
448,192,256686,1,0,0:0:0:0:
64,192,256765,1,0,0:0:0:0:
448,192,256844,1,0,0:0:0:0:
320,192,256923,1,0,0:0:0:0:
192,192,256923,1,0,0:0:0:0:
64,192,256923,1,0,0:0:0:0:
448,192,257002,1,0,0:0:0:0:
192,192,257081,1,0,0:0:0:0:
64,192,257160,1,0,0:0:0:0:
320,192,257160,1,0,0:0:0:0:
448,192,257160,1,0,0:0:0:0:
192,192,257239,1,0,0:0:0:0:
448,192,257318,1,0,0:0:0:0:
320,192,257397,1,0,0:0:0:0:
192,192,257397,1,0,0:0:0:0:
64,192,257397,1,0,0:0:0:0:
448,192,257476,1,0,0:0:0:0:
320,192,257555,1,0,0:0:0:0:
64,192,257634,1,0,0:0:0:0:
192,192,257634,1,0,0:0:0:0:
448,192,257634,1,0,0:0:0:0:
320,192,257713,1,0,0:0:0:0:
192,192,257792,1,0,0:0:0:0:
320,192,257871,1,0,0:0:0:0:
448,192,257871,1,0,0:0:0:0:
64,192,257871,1,0,0:0:0:0:
192,192,257950,1,0,0:0:0:0:
448,192,258029,1,0,0:0:0:0:
64,192,258107,1,0,0:0:0:0:
192,192,258107,1,0,0:0:0:0:
320,192,258107,1,0,0:0:0:0:
448,192,258186,1,0,0:0:0:0:
64,192,258265,1,0,0:0:0:0:
192,192,258344,1,0,0:0:0:0:
320,192,258344,1,0,0:0:0:0:
448,192,258344,1,0,0:0:0:0:
64,192,258423,1,0,0:0:0:0:
320,192,258502,1,0,0:0:0:0:
64,192,258581,1,0,0:0:0:0:
192,192,258581,1,0,0:0:0:0:
448,192,258581,1,0,0:0:0:0:
320,192,258660,1,0,0:0:0:0:
192,192,258739,1,0,0:0:0:0:
64,192,258818,1,0,0:0:0:0:
320,192,258818,1,0,0:0:0:0:
448,192,258818,1,0,0:0:0:0:
192,192,258897,1,0,0:0:0:0:
320,192,258976,1,0,0:0:0:0:
64,192,259055,1,0,0:0:0:0:
192,192,259055,1,0,0:0:0:0:
448,192,259055,1,0,0:0:0:0:
320,192,259134,1,0,0:0:0:0:
64,192,259213,1,0,0:0:0:0:
192,192,259292,1,0,0:0:0:0:
320,192,259292,1,0,0:0:0:0:
448,192,259292,1,0,0:0:0:0:
64,192,259371,1,0,0:0:0:0:
448,192,259450,1,0,0:0:0:0:
192,192,259529,1,0,0:0:0:0:
64,192,259529,1,0,0:0:0:0:
320,192,259529,1,0,0:0:0:0:
448,192,259607,1,0,0:0:0:0:
192,192,259686,1,0,0:0:0:0:
64,192,259765,1,0,0:0:0:0:
320,192,259765,1,0,0:0:0:0:
448,192,259765,1,0,0:0:0:0:
192,192,259844,1,0,0:0:0:0:
448,192,259923,1,0,0:0:0:0:
192,192,260002,1,0,0:0:0:0:
64,192,260002,1,0,0:0:0:0:
320,192,260002,1,0,0:0:0:0:
448,192,260081,1,0,0:0:0:0:
64,192,260160,1,0,0:0:0:0:
192,192,260239,1,0,0:0:0:0:
320,192,260239,1,0,0:0:0:0:
448,192,260239,1,0,0:0:0:0:
64,192,260318,1,0,0:0:0:0:
320,192,260397,1,0,0:0:0:0:
192,192,260476,1,0,0:0:0:0:
64,192,260476,1,0,0:0:0:0:
448,192,260476,1,0,0:0:0:0:
320,192,260555,1,0,0:0:0:0:
192,192,260634,1,0,0:0:0:0:
64,192,260713,1,0,0:0:0:0:
320,192,260713,1,0,0:0:0:0:
448,192,260713,1,0,0:0:0:0:
192,192,260792,1,0,0:0:0:0:
448,192,260871,1,0,0:0:0:0:
192,192,260950,1,0,0:0:0:0:
64,192,260950,1,0,0:0:0:0:
320,192,260950,1,0,0:0:0:0:
448,192,261029,1,0,0:0:0:0:
192,192,261107,1,0,0:0:0:0:
64,192,261186,1,0,0:0:0:0:
320,192,261186,1,0,0:0:0:0:
448,192,261186,1,0,0:0:0:0:
192,192,261265,1,0,0:0:0:0:
320,192,261344,1,0,0:0:0:0:
64,192,261423,1,0,0:0:0:0:
192,192,261423,1,0,0:0:0:0:
448,192,261423,1,0,0:0:0:0:
320,192,261502,1,0,0:0:0:0:
192,192,261581,1,0,0:0:0:0:
64,192,261660,1,0,0:0:0:0:
320,192,261660,1,0,0:0:0:0:
448,192,261660,1,0,0:0:0:0:
192,192,261739,1,0,0:0:0:0:
448,192,261818,1,0,0:0:0:0:
64,192,261897,1,0,0:0:0:0:
192,192,261897,1,0,0:0:0:0:
320,192,261897,1,0,0:0:0:0:
448,192,261976,1,0,0:0:0:0:
192,192,262055,1,0,0:0:0:0:
320,192,262134,1,0,0:0:0:0:
448,192,262134,1,0,0:0:0:0:
64,192,262134,1,0,0:0:0:0:
192,192,262213,1,0,0:0:0:0:
448,192,262292,1,0,0:0:0:0:
64,192,262371,1,0,0:0:0:0:
192,192,262371,1,0,0:0:0:0:
320,192,262371,1,0,0:0:0:0:
448,192,262450,1,0,0:0:0:0:
192,192,262529,1,0,0:0:0:0:
448,192,262607,1,0,0:0:0:0:
320,192,262607,1,0,0:0:0:0:
64,192,262607,1,0,0:0:0:0:
192,192,262686,1,0,0:0:0:0:
448,192,262765,1,0,0:0:0:0:
192,192,262844,1,0,0:0:0:0:
64,192,262844,1,0,0:0:0:0:
320,192,262844,1,0,0:0:0:0:
448,192,262923,1,0,0:0:0:0:
64,192,263002,1,0,0:0:0:0:
192,192,263081,1,0,0:0:0:0:
320,192,263081,1,0,0:0:0:0:
448,192,263081,1,0,0:0:0:0:
64,192,263160,1,0,0:0:0:0:
448,192,263239,1,0,0:0:0:0:
64,192,263318,1,0,0:0:0:0:
192,192,263318,1,0,0:0:0:0:
320,192,263318,1,0,0:0:0:0:
448,192,263397,1,0,0:0:0:0:
192,192,263476,1,0,0:0:0:0:
64,192,263555,1,0,0:0:0:0:
320,192,263555,1,0,0:0:0:0:
448,192,263555,1,0,0:0:0:0:
192,192,263634,1,0,0:0:0:0:
448,192,263713,1,0,0:0:0:0:
192,192,263792,1,0,0:0:0:0:
64,192,263792,1,0,0:0:0:0:
320,192,263792,1,0,0:0:0:0:
448,192,263871,1,0,0:0:0:0:
64,192,263950,1,0,0:0:0:0:
192,192,264029,1,0,0:0:0:0:
320,192,264029,1,0,0:0:0:0:
448,192,264029,1,0,0:0:0:0:
64,192,264107,1,0,0:0:0:0:
320,192,264186,1,0,0:0:0:0:
64,192,264265,1,0,0:0:0:0:
192,192,264265,1,0,0:0:0:0:
448,192,264265,1,0,0:0:0:0:
320,192,264344,1,0,0:0:0:0:
192,192,264423,1,0,0:0:0:0:
320,192,264502,1,0,0:0:0:0:
448,192,264502,1,0,0:0:0:0:
64,192,264502,1,0,0:0:0:0:
192,192,264581,1,0,0:0:0:0:
320,192,264660,1,0,0:0:0:0:
64,192,264739,1,0,0:0:0:0:
192,192,264739,1,0,0:0:0:0:
448,192,264739,1,0,0:0:0:0:
320,192,264818,1,0,0:0:0:0:
64,192,264897,1,0,0:0:0:0:
192,192,264976,1,0,0:0:0:0:
320,192,264976,1,0,0:0:0:0:
448,192,264976,1,0,0:0:0:0:
64,192,265055,1,0,0:0:0:0:
448,192,265134,1,0,0:0:0:0:
64,192,265213,1,0,0:0:0:0:
192,192,265213,1,0,0:0:0:0:
320,192,265213,1,0,0:0:0:0:
448,192,265292,1,0,0:0:0:0:
64,192,265371,1,0,0:0:0:0:
192,192,265450,1,0,0:0:0:0:
320,192,265450,1,0,0:0:0:0:
448,192,265450,1,0,0:0:0:0:
64,192,265529,1,0,0:0:0:0:
448,192,265607,1,0,0:0:0:0:
64,192,265686,1,0,0:0:0:0:
192,192,265686,1,0,0:0:0:0:
320,192,265686,1,0,0:0:0:0:
448,192,265765,1,0,0:0:0:0:
64,192,265844,1,0,0:0:0:0:
192,192,265923,1,0,0:0:0:0:
320,192,265923,1,0,0:0:0:0:
448,192,265923,1,0,0:0:0:0:
64,192,266002,1,0,0:0:0:0:
320,192,266081,1,0,0:0:0:0:
64,192,266160,1,0,0:0:0:0:
192,192,266160,1,0,0:0:0:0:
448,192,266160,1,0,0:0:0:0:
320,192,266239,1,0,0:0:0:0:
64,192,266318,1,0,0:0:0:0:
320,192,266397,1,0,0:0:0:0:
192,192,266397,1,0,0:0:0:0:
448,192,266397,1,0,0:0:0:0:
64,192,266476,1,0,0:0:0:0:
448,192,266555,1,0,0:0:0:0:
64,192,266634,1,0,0:0:0:0:
192,192,266634,1,0,0:0:0:0:
320,192,266634,1,0,0:0:0:0:
448,192,266713,1,0,0:0:0:0:
64,192,266792,1,0,0:0:0:0:
192,192,266871,1,0,0:0:0:0:
320,192,266871,1,0,0:0:0:0:
448,192,266871,1,0,0:0:0:0:
64,192,266950,1,0,0:0:0:0:
448,192,267029,1,0,0:0:0:0:
320,192,267107,1,0,0:0:0:0:
192,192,267107,1,0,0:0:0:0:
64,192,267107,1,0,0:0:0:0:
448,192,267186,1,0,0:0:0:0:
64,192,267265,1,0,0:0:0:0:
320,192,267344,1,0,0:0:0:0:
192,192,267423,1,0,0:0:0:0:
64,192,267423,1,0,0:0:0:0:
448,192,267423,1,0,0:0:0:0:
320,192,267502,1,0,0:0:0:0:
64,192,267581,1,0,0:0:0:0:
192,192,267660,1,0,0:0:0:0:
448,192,267660,1,0,0:0:0:0:
320,192,267660,1,0,0:0:0:0:
64,192,267739,1,0,0:0:0:0:
192,192,267818,1,0,0:0:0:0:
320,192,267818,1,0,0:0:0:0:
448,192,267818,1,0,0:0:0:0:
448,192,267897,1,0,0:0:0:0:
64,192,267976,1,0,0:0:0:0:
192,192,267976,1,0,0:0:0:0:
320,192,267976,1,0,0:0:0:0:
64,192,268055,1,0,0:0:0:0:
192,192,268134,1,0,0:0:0:0:
320,192,268134,1,0,0:0:0:0:
448,192,268134,1,0,0:0:0:0:
448,192,268213,1,0,0:0:0:0:
64,192,268292,1,0,0:0:0:0:
192,192,268292,1,0,0:0:0:0:
320,192,268292,1,0,0:0:0:0:
64,192,268371,1,0,0:0:0:0:
192,192,268450,1,0,0:0:0:0:
320,192,268450,1,0,0:0:0:0:
448,192,268450,1,0,0:0:0:0:
448,192,268529,1,0,0:0:0:0:
64,192,268607,1,0,0:0:0:0:
192,192,268607,1,0,0:0:0:0:
320,192,268607,1,0,0:0:0:0:
64,192,268686,1,0,0:0:0:0:
192,192,268765,1,0,0:0:0:0:
320,192,268765,1,0,0:0:0:0:
448,192,268765,1,0,0:0:0:0:
448,192,268844,1,0,0:0:0:0:
64,192,268923,1,0,0:0:0:0:
192,192,268923,1,0,0:0:0:0:
320,192,268923,1,0,0:0:0:0:
64,192,269002,1,0,0:0:0:0:
192,192,269081,1,0,0:0:0:0:
320,192,269081,1,0,0:0:0:0:
448,192,269081,1,0,0:0:0:0:
448,192,269160,1,0,0:0:0:0:
64,192,269239,1,0,0:0:0:0:
192,192,269239,1,0,0:0:0:0:
320,192,269239,1,0,0:0:0:0:
64,192,269318,1,0,0:0:0:0:
192,192,269397,1,0,0:0:0:0:
320,192,269397,1,0,0:0:0:0:
448,192,269397,1,0,0:0:0:0:
448,192,269476,1,0,0:0:0:0:
320,192,269555,1,0,0:0:0:0:
192,192,269555,1,0,0:0:0:0:
64,192,269555,1,0,0:0:0:0:
64,192,269634,1,0,0:0:0:0:
192,192,269713,1,0,0:0:0:0:
320,192,269713,1,0,0:0:0:0:
448,192,269713,1,0,0:0:0:0:
448,192,269792,1,0,0:0:0:0:
64,192,269871,1,0,0:0:0:0:
192,192,269871,1,0,0:0:0:0:
320,192,269871,1,0,0:0:0:0:
64,192,269950,1,0,0:0:0:0:
192,192,270029,1,0,0:0:0:0:
320,192,270029,1,0,0:0:0:0:
448,192,270029,1,0,0:0:0:0:
448,192,270107,1,0,0:0:0:0:
320,192,270186,1,0,0:0:0:0:
192,192,270186,1,0,0:0:0:0:
64,192,270186,1,0,0:0:0:0:
64,192,270265,1,0,0:0:0:0:
320,192,270344,1,0,0:0:0:0:
192,192,270423,1,0,0:0:0:0:
320,192,270502,1,0,0:0:0:0:
192,192,270581,1,0,0:0:0:0:
320,192,270660,1,0,0:0:0:0:
192,192,270739,1,0,0:0:0:0:
320,192,270818,1,0,0:0:0:0:
192,192,270897,1,0,0:0:0:0:
448,192,270976,1,0,0:0:0:0:
320,192,271055,1,0,0:0:0:0:
192,192,271134,1,0,0:0:0:0:
64,192,271213,1,0,0:0:0:0:
448,192,271292,1,0,0:0:0:0:
320,192,271371,1,0,0:0:0:0:
192,192,271450,1,0,0:0:0:0:
64,192,271529,1,0,0:0:0:0:
64,192,272871,128,0,272950:0:0:0:0:
192,192,272871,128,0,272950:0:0:0:0:
320,192,272871,128,0,272950:0:0:0:0:
448,192,272950,128,0,273029:0:0:0:0:
64,192,273029,128,0,273107:0:0:0:0:
192,192,273107,128,0,273186:0:0:0:0:
320,192,273107,128,0,273186:0:0:0:0:
448,192,273107,128,0,273186:0:0:0:0:
64,192,273186,128,0,273265:0:0:0:0:
320,192,273265,128,0,273344:0:0:0:0:
448,192,273344,128,0,273423:0:0:0:0:
192,192,273344,128,0,273423:0:0:0:0:
64,192,273344,128,0,273423:0:0:0:0:
320,192,273423,128,0,273502:0:0:0:0:
64,192,273502,128,0,273581:0:0:0:0:
448,192,273581,128,0,273660:0:0:0:0:
320,192,273581,128,0,273660:0:0:0:0:
192,192,273581,128,0,273660:0:0:0:0:
64,192,273660,128,0,273739:0:0:0:0:
448,192,273739,128,0,273818:0:0:0:0:
320,192,273818,128,0,273897:0:0:0:0:
192,192,273818,128,0,273897:0:0:0:0:
64,192,273818,128,0,273897:0:0:0:0:
448,192,273897,128,0,273976:0:0:0:0:
64,192,273976,128,0,274055:0:0:0:0:
192,192,274055,128,0,274134:0:0:0:0:
320,192,274055,128,0,274134:0:0:0:0:
448,192,274055,128,0,274134:0:0:0:0:
64,192,274134,128,0,274213:0:0:0:0:
448,192,274213,128,0,274292:0:0:0:0:
320,192,274292,128,0,274371:0:0:0:0:
192,192,274292,128,0,274371:0:0:0:0:
64,192,274292,128,0,274371:0:0:0:0:
448,192,274371,128,0,274450:0:0:0:0:
192,192,274450,128,0,274529:0:0:0:0:
64,192,274529,128,0,274607:0:0:0:0:
320,192,274529,128,0,274607:0:0:0:0:
448,192,274529,128,0,274607:0:0:0:0:
192,192,274607,128,0,274686:0:0:0:0:
320,192,274686,128,0,274765:0:0:0:0:
448,192,274765,128,0,274844:0:0:0:0:
192,192,274765,128,0,274844:0:0:0:0:
64,192,274765,128,0,274844:0:0:0:0:
320,192,274844,128,0,274923:0:0:0:0:
64,192,274923,128,0,275002:0:0:0:0:
448,192,275002,128,0,275081:0:0:0:0:
320,192,275002,128,0,275081:0:0:0:0:
192,192,275002,128,0,275081:0:0:0:0:
64,192,275081,128,0,275160:0:0:0:0:
448,192,275160,128,0,275239:0:0:0:0:
320,192,275239,128,0,275318:0:0:0:0:
192,192,275239,128,0,275318:0:0:0:0:
64,192,275239,128,0,275318:0:0:0:0:
448,192,275318,128,0,275397:0:0:0:0:
64,192,275397,128,0,275476:0:0:0:0:
192,192,275476,128,0,275555:0:0:0:0:
320,192,275476,128,0,275555:0:0:0:0:
448,192,275476,128,0,275555:0:0:0:0:
64,192,275634,1,0,0:0:0:0:
448,192,275713,1,0,0:0:0:0:
320,192,275792,1,0,0:0:0:0:
192,192,275792,1,0,0:0:0:0:
64,192,275792,1,0,0:0:0:0:
448,192,275871,1,0,0:0:0:0:
64,192,275950,1,0,0:0:0:0:
192,192,276029,1,0,0:0:0:0:
320,192,276029,1,0,0:0:0:0:
448,192,276029,1,0,0:0:0:0:
64,192,276107,128,0,276186:0:0:0:0:
448,192,276186,128,0,276265:0:0:0:0:
320,192,276265,128,0,276344:0:0:0:0:
192,192,276265,128,0,276344:0:0:0:0:
64,192,276265,128,0,276344:0:0:0:0:
448,192,276344,128,0,276423:0:0:0:0:
192,192,276423,128,0,276502:0:0:0:0:
64,192,276502,128,0,276581:0:0:0:0:
320,192,276502,128,0,276581:0:0:0:0:
448,192,276502,128,0,276581:0:0:0:0:
192,192,276581,128,0,276660:0:0:0:0:
320,192,276660,128,0,276739:0:0:0:0:
192,192,276739,1,0,0:0:0:0:
64,192,276739,1,0,0:0:0:0:
448,192,276739,1,0,0:0:0:0:
320,192,276818,1,0,0:0:0:0:
64,192,276897,1,0,0:0:0:0:
448,192,276976,1,0,0:0:0:0:
320,192,276976,1,0,0:0:0:0:
192,192,276976,1,0,0:0:0:0:
64,192,277055,1,0,0:0:0:0:
448,192,277134,1,0,0:0:0:0:
64,192,277213,1,0,0:0:0:0:
192,192,277213,1,0,0:0:0:0:
320,192,277213,1,0,0:0:0:0:
448,192,277292,128,0,277371:0:0:0:0:
320,192,277371,128,0,277450:0:0:0:0:
192,192,277450,128,0,277529:0:0:0:0:
64,192,277450,128,0,277529:0:0:0:0:
448,192,277450,128,0,277529:0:0:0:0:
320,192,277529,128,0,277607:0:0:0:0:
192,192,277607,128,0,277686:0:0:0:0:
64,192,277686,128,0,277765:0:0:0:0:
320,192,277686,128,0,277765:0:0:0:0:
448,192,277686,128,0,277765:0:0:0:0:
192,192,277765,128,0,277844:0:0:0:0:
320,192,277844,128,0,277923:0:0:0:0:
64,192,277923,128,0,278002:0:0:0:0:
192,192,277923,128,0,278002:0:0:0:0:
448,192,277923,128,0,278002:0:0:0:0:
320,192,278002,128,0,278081:0:0:0:0:
64,192,278081,128,0,278160:0:0:0:0:
192,192,278160,128,0,278239:0:0:0:0:
320,192,278160,128,0,278239:0:0:0:0:
448,192,278160,128,0,278239:0:0:0:0:
64,192,278239,128,0,278318:0:0:0:0:
448,192,278318,128,0,278397:0:0:0:0:
64,192,278397,128,0,278476:0:0:0:0:
192,192,278397,128,0,278476:0:0:0:0:
320,192,278397,128,0,278476:0:0:0:0:
448,192,278476,128,0,278555:0:0:0:0:
64,192,278555,128,0,278634:0:0:0:0:
192,192,278634,128,0,278713:0:0:0:0:
320,192,278634,128,0,278713:0:0:0:0:
448,192,278634,128,0,278713:0:0:0:0:
64,192,278713,128,0,278792:0:0:0:0:
448,192,278792,128,0,278871:0:0:0:0:
320,192,278871,128,0,278950:0:0:0:0:
192,192,278871,128,0,278950:0:0:0:0:
64,192,278871,128,0,278950:0:0:0:0:
448,192,278950,128,0,279029:0:0:0:0:
192,192,279029,128,0,279107:0:0:0:0:
64,192,279107,128,0,279186:0:0:0:0:
320,192,279107,128,0,279186:0:0:0:0:
448,192,279107,128,0,279186:0:0:0:0:
192,192,279186,128,0,279265:0:0:0:0:
320,192,279265,128,0,279344:0:0:0:0:
192,192,279344,128,0,279423:0:0:0:0:
64,192,279344,128,0,279423:0:0:0:0:
448,192,279344,128,0,279423:0:0:0:0:
320,192,279423,128,0,279502:0:0:0:0:
64,192,279502,128,0,279581:0:0:0:0:
192,192,279581,128,0,279660:0:0:0:0:
320,192,279581,128,0,279660:0:0:0:0:
448,192,279581,128,0,279660:0:0:0:0:
64,192,279660,128,0,279739:0:0:0:0:
448,192,279739,128,0,279818:0:0:0:0:
320,192,279818,128,0,279897:0:0:0:0:
192,192,279818,128,0,279897:0:0:0:0:
64,192,279818,128,0,279897:0:0:0:0:
448,192,279897,128,0,279976:0:0:0:0:
64,192,279976,128,0,280055:0:0:0:0:
192,192,280055,128,0,280134:0:0:0:0:
320,192,280055,128,0,280134:0:0:0:0:
448,192,280055,128,0,280134:0:0:0:0:
64,192,280134,128,0,280213:0:0:0:0:
320,192,280213,128,0,280292:0:0:0:0:
192,192,280292,1,0,0:0:0:0:
64,192,280292,1,0,0:0:0:0:
448,192,280292,1,0,0:0:0:0:
320,192,280371,1,0,0:0:0:0:
64,192,280450,1,0,0:0:0:0:
192,192,280529,1,0,0:0:0:0:
320,192,280529,1,0,0:0:0:0:
448,192,280529,1,0,0:0:0:0:
64,192,280607,1,0,0:0:0:0:
192,192,280686,1,0,0:0:0:0:
64,192,280765,1,0,0:0:0:0:
320,192,280765,1,0,0:0:0:0:
448,192,280765,1,0,0:0:0:0:
192,192,280844,1,0,0:0:0:0:
448,192,280923,1,0,0:0:0:0:
192,192,281002,1,0,0:0:0:0:
64,192,281002,1,0,0:0:0:0:
320,192,281002,1,0,0:0:0:0:
448,192,281081,128,0,281160:0:0:0:0:
64,192,281160,128,0,281239:0:0:0:0:
192,192,281239,128,0,281318:0:0:0:0:
320,192,281239,128,0,281318:0:0:0:0:
448,192,281239,128,0,281318:0:0:0:0:
64,192,281318,128,0,281397:0:0:0:0:
320,192,281397,128,0,281476:0:0:0:0:
192,192,281476,128,0,281555:0:0:0:0:
64,192,281476,128,0,281555:0:0:0:0:
448,192,281476,128,0,281555:0:0:0:0:
320,192,281555,1,0,0:0:0:0:
192,192,281634,1,0,0:0:0:0:
64,192,281713,1,0,0:0:0:0:
320,192,281713,1,0,0:0:0:0:
448,192,281713,1,0,0:0:0:0:
192,192,281792,1,0,0:0:0:0:
448,192,281871,1,0,0:0:0:0:
64,192,281950,1,0,0:0:0:0:
192,192,281950,1,0,0:0:0:0:
320,192,281950,1,0,0:0:0:0:
448,192,282029,1,0,0:0:0:0:
64,192,282107,1,0,0:0:0:0:
448,192,282186,128,0,282265:0:0:0:0:
320,192,282186,128,0,282265:0:0:0:0:
192,192,282186,128,0,282265:0:0:0:0:
64,192,282265,128,0,282344:0:0:0:0:
320,192,282344,128,0,282423:0:0:0:0:
448,192,282423,128,0,282502:0:0:0:0:
192,192,282423,128,0,282502:0:0:0:0:
64,192,282423,128,0,282502:0:0:0:0:
320,192,282502,128,0,282581:0:0:0:0:
192,192,282581,128,0,282660:0:0:0:0:
448,192,282581,128,0,282660:0:0:0:0:
448,192,282660,1,0,0:0:0:0:
64,192,282660,128,0,282739:0:0:0:0:
320,192,282660,128,0,282739:0:0:0:0:
192,192,282739,128,0,282818:0:0:0:0:
448,192,282818,128,0,282897:0:0:0:0:
320,192,282897,128,0,282976:0:0:0:0:
192,192,282897,128,0,282976:0:0:0:0:
64,192,282897,128,0,282976:0:0:0:0:
448,192,282976,128,0,283055:0:0:0:0:
64,192,283055,128,0,283134:0:0:0:0:
192,192,283134,128,0,283213:0:0:0:0:
320,192,283134,128,0,283213:0:0:0:0:
448,192,283134,128,0,283213:0:0:0:0:
64,192,283213,128,0,283292:0:0:0:0:
320,192,283292,128,0,283371:0:0:0:0:
192,192,283371,128,0,283450:0:0:0:0:
64,192,283371,128,0,283450:0:0:0:0:
448,192,283371,128,0,283450:0:0:0:0:
320,192,283450,128,0,283529:0:0:0:0:
64,192,283529,128,0,283607:0:0:0:0:
192,192,283607,128,0,283686:0:0:0:0:
320,192,283607,128,0,283686:0:0:0:0:
448,192,283607,128,0,283686:0:0:0:0:
64,192,283686,128,0,283765:0:0:0:0:
320,192,283765,128,0,283844:0:0:0:0:
192,192,283844,128,0,283923:0:0:0:0:
64,192,283844,128,0,283923:0:0:0:0:
448,192,283844,128,0,283923:0:0:0:0:
320,192,283923,128,0,284002:0:0:0:0:
192,192,284002,128,0,284081:0:0:0:0:
64,192,284081,128,0,284160:0:0:0:0:
320,192,284081,128,0,284160:0:0:0:0:
448,192,284081,128,0,284160:0:0:0:0:
192,192,284160,128,0,284239:0:0:0:0:
448,192,284239,128,0,284318:0:0:0:0:
320,192,284318,128,0,284397:0:0:0:0:
192,192,284318,128,0,284397:0:0:0:0:
64,192,284318,128,0,284397:0:0:0:0:
448,192,284397,128,0,284476:0:0:0:0:
64,192,284476,128,0,284555:0:0:0:0:
192,192,284555,128,0,284634:0:0:0:0:
320,192,284555,128,0,284634:0:0:0:0:
448,192,284555,128,0,284634:0:0:0:0:
64,192,284634,128,0,284713:0:0:0:0:
320,192,284713,128,0,284792:0:0:0:0:
448,192,284792,128,0,284871:0:0:0:0:
192,192,284792,128,0,284871:0:0:0:0:
64,192,284792,128,0,284871:0:0:0:0:
320,192,284871,128,0,284950:0:0:0:0:
64,192,284950,128,0,285029:0:0:0:0:
192,192,285029,128,0,285107:0:0:0:0:
320,192,285029,128,0,285107:0:0:0:0:
448,192,285029,128,0,285107:0:0:0:0:
64,192,285107,128,0,285186:0:0:0:0:
448,192,285186,128,0,285265:0:0:0:0:
320,192,285265,128,0,285344:0:0:0:0:
192,192,285265,128,0,285344:0:0:0:0:
64,192,285265,128,0,285344:0:0:0:0:
448,192,285344,128,0,285423:0:0:0:0:
320,192,285423,128,0,285502:0:0:0:0:
192,192,285502,128,0,285581:0:0:0:0:
64,192,285502,128,0,285581:0:0:0:0:
448,192,285502,128,0,285581:0:0:0:0:
320,192,285660,1,0,0:0:0:0:
64,192,285739,1,0,0:0:0:0:
320,192,285818,1,0,0:0:0:0:
448,192,285818,1,0,0:0:0:0:
192,192,285818,1,0,0:0:0:0:
64,192,285897,1,0,0:0:0:0:
192,192,285976,1,0,0:0:0:0:
64,192,286055,1,0,0:0:0:0:
320,192,286055,1,0,0:0:0:0:
448,192,286055,1,0,0:0:0:0:
192,192,286134,128,0,286213:0:0:0:0:
448,192,286213,128,0,286292:0:0:0:0:
320,192,286292,128,0,286371:0:0:0:0:
192,192,286292,128,0,286371:0:0:0:0:
64,192,286292,128,0,286371:0:0:0:0:
448,192,286371,128,0,286450:0:0:0:0:
320,192,286450,128,0,286529:0:0:0:0:
192,192,286529,128,0,286607:0:0:0:0:
64,192,286529,128,0,286607:0:0:0:0:
448,192,286529,128,0,286607:0:0:0:0:
320,192,286607,128,0,286686:0:0:0:0:
192,192,286686,128,0,286765:0:0:0:0:
64,192,286765,1,0,0:0:0:0:
320,192,286765,1,0,0:0:0:0:
448,192,286765,1,0,0:0:0:0:
192,192,286844,1,0,0:0:0:0:
320,192,286923,1,0,0:0:0:0:
192,192,287002,1,0,0:0:0:0:
64,192,287002,1,0,0:0:0:0:
448,192,287002,1,0,0:0:0:0:
320,192,287081,1,0,0:0:0:0:
64,192,287160,1,0,0:0:0:0:
192,192,287239,128,0,287318:0:0:0:0:
320,192,287239,128,0,287318:0:0:0:0:
448,192,287239,128,0,287318:0:0:0:0:
64,192,287318,128,0,287397:0:0:0:0:
448,192,287397,128,0,287476:0:0:0:0:
320,192,287476,128,0,287555:0:0:0:0:
192,192,287476,128,0,287555:0:0:0:0:
64,192,287476,128,0,287555:0:0:0:0:
448,192,287555,128,0,287634:0:0:0:0:
64,192,287634,128,0,287713:0:0:0:0:
192,192,287713,128,0,287792:0:0:0:0:
320,192,287713,128,0,287792:0:0:0:0:
448,192,287713,128,0,287792:0:0:0:0:
64,192,287792,128,0,287871:0:0:0:0:
448,192,287871,128,0,287950:0:0:0:0:
320,192,287950,128,0,288029:0:0:0:0:
192,192,287950,128,0,288029:0:0:0:0:
64,192,287950,128,0,288029:0:0:0:0:
448,192,288029,128,0,288107:0:0:0:0:
192,192,288107,128,0,288186:0:0:0:0:
64,192,288186,128,0,288265:0:0:0:0:
320,192,288186,128,0,288265:0:0:0:0:
448,192,288186,128,0,288265:0:0:0:0:
192,192,288265,1,0,0:0:0:0:
320,192,288344,128,0,288423:0:0:0:0:
192,192,288423,128,0,288502:0:0:0:0:
64,192,288423,128,0,288502:0:0:0:0:
448,192,288423,128,0,288502:0:0:0:0:
320,192,288502,128,0,288581:0:0:0:0:
192,192,288581,128,0,288660:0:0:0:0:
320,192,288660,128,0,288739:0:0:0:0:
448,192,288660,128,0,288739:0:0:0:0:
64,192,288660,128,0,288739:0:0:0:0:
192,192,288739,128,0,288818:0:0:0:0:
320,192,288818,128,0,288897:0:0:0:0:
192,192,288897,128,0,288976:0:0:0:0:
64,192,288897,128,0,288976:0:0:0:0:
448,192,288897,128,0,288976:0:0:0:0:
320,192,288976,128,0,289055:0:0:0:0:
192,192,289055,128,0,289134:0:0:0:0:
64,192,289134,128,0,289213:0:0:0:0:
320,192,289134,128,0,289213:0:0:0:0:
448,192,289134,128,0,289213:0:0:0:0:
192,192,289213,128,0,289292:0:0:0:0:
448,192,289292,128,0,289371:0:0:0:0:
320,192,289371,128,0,289450:0:0:0:0:
64,192,289371,128,0,289450:0:0:0:0:
192,192,289371,128,0,289450:0:0:0:0:
448,192,289450,128,0,289529:0:0:0:0:
64,192,289529,128,0,289607:0:0:0:0:
192,192,289607,128,0,289686:0:0:0:0:
320,192,289607,128,0,289686:0:0:0:0:
448,192,289607,128,0,289686:0:0:0:0:
64,192,289686,128,0,289765:0:0:0:0:
448,192,289765,128,0,289844:0:0:0:0:
320,192,289844,128,0,289923:0:0:0:0:
192,192,289844,128,0,289923:0:0:0:0:
64,192,289844,128,0,289923:0:0:0:0:
448,192,289923,128,0,290002:0:0:0:0:
64,192,290002,128,0,290081:0:0:0:0:
192,192,290081,128,0,290160:0:0:0:0:
320,192,290081,128,0,290160:0:0:0:0:
448,192,290081,128,0,290160:0:0:0:0:
64,192,290160,128,0,290239:0:0:0:0:
320,192,290239,128,0,290318:0:0:0:0:
448,192,290318,128,0,290397:0:0:0:0:
192,192,290318,128,0,290397:0:0:0:0:
64,192,290318,128,0,290397:0:0:0:0:
320,192,290397,128,0,290476:0:0:0:0:
64,192,290476,128,0,290555:0:0:0:0:
192,192,290555,1,0,0:0:0:0:
320,192,290555,1,0,0:0:0:0:
448,192,290555,1,0,0:0:0:0:
64,192,290634,1,0,0:0:0:0:
448,192,290713,1,0,0:0:0:0:
64,192,290792,1,0,0:0:0:0:
192,192,290792,1,0,0:0:0:0:
320,192,290792,1,0,0:0:0:0:
448,192,290871,1,0,0:0:0:0:
64,192,290950,1,0,0:0:0:0:
320,192,291029,1,0,0:0:0:0:
192,192,291029,1,0,0:0:0:0:
448,192,291029,1,0,0:0:0:0:
64,192,291107,1,0,0:0:0:0:
320,192,291186,128,0,291265:0:0:0:0:
192,192,291265,128,0,291344:0:0:0:0:
64,192,291265,128,0,291344:0:0:0:0:
448,192,291265,128,0,291344:0:0:0:0:
320,192,291344,128,0,291423:0:0:0:0:
192,192,291423,128,0,291502:0:0:0:0:
64,192,291502,128,0,291581:0:0:0:0:
320,192,291502,128,0,291581:0:0:0:0:
448,192,291502,128,0,291581:0:0:0:0:
192,192,291581,1,0,0:0:0:0:
320,192,291660,1,0,0:0:0:0:
64,192,291739,1,0,0:0:0:0:
192,192,291739,1,0,0:0:0:0:
448,192,291739,1,0,0:0:0:0:
320,192,291818,1,0,0:0:0:0:
64,192,291897,1,0,0:0:0:0:
192,192,291976,1,0,0:0:0:0:
320,192,291976,1,0,0:0:0:0:
448,192,291976,1,0,0:0:0:0:
64,192,292055,1,0,0:0:0:0:
448,192,292134,1,0,0:0:0:0:
320,192,292213,1,0,0:0:0:0:
192,192,292213,1,0,0:0:0:0:
64,192,292213,1,0,0:0:0:0:
448,192,292292,1,0,0:0:0:0:
192,192,292371,1,0,0:0:0:0:
64,192,292450,1,0,0:0:0:0:
320,192,292450,1,0,0:0:0:0:
448,192,292450,1,0,0:0:0:0:
192,192,292529,1,0,0:0:0:0:
448,192,292607,1,0,0:0:0:0:
64,192,292686,1,0,0:0:0:0:
192,192,292686,1,0,0:0:0:0:
320,192,292686,1,0,0:0:0:0:
448,192,292765,1,0,0:0:0:0:
192,192,292844,1,0,0:0:0:0:
64,192,292923,1,0,0:0:0:0:
320,192,292923,1,0,0:0:0:0:
448,192,292923,1,0,0:0:0:0:
192,192,293002,1,0,0:0:0:0:
64,192,293081,1,0,0:0:0:0:
192,192,293081,1,0,0:0:0:0:
320,192,293081,1,0,0:0:0:0:
448,192,293081,1,0,0:0:0:0:
320,192,293160,1,0,0:0:0:0:
448,192,293160,1,0,0:0:0:0:
64,192,293239,1,0,0:0:0:0:
320,192,293318,1,0,0:0:0:0:
192,192,293397,1,0,0:0:0:0:
64,192,293397,1,0,0:0:0:0:
320,192,293476,1,0,0:0:0:0:
64,192,293555,1,0,0:0:0:0:
192,192,293634,1,0,0:0:0:0:
320,192,293634,1,0,0:0:0:0:
448,192,293713,1,0,0:0:0:0:
64,192,293792,1,0,0:0:0:0:
192,192,293871,1,0,0:0:0:0:
320,192,293871,1,0,0:0:0:0:
448,192,293950,1,0,0:0:0:0:
64,192,294029,1,0,0:0:0:0:
448,192,294107,1,0,0:0:0:0:
192,192,294186,1,0,0:0:0:0:
64,192,294186,1,0,0:0:0:0:
448,192,294265,1,0,0:0:0:0:
64,192,294344,1,0,0:0:0:0:
192,192,294423,1,0,0:0:0:0:
448,192,294423,1,0,0:0:0:0:
320,192,294502,1,0,0:0:0:0:
64,192,294581,1,0,0:0:0:0:
192,192,294660,1,0,0:0:0:0:
320,192,294660,1,0,0:0:0:0:
64,192,294739,1,0,0:0:0:0:
448,192,294818,1,0,0:0:0:0:
320,192,294897,1,0,0:0:0:0:
192,192,294897,1,0,0:0:0:0:
64,192,294976,1,0,0:0:0:0:
448,192,295055,1,0,0:0:0:0:
320,192,295134,1,0,0:0:0:0:
192,192,295134,1,0,0:0:0:0:
64,192,295213,1,0,0:0:0:0:
448,192,295292,1,0,0:0:0:0:
320,192,295371,1,0,0:0:0:0:
192,192,295371,1,0,0:0:0:0:
64,192,295450,1,0,0:0:0:0:
448,192,295529,1,0,0:0:0:0:
64,192,295607,1,0,0:0:0:0:
192,192,295607,1,0,0:0:0:0:
320,192,295686,1,0,0:0:0:0:
448,192,295765,1,0,0:0:0:0:
64,192,295844,1,0,0:0:0:0:
192,192,295844,1,0,0:0:0:0:
320,192,295923,1,0,0:0:0:0:
448,192,296002,1,0,0:0:0:0:
64,192,296081,1,0,0:0:0:0:
320,192,296160,1,0,0:0:0:0:
448,192,296160,1,0,0:0:0:0:
64,192,296239,1,0,0:0:0:0:
448,192,296318,1,0,0:0:0:0:
192,192,296397,1,0,0:0:0:0:
64,192,296397,1,0,0:0:0:0:
320,192,296476,1,0,0:0:0:0:
448,192,296555,1,0,0:0:0:0:
192,192,296634,1,0,0:0:0:0:
64,192,296634,1,0,0:0:0:0:
448,192,296713,1,0,0:0:0:0:
64,192,296792,1,0,0:0:0:0:
320,192,296871,1,0,0:0:0:0:
448,192,296871,1,0,0:0:0:0:
192,192,296950,1,0,0:0:0:0:
320,192,297029,1,0,0:0:0:0:
192,192,297107,1,0,0:0:0:0:
64,192,297107,1,0,0:0:0:0:
320,192,297186,1,0,0:0:0:0:
192,192,297265,1,0,0:0:0:0:
64,192,297344,1,0,0:0:0:0:
320,192,297344,1,0,0:0:0:0:
192,192,297423,1,0,0:0:0:0:
448,192,297502,1,0,0:0:0:0:
320,192,297581,1,0,0:0:0:0:
192,192,297581,1,0,0:0:0:0:
448,192,297660,1,0,0:0:0:0:
64,192,297739,1,0,0:0:0:0:
192,192,297818,1,0,0:0:0:0:
320,192,297818,1,0,0:0:0:0:
448,192,297897,1,0,0:0:0:0:
64,192,297976,1,0,0:0:0:0:
192,192,298055,1,0,0:0:0:0:
320,192,298055,1,0,0:0:0:0:
448,192,298134,1,0,0:0:0:0:
64,192,298213,1,0,0:0:0:0:
192,192,298292,1,0,0:0:0:0:
320,192,298292,1,0,0:0:0:0:
64,192,298371,1,0,0:0:0:0:
448,192,298450,1,0,0:0:0:0:
320,192,298529,1,0,0:0:0:0:
192,192,298529,1,0,0:0:0:0:
64,192,298607,1,0,0:0:0:0:
448,192,298686,1,0,0:0:0:0:
64,192,298765,1,0,0:0:0:0:
192,192,298844,1,0,0:0:0:0:
320,192,298844,1,0,0:0:0:0:
448,192,298923,1,0,0:0:0:0:
64,192,299002,1,0,0:0:0:0:
320,192,299081,1,0,0:0:0:0:
448,192,299081,1,0,0:0:0:0:
192,192,299160,1,0,0:0:0:0:
64,192,299239,1,0,0:0:0:0:
320,192,299318,1,0,0:0:0:0:
448,192,299318,1,0,0:0:0:0:
64,192,299397,1,0,0:0:0:0:
448,192,299476,1,0,0:0:0:0:
192,192,299555,1,0,0:0:0:0:
320,192,299555,1,0,0:0:0:0:
64,192,299634,1,0,0:0:0:0:
192,192,299713,1,0,0:0:0:0:
320,192,299792,1,0,0:0:0:0:
448,192,299792,1,0,0:0:0:0:
192,192,299871,1,0,0:0:0:0:
64,192,299950,1,0,0:0:0:0:
320,192,300029,1,0,0:0:0:0:
448,192,300029,1,0,0:0:0:0:
64,192,300107,1,0,0:0:0:0:
448,192,300186,1,0,0:0:0:0:
192,192,300265,1,0,0:0:0:0:
64,192,300265,1,0,0:0:0:0:
448,192,300344,1,0,0:0:0:0:
64,192,300423,1,0,0:0:0:0:
192,192,300502,1,0,0:0:0:0:
320,192,300502,1,0,0:0:0:0:
448,192,300581,1,0,0:0:0:0:
192,192,300660,1,0,0:0:0:0:
320,192,300739,1,0,0:0:0:0:
448,192,300739,1,0,0:0:0:0:
192,192,300818,1,0,0:0:0:0:
64,192,300897,1,0,0:0:0:0:
192,192,300976,1,0,0:0:0:0:
320,192,300976,1,0,0:0:0:0:
448,192,301055,1,0,0:0:0:0:
64,192,301134,1,0,0:0:0:0:
320,192,301213,1,0,0:0:0:0:
448,192,301213,1,0,0:0:0:0:
64,192,301292,1,0,0:0:0:0:
448,192,301371,1,0,0:0:0:0:
192,192,301450,1,0,0:0:0:0:
320,192,301450,1,0,0:0:0:0:
64,192,301529,1,0,0:0:0:0:
320,192,301607,1,0,0:0:0:0:
192,192,301686,1,0,0:0:0:0:
64,192,301686,1,0,0:0:0:0:
448,192,301765,1,0,0:0:0:0:
320,192,301844,1,0,0:0:0:0:
192,192,301923,1,0,0:0:0:0:
448,192,301923,1,0,0:0:0:0:
64,192,302002,1,0,0:0:0:0:
320,192,302081,1,0,0:0:0:0:
192,192,302160,1,0,0:0:0:0:
448,192,302160,1,0,0:0:0:0:
64,192,302239,1,0,0:0:0:0:
320,192,302318,1,0,0:0:0:0:
192,192,302397,1,0,0:0:0:0:
64,192,302397,1,0,0:0:0:0:
448,192,302476,1,0,0:0:0:0:
320,192,302555,1,0,0:0:0:0:
192,192,302555,1,0,0:0:0:0:
64,192,302634,1,0,0:0:0:0:
448,192,302713,1,0,0:0:0:0:
320,192,302792,1,0,0:0:0:0:
192,192,302792,1,0,0:0:0:0:
64,192,302871,1,0,0:0:0:0:
320,192,302950,1,0,0:0:0:0:
192,192,303029,1,0,0:0:0:0:
64,192,303029,1,0,0:0:0:0:
448,192,303107,1,0,0:0:0:0:
64,192,303186,1,0,0:0:0:0:
192,192,303265,1,0,0:0:0:0:
320,192,303265,1,0,0:0:0:0:
448,192,303344,1,0,0:0:0:0:
64,192,303423,1,0,0:0:0:0:
192,192,303502,1,0,0:0:0:0:
320,192,303502,1,0,0:0:0:0:
448,192,303581,1,0,0:0:0:0:
64,192,303660,1,0,0:0:0:0:
192,192,303739,1,0,0:0:0:0:
320,192,303739,1,0,0:0:0:0:
448,192,303818,1,0,0:0:0:0:
192,192,303897,1,0,0:0:0:0:
320,192,303976,1,0,0:0:0:0:
448,192,303976,1,0,0:0:0:0:
64,192,304055,1,0,0:0:0:0:
448,192,304134,1,0,0:0:0:0:
320,192,304213,1,0,0:0:0:0:
64,192,304292,1,0,0:0:0:0:
192,192,304292,1,0,0:0:0:0:
448,192,304371,1,0,0:0:0:0:
64,192,304450,1,0,0:0:0:0:
192,192,304529,1,0,0:0:0:0:
320,192,304529,1,0,0:0:0:0:
448,192,304607,1,0,0:0:0:0:
192,192,304686,1,0,0:0:0:0:
320,192,304765,1,0,0:0:0:0:
448,192,304765,1,0,0:0:0:0:
64,192,304844,1,0,0:0:0:0:
448,192,304923,1,0,0:0:0:0:
192,192,305002,1,0,0:0:0:0:
64,192,305002,1,0,0:0:0:0:
448,192,305081,1,0,0:0:0:0:
64,192,305160,1,0,0:0:0:0:
192,192,305239,1,0,0:0:0:0:
320,192,305239,1,0,0:0:0:0:
448,192,305318,1,0,0:0:0:0:
64,192,305397,1,0,0:0:0:0:
320,192,305476,1,0,0:0:0:0:
448,192,305476,1,0,0:0:0:0:
64,192,305555,1,0,0:0:0:0:
448,192,305634,1,0,0:0:0:0:
192,192,305713,1,0,0:0:0:0:
64,192,305713,1,0,0:0:0:0:
448,192,305792,1,0,0:0:0:0:
64,192,305871,1,0,0:0:0:0:
320,192,305950,1,0,0:0:0:0:
448,192,305950,1,0,0:0:0:0:
64,192,306029,1,0,0:0:0:0:
448,192,306107,1,0,0:0:0:0:
64,192,306186,1,0,0:0:0:0:
320,192,306186,1,0,0:0:0:0:
192,192,306265,1,0,0:0:0:0:
448,192,306344,1,0,0:0:0:0:
320,192,306423,1,0,0:0:0:0:
192,192,306423,1,0,0:0:0:0:
64,192,306502,1,0,0:0:0:0:
448,192,306581,1,0,0:0:0:0:
192,192,306660,1,0,0:0:0:0:
320,192,306660,1,0,0:0:0:0:
64,192,306739,1,0,0:0:0:0:
448,192,306818,1,0,0:0:0:0:
320,192,306897,1,0,0:0:0:0:
192,192,306897,1,0,0:0:0:0:
64,192,306976,1,0,0:0:0:0:
320,192,307055,1,0,0:0:0:0:
192,192,307134,1,0,0:0:0:0:
64,192,307134,1,0,0:0:0:0:
448,192,307213,1,0,0:0:0:0:
64,192,307292,1,0,0:0:0:0:
320,192,307371,1,0,0:0:0:0:
448,192,307371,1,0,0:0:0:0:
192,192,307450,1,0,0:0:0:0:
64,192,307529,1,0,0:0:0:0:
320,192,307607,1,0,0:0:0:0:
448,192,307607,1,0,0:0:0:0:
64,192,307686,1,0,0:0:0:0:
320,192,307765,1,0,0:0:0:0:
64,192,307844,1,0,0:0:0:0:
192,192,307844,1,0,0:0:0:0:
448,192,307923,1,0,0:0:0:0:
64,192,308002,1,0,0:0:0:0:
320,192,308081,1,0,0:0:0:0:
192,192,308081,1,0,0:0:0:0:
64,192,308239,1,0,0:0:0:0:
192,192,308239,1,0,0:0:0:0:
320,192,308397,1,0,0:0:0:0:
448,192,308397,1,0,0:0:0:0:
64,192,308555,1,0,0:0:0:0:
192,192,308555,1,0,0:0:0:0:
320,192,308713,1,0,0:0:0:0:
448,192,308713,1,0,0:0:0:0:
64,192,308871,1,0,0:0:0:0:
192,192,308871,1,0,0:0:0:0:
320,192,309029,1,0,0:0:0:0:
448,192,309029,1,0,0:0:0:0:
64,192,309186,1,0,0:0:0:0:
192,192,309186,1,0,0:0:0:0:
320,192,309344,1,0,0:0:0:0:
448,192,309344,1,0,0:0:0:0:
64,192,309502,1,0,0:0:0:0:
192,192,309502,1,0,0:0:0:0:
320,192,309660,1,0,0:0:0:0:
448,192,309660,1,0,0:0:0:0:
64,192,309818,1,0,0:0:0:0:
192,192,309818,1,0,0:0:0:0:
320,192,309976,1,0,0:0:0:0:
448,192,309976,1,0,0:0:0:0:
64,192,310134,1,0,0:0:0:0:
192,192,310134,1,0,0:0:0:0:
320,192,310292,1,0,0:0:0:0:
448,192,310292,1,0,0:0:0:0:
64,192,310450,1,0,0:0:0:0:
192,192,310450,1,0,0:0:0:0:
320,192,310607,1,0,0:0:0:0:
448,192,310607,1,0,0:0:0:0:
192,192,310765,1,0,0:0:0:0:
64,192,310765,1,0,0:0:0:0:
320,192,310923,1,0,0:0:0:0:
448,192,310923,1,0,0:0:0:0:
192,192,311081,1,0,0:0:0:0:
64,192,311081,1,0,0:0:0:0:
320,192,311239,1,0,0:0:0:0:
448,192,311239,1,0,0:0:0:0:
192,192,311397,1,0,0:0:0:0:
64,192,311397,1,0,0:0:0:0:
320,192,311555,1,0,0:0:0:0:
448,192,311555,1,0,0:0:0:0:
192,192,311713,1,0,0:0:0:0:
64,192,311713,1,0,0:0:0:0:
320,192,311871,128,0,312976:0:0:0:0:
64,192,313292,1,0,0:0:0:0:
320,192,313292,1,0,0:0:0:0:
192,192,313607,1,0,0:0:0:0:
448,192,313607,1,0,0:0:0:0:
320,192,313923,1,0,0:0:0:0:
192,192,313923,1,0,0:0:0:0:
64,192,314239,1,0,0:0:0:0:
192,192,314239,1,0,0:0:0:0:
448,192,314555,1,0,0:0:0:0:
320,192,314555,1,0,0:0:0:0:
192,192,314871,1,0,0:0:0:0:
320,192,314871,1,0,0:0:0:0:
64,192,315186,1,0,0:0:0:0:
192,192,315186,1,0,0:0:0:0:
320,192,315502,1,0,0:0:0:0:
192,192,315502,1,0,0:0:0:0:
448,192,315818,1,0,0:0:0:0:
320,192,315818,1,0,0:0:0:0:
192,192,316134,1,0,0:0:0:0:
64,192,316134,1,0,0:0:0:0:
192,192,316450,1,0,0:0:0:0:
320,192,316450,1,0,0:0:0:0:
320,192,316765,1,0,0:0:0:0:
448,192,316765,1,0,0:0:0:0:
192,192,317081,1,0,0:0:0:0:
64,192,317081,1,0,0:0:0:0:
320,192,317397,1,0,0:0:0:0:
448,192,317397,1,0,0:0:0:0:
192,192,317713,1,0,0:0:0:0:
320,192,317713,1,0,0:0:0:0:
64,192,318029,1,0,0:0:0:0:
192,192,318029,1,0,0:0:0:0:
320,192,318344,1,0,0:0:0:0:
448,192,318344,1,0,0:0:0:0:
192,192,318660,1,0,0:0:0:0:
320,192,318660,1,0,0:0:0:0:
192,192,318976,1,0,0:0:0:0:
64,192,318976,1,0,0:0:0:0:
448,192,319292,1,0,0:0:0:0:
64,192,319292,1,0,0:0:0:0:
192,192,319607,1,0,0:0:0:0:
320,192,319607,1,0,0:0:0:0:
64,192,319923,1,0,0:0:0:0:
192,192,319923,1,0,0:0:0:0:
320,192,320239,1,0,0:0:0:0:
192,192,320555,1,0,0:0:0:0:
448,192,320871,1,0,0:0:0:0:
64,192,321186,1,0,0:0:0:0:
320,192,321502,1,0,0:0:0:0:
192,192,321818,1,0,0:0:0:0:
64,192,322134,1,0,0:0:0:0:
320,192,322450,1,0,0:0:0:0:
192,192,322765,1,0,0:0:0:0:
