osu file format v14

[General]
AudioFilename: audio.mp3
AudioLeadIn: 0
PreviewTime: 100939
Countdown: 0
SampleSet: Normal
StackLeniency: 0.7
Mode: 3
LetterboxInBreaks: 0
SpecialStyle: 0
WidescreenStoryboard: 0

[Editor]
Bookmarks: 157623
DistanceSpacing: 1.1
BeatDivisor: 8
GridSize: 8
TimelineZoom: 1.6

[Metadata]
Title:Euphoria
TitleUnicode:Euphoria
Artist:Ata
ArtistUnicode:Ata
Creator:Insp1r3
Version:Ecstacy
Source:
Tags:
BeatmapID:1855778
BeatmapSetID:887781

[Difficulty]
HPDrainRate:8.5
CircleSize:4
OverallDifficulty:8
ApproachRate:5
SliderMultiplier:1.4
SliderTickRate:1

[Events]
//Background and Video events
0,0,"metamorphosis_by_fractaldesire-db4rgy4.png",0,0
//Break Periods
//Storyboard Layer 0 (Background)
//Storyboard Layer 1 (Fail)
//Storyboard Layer 2 (Pass)
//Storyboard Layer 3 (Foreground)
//Storyboard Sound Samples

[TimingPoints]
43,315.789473684211,4,1,0,40,1,0
181937,-100,4,1,0,40,0,1
222358,-100,4,1,0,40,0,0
272885,-100,4,1,0,40,0,1
292464,-100,4,1,0,40,0,0
293095,-100,4,1,0,40,0,1
313306,-100,4,1,0,40,0,0

[HitObjects]
320,192,18358,5,0,0:0:0:0:
320,192,18674,1,0,0:0:0:0:
320,192,18990,1,0,0:0:0:0:
320,192,19306,1,0,0:0:0:0:
320,192,19621,1,0,0:0:0:0:
320,192,19937,1,0,0:0:0:0:
320,192,20253,1,0,0:0:0:0:
320,192,20569,1,0,0:0:0:0:
320,192,20885,1,0,0:0:0:0:
320,192,21200,1,0,0:0:0:0:
320,192,21516,1,0,0:0:0:0:
320,192,21832,1,0,0:0:0:0:
320,192,22148,1,0,0:0:0:0:
320,192,22464,1,0,0:0:0:0:
320,192,22779,1,0,0:0:0:0:
320,192,23095,1,0,0:0:0:0:
320,192,23411,1,0,0:0:0:0:
320,192,23727,1,0,0:0:0:0:
320,192,24043,1,0,0:0:0:0:
320,192,24358,1,0,0:0:0:0:
320,192,24674,1,0,0:0:0:0:
320,192,24990,1,0,0:0:0:0:
320,192,25306,1,0,0:0:0:0:
320,192,25621,1,0,0:0:0:0:
320,192,25937,1,0,0:0:0:0:
320,192,26253,1,0,0:0:0:0:
320,192,26569,1,0,0:0:0:0:
320,192,26885,1,0,0:0:0:0:
320,192,27200,1,0,0:0:0:0:
320,192,27516,1,0,0:0:0:0:
320,192,27832,1,0,0:0:0:0:
64,192,27832,128,0,29727:0:0:0:0:
320,192,28148,1,0,0:0:0:0:
320,192,28464,1,0,0:0:0:0:
320,192,28779,1,0,0:0:0:0:
320,192,29095,1,0,0:0:0:0:
320,192,29411,1,0,0:0:0:0:
320,192,29727,1,0,0:0:0:0:
320,192,30043,1,0,0:0:0:0:
320,192,30358,1,0,0:0:0:0:
320,192,30674,1,0,0:0:0:0:
320,192,30990,1,0,0:0:0:0:
320,192,31306,1,0,0:0:0:0:
320,192,31621,1,0,0:0:0:0:
320,192,31937,1,0,0:0:0:0:
320,192,32253,1,0,0:0:0:0:
320,192,32569,1,0,0:0:0:0:
320,192,32885,1,0,0:0:0:0:
320,192,33200,1,0,0:0:0:0:
320,192,33516,1,0,0:0:0:0:
320,192,33832,1,0,0:0:0:0:
320,192,34148,1,0,0:0:0:0:
320,192,34464,1,0,0:0:0:0:
320,192,34779,1,0,0:0:0:0:
320,192,35095,1,0,0:0:0:0:
320,192,35411,1,0,0:0:0:0:
192,192,35411,128,0,36358:0:0:0:0:
320,192,35727,1,0,0:0:0:0:
320,192,36043,1,0,0:0:0:0:
320,192,36358,1,0,0:0:0:0:
320,192,36674,1,0,0:0:0:0:
320,192,36990,1,0,0:0:0:0:
320,192,37306,1,0,0:0:0:0:
320,192,37621,1,0,0:0:0:0:
320,192,37937,1,0,0:0:0:0:
320,192,38253,1,0,0:0:0:0:
320,192,38569,1,0,0:0:0:0:
320,192,38885,1,0,0:0:0:0:
320,192,39200,1,0,0:0:0:0:
320,192,39516,1,0,0:0:0:0:
320,192,39832,1,0,0:0:0:0:
320,192,40148,1,0,0:0:0:0:
320,192,40464,1,0,0:0:0:0:
448,192,40464,128,0,41095:0:0:0:0:
320,192,40779,1,0,0:0:0:0:
320,192,41095,1,0,0:0:0:0:
320,192,41411,1,0,0:0:0:0:
320,192,41727,1,0,0:0:0:0:
320,192,42043,1,0,0:0:0:0:
320,192,42358,1,0,0:0:0:0:
320,192,42674,1,0,0:0:0:0:
320,192,42990,1,0,0:0:0:0:
448,192,42990,1,0,0:0:0:0:
320,192,43306,1,0,0:0:0:0:
64,192,43306,1,0,0:0:0:0:
320,192,43621,1,0,0:0:0:0:
448,192,43621,1,0,0:0:0:0:
320,192,43937,1,0,0:0:0:0:
192,192,43937,1,0,0:0:0:0:
320,192,44253,1,0,0:0:0:0:
64,192,44253,1,0,0:0:0:0:
320,192,44569,1,0,0:0:0:0:
448,192,44569,1,0,0:0:0:0:
192,192,44885,1,0,0:0:0:0:
320,192,44885,1,0,0:0:0:0:
64,192,45200,1,0,0:0:0:0:
320,192,45200,1,0,0:0:0:0:
320,192,45516,1,0,0:0:0:0:
192,192,45516,1,0,0:0:0:0:
448,192,45674,1,0,0:0:0:0:
64,192,45674,1,0,0:0:0:0:
320,192,45832,1,0,0:0:0:0:
192,192,45832,1,0,0:0:0:0:
64,192,45990,1,0,0:0:0:0:
448,192,45990,1,0,0:0:0:0:
320,192,46148,1,0,0:0:0:0:
192,192,46148,1,0,0:0:0:0:
192,192,46306,1,0,0:0:0:0:
448,192,46306,1,0,0:0:0:0:
320,192,46464,1,0,0:0:0:0:
64,192,46464,1,0,0:0:0:0:
448,192,46621,1,0,0:0:0:0:
192,192,46621,1,0,0:0:0:0:
320,192,46779,1,0,0:0:0:0:
448,192,46779,1,0,0:0:0:0:
64,192,46937,1,0,0:0:0:0:
192,192,46937,1,0,0:0:0:0:
320,192,47095,1,0,0:0:0:0:
448,192,47095,1,0,0:0:0:0:
192,192,47253,1,0,0:0:0:0:
448,192,47253,1,0,0:0:0:0:
320,192,47411,1,0,0:0:0:0:
64,192,47411,1,0,0:0:0:0:
448,192,47569,1,0,0:0:0:0:
192,192,47569,1,0,0:0:0:0:
320,192,47727,1,0,0:0:0:0:
64,192,47727,1,0,0:0:0:0:
192,192,47885,1,0,0:0:0:0:
64,192,47885,1,0,0:0:0:0:
320,192,48043,1,0,0:0:0:0:
192,192,48043,1,0,0:0:0:0:
64,192,48200,1,0,0:0:0:0:
448,192,48200,1,0,0:0:0:0:
320,192,48358,1,0,0:0:0:0:
448,192,48358,1,0,0:0:0:0:
192,192,48516,1,0,0:0:0:0:
64,192,48516,1,0,0:0:0:0:
320,192,48674,1,0,0:0:0:0:
64,192,48674,1,0,0:0:0:0:
448,192,48832,1,0,0:0:0:0:
192,192,48832,1,0,0:0:0:0:
320,192,48990,1,0,0:0:0:0:
448,192,48990,1,0,0:0:0:0:
192,192,49148,1,0,0:0:0:0:
64,192,49148,1,0,0:0:0:0:
320,192,49306,1,0,0:0:0:0:
192,192,49306,1,0,0:0:0:0:
448,192,49464,1,0,0:0:0:0:
64,192,49464,1,0,0:0:0:0:
320,192,49621,1,0,0:0:0:0:
192,192,49621,1,0,0:0:0:0:
64,192,49779,1,0,0:0:0:0:
448,192,49779,1,0,0:0:0:0:
320,192,49937,1,0,0:0:0:0:
192,192,49937,1,0,0:0:0:0:
192,192,50095,1,0,0:0:0:0:
64,192,50095,1,0,0:0:0:0:
320,192,50253,1,0,0:0:0:0:
448,192,50253,1,0,0:0:0:0:
64,192,50411,1,0,0:0:0:0:
448,192,50411,1,0,0:0:0:0:
320,192,50569,1,0,0:0:0:0:
192,192,50569,128,0,50885:0:0:0:0:
448,192,50727,1,0,0:0:0:0:
64,192,50727,1,0,0:0:0:0:
320,192,50885,1,0,0:0:0:0:
448,192,50885,1,0,0:0:0:0:
192,192,51043,1,0,0:0:0:0:
64,192,51043,1,0,0:0:0:0:
320,192,51200,1,0,0:0:0:0:
448,192,51200,1,0,0:0:0:0:
192,192,51358,1,0,0:0:0:0:
448,192,51358,1,0,0:0:0:0:
320,192,51516,1,0,0:0:0:0:
192,192,51516,1,0,0:0:0:0:
64,192,51674,1,0,0:0:0:0:
448,192,51674,1,0,0:0:0:0:
320,192,51832,1,0,0:0:0:0:
192,192,51832,1,0,0:0:0:0:
448,192,51990,1,0,0:0:0:0:
64,192,51990,1,0,0:0:0:0:
320,192,52148,1,0,0:0:0:0:
448,192,52148,1,0,0:0:0:0:
192,192,52306,1,0,0:0:0:0:
64,192,52306,1,0,0:0:0:0:
320,192,52464,1,0,0:0:0:0:
192,192,52464,1,0,0:0:0:0:
448,192,52621,1,0,0:0:0:0:
64,192,52621,1,0,0:0:0:0:
320,192,52779,1,0,0:0:0:0:
448,192,52779,1,0,0:0:0:0:
64,192,52937,1,0,0:0:0:0:
192,192,52937,1,0,0:0:0:0:
320,192,53095,1,0,0:0:0:0:
64,192,53095,1,0,0:0:0:0:
192,192,53253,1,0,0:0:0:0:
448,192,53253,1,0,0:0:0:0:
320,192,53411,1,0,0:0:0:0:
192,192,53411,1,0,0:0:0:0:
448,192,53569,1,0,0:0:0:0:
64,192,53569,1,0,0:0:0:0:
320,192,53727,1,0,0:0:0:0:
192,192,53727,1,0,0:0:0:0:
64,192,53885,1,0,0:0:0:0:
192,192,53885,1,0,0:0:0:0:
320,192,54043,1,0,0:0:0:0:
448,192,54043,1,0,0:0:0:0:
192,192,54200,1,0,0:0:0:0:
64,192,54200,1,0,0:0:0:0:
320,192,54358,1,0,0:0:0:0:
448,192,54358,1,0,0:0:0:0:
192,192,54516,1,0,0:0:0:0:
64,192,54516,1,0,0:0:0:0:
320,192,54674,1,0,0:0:0:0:
448,192,54674,1,0,0:0:0:0:
192,192,54832,1,0,0:0:0:0:
448,192,54832,1,0,0:0:0:0:
320,192,54990,1,0,0:0:0:0:
64,192,54990,1,0,0:0:0:0:
192,192,55148,1,0,0:0:0:0:
192,192,55306,1,0,0:0:0:0:
192,192,55464,1,0,0:0:0:0:
192,192,55621,1,0,0:0:0:0:
320,192,55700,1,0,0:0:0:0:
64,192,55779,1,0,0:0:0:0:
448,192,55858,1,0,0:0:0:0:
192,192,55937,1,0,0:0:0:0:
320,192,56016,1,0,0:0:0:0:
64,192,56095,1,0,0:0:0:0:
448,192,56174,1,0,0:0:0:0:
192,192,56253,1,0,0:0:0:0:
320,192,56332,1,0,0:0:0:0:
64,192,56411,1,0,0:0:0:0:
448,192,56490,1,0,0:0:0:0:
192,192,56569,1,0,0:0:0:0:
320,192,56648,1,0,0:0:0:0:
64,192,56727,1,0,0:0:0:0:
448,192,56806,1,0,0:0:0:0:
192,192,56885,1,0,0:0:0:0:
320,192,56964,1,0,0:0:0:0:
64,192,57043,1,0,0:0:0:0:
448,192,57121,1,0,0:0:0:0:
320,192,57200,1,0,0:0:0:0:
448,192,57279,1,0,0:0:0:0:
64,192,57358,1,0,0:0:0:0:
192,192,57437,1,0,0:0:0:0:
64,192,57516,1,0,0:0:0:0:
320,192,57595,1,0,0:0:0:0:
192,192,57674,1,0,0:0:0:0:
320,192,57753,1,0,0:0:0:0:
192,192,57832,1,0,0:0:0:0:
320,192,57911,1,0,0:0:0:0:
192,192,57990,1,0,0:0:0:0:
320,192,58069,1,0,0:0:0:0:
192,192,58148,1,0,0:0:0:0:
320,192,58227,1,0,0:0:0:0:
192,192,58306,1,0,0:0:0:0:
320,192,58385,1,0,0:0:0:0:
192,192,58464,1,0,0:0:0:0:
320,192,58543,1,0,0:0:0:0:
192,192,58621,1,0,0:0:0:0:
320,192,58700,1,0,0:0:0:0:
192,192,58779,128,0,60043:0:0:0:0:
448,192,59727,1,0,0:0:0:0:
448,192,59964,1,0,0:0:0:0:
448,192,60200,1,0,0:0:0:0:
320,192,60279,1,0,0:0:0:0:
192,192,60358,1,0,0:0:0:0:
64,192,60437,1,0,0:0:0:0:
448,192,60437,1,0,0:0:0:0:
192,192,60516,1,0,0:0:0:0:
320,192,60595,1,0,0:0:0:0:
64,192,60674,1,0,0:0:0:0:
448,192,60674,1,0,0:0:0:0:
192,192,60753,1,0,0:0:0:0:
320,192,60832,1,0,0:0:0:0:
64,192,60911,1,0,0:0:0:0:
192,192,60990,1,0,0:0:0:0:
448,192,60990,1,0,0:0:0:0:
320,192,61069,1,0,0:0:0:0:
64,192,61148,1,0,0:0:0:0:
448,192,61227,1,0,0:0:0:0:
192,192,61306,1,0,0:0:0:0:
320,192,61306,1,0,0:0:0:0:
64,192,61385,1,0,0:0:0:0:
448,192,61464,1,0,0:0:0:0:
192,192,61543,1,0,0:0:0:0:
320,192,61621,1,0,0:0:0:0:
64,192,61621,1,0,0:0:0:0:
448,192,61700,1,0,0:0:0:0:
192,192,61779,1,0,0:0:0:0:
320,192,61858,1,0,0:0:0:0:
192,192,61937,1,0,0:0:0:0:
448,192,61937,1,0,0:0:0:0:
64,192,62016,1,0,0:0:0:0:
320,192,62095,1,0,0:0:0:0:
192,192,62174,1,0,0:0:0:0:
64,192,62253,1,0,0:0:0:0:
320,192,62253,1,0,0:0:0:0:
448,192,62332,1,0,0:0:0:0:
64,192,62411,1,0,0:0:0:0:
192,192,62490,1,0,0:0:0:0:
320,192,62569,1,0,0:0:0:0:
448,192,62569,1,0,0:0:0:0:
64,192,62648,1,0,0:0:0:0:
192,192,62727,1,0,0:0:0:0:
320,192,62806,1,0,0:0:0:0:
64,192,62885,1,0,0:0:0:0:
448,192,62885,1,0,0:0:0:0:
192,192,62964,1,0,0:0:0:0:
320,192,63043,1,0,0:0:0:0:
192,192,63121,1,0,0:0:0:0:
320,192,63200,1,0,0:0:0:0:
64,192,63200,1,0,0:0:0:0:
448,192,63279,1,0,0:0:0:0:
320,192,63358,1,0,0:0:0:0:
192,192,63437,1,0,0:0:0:0:
448,192,63516,1,0,0:0:0:0:
64,192,63516,1,0,0:0:0:0:
192,192,63595,1,0,0:0:0:0:
320,192,63674,1,0,0:0:0:0:
448,192,63753,1,0,0:0:0:0:
192,192,63832,1,0,0:0:0:0:
64,192,63832,1,0,0:0:0:0:
320,192,63911,1,0,0:0:0:0:
448,192,63990,1,0,0:0:0:0:
192,192,64069,1,0,0:0:0:0:
64,192,64148,1,0,0:0:0:0:
448,192,64148,1,0,0:0:0:0:
320,192,64227,1,0,0:0:0:0:
192,192,64306,1,0,0:0:0:0:
64,192,64385,1,0,0:0:0:0:
320,192,64464,1,0,0:0:0:0:
192,192,64464,1,0,0:0:0:0:
448,192,64543,1,0,0:0:0:0:
320,192,64621,1,0,0:0:0:0:
192,192,64700,1,0,0:0:0:0:
320,192,64779,1,0,0:0:0:0:
64,192,64779,1,0,0:0:0:0:
192,192,64858,1,0,0:0:0:0:
448,192,64937,1,0,0:0:0:0:
320,192,65016,1,0,0:0:0:0:
448,192,65095,1,0,0:0:0:0:
64,192,65095,1,0,0:0:0:0:
192,192,65174,1,0,0:0:0:0:
320,192,65253,1,0,0:0:0:0:
64,192,65332,1,0,0:0:0:0:
192,192,65411,1,0,0:0:0:0:
448,192,65411,1,0,0:0:0:0:
320,192,65490,1,0,0:0:0:0:
64,192,65569,1,0,0:0:0:0:
448,192,65648,1,0,0:0:0:0:
192,192,65727,1,0,0:0:0:0:
320,192,65727,1,0,0:0:0:0:
64,192,65806,1,0,0:0:0:0:
192,192,65885,1,0,0:0:0:0:
320,192,65964,1,0,0:0:0:0:
64,192,66043,1,0,0:0:0:0:
192,192,66043,1,0,0:0:0:0:
320,192,66121,1,0,0:0:0:0:
448,192,66200,1,0,0:0:0:0:
320,192,66279,1,0,0:0:0:0:
64,192,66358,1,0,0:0:0:0:
192,192,66358,1,0,0:0:0:0:
448,192,66437,1,0,0:0:0:0:
320,192,66516,1,0,0:0:0:0:
192,192,66595,1,0,0:0:0:0:
448,192,66674,1,0,0:0:0:0:
320,192,66674,1,0,0:0:0:0:
192,192,66753,1,0,0:0:0:0:
64,192,66832,1,0,0:0:0:0:
192,192,66911,1,0,0:0:0:0:
320,192,66990,1,0,0:0:0:0:
448,192,66990,1,0,0:0:0:0:
64,192,67069,1,0,0:0:0:0:
192,192,67148,1,0,0:0:0:0:
320,192,67227,1,0,0:0:0:0:
64,192,67306,1,0,0:0:0:0:
192,192,67306,1,0,0:0:0:0:
448,192,67385,1,0,0:0:0:0:
320,192,67464,1,0,0:0:0:0:
192,192,67543,1,0,0:0:0:0:
64,192,67621,1,0,0:0:0:0:
448,192,67621,1,0,0:0:0:0:
320,192,67700,1,0,0:0:0:0:
192,192,67779,1,0,0:0:0:0:
320,192,67858,1,0,0:0:0:0:
192,192,67937,1,0,0:0:0:0:
448,192,67937,1,0,0:0:0:0:
320,192,68016,1,0,0:0:0:0:
64,192,68095,1,0,0:0:0:0:
192,192,68174,1,0,0:0:0:0:
64,192,68253,1,0,0:0:0:0:
320,192,68253,1,0,0:0:0:0:
448,192,68332,1,0,0:0:0:0:
192,192,68411,1,0,0:0:0:0:
320,192,68490,1,0,0:0:0:0:
192,192,68569,1,0,0:0:0:0:
448,192,68569,1,0,0:0:0:0:
320,192,68648,1,0,0:0:0:0:
64,192,68727,1,0,0:0:0:0:
192,192,68806,1,0,0:0:0:0:
64,192,68885,1,0,0:0:0:0:
320,192,68885,1,0,0:0:0:0:
448,192,68964,1,0,0:0:0:0:
320,192,69043,1,0,0:0:0:0:
192,192,69121,1,0,0:0:0:0:
64,192,69200,1,0,0:0:0:0:
320,192,69200,1,0,0:0:0:0:
192,192,69279,1,0,0:0:0:0:
320,192,69358,1,0,0:0:0:0:
192,192,69437,1,0,0:0:0:0:
64,192,69516,1,0,0:0:0:0:
448,192,69516,1,0,0:0:0:0:
320,192,69595,1,0,0:0:0:0:
192,192,69674,1,0,0:0:0:0:
448,192,69753,1,0,0:0:0:0:
320,192,69832,1,0,0:0:0:0:
64,192,69832,1,0,0:0:0:0:
192,192,69911,1,0,0:0:0:0:
320,192,69990,1,0,0:0:0:0:
192,192,70069,1,0,0:0:0:0:
64,192,70148,1,0,0:0:0:0:
448,192,70148,1,0,0:0:0:0:
192,192,70227,1,0,0:0:0:0:
320,192,70306,1,0,0:0:0:0:
64,192,70385,1,0,0:0:0:0:
192,192,70464,1,0,0:0:0:0:
448,192,70464,1,0,0:0:0:0:
320,192,70543,1,0,0:0:0:0:
448,192,70621,1,0,0:0:0:0:
192,192,70700,1,0,0:0:0:0:
320,192,70779,1,0,0:0:0:0:
64,192,70779,1,0,0:0:0:0:
448,192,70779,1,0,0:0:0:0:
192,192,70858,1,0,0:0:0:0:
64,192,70937,1,0,0:0:0:0:
320,192,71016,1,0,0:0:0:0:
64,192,71095,1,0,0:0:0:0:
192,192,71095,1,0,0:0:0:0:
448,192,71174,1,0,0:0:0:0:
320,192,71253,1,0,0:0:0:0:
64,192,71332,1,0,0:0:0:0:
192,192,71411,1,0,0:0:0:0:
448,192,71411,1,0,0:0:0:0:
320,192,71490,1,0,0:0:0:0:
64,192,71569,1,0,0:0:0:0:
448,192,71648,1,0,0:0:0:0:
192,192,71727,1,0,0:0:0:0:
320,192,71727,1,0,0:0:0:0:
64,192,71806,1,0,0:0:0:0:
448,192,71885,1,0,0:0:0:0:
320,192,71964,1,0,0:0:0:0:
64,192,72043,1,0,0:0:0:0:
192,192,72043,1,0,0:0:0:0:
320,192,72121,1,0,0:0:0:0:
448,192,72200,1,0,0:0:0:0:
192,192,72279,1,0,0:0:0:0:
320,192,72358,1,0,0:0:0:0:
64,192,72358,1,0,0:0:0:0:
192,192,72437,1,0,0:0:0:0:
448,192,72516,1,0,0:0:0:0:
320,192,72595,1,0,0:0:0:0:
192,192,72674,1,0,0:0:0:0:
448,192,72674,1,0,0:0:0:0:
64,192,72753,1,0,0:0:0:0:
320,192,72832,1,0,0:0:0:0:
192,192,72911,1,0,0:0:0:0:
448,192,72990,1,0,0:0:0:0:
64,192,72990,1,0,0:0:0:0:
320,192,73069,1,0,0:0:0:0:
192,192,73148,1,0,0:0:0:0:
320,192,73227,1,0,0:0:0:0:
64,192,73306,1,0,0:0:0:0:
192,192,73306,1,0,0:0:0:0:
448,192,73385,1,0,0:0:0:0:
320,192,73464,1,0,0:0:0:0:
192,192,73543,1,0,0:0:0:0:
64,192,73621,1,0,0:0:0:0:
448,192,73621,1,0,0:0:0:0:
320,192,73700,1,0,0:0:0:0:
192,192,73779,1,0,0:0:0:0:
64,192,73858,1,0,0:0:0:0:
320,192,73937,1,0,0:0:0:0:
192,192,73937,1,0,0:0:0:0:
64,192,74016,1,0,0:0:0:0:
192,192,74095,1,0,0:0:0:0:
320,192,74174,1,0,0:0:0:0:
448,192,74253,1,0,0:0:0:0:
64,192,74253,1,0,0:0:0:0:
320,192,74332,1,0,0:0:0:0:
192,192,74411,1,0,0:0:0:0:
64,192,74490,1,0,0:0:0:0:
192,192,74569,1,0,0:0:0:0:
448,192,74569,1,0,0:0:0:0:
320,192,74648,1,0,0:0:0:0:
448,192,74727,1,0,0:0:0:0:
320,192,74806,1,0,0:0:0:0:
192,192,74885,1,0,0:0:0:0:
64,192,74885,1,0,0:0:0:0:
448,192,74964,1,0,0:0:0:0:
320,192,75043,1,0,0:0:0:0:
192,192,75121,1,0,0:0:0:0:
64,192,75200,1,0,0:0:0:0:
448,192,75200,1,0,0:0:0:0:
320,192,75279,1,0,0:0:0:0:
192,192,75358,1,0,0:0:0:0:
320,192,75437,1,0,0:0:0:0:
448,192,75516,1,0,0:0:0:0:
192,192,75516,1,0,0:0:0:0:
320,192,75595,1,0,0:0:0:0:
64,192,75674,1,0,0:0:0:0:
192,192,75753,1,0,0:0:0:0:
448,192,75832,1,0,0:0:0:0:
64,192,75832,1,0,0:0:0:0:
320,192,75911,1,0,0:0:0:0:
192,192,75990,1,0,0:0:0:0:
64,192,76069,1,0,0:0:0:0:
448,192,76148,1,0,0:0:0:0:
192,192,76148,1,0,0:0:0:0:
320,192,76227,1,0,0:0:0:0:
448,192,76306,1,0,0:0:0:0:
192,192,76385,1,0,0:0:0:0:
320,192,76464,1,0,0:0:0:0:
64,192,76464,1,0,0:0:0:0:
192,192,76543,1,0,0:0:0:0:
448,192,76621,1,0,0:0:0:0:
320,192,76700,1,0,0:0:0:0:
64,192,76779,1,0,0:0:0:0:
192,192,76779,1,0,0:0:0:0:
320,192,76858,1,0,0:0:0:0:
448,192,76937,1,0,0:0:0:0:
64,192,77016,1,0,0:0:0:0:
192,192,77095,1,0,0:0:0:0:
448,192,77095,1,0,0:0:0:0:
320,192,77174,1,0,0:0:0:0:
192,192,77253,1,0,0:0:0:0:
64,192,77332,1,0,0:0:0:0:
320,192,77411,1,0,0:0:0:0:
448,192,77411,1,0,0:0:0:0:
192,192,77490,1,0,0:0:0:0:
448,192,77569,1,0,0:0:0:0:
320,192,77648,1,0,0:0:0:0:
64,192,77727,1,0,0:0:0:0:
192,192,77727,1,0,0:0:0:0:
320,192,77806,1,0,0:0:0:0:
448,192,77885,1,0,0:0:0:0:
320,192,77964,1,0,0:0:0:0:
192,192,78043,1,0,0:0:0:0:
64,192,78043,1,0,0:0:0:0:
448,192,78121,1,0,0:0:0:0:
320,192,78200,1,0,0:0:0:0:
192,192,78279,1,0,0:0:0:0:
64,192,78358,1,0,0:0:0:0:
448,192,78358,1,0,0:0:0:0:
320,192,78437,1,0,0:0:0:0:
192,192,78516,1,0,0:0:0:0:
64,192,78595,1,0,0:0:0:0:
320,192,78674,1,0,0:0:0:0:
448,192,78674,1,0,0:0:0:0:
192,192,78753,1,0,0:0:0:0:
64,192,78832,1,0,0:0:0:0:
192,192,78911,1,0,0:0:0:0:
448,192,78990,1,0,0:0:0:0:
320,192,78990,1,0,0:0:0:0:
192,192,79069,1,0,0:0:0:0:
64,192,79148,1,0,0:0:0:0:
448,192,79227,1,0,0:0:0:0:
192,192,79306,1,0,0:0:0:0:
320,192,79306,1,0,0:0:0:0:
448,192,79385,1,0,0:0:0:0:
320,192,79464,1,0,0:0:0:0:
192,192,79543,1,0,0:0:0:0:
448,192,79621,1,0,0:0:0:0:
64,192,79621,1,0,0:0:0:0:
320,192,79700,1,0,0:0:0:0:
192,192,79779,1,0,0:0:0:0:
320,192,79858,1,0,0:0:0:0:
64,192,79937,1,0,0:0:0:0:
192,192,79937,1,0,0:0:0:0:
448,192,80016,1,0,0:0:0:0:
320,192,80095,1,0,0:0:0:0:
192,192,80174,1,0,0:0:0:0:
320,192,80253,1,0,0:0:0:0:
448,192,80253,1,0,0:0:0:0:
64,192,80332,1,0,0:0:0:0:
192,192,80411,1,0,0:0:0:0:
448,192,80490,1,0,0:0:0:0:
320,192,80569,1,0,0:0:0:0:
64,192,80569,1,0,0:0:0:0:
192,192,80648,1,0,0:0:0:0:
448,192,80727,1,0,0:0:0:0:
320,192,80806,1,0,0:0:0:0:
64,192,80885,1,0,0:0:0:0:
192,192,80885,1,0,0:0:0:0:
448,192,80885,1,0,0:0:0:0:
320,192,80964,1,0,0:0:0:0:
64,192,81043,1,0,0:0:0:0:
448,192,81121,1,0,0:0:0:0:
192,192,81200,1,0,0:0:0:0:
320,192,81200,1,0,0:0:0:0:
64,192,81279,1,0,0:0:0:0:
448,192,81358,1,0,0:0:0:0:
320,192,81437,1,0,0:0:0:0:
64,192,81516,1,0,0:0:0:0:
448,192,81516,1,0,0:0:0:0:
192,192,81595,1,0,0:0:0:0:
64,192,81674,1,0,0:0:0:0:
320,192,81753,1,0,0:0:0:0:
64,192,81832,1,0,0:0:0:0:
448,192,81832,1,0,0:0:0:0:
192,192,81911,1,0,0:0:0:0:
320,192,81990,1,0,0:0:0:0:
448,192,82069,1,0,0:0:0:0:
192,192,82148,1,0,0:0:0:0:
64,192,82148,1,0,0:0:0:0:
320,192,82227,1,0,0:0:0:0:
448,192,82306,1,0,0:0:0:0:
64,192,82385,1,0,0:0:0:0:
192,192,82464,1,0,0:0:0:0:
320,192,82464,1,0,0:0:0:0:
448,192,82543,1,0,0:0:0:0:
320,192,82621,1,0,0:0:0:0:
64,192,82700,1,0,0:0:0:0:
192,192,82779,1,0,0:0:0:0:
448,192,82779,1,0,0:0:0:0:
320,192,82858,1,0,0:0:0:0:
192,192,82937,1,0,0:0:0:0:
64,192,83016,1,0,0:0:0:0:
320,192,83095,1,0,0:0:0:0:
192,192,83095,1,0,0:0:0:0:
448,192,83174,1,0,0:0:0:0:
320,192,83253,1,0,0:0:0:0:
192,192,83332,1,0,0:0:0:0:
320,192,83411,1,0,0:0:0:0:
448,192,83411,1,0,0:0:0:0:
192,192,83490,1,0,0:0:0:0:
64,192,83569,1,0,0:0:0:0:
448,192,83648,1,0,0:0:0:0:
192,192,83727,1,0,0:0:0:0:
320,192,83727,1,0,0:0:0:0:
64,192,83806,1,0,0:0:0:0:
448,192,83885,1,0,0:0:0:0:
192,192,83964,1,0,0:0:0:0:
320,192,84043,1,0,0:0:0:0:
64,192,84043,1,0,0:0:0:0:
192,192,84121,1,0,0:0:0:0:
448,192,84200,1,0,0:0:0:0:
320,192,84279,1,0,0:0:0:0:
192,192,84358,1,0,0:0:0:0:
64,192,84358,1,0,0:0:0:0:
448,192,84437,1,0,0:0:0:0:
320,192,84516,1,0,0:0:0:0:
64,192,84595,1,0,0:0:0:0:
192,192,84674,1,0,0:0:0:0:
448,192,84674,1,0,0:0:0:0:
320,192,84753,1,0,0:0:0:0:
64,192,84832,1,0,0:0:0:0:
192,192,84911,1,0,0:0:0:0:
448,192,84990,1,0,0:0:0:0:
320,192,84990,1,0,0:0:0:0:
64,192,84990,1,0,0:0:0:0:
192,192,85069,1,0,0:0:0:0:
320,192,85148,1,0,0:0:0:0:
64,192,85227,1,0,0:0:0:0:
192,192,85306,1,0,0:0:0:0:
448,192,85306,1,0,0:0:0:0:
320,192,85385,1,0,0:0:0:0:
64,192,85464,1,0,0:0:0:0:
192,192,85543,1,0,0:0:0:0:
448,192,85621,1,0,0:0:0:0:
320,192,85621,1,0,0:0:0:0:
64,192,85621,1,0,0:0:0:0:
192,192,85700,1,0,0:0:0:0:
448,192,85779,1,0,0:0:0:0:
320,192,85779,1,0,0:0:0:0:
64,192,85779,1,0,0:0:0:0:
192,192,85858,1,0,0:0:0:0:
448,192,85937,1,0,0:0:0:0:
320,192,85937,1,0,0:0:0:0:
64,192,86016,1,0,0:0:0:0:
192,192,86095,1,0,0:0:0:0:
448,192,86174,1,0,0:0:0:0:
320,192,86253,1,0,0:0:0:0:
64,192,86253,1,0,0:0:0:0:
192,192,86253,1,0,0:0:0:0:
448,192,86332,1,0,0:0:0:0:
64,192,86411,1,0,0:0:0:0:
320,192,86490,1,0,0:0:0:0:
192,192,86569,1,0,0:0:0:0:
448,192,86569,1,0,0:0:0:0:
320,192,86648,1,0,0:0:0:0:
64,192,86727,1,0,0:0:0:0:
192,192,86806,1,0,0:0:0:0:
448,192,86885,1,0,0:0:0:0:
320,192,86885,1,0,0:0:0:0:
64,192,86885,1,0,0:0:0:0:
192,192,86964,1,0,0:0:0:0:
448,192,87043,1,0,0:0:0:0:
320,192,87121,1,0,0:0:0:0:
192,192,87200,1,0,0:0:0:0:
64,192,87200,1,0,0:0:0:0:
448,192,87279,1,0,0:0:0:0:
320,192,87358,1,0,0:0:0:0:
64,192,87437,1,0,0:0:0:0:
192,192,87516,1,0,0:0:0:0:
448,192,87516,1,0,0:0:0:0:
320,192,87516,1,0,0:0:0:0:
64,192,87595,1,0,0:0:0:0:
320,192,87674,1,0,0:0:0:0:
448,192,87753,1,0,0:0:0:0:
192,192,87832,1,0,0:0:0:0:
64,192,87832,1,0,0:0:0:0:
320,192,87911,1,0,0:0:0:0:
448,192,87990,1,0,0:0:0:0:
192,192,88069,1,0,0:0:0:0:
64,192,88148,1,0,0:0:0:0:
320,192,88148,1,0,0:0:0:0:
448,192,88148,1,0,0:0:0:0:
192,192,88227,1,0,0:0:0:0:
320,192,88306,1,0,0:0:0:0:
448,192,88385,1,0,0:0:0:0:
64,192,88464,1,0,0:0:0:0:
320,192,88464,1,0,0:0:0:0:
192,192,88543,1,0,0:0:0:0:
448,192,88621,1,0,0:0:0:0:
64,192,88700,1,0,0:0:0:0:
192,192,88779,1,0,0:0:0:0:
320,192,88779,1,0,0:0:0:0:
448,192,88779,1,0,0:0:0:0:
64,192,88858,1,0,0:0:0:0:
320,192,88937,1,0,0:0:0:0:
192,192,89016,1,0,0:0:0:0:
448,192,89095,1,0,0:0:0:0:
320,192,89095,1,0,0:0:0:0:
192,192,89174,1,0,0:0:0:0:
64,192,89253,1,0,0:0:0:0:
448,192,89332,1,0,0:0:0:0:
320,192,89411,1,0,0:0:0:0:
192,192,89411,1,0,0:0:0:0:
64,192,89411,1,0,0:0:0:0:
448,192,89490,1,0,0:0:0:0:
192,192,89569,1,0,0:0:0:0:
320,192,89648,1,0,0:0:0:0:
64,192,89727,1,0,0:0:0:0:
448,192,89727,1,0,0:0:0:0:
320,192,89806,1,0,0:0:0:0:
192,192,89885,1,0,0:0:0:0:
64,192,89964,1,0,0:0:0:0:
448,192,90043,1,0,0:0:0:0:
320,192,90043,1,0,0:0:0:0:
192,192,90043,1,0,0:0:0:0:
64,192,90121,1,0,0:0:0:0:
192,192,90200,1,0,0:0:0:0:
320,192,90279,1,0,0:0:0:0:
448,192,90358,1,0,0:0:0:0:
64,192,90358,1,0,0:0:0:0:
320,192,90437,1,0,0:0:0:0:
192,192,90516,1,0,0:0:0:0:
320,192,90595,1,0,0:0:0:0:
448,192,90674,1,0,0:0:0:0:
320,192,90714,1,0,0:0:0:0:
192,192,90753,1,0,0:0:0:0:
64,192,90793,1,0,0:0:0:0:
448,192,90832,1,0,0:0:0:0:
320,192,90871,1,0,0:0:0:0:
192,192,90911,1,0,0:0:0:0:
64,192,90950,1,0,0:0:0:0:
448,192,90990,1,0,0:0:0:0:
320,192,90990,1,0,0:0:0:0:
64,192,91069,1,0,0:0:0:0:
192,192,91148,1,0,0:0:0:0:
320,192,91227,1,0,0:0:0:0:
448,192,91306,1,0,0:0:0:0:
192,192,91306,1,0,0:0:0:0:
64,192,91306,1,0,0:0:0:0:
320,192,91385,1,0,0:0:0:0:
448,192,91464,1,0,0:0:0:0:
320,192,91543,1,0,0:0:0:0:
192,192,91621,1,0,0:0:0:0:
64,192,91621,1,0,0:0:0:0:
448,192,91700,1,0,0:0:0:0:
320,192,91779,1,0,0:0:0:0:
192,192,91858,1,0,0:0:0:0:
64,192,91937,1,0,0:0:0:0:
320,192,91937,1,0,0:0:0:0:
448,192,91937,1,0,0:0:0:0:
192,192,92016,1,0,0:0:0:0:
320,192,92095,1,0,0:0:0:0:
64,192,92174,1,0,0:0:0:0:
192,192,92253,1,0,0:0:0:0:
448,192,92253,1,0,0:0:0:0:
320,192,92332,1,0,0:0:0:0:
64,192,92411,1,0,0:0:0:0:
192,192,92490,1,0,0:0:0:0:
320,192,92569,1,0,0:0:0:0:
448,192,92569,1,0,0:0:0:0:
64,192,92569,1,0,0:0:0:0:
192,192,92648,1,0,0:0:0:0:
448,192,92727,1,0,0:0:0:0:
320,192,92806,1,0,0:0:0:0:
192,192,92885,1,0,0:0:0:0:
64,192,92885,1,0,0:0:0:0:
448,192,92964,1,0,0:0:0:0:
320,192,93043,1,0,0:0:0:0:
64,192,93121,1,0,0:0:0:0:
192,192,93200,1,0,0:0:0:0:
448,192,93200,1,0,0:0:0:0:
320,192,93200,1,0,0:0:0:0:
64,192,93279,1,0,0:0:0:0:
448,192,93358,1,0,0:0:0:0:
320,192,93398,1,0,0:0:0:0:
192,192,93437,1,0,0:0:0:0:
64,192,93516,1,0,0:0:0:0:
320,192,93516,1,0,0:0:0:0:
448,192,93595,1,0,0:0:0:0:
320,192,93674,1,0,0:0:0:0:
64,192,93753,1,0,0:0:0:0:
192,192,93832,1,0,0:0:0:0:
448,192,93832,1,0,0:0:0:0:
320,192,93832,1,0,0:0:0:0:
64,192,93911,1,0,0:0:0:0:
192,192,93990,1,0,0:0:0:0:
448,192,94069,1,0,0:0:0:0:
320,192,94148,1,0,0:0:0:0:
64,192,94148,1,0,0:0:0:0:
192,192,94227,1,0,0:0:0:0:
448,192,94306,1,0,0:0:0:0:
320,192,94385,1,0,0:0:0:0:
64,192,94464,1,0,0:0:0:0:
192,192,94464,1,0,0:0:0:0:
448,192,94464,1,0,0:0:0:0:
320,192,94543,1,0,0:0:0:0:
192,192,94621,1,0,0:0:0:0:
64,192,94700,1,0,0:0:0:0:
448,192,94779,1,0,0:0:0:0:
320,192,94779,1,0,0:0:0:0:
192,192,94858,1,0,0:0:0:0:
64,192,94937,1,0,0:0:0:0:
448,192,95016,1,0,0:0:0:0:
320,192,95095,1,0,0:0:0:0:
192,192,95095,1,0,0:0:0:0:
64,192,95095,1,0,0:0:0:0:
448,192,95174,1,0,0:0:0:0:
64,192,95253,1,0,0:0:0:0:
192,192,95332,1,0,0:0:0:0:
320,192,95411,1,0,0:0:0:0:
448,192,95411,1,0,0:0:0:0:
192,192,95490,1,0,0:0:0:0:
64,192,95569,1,0,0:0:0:0:
320,192,95648,1,0,0:0:0:0:
448,192,95727,1,0,0:0:0:0:
192,192,95727,1,0,0:0:0:0:
320,192,95806,1,0,0:0:0:0:
64,192,95885,1,0,0:0:0:0:
448,192,95885,1,0,0:0:0:0:
192,192,95964,1,0,0:0:0:0:
320,192,96043,1,0,0:0:0:0:
448,192,96043,1,0,0:0:0:0:
192,192,96121,1,0,0:0:0:0:
64,192,96200,1,0,0:0:0:0:
320,192,96279,1,0,0:0:0:0:
192,192,96358,1,0,0:0:0:0:
448,192,96358,1,0,0:0:0:0:
64,192,96358,1,0,0:0:0:0:
320,192,96437,1,0,0:0:0:0:
192,192,96516,1,0,0:0:0:0:
64,192,96595,1,0,0:0:0:0:
320,192,96674,1,0,0:0:0:0:
192,192,96753,1,0,0:0:0:0:
64,192,96832,1,0,0:0:0:0:
320,192,96911,1,0,0:0:0:0:
192,192,96990,1,0,0:0:0:0:
64,192,97069,1,0,0:0:0:0:
320,192,97148,1,0,0:0:0:0:
448,192,97227,1,0,0:0:0:0:
192,192,97306,1,0,0:0:0:0:
320,192,97385,1,0,0:0:0:0:
64,192,97464,1,0,0:0:0:0:
192,192,97543,1,0,0:0:0:0:
320,192,97621,1,0,0:0:0:0:
64,192,97621,1,0,0:0:0:0:
448,192,97700,1,0,0:0:0:0:
192,192,97779,1,0,0:0:0:0:
320,192,97858,1,0,0:0:0:0:
64,192,97937,1,0,0:0:0:0:
192,192,98016,1,0,0:0:0:0:
320,192,98095,1,0,0:0:0:0:
64,192,98174,1,0,0:0:0:0:
320,192,98253,1,0,0:0:0:0:
448,192,98253,1,0,0:0:0:0:
192,192,98332,1,0,0:0:0:0:
320,192,98411,1,0,0:0:0:0:
448,192,98411,1,0,0:0:0:0:
64,192,98490,1,0,0:0:0:0:
448,192,98569,1,0,0:0:0:0:
192,192,98569,1,0,0:0:0:0:
320,192,98648,1,0,0:0:0:0:
192,192,98727,1,0,0:0:0:0:
64,192,98806,1,0,0:0:0:0:
448,192,98885,1,0,0:0:0:0:
192,192,98964,1,0,0:0:0:0:
64,192,99043,1,0,0:0:0:0:
448,192,99121,1,0,0:0:0:0:
192,192,99200,1,0,0:0:0:0:
320,192,99279,1,0,0:0:0:0:
448,192,99358,1,0,0:0:0:0:
320,192,99437,1,0,0:0:0:0:
192,192,99516,1,0,0:0:0:0:
64,192,99595,1,0,0:0:0:0:
192,192,99674,1,0,0:0:0:0:
320,192,99753,1,0,0:0:0:0:
64,192,99832,1,0,0:0:0:0:
192,192,99871,1,0,0:0:0:0:
320,192,99911,1,0,0:0:0:0:
448,192,99950,1,0,0:0:0:0:
64,192,99990,1,0,0:0:0:0:
192,192,100029,1,0,0:0:0:0:
320,192,100069,1,0,0:0:0:0:
448,192,100148,1,0,0:0:0:0:
192,192,100227,1,0,0:0:0:0:
320,192,100306,1,0,0:0:0:0:
64,192,100385,1,0,0:0:0:0:
448,192,100464,1,0,0:0:0:0:
320,192,100621,1,0,0:0:0:0:
192,192,100779,1,0,0:0:0:0:
320,192,100937,1,0,0:0:0:0:
448,192,101095,1,0,0:0:0:0:
64,192,101095,1,0,0:0:0:0:
320,192,101174,1,0,0:0:0:0:
192,192,101253,1,0,0:0:0:0:
320,192,101332,1,0,0:0:0:0:
448,192,101411,1,0,0:0:0:0:
64,192,101411,1,0,0:0:0:0:
192,192,101411,1,0,0:0:0:0:
320,192,101490,1,0,0:0:0:0:
192,192,101569,1,0,0:0:0:0:
64,192,101648,1,0,0:0:0:0:
320,192,101727,1,0,0:0:0:0:
192,192,101727,1,0,0:0:0:0:
448,192,101806,1,0,0:0:0:0:
320,192,101885,1,0,0:0:0:0:
192,192,101964,1,0,0:0:0:0:
64,192,102043,1,0,0:0:0:0:
320,192,102043,1,0,0:0:0:0:
448,192,102043,1,0,0:0:0:0:
192,192,102121,1,0,0:0:0:0:
64,192,102200,1,0,0:0:0:0:
192,192,102279,1,0,0:0:0:0:
320,192,102358,1,0,0:0:0:0:
448,192,102358,1,0,0:0:0:0:
64,192,102437,1,0,0:0:0:0:
320,192,102516,1,0,0:0:0:0:
192,192,102595,1,0,0:0:0:0:
320,192,102674,1,0,0:0:0:0:
448,192,102674,1,0,0:0:0:0:
64,192,102674,1,0,0:0:0:0:
192,192,102753,1,0,0:0:0:0:
320,192,102832,1,0,0:0:0:0:
64,192,102911,1,0,0:0:0:0:
448,192,102990,1,0,0:0:0:0:
192,192,102990,1,0,0:0:0:0:
64,192,103069,1,0,0:0:0:0:
320,192,103069,1,0,0:0:0:0:
448,192,103148,1,0,0:0:0:0:
192,192,103148,1,0,0:0:0:0:
320,192,103227,1,0,0:0:0:0:
64,192,103227,1,0,0:0:0:0:
192,192,103306,1,0,0:0:0:0:
448,192,103306,1,0,0:0:0:0:
320,192,103385,1,0,0:0:0:0:
64,192,103464,1,0,0:0:0:0:
192,192,103543,1,0,0:0:0:0:
64,192,103621,1,0,0:0:0:0:
320,192,103621,1,0,0:0:0:0:
448,192,103621,1,0,0:0:0:0:
192,192,103700,1,0,0:0:0:0:
320,192,103779,1,0,0:0:0:0:
64,192,103858,1,0,0:0:0:0:
192,192,103937,1,0,0:0:0:0:
320,192,103937,1,0,0:0:0:0:
448,192,103937,1,0,0:0:0:0:
64,192,104016,1,0,0:0:0:0:
320,192,104095,1,0,0:0:0:0:
192,192,104174,1,0,0:0:0:0:
320,192,104253,1,0,0:0:0:0:
448,192,104253,1,0,0:0:0:0:
64,192,104332,1,0,0:0:0:0:
448,192,104411,1,0,0:0:0:0:
320,192,104490,1,0,0:0:0:0:
192,192,104569,1,0,0:0:0:0:
64,192,104569,1,0,0:0:0:0:
320,192,104648,1,0,0:0:0:0:
448,192,104648,1,0,0:0:0:0:
192,192,104727,1,0,0:0:0:0:
64,192,104727,1,0,0:0:0:0:
320,192,104806,1,0,0:0:0:0:
448,192,104806,1,0,0:0:0:0:
192,192,104885,1,0,0:0:0:0:
64,192,104885,1,0,0:0:0:0:
320,192,104964,1,0,0:0:0:0:
64,192,105043,1,0,0:0:0:0:
192,192,105121,1,0,0:0:0:0:
64,192,105200,1,0,0:0:0:0:
448,192,105200,1,0,0:0:0:0:
320,192,105200,1,0,0:0:0:0:
192,192,105279,1,0,0:0:0:0:
320,192,105358,1,0,0:0:0:0:
448,192,105437,1,0,0:0:0:0:
320,192,105516,1,0,0:0:0:0:
192,192,105516,1,0,0:0:0:0:
64,192,105595,1,0,0:0:0:0:
448,192,105595,1,0,0:0:0:0:
192,192,105674,1,0,0:0:0:0:
320,192,105674,1,0,0:0:0:0:
448,192,105753,1,0,0:0:0:0:
64,192,105832,1,0,0:0:0:0:
192,192,105832,1,0,0:0:0:0:
320,192,105832,1,0,0:0:0:0:
448,192,105911,1,0,0:0:0:0:
64,192,105990,1,0,0:0:0:0:
192,192,106069,1,0,0:0:0:0:
448,192,106148,1,0,0:0:0:0:
320,192,106227,1,0,0:0:0:0:
192,192,106306,1,0,0:0:0:0:
64,192,106385,1,0,0:0:0:0:
192,192,106464,1,0,0:0:0:0:
448,192,106464,1,0,0:0:0:0:
320,192,106464,1,0,0:0:0:0:
64,192,106543,1,0,0:0:0:0:
192,192,106621,1,0,0:0:0:0:
320,192,106700,1,0,0:0:0:0:
448,192,106779,1,0,0:0:0:0:
64,192,106779,1,0,0:0:0:0:
192,192,106858,1,0,0:0:0:0:
320,192,106937,1,0,0:0:0:0:
448,192,107016,1,0,0:0:0:0:
320,192,107095,1,0,0:0:0:0:
64,192,107095,1,0,0:0:0:0:
448,192,107174,1,0,0:0:0:0:
192,192,107174,1,0,0:0:0:0:
320,192,107253,1,0,0:0:0:0:
64,192,107253,1,0,0:0:0:0:
192,192,107332,1,0,0:0:0:0:
448,192,107332,1,0,0:0:0:0:
320,192,107411,1,0,0:0:0:0:
64,192,107411,1,0,0:0:0:0:
192,192,107490,1,0,0:0:0:0:
320,192,107569,1,0,0:0:0:0:
448,192,107648,1,0,0:0:0:0:
64,192,107727,1,0,0:0:0:0:
320,192,107727,1,0,0:0:0:0:
192,192,107727,1,0,0:0:0:0:
448,192,107806,1,0,0:0:0:0:
192,192,107885,1,0,0:0:0:0:
64,192,107964,1,0,0:0:0:0:
320,192,108043,1,0,0:0:0:0:
448,192,108043,1,0,0:0:0:0:
192,192,108121,1,0,0:0:0:0:
64,192,108200,1,0,0:0:0:0:
320,192,108279,1,0,0:0:0:0:
192,192,108358,1,0,0:0:0:0:
64,192,108358,1,0,0:0:0:0:
448,192,108358,1,0,0:0:0:0:
320,192,108437,1,0,0:0:0:0:
192,192,108516,1,0,0:0:0:0:
64,192,108595,1,0,0:0:0:0:
320,192,108674,1,0,0:0:0:0:
448,192,108674,1,0,0:0:0:0:
64,192,108753,1,0,0:0:0:0:
192,192,108832,1,0,0:0:0:0:
320,192,108911,1,0,0:0:0:0:
64,192,108990,1,0,0:0:0:0:
448,192,108990,1,0,0:0:0:0:
192,192,108990,1,0,0:0:0:0:
320,192,109069,1,0,0:0:0:0:
192,192,109148,1,0,0:0:0:0:
64,192,109148,1,0,0:0:0:0:
448,192,109227,1,0,0:0:0:0:
320,192,109227,1,0,0:0:0:0:
64,192,109306,1,0,0:0:0:0:
192,192,109306,1,0,0:0:0:0:
448,192,109385,1,0,0:0:0:0:
320,192,109464,1,0,0:0:0:0:
192,192,109543,1,0,0:0:0:0:
64,192,109621,1,0,0:0:0:0:
448,192,109621,1,0,0:0:0:0:
320,192,109621,1,0,0:0:0:0:
192,192,109700,1,0,0:0:0:0:
320,192,109779,1,0,0:0:0:0:
64,192,109779,1,0,0:0:0:0:
448,192,109858,1,0,0:0:0:0:
192,192,109937,1,0,0:0:0:0:
64,192,109937,1,0,0:0:0:0:
320,192,110016,1,0,0:0:0:0:
448,192,110095,1,0,0:0:0:0:
192,192,110095,1,0,0:0:0:0:
320,192,110174,1,0,0:0:0:0:
64,192,110253,1,0,0:0:0:0:
448,192,110253,1,0,0:0:0:0:
192,192,110332,1,0,0:0:0:0:
320,192,110332,1,0,0:0:0:0:
64,192,110411,1,0,0:0:0:0:
448,192,110411,1,0,0:0:0:0:
320,192,110490,1,0,0:0:0:0:
192,192,110490,1,0,0:0:0:0:
64,192,110569,1,0,0:0:0:0:
448,192,110569,1,0,0:0:0:0:
320,192,110648,1,0,0:0:0:0:
192,192,110648,1,0,0:0:0:0:
448,192,110727,1,0,0:0:0:0:
64,192,110727,1,0,0:0:0:0:
192,192,110806,1,0,0:0:0:0:
320,192,110885,1,0,0:0:0:0:
448,192,110885,1,0,0:0:0:0:
192,192,110964,1,0,0:0:0:0:
64,192,111043,1,0,0:0:0:0:
192,192,111121,1,0,0:0:0:0:
448,192,111200,1,0,0:0:0:0:
320,192,111200,1,0,0:0:0:0:
64,192,111279,1,0,0:0:0:0:
192,192,111358,1,0,0:0:0:0:
64,192,111437,1,0,0:0:0:0:
448,192,111516,1,0,0:0:0:0:
320,192,111516,1,0,0:0:0:0:
192,192,111595,1,0,0:0:0:0:
64,192,111674,1,0,0:0:0:0:
448,192,111674,1,0,0:0:0:0:
192,192,111753,1,0,0:0:0:0:
64,192,111832,1,0,0:0:0:0:
320,192,111911,1,0,0:0:0:0:
448,192,111990,1,0,0:0:0:0:
192,192,111990,1,0,0:0:0:0:
320,192,112069,1,0,0:0:0:0:
448,192,112148,1,0,0:0:0:0:
192,192,112148,1,0,0:0:0:0:
320,192,112227,1,0,0:0:0:0:
448,192,112306,1,0,0:0:0:0:
192,192,112306,1,0,0:0:0:0:
64,192,112385,1,0,0:0:0:0:
320,192,112464,1,0,0:0:0:0:
448,192,112464,1,0,0:0:0:0:
192,192,112543,1,0,0:0:0:0:
64,192,112621,1,0,0:0:0:0:
448,192,112700,1,0,0:0:0:0:
320,192,112779,1,0,0:0:0:0:
192,192,112779,1,0,0:0:0:0:
64,192,112858,1,0,0:0:0:0:
192,192,112937,1,0,0:0:0:0:
448,192,113016,1,0,0:0:0:0:
320,192,113095,1,0,0:0:0:0:
64,192,113174,1,0,0:0:0:0:
192,192,113253,1,0,0:0:0:0:
448,192,113332,1,0,0:0:0:0:
320,192,113411,1,0,0:0:0:0:
192,192,113411,1,0,0:0:0:0:
64,192,113490,1,0,0:0:0:0:
192,192,113569,1,0,0:0:0:0:
448,192,113648,1,0,0:0:0:0:
64,192,113727,1,0,0:0:0:0:
192,192,113727,1,0,0:0:0:0:
320,192,113806,1,0,0:0:0:0:
448,192,113885,1,0,0:0:0:0:
320,192,113964,1,0,0:0:0:0:
64,192,114043,1,0,0:0:0:0:
192,192,114043,1,0,0:0:0:0:
448,192,114121,1,0,0:0:0:0:
320,192,114200,1,0,0:0:0:0:
192,192,114279,1,0,0:0:0:0:
448,192,114358,1,0,0:0:0:0:
64,192,114358,1,0,0:0:0:0:
192,192,114437,1,0,0:0:0:0:
448,192,114516,1,0,0:0:0:0:
64,192,114516,1,0,0:0:0:0:
320,192,114595,1,0,0:0:0:0:
64,192,114674,1,0,0:0:0:0:
448,192,114674,1,0,0:0:0:0:
192,192,114753,1,0,0:0:0:0:
448,192,114832,1,0,0:0:0:0:
320,192,114832,1,0,0:0:0:0:
192,192,114911,1,0,0:0:0:0:
320,192,114990,1,0,0:0:0:0:
64,192,114990,1,0,0:0:0:0:
448,192,115069,1,0,0:0:0:0:
192,192,115069,1,0,0:0:0:0:
64,192,115148,1,0,0:0:0:0:
320,192,115148,1,0,0:0:0:0:
192,192,115227,1,0,0:0:0:0:
448,192,115306,1,0,0:0:0:0:
320,192,115306,1,0,0:0:0:0:
64,192,115385,1,0,0:0:0:0:
448,192,115464,1,0,0:0:0:0:
320,192,115543,1,0,0:0:0:0:
64,192,115621,1,0,0:0:0:0:
192,192,115621,1,0,0:0:0:0:
320,192,115700,1,0,0:0:0:0:
448,192,115779,1,0,0:0:0:0:
64,192,115779,1,0,0:0:0:0:
192,192,115858,1,0,0:0:0:0:
320,192,115937,1,0,0:0:0:0:
448,192,115937,1,0,0:0:0:0:
192,192,116016,1,0,0:0:0:0:
64,192,116095,1,0,0:0:0:0:
320,192,116095,1,0,0:0:0:0:
448,192,116174,1,0,0:0:0:0:
192,192,116253,1,0,0:0:0:0:
64,192,116253,1,0,0:0:0:0:
320,192,116332,1,0,0:0:0:0:
448,192,116411,1,0,0:0:0:0:
64,192,116490,1,0,0:0:0:0:
192,192,116569,1,0,0:0:0:0:
448,192,116569,1,0,0:0:0:0:
320,192,116569,1,0,0:0:0:0:
64,192,116648,1,0,0:0:0:0:
192,192,116727,1,0,0:0:0:0:
320,192,116806,1,0,0:0:0:0:
448,192,116885,1,0,0:0:0:0:
192,192,116885,1,0,0:0:0:0:
320,192,116964,1,0,0:0:0:0:
192,192,117043,1,0,0:0:0:0:
64,192,117121,1,0,0:0:0:0:
448,192,117200,1,0,0:0:0:0:
320,192,117200,1,0,0:0:0:0:
192,192,117200,1,0,0:0:0:0:
64,192,117279,1,0,0:0:0:0:
448,192,117358,1,0,0:0:0:0:
320,192,117437,1,0,0:0:0:0:
192,192,117516,1,0,0:0:0:0:
64,192,117516,1,0,0:0:0:0:
448,192,117595,1,0,0:0:0:0:
320,192,117674,1,0,0:0:0:0:
192,192,117753,1,0,0:0:0:0:
64,192,117832,1,0,0:0:0:0:
320,192,117832,1,0,0:0:0:0:
448,192,117832,1,0,0:0:0:0:
192,192,117911,1,0,0:0:0:0:
64,192,117990,1,0,0:0:0:0:
448,192,118069,1,0,0:0:0:0:
320,192,118148,1,0,0:0:0:0:
192,192,118148,1,0,0:0:0:0:
64,192,118227,1,0,0:0:0:0:
448,192,118306,1,0,0:0:0:0:
320,192,118385,1,0,0:0:0:0:
192,192,118464,1,0,0:0:0:0:
64,192,118464,1,0,0:0:0:0:
448,192,118464,1,0,0:0:0:0:
320,192,118543,1,0,0:0:0:0:
192,192,118621,1,0,0:0:0:0:
64,192,118700,1,0,0:0:0:0:
320,192,118779,1,0,0:0:0:0:
448,192,118779,1,0,0:0:0:0:
64,192,118858,1,0,0:0:0:0:
192,192,118937,1,0,0:0:0:0:
448,192,119016,1,0,0:0:0:0:
320,192,119095,1,0,0:0:0:0:
64,192,119095,1,0,0:0:0:0:
192,192,119095,1,0,0:0:0:0:
448,192,119174,1,0,0:0:0:0:
64,192,119253,1,0,0:0:0:0:
192,192,119332,1,0,0:0:0:0:
320,192,119411,1,0,0:0:0:0:
64,192,119411,1,0,0:0:0:0:
448,192,119490,1,0,0:0:0:0:
320,192,119569,1,0,0:0:0:0:
192,192,119648,1,0,0:0:0:0:
64,192,119727,1,0,0:0:0:0:
320,192,119727,1,0,0:0:0:0:
448,192,119727,1,0,0:0:0:0:
192,192,119806,1,0,0:0:0:0:
320,192,119885,1,0,0:0:0:0:
448,192,119964,1,0,0:0:0:0:
64,192,120043,128,0,120358:0:0:0:0:
192,192,120121,1,0,0:0:0:0:
320,192,120200,1,0,0:0:0:0:
448,192,120279,1,0,0:0:0:0:
320,192,120358,128,0,120674:0:0:0:0:
192,192,120437,1,0,0:0:0:0:
64,192,120516,1,0,0:0:0:0:
448,192,120595,1,0,0:0:0:0:
192,192,120674,128,0,120990:0:0:0:0:
64,192,120753,1,0,0:0:0:0:
448,192,120832,1,0,0:0:0:0:
64,192,120911,1,0,0:0:0:0:
320,192,120990,128,0,121069:0:0:0:0:
192,192,121069,128,0,121148:0:0:0:0:
320,192,121148,128,0,121227:0:0:0:0:
192,192,121227,128,0,121306:0:0:0:0:
64,192,121306,1,0,0:0:0:0:
320,192,121306,1,0,0:0:0:0:
448,192,121306,1,0,0:0:0:0:
192,192,121385,1,0,0:0:0:0:
320,192,121464,1,0,0:0:0:0:
448,192,121543,1,0,0:0:0:0:
64,192,121621,1,0,0:0:0:0:
192,192,121621,1,0,0:0:0:0:
320,192,121621,1,0,0:0:0:0:
448,192,121700,1,0,0:0:0:0:
320,192,121779,1,0,0:0:0:0:
192,192,121858,1,0,0:0:0:0:
64,192,121937,1,0,0:0:0:0:
320,192,121937,1,0,0:0:0:0:
448,192,122016,1,0,0:0:0:0:
64,192,122095,1,0,0:0:0:0:
192,192,122174,1,0,0:0:0:0:
64,192,122253,1,0,0:0:0:0:
320,192,122253,1,0,0:0:0:0:
448,192,122253,1,0,0:0:0:0:
192,192,122332,1,0,0:0:0:0:
448,192,122411,1,0,0:0:0:0:
192,192,122490,1,0,0:0:0:0:
320,192,122490,1,0,0:0:0:0:
64,192,122569,1,0,0:0:0:0:
448,192,122569,1,0,0:0:0:0:
320,192,122648,1,0,0:0:0:0:
192,192,122727,1,0,0:0:0:0:
64,192,122806,1,0,0:0:0:0:
320,192,122806,1,0,0:0:0:0:
448,192,122885,1,0,0:0:0:0:
192,192,122885,1,0,0:0:0:0:
320,192,122964,1,0,0:0:0:0:
192,192,123043,1,0,0:0:0:0:
64,192,123121,1,0,0:0:0:0:
448,192,123200,1,0,0:0:0:0:
320,192,123200,1,0,0:0:0:0:
192,192,123279,1,0,0:0:0:0:
64,192,123279,1,0,0:0:0:0:
320,192,123358,1,0,0:0:0:0:
448,192,123358,1,0,0:0:0:0:
192,192,123437,1,0,0:0:0:0:
64,192,123437,1,0,0:0:0:0:
320,192,123516,1,0,0:0:0:0:
448,192,123516,1,0,0:0:0:0:
192,192,123595,1,0,0:0:0:0:
64,192,123595,1,0,0:0:0:0:
448,192,123674,1,0,0:0:0:0:
320,192,123753,1,0,0:0:0:0:
64,192,123832,1,0,0:0:0:0:
192,192,123832,1,0,0:0:0:0:
448,192,123832,1,0,0:0:0:0:
320,192,123911,1,0,0:0:0:0:
192,192,123990,1,0,0:0:0:0:
320,192,124069,1,0,0:0:0:0:
64,192,124148,1,0,0:0:0:0:
448,192,124148,1,0,0:0:0:0:
192,192,124148,1,0,0:0:0:0:
320,192,124227,1,0,0:0:0:0:
192,192,124306,1,0,0:0:0:0:
64,192,124385,1,0,0:0:0:0:
320,192,124464,1,0,0:0:0:0:
448,192,124464,1,0,0:0:0:0:
192,192,124543,1,0,0:0:0:0:
320,192,124621,1,0,0:0:0:0:
448,192,124700,1,0,0:0:0:0:
64,192,124779,1,0,0:0:0:0:
320,192,124779,1,0,0:0:0:0:
192,192,124858,1,0,0:0:0:0:
448,192,124858,1,0,0:0:0:0:
320,192,124937,1,0,0:0:0:0:
64,192,124937,1,0,0:0:0:0:
192,192,125016,1,0,0:0:0:0:
448,192,125095,1,0,0:0:0:0:
64,192,125095,1,0,0:0:0:0:
320,192,125174,1,0,0:0:0:0:
192,192,125253,1,0,0:0:0:0:
64,192,125332,1,0,0:0:0:0:
192,192,125411,1,0,0:0:0:0:
320,192,125411,1,0,0:0:0:0:
448,192,125411,1,0,0:0:0:0:
64,192,125490,1,0,0:0:0:0:
320,192,125569,1,0,0:0:0:0:
448,192,125569,1,0,0:0:0:0:
192,192,125648,1,0,0:0:0:0:
64,192,125648,1,0,0:0:0:0:
320,192,125727,1,0,0:0:0:0:
448,192,125727,1,0,0:0:0:0:
192,192,125806,1,0,0:0:0:0:
64,192,125885,1,0,0:0:0:0:
448,192,125964,1,0,0:0:0:0:
320,192,126043,1,0,0:0:0:0:
192,192,126043,1,0,0:0:0:0:
64,192,126043,1,0,0:0:0:0:
448,192,126121,1,0,0:0:0:0:
320,192,126200,1,0,0:0:0:0:
192,192,126279,1,0,0:0:0:0:
64,192,126358,1,0,0:0:0:0:
320,192,126437,1,0,0:0:0:0:
192,192,126516,1,0,0:0:0:0:
64,192,126595,1,0,0:0:0:0:
320,192,126674,1,0,0:0:0:0:
448,192,126674,1,0,0:0:0:0:
192,192,126674,1,0,0:0:0:0:
64,192,126753,1,0,0:0:0:0:
192,192,126832,1,0,0:0:0:0:
320,192,126911,1,0,0:0:0:0:
448,192,126990,1,0,0:0:0:0:
64,192,126990,1,0,0:0:0:0:
192,192,127069,1,0,0:0:0:0:
320,192,127148,1,0,0:0:0:0:
448,192,127227,1,0,0:0:0:0:
192,192,127306,1,0,0:0:0:0:
64,192,127306,1,0,0:0:0:0:
320,192,127306,1,0,0:0:0:0:
448,192,127385,1,0,0:0:0:0:
320,192,127464,1,0,0:0:0:0:
192,192,127543,1,0,0:0:0:0:
64,192,127621,1,0,0:0:0:0:
448,192,127621,1,0,0:0:0:0:
320,192,127700,1,0,0:0:0:0:
192,192,127779,1,0,0:0:0:0:
64,192,127858,1,0,0:0:0:0:
448,192,127937,1,0,0:0:0:0:
192,192,127937,1,0,0:0:0:0:
320,192,127937,1,0,0:0:0:0:
64,192,128016,1,0,0:0:0:0:
192,192,128095,1,0,0:0:0:0:
320,192,128174,1,0,0:0:0:0:
64,192,128253,1,0,0:0:0:0:
448,192,128253,1,0,0:0:0:0:
192,192,128332,1,0,0:0:0:0:
320,192,128411,1,0,0:0:0:0:
448,192,128490,1,0,0:0:0:0:
320,192,128569,1,0,0:0:0:0:
64,192,128569,1,0,0:0:0:0:
192,192,128569,1,0,0:0:0:0:
448,192,128648,1,0,0:0:0:0:
320,192,128727,1,0,0:0:0:0:
192,192,128806,1,0,0:0:0:0:
64,192,128885,1,0,0:0:0:0:
448,192,128885,1,0,0:0:0:0:
192,192,128964,1,0,0:0:0:0:
320,192,128964,1,0,0:0:0:0:
64,192,129043,1,0,0:0:0:0:
448,192,129043,1,0,0:0:0:0:
320,192,129121,1,0,0:0:0:0:
64,192,129200,1,0,0:0:0:0:
192,192,129200,1,0,0:0:0:0:
448,192,129200,1,0,0:0:0:0:
320,192,129279,1,0,0:0:0:0:
192,192,129358,1,0,0:0:0:0:
64,192,129358,1,0,0:0:0:0:
448,192,129437,1,0,0:0:0:0:
320,192,129437,1,0,0:0:0:0:
192,192,129516,1,0,0:0:0:0:
64,192,129516,1,0,0:0:0:0:
320,192,129595,1,0,0:0:0:0:
448,192,129674,1,0,0:0:0:0:
192,192,129753,1,0,0:0:0:0:
64,192,129832,1,0,0:0:0:0:
320,192,129832,1,0,0:0:0:0:
448,192,129832,1,0,0:0:0:0:
192,192,129911,1,0,0:0:0:0:
320,192,129990,1,0,0:0:0:0:
448,192,130069,1,0,0:0:0:0:
64,192,130148,1,0,0:0:0:0:
320,192,130148,1,0,0:0:0:0:
192,192,130227,1,0,0:0:0:0:
448,192,130227,1,0,0:0:0:0:
320,192,130306,1,0,0:0:0:0:
64,192,130306,1,0,0:0:0:0:
192,192,130385,1,0,0:0:0:0:
320,192,130464,1,0,0:0:0:0:
448,192,130464,1,0,0:0:0:0:
64,192,130464,1,0,0:0:0:0:
192,192,130543,1,0,0:0:0:0:
320,192,130621,1,0,0:0:0:0:
448,192,130700,1,0,0:0:0:0:
320,192,130779,1,0,0:0:0:0:
192,192,130779,1,0,0:0:0:0:
64,192,130858,1,0,0:0:0:0:
192,192,130937,1,0,0:0:0:0:
320,192,131016,1,0,0:0:0:0:
64,192,131095,1,0,0:0:0:0:
448,192,131095,1,0,0:0:0:0:
320,192,131174,1,0,0:0:0:0:
64,192,131253,1,0,0:0:0:0:
448,192,131253,1,0,0:0:0:0:
192,192,131332,1,0,0:0:0:0:
64,192,131411,1,0,0:0:0:0:
448,192,131411,1,0,0:0:0:0:
320,192,131411,1,0,0:0:0:0:
192,192,131569,1,0,0:0:0:0:
448,192,131569,1,0,0:0:0:0:
64,192,131727,1,0,0:0:0:0:
320,192,131727,1,0,0:0:0:0:
320,192,131885,1,0,0:0:0:0:
192,192,131885,1,0,0:0:0:0:
64,192,132043,1,0,0:0:0:0:
448,192,132043,1,0,0:0:0:0:
448,192,132200,1,0,0:0:0:0:
64,192,132200,1,0,0:0:0:0:
320,192,132200,1,0,0:0:0:0:
448,192,132358,1,0,0:0:0:0:
192,192,132358,1,0,0:0:0:0:
64,192,132358,1,0,0:0:0:0:
64,192,132516,1,0,0:0:0:0:
320,192,132516,1,0,0:0:0:0:
448,192,132516,1,0,0:0:0:0:
192,192,132674,1,0,0:0:0:0:
320,192,132674,1,0,0:0:0:0:
64,192,132753,1,0,0:0:0:0:
192,192,132832,1,0,0:0:0:0:
320,192,132911,1,0,0:0:0:0:
448,192,132990,1,0,0:0:0:0:
64,192,132990,1,0,0:0:0:0:
192,192,132990,1,0,0:0:0:0:
320,192,133069,1,0,0:0:0:0:
64,192,133148,1,0,0:0:0:0:
192,192,133227,1,0,0:0:0:0:
320,192,133306,1,0,0:0:0:0:
448,192,133306,1,0,0:0:0:0:
192,192,133385,1,0,0:0:0:0:
64,192,133464,1,0,0:0:0:0:
320,192,133543,1,0,0:0:0:0:
64,192,133621,1,0,0:0:0:0:
448,192,133621,1,0,0:0:0:0:
192,192,133621,1,0,0:0:0:0:
320,192,133700,1,0,0:0:0:0:
192,192,133779,1,0,0:0:0:0:
64,192,133858,1,0,0:0:0:0:
448,192,133937,1,0,0:0:0:0:
320,192,133937,1,0,0:0:0:0:
192,192,133937,1,0,0:0:0:0:
64,192,134095,1,0,0:0:0:0:
320,192,134095,1,0,0:0:0:0:
192,192,134253,1,0,0:0:0:0:
448,192,134253,1,0,0:0:0:0:
320,192,134411,1,0,0:0:0:0:
192,192,134411,1,0,0:0:0:0:
64,192,134411,1,0,0:0:0:0:
448,192,134569,1,0,0:0:0:0:
64,192,134569,1,0,0:0:0:0:
192,192,134727,1,0,0:0:0:0:
320,192,134727,1,0,0:0:0:0:
448,192,134727,1,0,0:0:0:0:
64,192,134885,1,0,0:0:0:0:
192,192,134885,1,0,0:0:0:0:
320,192,134885,1,0,0:0:0:0:
448,192,135043,1,0,0:0:0:0:
320,192,135043,1,0,0:0:0:0:
192,192,135043,1,0,0:0:0:0:
64,192,135200,1,0,0:0:0:0:
192,192,135200,1,0,0:0:0:0:
320,192,135279,1,0,0:0:0:0:
448,192,135358,1,0,0:0:0:0:
192,192,135437,1,0,0:0:0:0:
64,192,135516,1,0,0:0:0:0:
320,192,135516,1,0,0:0:0:0:
448,192,135516,1,0,0:0:0:0:
192,192,135595,1,0,0:0:0:0:
320,192,135674,1,0,0:0:0:0:
192,192,135753,1,0,0:0:0:0:
448,192,135832,1,0,0:0:0:0:
64,192,135832,128,0,135990:0:0:0:0:
448,192,135990,128,0,136148:0:0:0:0:
192,192,135990,1,0,0:0:0:0:
192,192,136148,128,0,136306:0:0:0:0:
64,192,136148,1,0,0:0:0:0:
448,192,136306,1,0,0:0:0:0:
320,192,136306,128,0,136464:0:0:0:0:
448,192,136464,1,0,0:0:0:0:
64,192,136464,1,0,0:0:0:0:
192,192,136543,1,0,0:0:0:0:
320,192,136621,1,0,0:0:0:0:
448,192,136700,1,0,0:0:0:0:
64,192,136779,1,0,0:0:0:0:
192,192,136779,1,0,0:0:0:0:
320,192,136779,1,0,0:0:0:0:
448,192,136858,1,0,0:0:0:0:
64,192,136937,1,0,0:0:0:0:
192,192,137016,1,0,0:0:0:0:
320,192,137095,1,0,0:0:0:0:
64,192,137095,1,0,0:0:0:0:
448,192,137174,1,0,0:0:0:0:
320,192,137253,1,0,0:0:0:0:
192,192,137332,1,0,0:0:0:0:
448,192,137411,1,0,0:0:0:0:
320,192,137411,1,0,0:0:0:0:
64,192,137411,1,0,0:0:0:0:
192,192,137490,1,0,0:0:0:0:
448,192,137569,1,0,0:0:0:0:
320,192,137648,1,0,0:0:0:0:
64,192,137727,1,0,0:0:0:0:
448,192,137727,1,0,0:0:0:0:
320,192,137806,1,0,0:0:0:0:
192,192,137885,1,0,0:0:0:0:
320,192,137964,1,0,0:0:0:0:
192,192,138043,1,0,0:0:0:0:
64,192,138043,1,0,0:0:0:0:
448,192,138043,1,0,0:0:0:0:
320,192,138121,1,0,0:0:0:0:
64,192,138200,1,0,0:0:0:0:
192,192,138279,1,0,0:0:0:0:
64,192,138358,1,0,0:0:0:0:
320,192,138358,1,0,0:0:0:0:
448,192,138358,1,0,0:0:0:0:
192,192,138437,1,0,0:0:0:0:
320,192,138516,1,0,0:0:0:0:
448,192,138595,1,0,0:0:0:0:
320,192,138674,1,0,0:0:0:0:
192,192,138674,1,0,0:0:0:0:
64,192,138674,1,0,0:0:0:0:
448,192,138753,1,0,0:0:0:0:
320,192,138832,1,0,0:0:0:0:
192,192,138911,1,0,0:0:0:0:
64,192,138990,1,0,0:0:0:0:
448,192,138990,1,0,0:0:0:0:
192,192,139069,1,0,0:0:0:0:
320,192,139148,1,0,0:0:0:0:
192,192,139227,1,0,0:0:0:0:
448,192,139306,1,0,0:0:0:0:
320,192,139306,1,0,0:0:0:0:
64,192,139306,1,0,0:0:0:0:
192,192,139385,1,0,0:0:0:0:
320,192,139464,1,0,0:0:0:0:
448,192,139543,1,0,0:0:0:0:
192,192,139621,1,0,0:0:0:0:
64,192,139621,1,0,0:0:0:0:
320,192,139700,1,0,0:0:0:0:
448,192,139779,1,0,0:0:0:0:
64,192,139858,1,0,0:0:0:0:
192,192,139937,1,0,0:0:0:0:
320,192,139937,1,0,0:0:0:0:
448,192,139937,1,0,0:0:0:0:
64,192,140016,1,0,0:0:0:0:
192,192,140095,1,0,0:0:0:0:
320,192,140174,1,0,0:0:0:0:
448,192,140253,128,0,140569:0:0:0:0:
192,192,140411,1,0,0:0:0:0:
64,192,140569,128,0,140885:0:0:0:0:
192,192,140727,1,0,0:0:0:0:
320,192,140885,128,0,141200:0:0:0:0:
64,192,141200,1,0,0:0:0:0:
448,192,141279,1,0,0:0:0:0:
64,192,141358,1,0,0:0:0:0:
448,192,141437,1,0,0:0:0:0:
192,192,141516,1,0,0:0:0:0:
64,192,141516,1,0,0:0:0:0:
448,192,141595,1,0,0:0:0:0:
320,192,141674,1,0,0:0:0:0:
192,192,141753,1,0,0:0:0:0:
64,192,141832,1,0,0:0:0:0:
448,192,141832,1,0,0:0:0:0:
320,192,141832,1,0,0:0:0:0:
192,192,141911,1,0,0:0:0:0:
320,192,141990,1,0,0:0:0:0:
64,192,142069,1,0,0:0:0:0:
448,192,142148,1,0,0:0:0:0:
192,192,142148,1,0,0:0:0:0:
320,192,142227,1,0,0:0:0:0:
192,192,142306,1,0,0:0:0:0:
64,192,142385,1,0,0:0:0:0:
448,192,142464,128,0,142543:0:0:0:0:
192,192,142543,128,0,142621:0:0:0:0:
320,192,142621,128,0,142700:0:0:0:0:
64,192,142779,1,0,0:0:0:0:
448,192,142779,1,0,0:0:0:0:
192,192,142858,1,0,0:0:0:0:
320,192,142937,1,0,0:0:0:0:
192,192,143016,1,0,0:0:0:0:
64,192,143095,1,0,0:0:0:0:
320,192,143095,1,0,0:0:0:0:
448,192,143095,1,0,0:0:0:0:
192,192,143174,1,0,0:0:0:0:
320,192,143253,1,0,0:0:0:0:
448,192,143332,1,0,0:0:0:0:
64,192,143411,1,0,0:0:0:0:
192,192,143411,1,0,0:0:0:0:
320,192,143490,1,0,0:0:0:0:
64,192,143569,1,0,0:0:0:0:
320,192,143648,1,0,0:0:0:0:
448,192,143727,128,0,143753:0:0:0:0:
192,192,143753,128,0,143806:0:0:0:0:
64,192,143885,128,0,143911:0:0:0:0:
320,192,143911,128,0,143964:0:0:0:0:
192,192,144043,1,0,0:0:0:0:
448,192,144043,1,0,0:0:0:0:
64,192,144121,1,0,0:0:0:0:
192,192,144200,1,0,0:0:0:0:
320,192,144279,1,0,0:0:0:0:
448,192,144358,1,0,0:0:0:0:
64,192,144358,1,0,0:0:0:0:
192,192,144437,1,0,0:0:0:0:
320,192,144437,1,0,0:0:0:0:
64,192,144516,1,0,0:0:0:0:
448,192,144516,1,0,0:0:0:0:
320,192,144595,1,0,0:0:0:0:
192,192,144595,1,0,0:0:0:0:
64,192,144674,1,0,0:0:0:0:
448,192,144674,128,0,144990:0:0:0:0:
192,192,144753,1,0,0:0:0:0:
320,192,144832,1,0,0:0:0:0:
64,192,144911,1,0,0:0:0:0:
320,192,144990,1,0,0:0:0:0:
192,192,144990,1,0,0:0:0:0:
64,192,145069,1,0,0:0:0:0:
448,192,145148,1,0,0:0:0:0:
320,192,145227,1,0,0:0:0:0:
448,192,145306,1,0,0:0:0:0:
64,192,145306,128,0,145464:0:0:0:0:
192,192,145306,128,0,145464:0:0:0:0:
192,192,145621,1,0,0:0:0:0:
320,192,145621,1,0,0:0:0:0:
448,192,145621,1,0,0:0:0:0:
64,192,145779,1,0,0:0:0:0:
320,192,145779,1,0,0:0:0:0:
448,192,145937,1,0,0:0:0:0:
320,192,145937,1,0,0:0:0:0:
192,192,145937,1,0,0:0:0:0:
64,192,146095,1,0,0:0:0:0:
192,192,146095,1,0,0:0:0:0:
64,192,146253,1,0,0:0:0:0:
448,192,146253,1,0,0:0:0:0:
320,192,146332,1,0,0:0:0:0:
192,192,146411,1,0,0:0:0:0:
320,192,146490,1,0,0:0:0:0:
192,192,146569,1,0,0:0:0:0:
64,192,146569,1,0,0:0:0:0:
320,192,146648,1,0,0:0:0:0:
448,192,146727,1,0,0:0:0:0:
192,192,146806,1,0,0:0:0:0:
64,192,146885,1,0,0:0:0:0:
320,192,146885,1,0,0:0:0:0:
448,192,146885,1,0,0:0:0:0:
192,192,146964,1,0,0:0:0:0:
64,192,147043,1,0,0:0:0:0:
448,192,147121,1,0,0:0:0:0:
320,192,147200,1,0,0:0:0:0:
192,192,147200,1,0,0:0:0:0:
64,192,147279,1,0,0:0:0:0:
192,192,147358,1,0,0:0:0:0:
320,192,147437,1,0,0:0:0:0:
64,192,147516,1,0,0:0:0:0:
192,192,147516,1,0,0:0:0:0:
448,192,147516,1,0,0:0:0:0:
320,192,147595,1,0,0:0:0:0:
64,192,147674,1,0,0:0:0:0:
192,192,147753,1,0,0:0:0:0:
448,192,147832,1,0,0:0:0:0:
320,192,147832,1,0,0:0:0:0:
64,192,147911,1,0,0:0:0:0:
192,192,147990,1,0,0:0:0:0:
448,192,148069,1,0,0:0:0:0:
192,192,148148,1,0,0:0:0:0:
64,192,148148,1,0,0:0:0:0:
320,192,148227,1,0,0:0:0:0:
448,192,148227,1,0,0:0:0:0:
192,192,148306,1,0,0:0:0:0:
64,192,148306,1,0,0:0:0:0:
320,192,148385,1,0,0:0:0:0:
448,192,148385,1,0,0:0:0:0:
192,192,148464,1,0,0:0:0:0:
64,192,148464,1,0,0:0:0:0:
320,192,148543,1,0,0:0:0:0:
448,192,148621,1,0,0:0:0:0:
64,192,148700,1,0,0:0:0:0:
192,192,148779,1,0,0:0:0:0:
320,192,148779,1,0,0:0:0:0:
448,192,148858,1,0,0:0:0:0:
64,192,148858,1,0,0:0:0:0:
192,192,148937,1,0,0:0:0:0:
320,192,148937,1,0,0:0:0:0:
64,192,149016,1,0,0:0:0:0:
448,192,149016,1,0,0:0:0:0:
320,192,149095,1,0,0:0:0:0:
192,192,149095,128,0,149253:0:0:0:0:
448,192,149174,1,0,0:0:0:0:
320,192,149253,1,0,0:0:0:0:
192,192,149332,1,0,0:0:0:0:
448,192,149411,128,0,149569:0:0:0:0:
64,192,149411,1,0,0:0:0:0:
320,192,149411,1,0,0:0:0:0:
192,192,149490,1,0,0:0:0:0:
320,192,149569,1,0,0:0:0:0:
64,192,149648,1,0,0:0:0:0:
192,192,149727,1,0,0:0:0:0:
448,192,149727,1,0,0:0:0:0:
320,192,149806,1,0,0:0:0:0:
192,192,149885,1,0,0:0:0:0:
64,192,149964,1,0,0:0:0:0:
192,192,150043,1,0,0:0:0:0:
320,192,150043,1,0,0:0:0:0:
448,192,150043,128,0,150121:0:0:0:0:
64,192,150121,1,0,0:0:0:0:
192,192,150200,128,0,150279:0:0:0:0:
320,192,150279,1,0,0:0:0:0:
448,192,150358,1,0,0:0:0:0:
64,192,150358,1,0,0:0:0:0:
192,192,150358,1,0,0:0:0:0:
448,192,150674,1,0,0:0:0:0:
192,192,150674,1,0,0:0:0:0:
64,192,150674,1,0,0:0:0:0:
320,192,150773,1,0,0:0:0:0:
64,192,150773,1,0,0:0:0:0:
192,192,150871,1,0,0:0:0:0:
320,192,150871,1,0,0:0:0:0:
448,192,150990,1,0,0:0:0:0:
192,192,150990,1,0,0:0:0:0:
64,192,151089,1,0,0:0:0:0:
448,192,151089,1,0,0:0:0:0:
320,192,151187,1,0,0:0:0:0:
64,192,151187,1,0,0:0:0:0:
320,192,151306,1,0,0:0:0:0:
192,192,151385,1,0,0:0:0:0:
448,192,151385,1,0,0:0:0:0:
64,192,151464,1,0,0:0:0:0:
320,192,151464,1,0,0:0:0:0:
192,192,151543,1,0,0:0:0:0:
448,192,151543,1,0,0:0:0:0:
320,192,151621,1,0,0:0:0:0:
64,192,151621,1,0,0:0:0:0:
448,192,151700,1,0,0:0:0:0:
320,192,151779,1,0,0:0:0:0:
448,192,151858,1,0,0:0:0:0:
192,192,151937,1,0,0:0:0:0:
64,192,152016,1,0,0:0:0:0:
192,192,152095,1,0,0:0:0:0:
448,192,152174,1,0,0:0:0:0:
320,192,152253,1,0,0:0:0:0:
64,192,152253,1,0,0:0:0:0:
192,192,152332,1,0,0:0:0:0:
320,192,152411,1,0,0:0:0:0:
192,192,152490,1,0,0:0:0:0:
64,192,152569,1,0,0:0:0:0:
320,192,152569,1,0,0:0:0:0:
448,192,152569,1,0,0:0:0:0:
192,192,152727,1,0,0:0:0:0:
320,192,152727,1,0,0:0:0:0:
192,192,152885,1,0,0:0:0:0:
320,192,152964,1,0,0:0:0:0:
192,192,153043,1,0,0:0:0:0:
320,192,153121,1,0,0:0:0:0:
64,192,153200,1,0,0:0:0:0:
192,192,153279,1,0,0:0:0:0:
64,192,153358,1,0,0:0:0:0:
192,192,153437,1,0,0:0:0:0:
448,192,153516,1,0,0:0:0:0:
320,192,153595,1,0,0:0:0:0:
448,192,153674,1,0,0:0:0:0:
320,192,153753,1,0,0:0:0:0:
64,192,153832,1,0,0:0:0:0:
448,192,153832,1,0,0:0:0:0:
192,192,153832,1,0,0:0:0:0:
192,192,153990,1,0,0:0:0:0:
320,192,153990,1,0,0:0:0:0:
64,192,154148,1,0,0:0:0:0:
192,192,154148,1,0,0:0:0:0:
320,192,154227,1,0,0:0:0:0:
448,192,154306,1,0,0:0:0:0:
192,192,154385,1,0,0:0:0:0:
64,192,154464,1,0,0:0:0:0:
320,192,154464,1,0,0:0:0:0:
448,192,154543,1,0,0:0:0:0:
192,192,154543,1,0,0:0:0:0:
64,192,154621,1,0,0:0:0:0:
320,192,154621,1,0,0:0:0:0:
192,192,154700,1,0,0:0:0:0:
448,192,154700,1,0,0:0:0:0:
320,192,154779,128,0,155095:0:0:0:0:
64,192,154779,1,0,0:0:0:0:
192,192,154858,1,0,0:0:0:0:
448,192,154937,1,0,0:0:0:0:
192,192,155016,1,0,0:0:0:0:
64,192,155095,1,0,0:0:0:0:
448,192,155095,1,0,0:0:0:0:
192,192,155174,1,0,0:0:0:0:
320,192,155253,1,0,0:0:0:0:
64,192,155332,1,0,0:0:0:0:
192,192,155411,128,0,155648:0:0:0:0:
320,192,155411,128,0,155648:0:0:0:0:
448,192,155411,128,0,155648:0:0:0:0:
64,192,155727,1,0,0:0:0:0:
192,192,155727,1,0,0:0:0:0:
448,192,155727,1,0,0:0:0:0:
320,192,155885,1,0,0:0:0:0:
64,192,155885,1,0,0:0:0:0:
448,192,155885,1,0,0:0:0:0:
192,192,156043,1,0,0:0:0:0:
320,192,156043,1,0,0:0:0:0:
64,192,156121,1,0,0:0:0:0:
448,192,156121,1,0,0:0:0:0:
320,192,156200,1,0,0:0:0:0:
192,192,156200,1,0,0:0:0:0:
64,192,156279,1,0,0:0:0:0:
448,192,156279,1,0,0:0:0:0:
192,192,156358,128,0,156595:0:0:0:0:
320,192,156358,128,0,156595:0:0:0:0:
64,192,156674,1,0,0:0:0:0:
320,192,156674,1,0,0:0:0:0:
192,192,156753,1,0,0:0:0:0:
448,192,156832,1,0,0:0:0:0:
320,192,156911,1,0,0:0:0:0:
448,192,156990,1,0,0:0:0:0:
192,192,156990,1,0,0:0:0:0:
320,192,157069,1,0,0:0:0:0:
64,192,157148,1,0,0:0:0:0:
192,192,157227,1,0,0:0:0:0:
320,192,157306,1,0,0:0:0:0:
64,192,157306,1,0,0:0:0:0:
192,192,157385,1,0,0:0:0:0:
448,192,157464,1,0,0:0:0:0:
320,192,157543,1,0,0:0:0:0:
448,192,157621,1,0,0:0:0:0:
192,192,157621,1,0,0:0:0:0:
320,192,157700,1,0,0:0:0:0:
64,192,157779,1,0,0:0:0:0:
192,192,157858,1,0,0:0:0:0:
320,192,157937,1,0,0:0:0:0:
448,192,157937,1,0,0:0:0:0:
192,192,158016,1,0,0:0:0:0:
64,192,158095,1,0,0:0:0:0:
192,192,158174,1,0,0:0:0:0:
448,192,158253,1,0,0:0:0:0:
64,192,158253,1,0,0:0:0:0:
320,192,158332,1,0,0:0:0:0:
448,192,158411,1,0,0:0:0:0:
320,192,158490,1,0,0:0:0:0:
192,192,158569,1,0,0:0:0:0:
64,192,158569,1,0,0:0:0:0:
448,192,158648,1,0,0:0:0:0:
192,192,158727,1,0,0:0:0:0:
64,192,158806,1,0,0:0:0:0:
192,192,158885,1,0,0:0:0:0:
320,192,158885,1,0,0:0:0:0:
448,192,158964,1,0,0:0:0:0:
320,192,159043,1,0,0:0:0:0:
192,192,159121,1,0,0:0:0:0:
448,192,159200,1,0,0:0:0:0:
64,192,159200,1,0,0:0:0:0:
320,192,159279,1,0,0:0:0:0:
448,192,159358,1,0,0:0:0:0:
192,192,159437,1,0,0:0:0:0:
64,192,159516,1,0,0:0:0:0:
320,192,159516,1,0,0:0:0:0:
448,192,159516,1,0,0:0:0:0:
192,192,159595,1,0,0:0:0:0:
320,192,159674,1,0,0:0:0:0:
448,192,159753,1,0,0:0:0:0:
64,192,159832,1,0,0:0:0:0:
320,192,159832,1,0,0:0:0:0:
192,192,159911,1,0,0:0:0:0:
64,192,159990,1,0,0:0:0:0:
448,192,160069,1,0,0:0:0:0:
320,192,160148,1,0,0:0:0:0:
192,192,160148,1,0,0:0:0:0:
64,192,160148,1,0,0:0:0:0:
448,192,160227,1,0,0:0:0:0:
320,192,160306,1,0,0:0:0:0:
192,192,160385,1,0,0:0:0:0:
64,192,160464,1,0,0:0:0:0:
320,192,160543,1,0,0:0:0:0:
64,192,160621,1,0,0:0:0:0:
320,192,160700,1,0,0:0:0:0:
192,192,160779,1,0,0:0:0:0:
448,192,160858,1,0,0:0:0:0:
192,192,160937,1,0,0:0:0:0:
448,192,161016,1,0,0:0:0:0:
192,192,161095,128,0,161253:0:0:0:0:
64,192,161095,1,0,0:0:0:0:
448,192,161253,128,0,161411:0:0:0:0:
320,192,161253,1,0,0:0:0:0:
192,192,161411,1,0,0:0:0:0:
64,192,161411,128,0,161727:0:0:0:0:
192,192,161727,1,0,0:0:0:0:
320,192,161727,1,0,0:0:0:0:
448,192,161806,1,0,0:0:0:0:
320,192,161885,1,0,0:0:0:0:
192,192,161964,1,0,0:0:0:0:
64,192,162043,1,0,0:0:0:0:
448,192,162043,1,0,0:0:0:0:
320,192,162043,1,0,0:0:0:0:
192,192,162121,1,0,0:0:0:0:
320,192,162200,1,0,0:0:0:0:
64,192,162279,1,0,0:0:0:0:
192,192,162358,1,0,0:0:0:0:
320,192,162358,1,0,0:0:0:0:
448,192,162437,1,0,0:0:0:0:
64,192,162516,1,0,0:0:0:0:
320,192,162595,1,0,0:0:0:0:
448,192,162674,1,0,0:0:0:0:
192,192,162674,1,0,0:0:0:0:
64,192,162753,1,0,0:0:0:0:
192,192,162832,1,0,0:0:0:0:
320,192,162911,1,0,0:0:0:0:
64,192,162990,1,0,0:0:0:0:
448,192,162990,1,0,0:0:0:0:
192,192,163069,1,0,0:0:0:0:
320,192,163148,1,0,0:0:0:0:
192,192,163227,1,0,0:0:0:0:
64,192,163306,1,0,0:0:0:0:
320,192,163306,1,0,0:0:0:0:
448,192,163306,1,0,0:0:0:0:
192,192,163385,1,0,0:0:0:0:
448,192,163464,1,0,0:0:0:0:
320,192,163543,1,0,0:0:0:0:
64,192,163621,1,0,0:0:0:0:
192,192,163621,1,0,0:0:0:0:
320,192,163700,1,0,0:0:0:0:
64,192,163779,1,0,0:0:0:0:
192,192,163858,1,0,0:0:0:0:
448,192,163937,1,0,0:0:0:0:
320,192,163937,1,0,0:0:0:0:
64,192,163937,1,0,0:0:0:0:
192,192,164016,1,0,0:0:0:0:
448,192,164095,1,0,0:0:0:0:
320,192,164174,1,0,0:0:0:0:
192,192,164253,1,0,0:0:0:0:
448,192,164253,1,0,0:0:0:0:
64,192,164332,1,0,0:0:0:0:
192,192,164411,1,0,0:0:0:0:
320,192,164490,1,0,0:0:0:0:
448,192,164569,1,0,0:0:0:0:
64,192,164569,1,0,0:0:0:0:
192,192,164648,1,0,0:0:0:0:
320,192,164648,1,0,0:0:0:0:
64,192,164727,1,0,0:0:0:0:
448,192,164727,1,0,0:0:0:0:
320,192,164806,1,0,0:0:0:0:
192,192,164806,1,0,0:0:0:0:
64,192,164885,1,0,0:0:0:0:
448,192,164885,1,0,0:0:0:0:
192,192,164964,1,0,0:0:0:0:
320,192,165043,1,0,0:0:0:0:
448,192,165121,1,0,0:0:0:0:
320,192,165200,1,0,0:0:0:0:
64,192,165200,1,0,0:0:0:0:
192,192,165200,1,0,0:0:0:0:
448,192,165279,1,0,0:0:0:0:
192,192,165358,1,0,0:0:0:0:
320,192,165437,1,0,0:0:0:0:
192,192,165516,1,0,0:0:0:0:
64,192,165516,1,0,0:0:0:0:
320,192,165595,1,0,0:0:0:0:
192,192,165674,1,0,0:0:0:0:
64,192,165753,1,0,0:0:0:0:
192,192,165832,1,0,0:0:0:0:
320,192,165832,1,0,0:0:0:0:
64,192,165911,1,0,0:0:0:0:
448,192,165911,1,0,0:0:0:0:
320,192,165990,1,0,0:0:0:0:
192,192,165990,1,0,0:0:0:0:
64,192,166069,1,0,0:0:0:0:
320,192,166148,1,0,0:0:0:0:
448,192,166148,1,0,0:0:0:0:
192,192,166227,1,0,0:0:0:0:
64,192,166227,1,0,0:0:0:0:
320,192,166306,1,0,0:0:0:0:
448,192,166306,1,0,0:0:0:0:
192,192,166385,1,0,0:0:0:0:
64,192,166464,1,0,0:0:0:0:
320,192,166464,1,0,0:0:0:0:
448,192,166464,1,0,0:0:0:0:
192,192,166543,1,0,0:0:0:0:
64,192,166621,1,0,0:0:0:0:
192,192,166700,1,0,0:0:0:0:
320,192,166779,1,0,0:0:0:0:
448,192,166779,1,0,0:0:0:0:
64,192,166858,1,0,0:0:0:0:
192,192,166937,1,0,0:0:0:0:
448,192,167016,1,0,0:0:0:0:
320,192,167095,1,0,0:0:0:0:
192,192,167095,1,0,0:0:0:0:
64,192,167095,1,0,0:0:0:0:
448,192,167174,1,0,0:0:0:0:
320,192,167253,1,0,0:0:0:0:
64,192,167332,1,0,0:0:0:0:
192,192,167411,1,0,0:0:0:0:
448,192,167411,1,0,0:0:0:0:
320,192,167490,1,0,0:0:0:0:
192,192,167569,1,0,0:0:0:0:
64,192,167648,1,0,0:0:0:0:
192,192,167727,1,0,0:0:0:0:
320,192,167727,1,0,0:0:0:0:
448,192,167727,1,0,0:0:0:0:
64,192,167806,1,0,0:0:0:0:
192,192,167885,1,0,0:0:0:0:
320,192,167964,1,0,0:0:0:0:
448,192,168043,1,0,0:0:0:0:
64,192,168043,1,0,0:0:0:0:
320,192,168121,1,0,0:0:0:0:
192,192,168200,1,0,0:0:0:0:
320,192,168279,1,0,0:0:0:0:
448,192,168358,1,0,0:0:0:0:
192,192,168358,1,0,0:0:0:0:
64,192,168358,1,0,0:0:0:0:
320,192,168437,1,0,0:0:0:0:
64,192,168516,1,0,0:0:0:0:
192,192,168595,1,0,0:0:0:0:
448,192,168674,1,0,0:0:0:0:
64,192,168674,1,0,0:0:0:0:
320,192,168753,1,0,0:0:0:0:
192,192,168832,1,0,0:0:0:0:
64,192,168911,1,0,0:0:0:0:
448,192,168990,1,0,0:0:0:0:
320,192,168990,1,0,0:0:0:0:
192,192,169069,1,0,0:0:0:0:
64,192,169148,1,0,0:0:0:0:
320,192,169227,1,0,0:0:0:0:
448,192,169306,1,0,0:0:0:0:
192,192,169306,1,0,0:0:0:0:
64,192,169464,1,0,0:0:0:0:
320,192,169464,1,0,0:0:0:0:
192,192,169621,1,0,0:0:0:0:
448,192,169621,1,0,0:0:0:0:
320,192,169779,1,0,0:0:0:0:
64,192,169779,1,0,0:0:0:0:
64,192,169937,1,0,0:0:0:0:
448,192,169937,1,0,0:0:0:0:
320,192,170095,1,0,0:0:0:0:
192,192,170095,1,0,0:0:0:0:
64,192,170253,1,0,0:0:0:0:
448,192,170253,1,0,0:0:0:0:
320,192,170411,1,0,0:0:0:0:
192,192,170411,1,0,0:0:0:0:
64,192,170569,1,0,0:0:0:0:
192,192,170569,1,0,0:0:0:0:
320,192,170648,1,0,0:0:0:0:
448,192,170648,1,0,0:0:0:0:
192,192,170727,1,0,0:0:0:0:
64,192,170727,1,0,0:0:0:0:
320,192,170806,1,0,0:0:0:0:
448,192,170806,1,0,0:0:0:0:
192,192,170885,1,0,0:0:0:0:
64,192,170885,1,0,0:0:0:0:
320,192,170964,1,0,0:0:0:0:
448,192,170964,1,0,0:0:0:0:
192,192,171043,1,0,0:0:0:0:
64,192,171043,1,0,0:0:0:0:
320,192,171121,1,0,0:0:0:0:
448,192,171121,1,0,0:0:0:0:
192,192,171200,1,0,0:0:0:0:
64,192,171200,1,0,0:0:0:0:
64,192,171832,1,0,0:0:0:0:
192,192,171832,1,0,0:0:0:0:
320,192,171832,1,0,0:0:0:0:
448,192,171832,1,0,0:0:0:0:
320,192,171990,1,0,0:0:0:0:
64,192,172148,1,0,0:0:0:0:
192,192,172306,1,0,0:0:0:0:
448,192,172464,1,0,0:0:0:0:
320,192,172621,1,0,0:0:0:0:
64,192,172779,1,0,0:0:0:0:
192,192,172937,1,0,0:0:0:0:
448,192,173095,1,0,0:0:0:0:
320,192,173253,1,0,0:0:0:0:
64,192,173411,1,0,0:0:0:0:
192,192,173569,1,0,0:0:0:0:
448,192,173727,1,0,0:0:0:0:
320,192,173885,1,0,0:0:0:0:
64,192,174043,1,0,0:0:0:0:
192,192,174200,1,0,0:0:0:0:
320,192,174358,1,0,0:0:0:0:
448,192,174516,1,0,0:0:0:0:
192,192,174674,1,0,0:0:0:0:
64,192,174832,1,0,0:0:0:0:
320,192,174990,1,0,0:0:0:0:
192,192,175148,1,0,0:0:0:0:
448,192,175306,1,0,0:0:0:0:
320,192,175345,1,0,0:0:0:0:
192,192,175385,1,0,0:0:0:0:
64,192,175424,1,0,0:0:0:0:
448,192,175464,1,0,0:0:0:0:
320,192,175503,1,0,0:0:0:0:
192,192,175543,1,0,0:0:0:0:
64,192,175582,1,0,0:0:0:0:
448,192,175621,1,0,0:0:0:0:
320,192,175779,1,0,0:0:0:0:
192,192,175937,1,0,0:0:0:0:
64,192,176095,1,0,0:0:0:0:
320,192,176253,1,0,0:0:0:0:
448,192,176411,1,0,0:0:0:0:
64,192,176569,1,0,0:0:0:0:
192,192,176608,1,0,0:0:0:0:
320,192,176648,1,0,0:0:0:0:
448,192,176687,1,0,0:0:0:0:
64,192,176727,1,0,0:0:0:0:
192,192,176766,1,0,0:0:0:0:
320,192,176806,1,0,0:0:0:0:
448,192,176845,1,0,0:0:0:0:
64,192,176885,1,0,0:0:0:0:
448,192,177043,1,0,0:0:0:0:
64,192,177200,1,0,0:0:0:0:
448,192,177358,1,0,0:0:0:0:
64,192,177516,1,0,0:0:0:0:
448,192,177674,1,0,0:0:0:0:
64,192,177832,1,0,0:0:0:0:
192,192,177871,1,0,0:0:0:0:
448,192,177911,1,0,0:0:0:0:
320,192,177950,1,0,0:0:0:0:
64,192,177990,1,0,0:0:0:0:
192,192,178029,1,0,0:0:0:0:
448,192,178069,1,0,0:0:0:0:
320,192,178108,1,0,0:0:0:0:
64,192,178148,1,0,0:0:0:0:
192,192,178227,1,0,0:0:0:0:
320,192,178306,1,0,0:0:0:0:
64,192,178385,1,0,0:0:0:0:
448,192,178464,1,0,0:0:0:0:
192,192,178543,1,0,0:0:0:0:
320,192,178621,1,0,0:0:0:0:
64,192,178700,1,0,0:0:0:0:
448,192,178779,1,0,0:0:0:0:
192,192,178858,1,0,0:0:0:0:
320,192,178937,1,0,0:0:0:0:
64,192,179016,1,0,0:0:0:0:
320,192,179095,1,0,0:0:0:0:
448,192,179135,1,0,0:0:0:0:
192,192,179174,1,0,0:0:0:0:
64,192,179214,1,0,0:0:0:0:
320,192,179253,1,0,0:0:0:0:
448,192,179293,1,0,0:0:0:0:
192,192,179332,1,0,0:0:0:0:
64,192,179371,1,0,0:0:0:0:
320,192,179411,1,0,0:0:0:0:
448,192,179411,1,0,0:0:0:0:
448,192,180674,1,0,0:0:0:0:
320,192,180674,1,0,0:0:0:0:
320,192,180990,1,0,0:0:0:0:
448,192,180990,1,0,0:0:0:0:
320,192,181306,1,0,0:0:0:0:
448,192,181306,1,0,0:0:0:0:
320,192,181404,1,0,0:0:0:0:
448,192,181404,1,0,0:0:0:0:
64,192,181503,1,0,0:0:0:0:
192,192,181503,1,0,0:0:0:0:
320,192,181621,1,0,0:0:0:0:
448,192,181621,1,0,0:0:0:0:
448,192,181720,1,0,0:0:0:0:
320,192,181720,1,0,0:0:0:0:
192,192,181819,1,0,0:0:0:0:
64,192,181819,1,0,0:0:0:0:
320,192,181937,1,0,0:0:0:0:
64,192,181937,1,0,0:0:0:0:
320,192,182036,1,0,0:0:0:0:
448,192,182036,1,0,0:0:0:0:
64,192,182135,1,0,0:0:0:0:
64,192,182253,1,0,0:0:0:0:
192,192,182253,1,0,0:0:0:0:
448,192,182253,1,0,0:0:0:0:
192,192,182352,1,0,0:0:0:0:
320,192,182450,1,0,0:0:0:0:
64,192,182450,1,0,0:0:0:0:
64,192,182569,1,0,0:0:0:0:
448,192,182569,1,0,0:0:0:0:
448,192,182668,1,0,0:0:0:0:
192,192,182766,1,0,0:0:0:0:
64,192,182766,1,0,0:0:0:0:
64,192,182885,1,0,0:0:0:0:
448,192,182885,1,0,0:0:0:0:
320,192,182885,1,0,0:0:0:0:
320,192,182983,1,0,0:0:0:0:
192,192,183082,1,0,0:0:0:0:
448,192,183082,1,0,0:0:0:0:
192,192,183200,1,0,0:0:0:0:
64,192,183200,1,0,0:0:0:0:
320,192,183299,1,0,0:0:0:0:
448,192,183398,1,0,0:0:0:0:
320,192,183398,1,0,0:0:0:0:
64,192,183516,1,0,0:0:0:0:
192,192,183516,1,0,0:0:0:0:
448,192,183516,1,0,0:0:0:0:
64,192,183615,1,0,0:0:0:0:
192,192,183714,1,0,0:0:0:0:
320,192,183714,1,0,0:0:0:0:
320,192,183832,1,0,0:0:0:0:
64,192,183832,1,0,0:0:0:0:
448,192,183931,1,0,0:0:0:0:
192,192,184029,1,0,0:0:0:0:
64,192,184029,1,0,0:0:0:0:
192,192,184148,1,0,0:0:0:0:
320,192,184148,1,0,0:0:0:0:
448,192,184148,1,0,0:0:0:0:
64,192,184246,1,0,0:0:0:0:
320,192,184345,1,0,0:0:0:0:
192,192,184345,1,0,0:0:0:0:
320,192,184464,1,0,0:0:0:0:
64,192,184464,1,0,0:0:0:0:
448,192,184562,1,0,0:0:0:0:
448,192,184661,1,0,0:0:0:0:
192,192,184661,1,0,0:0:0:0:
64,192,184779,1,0,0:0:0:0:
192,192,184779,1,0,0:0:0:0:
320,192,184779,1,0,0:0:0:0:
448,192,184878,1,0,0:0:0:0:
64,192,184977,1,0,0:0:0:0:
448,192,184977,1,0,0:0:0:0:
64,192,185095,1,0,0:0:0:0:
320,192,185095,1,0,0:0:0:0:
192,192,185194,1,0,0:0:0:0:
320,192,185293,1,0,0:0:0:0:
448,192,185293,1,0,0:0:0:0:
64,192,185411,1,0,0:0:0:0:
320,192,185411,1,0,0:0:0:0:
192,192,185411,1,0,0:0:0:0:
448,192,185510,1,0,0:0:0:0:
64,192,185608,1,0,0:0:0:0:
320,192,185608,1,0,0:0:0:0:
192,192,185727,1,0,0:0:0:0:
64,192,185727,1,0,0:0:0:0:
64,192,185825,1,0,0:0:0:0:
192,192,185825,1,0,0:0:0:0:
448,192,185924,1,0,0:0:0:0:
192,192,185924,1,0,0:0:0:0:
320,192,186043,1,0,0:0:0:0:
64,192,186043,1,0,0:0:0:0:
448,192,186043,1,0,0:0:0:0:
64,192,186141,1,0,0:0:0:0:
320,192,186141,1,0,0:0:0:0:
192,192,186240,1,0,0:0:0:0:
448,192,186358,1,0,0:0:0:0:
320,192,186358,1,0,0:0:0:0:
64,192,186358,1,0,0:0:0:0:
448,192,186457,1,0,0:0:0:0:
320,192,186457,1,0,0:0:0:0:
64,192,186556,1,0,0:0:0:0:
448,192,186556,1,0,0:0:0:0:
192,192,186674,1,0,0:0:0:0:
320,192,186674,1,0,0:0:0:0:
64,192,186674,1,0,0:0:0:0:
192,192,186773,1,0,0:0:0:0:
320,192,186773,1,0,0:0:0:0:
448,192,186871,1,0,0:0:0:0:
64,192,186871,1,0,0:0:0:0:
192,192,186990,1,0,0:0:0:0:
448,192,186990,1,0,0:0:0:0:
320,192,187089,1,0,0:0:0:0:
64,192,187187,1,0,0:0:0:0:
320,192,187187,1,0,0:0:0:0:
192,192,187306,1,0,0:0:0:0:
64,192,187306,1,0,0:0:0:0:
448,192,187306,1,0,0:0:0:0:
192,192,187404,1,0,0:0:0:0:
64,192,187503,1,0,0:0:0:0:
448,192,187503,1,0,0:0:0:0:
448,192,187621,1,0,0:0:0:0:
320,192,187621,1,0,0:0:0:0:
320,192,187720,1,0,0:0:0:0:
64,192,187819,1,0,0:0:0:0:
192,192,187819,1,0,0:0:0:0:
64,192,187937,1,0,0:0:0:0:
448,192,187937,1,0,0:0:0:0:
320,192,187937,1,0,0:0:0:0:
448,192,188036,1,0,0:0:0:0:
64,192,188135,1,0,0:0:0:0:
192,192,188135,1,0,0:0:0:0:
192,192,188253,1,0,0:0:0:0:
448,192,188253,1,0,0:0:0:0:
320,192,188352,1,0,0:0:0:0:
320,192,188450,1,0,0:0:0:0:
64,192,188450,1,0,0:0:0:0:
64,192,188569,1,0,0:0:0:0:
192,192,188569,1,0,0:0:0:0:
448,192,188569,1,0,0:0:0:0:
448,192,188668,1,0,0:0:0:0:
64,192,188766,1,0,0:0:0:0:
192,192,188766,1,0,0:0:0:0:
192,192,188885,1,0,0:0:0:0:
320,192,188885,1,0,0:0:0:0:
448,192,188885,1,0,0:0:0:0:
320,192,188983,1,0,0:0:0:0:
64,192,189082,1,0,0:0:0:0:
192,192,189082,1,0,0:0:0:0:
64,192,189200,1,0,0:0:0:0:
320,192,189200,1,0,0:0:0:0:
448,192,189200,1,0,0:0:0:0:
448,192,189299,1,0,0:0:0:0:
64,192,189398,1,0,0:0:0:0:
320,192,189398,1,0,0:0:0:0:
64,192,189516,1,0,0:0:0:0:
192,192,189516,1,0,0:0:0:0:
320,192,189516,1,0,0:0:0:0:
448,192,189615,1,0,0:0:0:0:
192,192,189615,1,0,0:0:0:0:
192,192,189714,1,0,0:0:0:0:
448,192,189714,1,0,0:0:0:0:
64,192,189832,1,0,0:0:0:0:
448,192,189832,1,0,0:0:0:0:
320,192,189832,1,0,0:0:0:0:
64,192,189931,1,0,0:0:0:0:
192,192,189931,1,0,0:0:0:0:
64,192,190029,1,0,0:0:0:0:
320,192,190029,1,0,0:0:0:0:
448,192,190148,1,0,0:0:0:0:
320,192,190148,1,0,0:0:0:0:
192,192,190148,1,0,0:0:0:0:
64,192,190246,1,0,0:0:0:0:
192,192,190246,1,0,0:0:0:0:
448,192,190345,1,0,0:0:0:0:
192,192,190345,1,0,0:0:0:0:
448,192,190464,1,0,0:0:0:0:
320,192,190464,1,0,0:0:0:0:
64,192,190464,1,0,0:0:0:0:
192,192,190562,1,0,0:0:0:0:
64,192,190661,1,0,0:0:0:0:
448,192,190661,1,0,0:0:0:0:
448,192,190779,1,0,0:0:0:0:
320,192,190779,1,0,0:0:0:0:
192,192,190779,1,0,0:0:0:0:
64,192,190878,1,0,0:0:0:0:
192,192,190977,1,0,0:0:0:0:
320,192,190977,1,0,0:0:0:0:
192,192,191095,1,0,0:0:0:0:
320,192,191095,1,0,0:0:0:0:
448,192,191095,1,0,0:0:0:0:
448,192,191194,1,0,0:0:0:0:
320,192,191194,1,0,0:0:0:0:
192,192,191194,1,0,0:0:0:0:
192,192,191293,1,0,0:0:0:0:
320,192,191293,1,0,0:0:0:0:
448,192,191293,1,0,0:0:0:0:
64,192,191411,1,0,0:0:0:0:
192,192,191411,1,0,0:0:0:0:
448,192,191411,1,0,0:0:0:0:
320,192,191510,1,0,0:0:0:0:
64,192,191608,1,0,0:0:0:0:
320,192,191608,1,0,0:0:0:0:
64,192,191727,1,0,0:0:0:0:
192,192,191727,1,0,0:0:0:0:
448,192,191727,1,0,0:0:0:0:
192,192,191825,1,0,0:0:0:0:
448,192,191924,1,0,0:0:0:0:
448,192,192043,1,0,0:0:0:0:
320,192,192043,1,0,0:0:0:0:
64,192,192043,1,0,0:0:0:0:
192,192,192043,1,0,0:0:0:0:
192,192,192141,1,0,0:0:0:0:
192,192,192240,1,0,0:0:0:0:
320,192,192240,1,0,0:0:0:0:
448,192,192358,1,0,0:0:0:0:
320,192,192358,1,0,0:0:0:0:
64,192,192358,1,0,0:0:0:0:
192,192,192457,1,0,0:0:0:0:
64,192,192556,1,0,0:0:0:0:
320,192,192556,1,0,0:0:0:0:
64,192,192674,1,0,0:0:0:0:
320,192,192674,1,0,0:0:0:0:
448,192,192674,1,0,0:0:0:0:
448,192,192773,1,0,0:0:0:0:
320,192,192871,1,0,0:0:0:0:
192,192,192871,1,0,0:0:0:0:
64,192,192990,1,0,0:0:0:0:
192,192,192990,1,0,0:0:0:0:
448,192,192990,1,0,0:0:0:0:
64,192,193089,1,0,0:0:0:0:
64,192,193187,1,0,0:0:0:0:
320,192,193187,1,0,0:0:0:0:
192,192,193306,1,0,0:0:0:0:
320,192,193306,1,0,0:0:0:0:
448,192,193306,1,0,0:0:0:0:
64,192,193404,1,0,0:0:0:0:
192,192,193404,1,0,0:0:0:0:
448,192,193404,1,0,0:0:0:0:
448,192,193503,1,0,0:0:0:0:
320,192,193503,1,0,0:0:0:0:
64,192,193503,1,0,0:0:0:0:
64,192,193621,1,0,0:0:0:0:
192,192,193621,1,0,0:0:0:0:
320,192,193621,1,0,0:0:0:0:
448,192,193720,1,0,0:0:0:0:
64,192,193819,1,0,0:0:0:0:
320,192,193819,1,0,0:0:0:0:
448,192,193819,1,0,0:0:0:0:
192,192,193937,1,0,0:0:0:0:
448,192,193937,1,0,0:0:0:0:
64,192,193937,1,0,0:0:0:0:
320,192,194036,1,0,0:0:0:0:
64,192,194135,1,0,0:0:0:0:
192,192,194135,1,0,0:0:0:0:
448,192,194135,1,0,0:0:0:0:
320,192,194253,1,0,0:0:0:0:
448,192,194253,1,0,0:0:0:0:
192,192,194253,1,0,0:0:0:0:
64,192,194352,1,0,0:0:0:0:
320,192,194450,1,0,0:0:0:0:
192,192,194450,1,0,0:0:0:0:
64,192,194569,1,0,0:0:0:0:
448,192,194569,1,0,0:0:0:0:
320,192,194569,1,0,0:0:0:0:
192,192,194668,1,0,0:0:0:0:
64,192,194766,1,0,0:0:0:0:
448,192,194766,1,0,0:0:0:0:
192,192,194885,1,0,0:0:0:0:
320,192,194885,1,0,0:0:0:0:
64,192,194885,1,0,0:0:0:0:
320,192,194983,1,0,0:0:0:0:
192,192,195082,1,0,0:0:0:0:
448,192,195082,1,0,0:0:0:0:
448,192,195200,1,0,0:0:0:0:
320,192,195200,1,0,0:0:0:0:
64,192,195200,1,0,0:0:0:0:
64,192,195299,1,0,0:0:0:0:
192,192,195398,1,0,0:0:0:0:
320,192,195398,1,0,0:0:0:0:
64,192,195516,1,0,0:0:0:0:
448,192,195516,1,0,0:0:0:0:
320,192,195516,1,0,0:0:0:0:
448,192,195615,1,0,0:0:0:0:
64,192,195714,1,0,0:0:0:0:
192,192,195714,1,0,0:0:0:0:
64,192,195832,1,0,0:0:0:0:
320,192,195832,1,0,0:0:0:0:
448,192,195832,1,0,0:0:0:0:
192,192,195931,1,0,0:0:0:0:
320,192,196029,1,0,0:0:0:0:
192,192,196029,1,0,0:0:0:0:
64,192,196148,1,0,0:0:0:0:
448,192,196148,1,0,0:0:0:0:
320,192,196148,1,0,0:0:0:0:
448,192,196246,1,0,0:0:0:0:
64,192,196345,1,0,0:0:0:0:
192,192,196345,1,0,0:0:0:0:
64,192,196464,1,0,0:0:0:0:
320,192,196464,1,0,0:0:0:0:
192,192,196464,1,0,0:0:0:0:
320,192,196562,1,0,0:0:0:0:
192,192,196562,1,0,0:0:0:0:
320,192,196661,1,0,0:0:0:0:
448,192,196661,1,0,0:0:0:0:
64,192,196779,1,0,0:0:0:0:
192,192,196779,1,0,0:0:0:0:
448,192,196779,1,0,0:0:0:0:
192,192,196878,1,0,0:0:0:0:
64,192,196977,1,0,0:0:0:0:
320,192,196977,1,0,0:0:0:0:
448,192,197095,1,0,0:0:0:0:
192,192,197095,1,0,0:0:0:0:
64,192,197095,1,0,0:0:0:0:
320,192,197194,1,0,0:0:0:0:
64,192,197293,1,0,0:0:0:0:
448,192,197293,1,0,0:0:0:0:
448,192,197411,1,0,0:0:0:0:
192,192,197411,1,0,0:0:0:0:
320,192,197411,1,0,0:0:0:0:
192,192,197510,1,0,0:0:0:0:
64,192,197608,1,0,0:0:0:0:
320,192,197608,1,0,0:0:0:0:
448,192,197727,1,0,0:0:0:0:
192,192,197727,1,0,0:0:0:0:
320,192,197727,1,0,0:0:0:0:
448,192,197825,1,0,0:0:0:0:
320,192,197924,1,0,0:0:0:0:
64,192,197924,1,0,0:0:0:0:
448,192,198043,1,0,0:0:0:0:
192,192,198043,1,0,0:0:0:0:
64,192,198043,1,0,0:0:0:0:
192,192,198141,1,0,0:0:0:0:
320,192,198141,1,0,0:0:0:0:
64,192,198240,1,0,0:0:0:0:
448,192,198240,1,0,0:0:0:0:
448,192,198358,1,0,0:0:0:0:
192,192,198358,1,0,0:0:0:0:
320,192,198457,1,0,0:0:0:0:
64,192,198556,1,0,0:0:0:0:
192,192,198556,1,0,0:0:0:0:
448,192,198674,1,0,0:0:0:0:
320,192,198674,1,0,0:0:0:0:
64,192,198674,1,0,0:0:0:0:
192,192,198773,1,0,0:0:0:0:
448,192,198871,1,0,0:0:0:0:
320,192,198871,1,0,0:0:0:0:
64,192,198990,1,0,0:0:0:0:
448,192,198990,1,0,0:0:0:0:
192,192,198990,1,0,0:0:0:0:
192,192,199089,1,0,0:0:0:0:
64,192,199187,1,0,0:0:0:0:
192,192,199187,1,0,0:0:0:0:
448,192,199306,1,0,0:0:0:0:
320,192,199306,1,0,0:0:0:0:
64,192,199306,1,0,0:0:0:0:
192,192,199404,1,0,0:0:0:0:
448,192,199404,1,0,0:0:0:0:
320,192,199503,1,0,0:0:0:0:
448,192,199503,1,0,0:0:0:0:
64,192,199621,1,0,0:0:0:0:
192,192,199621,1,0,0:0:0:0:
320,192,199621,1,0,0:0:0:0:
448,192,199720,1,0,0:0:0:0:
64,192,199720,1,0,0:0:0:0:
320,192,199819,1,0,0:0:0:0:
64,192,199819,1,0,0:0:0:0:
192,192,199937,1,0,0:0:0:0:
320,192,199937,1,0,0:0:0:0:
448,192,199937,1,0,0:0:0:0:
192,192,200036,1,0,0:0:0:0:
448,192,200036,1,0,0:0:0:0:
320,192,200135,1,0,0:0:0:0:
64,192,200135,1,0,0:0:0:0:
64,192,200253,1,0,0:0:0:0:
192,192,200253,1,0,0:0:0:0:
448,192,200253,1,0,0:0:0:0:
448,192,200352,1,0,0:0:0:0:
320,192,200450,1,0,0:0:0:0:
64,192,200450,1,0,0:0:0:0:
64,192,200569,1,0,0:0:0:0:
192,192,200569,1,0,0:0:0:0:
448,192,200569,1,0,0:0:0:0:
192,192,200668,1,0,0:0:0:0:
320,192,200766,1,0,0:0:0:0:
448,192,200766,1,0,0:0:0:0:
64,192,200885,1,0,0:0:0:0:
192,192,200885,1,0,0:0:0:0:
448,192,200885,1,0,0:0:0:0:
64,192,200983,1,0,0:0:0:0:
320,192,200983,1,0,0:0:0:0:
192,192,201082,1,0,0:0:0:0:
320,192,201082,1,0,0:0:0:0:
448,192,201200,1,0,0:0:0:0:
320,192,201200,1,0,0:0:0:0:
64,192,201200,1,0,0:0:0:0:
64,192,201299,1,0,0:0:0:0:
448,192,201299,1,0,0:0:0:0:
192,192,201398,1,0,0:0:0:0:
320,192,201398,1,0,0:0:0:0:
320,192,201516,1,0,0:0:0:0:
192,192,201516,1,0,0:0:0:0:
64,192,201516,1,0,0:0:0:0:
448,192,201615,1,0,0:0:0:0:
320,192,201714,1,0,0:0:0:0:
64,192,201714,1,0,0:0:0:0:
64,192,201832,1,0,0:0:0:0:
192,192,201832,1,0,0:0:0:0:
448,192,201832,1,0,0:0:0:0:
192,192,201931,1,0,0:0:0:0:
64,192,202029,1,0,0:0:0:0:
320,192,202029,1,0,0:0:0:0:
448,192,202148,1,0,0:0:0:0:
64,192,202148,1,0,0:0:0:0:
192,192,202148,1,0,0:0:0:0:
448,192,202246,1,0,0:0:0:0:
320,192,202345,1,0,0:0:0:0:
192,192,202345,1,0,0:0:0:0:
192,192,202464,1,0,0:0:0:0:
64,192,202464,1,0,0:0:0:0:
448,192,202464,1,0,0:0:0:0:
192,192,202562,1,0,0:0:0:0:
448,192,202562,1,0,0:0:0:0:
320,192,202661,1,0,0:0:0:0:
448,192,202661,1,0,0:0:0:0:
64,192,202779,1,0,0:0:0:0:
192,192,202779,1,0,0:0:0:0:
320,192,202779,1,0,0:0:0:0:
64,192,202878,1,0,0:0:0:0:
192,192,202977,1,0,0:0:0:0:
320,192,202977,1,0,0:0:0:0:
448,192,203095,1,0,0:0:0:0:
192,192,203095,1,0,0:0:0:0:
64,192,203095,1,0,0:0:0:0:
192,192,203194,1,0,0:0:0:0:
448,192,203194,1,0,0:0:0:0:
320,192,203293,1,0,0:0:0:0:
64,192,203293,1,0,0:0:0:0:
64,192,203411,1,0,0:0:0:0:
448,192,203411,1,0,0:0:0:0:
320,192,203411,1,0,0:0:0:0:
192,192,203510,1,0,0:0:0:0:
448,192,203510,1,0,0:0:0:0:
320,192,203608,1,0,0:0:0:0:
64,192,203608,1,0,0:0:0:0:
192,192,203727,1,0,0:0:0:0:
320,192,203727,1,0,0:0:0:0:
448,192,203727,1,0,0:0:0:0:
192,192,203825,1,0,0:0:0:0:
320,192,203825,1,0,0:0:0:0:
64,192,203924,1,0,0:0:0:0:
64,192,204043,1,0,0:0:0:0:
192,192,204043,1,0,0:0:0:0:
448,192,204043,1,0,0:0:0:0:
320,192,204141,1,0,0:0:0:0:
192,192,204240,1,0,0:0:0:0:
448,192,204240,1,0,0:0:0:0:
448,192,204358,1,0,0:0:0:0:
320,192,204358,1,0,0:0:0:0:
64,192,204358,1,0,0:0:0:0:
64,192,204457,1,0,0:0:0:0:
192,192,204556,1,0,0:0:0:0:
320,192,204556,1,0,0:0:0:0:
64,192,204674,1,0,0:0:0:0:
192,192,204674,1,0,0:0:0:0:
448,192,204674,1,0,0:0:0:0:
320,192,204773,1,0,0:0:0:0:
64,192,204871,1,0,0:0:0:0:
448,192,204871,1,0,0:0:0:0:
448,192,204990,1,0,0:0:0:0:
320,192,204990,1,0,0:0:0:0:
192,192,204990,1,0,0:0:0:0:
192,192,205089,1,0,0:0:0:0:
320,192,205089,1,0,0:0:0:0:
448,192,205187,1,0,0:0:0:0:
320,192,205306,1,0,0:0:0:0:
192,192,205306,1,0,0:0:0:0:
64,192,205306,1,0,0:0:0:0:
448,192,205404,1,0,0:0:0:0:
192,192,205404,1,0,0:0:0:0:
320,192,205503,1,0,0:0:0:0:
192,192,205503,1,0,0:0:0:0:
64,192,205621,1,0,0:0:0:0:
320,192,205621,1,0,0:0:0:0:
448,192,205621,1,0,0:0:0:0:
192,192,205720,1,0,0:0:0:0:
320,192,205819,1,0,0:0:0:0:
448,192,205819,1,0,0:0:0:0:
448,192,205937,1,0,0:0:0:0:
192,192,205937,1,0,0:0:0:0:
320,192,205937,1,0,0:0:0:0:
64,192,206036,1,0,0:0:0:0:
192,192,206135,1,0,0:0:0:0:
320,192,206135,1,0,0:0:0:0:
64,192,206253,1,0,0:0:0:0:
192,192,206253,1,0,0:0:0:0:
448,192,206253,1,0,0:0:0:0:
64,192,206352,1,0,0:0:0:0:
192,192,206450,1,0,0:0:0:0:
448,192,206450,1,0,0:0:0:0:
320,192,206569,1,0,0:0:0:0:
448,192,206569,1,0,0:0:0:0:
192,192,206569,1,0,0:0:0:0:
320,192,206668,1,0,0:0:0:0:
64,192,206766,1,0,0:0:0:0:
192,192,206766,1,0,0:0:0:0:
64,192,206885,1,0,0:0:0:0:
320,192,206885,1,0,0:0:0:0:
448,192,206885,1,0,0:0:0:0:
192,192,206983,1,0,0:0:0:0:
192,192,207082,1,0,0:0:0:0:
320,192,207082,1,0,0:0:0:0:
64,192,207200,1,0,0:0:0:0:
192,192,207200,1,0,0:0:0:0:
448,192,207200,1,0,0:0:0:0:
192,192,207299,1,0,0:0:0:0:
448,192,207299,1,0,0:0:0:0:
320,192,207398,1,0,0:0:0:0:
64,192,207398,1,0,0:0:0:0:
64,192,207516,1,0,0:0:0:0:
192,192,207516,1,0,0:0:0:0:
448,192,207516,1,0,0:0:0:0:
192,192,207615,1,0,0:0:0:0:
448,192,207714,1,0,0:0:0:0:
320,192,207714,1,0,0:0:0:0:
448,192,207832,1,0,0:0:0:0:
320,192,207832,1,0,0:0:0:0:
64,192,207832,1,0,0:0:0:0:
192,192,207931,1,0,0:0:0:0:
192,192,208029,1,0,0:0:0:0:
320,192,208029,1,0,0:0:0:0:
64,192,208148,1,0,0:0:0:0:
192,192,208148,1,0,0:0:0:0:
448,192,208148,1,0,0:0:0:0:
64,192,208246,1,0,0:0:0:0:
192,192,208345,1,0,0:0:0:0:
448,192,208345,1,0,0:0:0:0:
448,192,208464,1,0,0:0:0:0:
320,192,208464,1,0,0:0:0:0:
64,192,208464,1,0,0:0:0:0:
192,192,208562,1,0,0:0:0:0:
320,192,208661,1,0,0:0:0:0:
448,192,208661,1,0,0:0:0:0:
320,192,208779,1,0,0:0:0:0:
64,192,208779,1,0,0:0:0:0:
192,192,208779,1,0,0:0:0:0:
192,192,208878,1,0,0:0:0:0:
448,192,208878,1,0,0:0:0:0:
320,192,208977,1,0,0:0:0:0:
192,192,208977,1,0,0:0:0:0:
64,192,209095,1,0,0:0:0:0:
448,192,209095,1,0,0:0:0:0:
320,192,209095,1,0,0:0:0:0:
192,192,209194,1,0,0:0:0:0:
64,192,209293,1,0,0:0:0:0:
448,192,209293,1,0,0:0:0:0:
448,192,209411,1,0,0:0:0:0:
320,192,209411,1,0,0:0:0:0:
192,192,209411,1,0,0:0:0:0:
192,192,209510,1,0,0:0:0:0:
320,192,209510,1,0,0:0:0:0:
64,192,209608,1,0,0:0:0:0:
320,192,209608,1,0,0:0:0:0:
64,192,209727,1,0,0:0:0:0:
192,192,209727,1,0,0:0:0:0:
448,192,209727,1,0,0:0:0:0:
448,192,209825,1,0,0:0:0:0:
320,192,209924,1,0,0:0:0:0:
192,192,209924,1,0,0:0:0:0:
448,192,210043,1,0,0:0:0:0:
320,192,210043,1,0,0:0:0:0:
64,192,210043,1,0,0:0:0:0:
192,192,210141,1,0,0:0:0:0:
64,192,210240,1,0,0:0:0:0:
192,192,210240,1,0,0:0:0:0:
64,192,210358,1,0,0:0:0:0:
320,192,210358,1,0,0:0:0:0:
448,192,210358,1,0,0:0:0:0:
192,192,210457,1,0,0:0:0:0:
320,192,210556,1,0,0:0:0:0:
192,192,210556,1,0,0:0:0:0:
448,192,210674,1,0,0:0:0:0:
320,192,210674,1,0,0:0:0:0:
64,192,210674,1,0,0:0:0:0:
64,192,210773,1,0,0:0:0:0:
192,192,210871,1,0,0:0:0:0:
320,192,210871,1,0,0:0:0:0:
64,192,210990,1,0,0:0:0:0:
192,192,210990,1,0,0:0:0:0:
448,192,210990,1,0,0:0:0:0:
64,192,211089,1,0,0:0:0:0:
192,192,211089,1,0,0:0:0:0:
448,192,211089,1,0,0:0:0:0:
448,192,211187,1,0,0:0:0:0:
192,192,211187,1,0,0:0:0:0:
64,192,211187,1,0,0:0:0:0:
192,192,211306,1,0,0:0:0:0:
320,192,211306,1,0,0:0:0:0:
448,192,211306,1,0,0:0:0:0:
320,192,211404,1,0,0:0:0:0:
192,192,211503,1,0,0:0:0:0:
320,192,211503,1,0,0:0:0:0:
64,192,211621,1,0,0:0:0:0:
192,192,211621,1,0,0:0:0:0:
448,192,211621,1,0,0:0:0:0:
320,192,211720,1,0,0:0:0:0:
192,192,211819,1,0,0:0:0:0:
320,192,211819,1,0,0:0:0:0:
448,192,211937,1,0,0:0:0:0:
192,192,211937,1,0,0:0:0:0:
64,192,211937,1,0,0:0:0:0:
320,192,212036,1,0,0:0:0:0:
192,192,212135,1,0,0:0:0:0:
320,192,212135,1,0,0:0:0:0:
448,192,212253,1,0,0:0:0:0:
192,192,212253,1,0,0:0:0:0:
64,192,212253,1,0,0:0:0:0:
64,192,212352,1,0,0:0:0:0:
192,192,212450,1,0,0:0:0:0:
448,192,212450,1,0,0:0:0:0:
320,192,212569,1,0,0:0:0:0:
64,192,212569,1,0,0:0:0:0:
448,192,212569,1,0,0:0:0:0:
192,192,212668,1,0,0:0:0:0:
192,192,212766,1,0,0:0:0:0:
320,192,212766,1,0,0:0:0:0:
448,192,212885,1,0,0:0:0:0:
192,192,212885,1,0,0:0:0:0:
64,192,212885,1,0,0:0:0:0:
448,192,212983,1,0,0:0:0:0:
64,192,213082,1,0,0:0:0:0:
320,192,213082,1,0,0:0:0:0:
64,192,213200,1,0,0:0:0:0:
192,192,213200,1,0,0:0:0:0:
320,192,213200,1,0,0:0:0:0:
192,192,213299,1,0,0:0:0:0:
448,192,213398,1,0,0:0:0:0:
320,192,213398,1,0,0:0:0:0:
64,192,213516,1,0,0:0:0:0:
192,192,213516,1,0,0:0:0:0:
448,192,213516,1,0,0:0:0:0:
64,192,213615,1,0,0:0:0:0:
192,192,213714,1,0,0:0:0:0:
448,192,213714,1,0,0:0:0:0:
192,192,213832,1,0,0:0:0:0:
64,192,213832,1,0,0:0:0:0:
448,192,213832,1,0,0:0:0:0:
64,192,213931,1,0,0:0:0:0:
192,192,214029,1,0,0:0:0:0:
320,192,214029,1,0,0:0:0:0:
64,192,214148,1,0,0:0:0:0:
320,192,214148,1,0,0:0:0:0:
448,192,214148,1,0,0:0:0:0:
448,192,214246,1,0,0:0:0:0:
64,192,214345,1,0,0:0:0:0:
192,192,214345,1,0,0:0:0:0:
64,192,214464,1,0,0:0:0:0:
320,192,214464,1,0,0:0:0:0:
448,192,214464,1,0,0:0:0:0:
192,192,214562,1,0,0:0:0:0:
448,192,214661,1,0,0:0:0:0:
64,192,214661,1,0,0:0:0:0:
64,192,214779,1,0,0:0:0:0:
448,192,214779,1,0,0:0:0:0:
320,192,214779,1,0,0:0:0:0:
320,192,214878,1,0,0:0:0:0:
192,192,214977,1,0,0:0:0:0:
448,192,214977,1,0,0:0:0:0:
64,192,215095,1,0,0:0:0:0:
192,192,215095,1,0,0:0:0:0:
448,192,215095,1,0,0:0:0:0:
64,192,215194,1,0,0:0:0:0:
64,192,215293,1,0,0:0:0:0:
192,192,215293,1,0,0:0:0:0:
192,192,215411,1,0,0:0:0:0:
320,192,215411,1,0,0:0:0:0:
448,192,215411,1,0,0:0:0:0:
320,192,215510,1,0,0:0:0:0:
448,192,215608,1,0,0:0:0:0:
192,192,215608,1,0,0:0:0:0:
192,192,215727,1,0,0:0:0:0:
64,192,215727,1,0,0:0:0:0:
320,192,215727,1,0,0:0:0:0:
448,192,215825,1,0,0:0:0:0:
64,192,215924,1,0,0:0:0:0:
320,192,215924,1,0,0:0:0:0:
192,192,216043,1,0,0:0:0:0:
320,192,216043,1,0,0:0:0:0:
448,192,216043,1,0,0:0:0:0:
192,192,216141,1,0,0:0:0:0:
320,192,216240,1,0,0:0:0:0:
64,192,216240,1,0,0:0:0:0:
64,192,216358,1,0,0:0:0:0:
192,192,216358,1,0,0:0:0:0:
448,192,216358,1,0,0:0:0:0:
448,192,216457,1,0,0:0:0:0:
320,192,216556,1,0,0:0:0:0:
192,192,216556,1,0,0:0:0:0:
448,192,216674,1,0,0:0:0:0:
320,192,216674,1,0,0:0:0:0:
64,192,216674,1,0,0:0:0:0:
320,192,216773,1,0,0:0:0:0:
64,192,216871,1,0,0:0:0:0:
192,192,216871,1,0,0:0:0:0:
448,192,216990,1,0,0:0:0:0:
320,192,216990,1,0,0:0:0:0:
64,192,216990,1,0,0:0:0:0:
64,192,217089,1,0,0:0:0:0:
192,192,217187,1,0,0:0:0:0:
448,192,217187,1,0,0:0:0:0:
320,192,217306,1,0,0:0:0:0:
448,192,217306,1,0,0:0:0:0:
192,192,217306,1,0,0:0:0:0:
64,192,217404,1,0,0:0:0:0:
192,192,217503,1,0,0:0:0:0:
448,192,217503,1,0,0:0:0:0:
192,192,217621,1,0,0:0:0:0:
320,192,217621,1,0,0:0:0:0:
320,192,217720,1,0,0:0:0:0:
64,192,217819,1,0,0:0:0:0:
192,192,217819,1,0,0:0:0:0:
64,192,217937,1,0,0:0:0:0:
448,192,217937,1,0,0:0:0:0:
320,192,218036,1,0,0:0:0:0:
448,192,218135,1,0,0:0:0:0:
64,192,218135,1,0,0:0:0:0:
192,192,218253,1,0,0:0:0:0:
320,192,218253,1,0,0:0:0:0:
192,192,218352,1,0,0:0:0:0:
64,192,218450,1,0,0:0:0:0:
320,192,218450,1,0,0:0:0:0:
64,192,218569,1,0,0:0:0:0:
448,192,218569,1,0,0:0:0:0:
192,192,218668,1,0,0:0:0:0:
320,192,218766,1,0,0:0:0:0:
192,192,218766,1,0,0:0:0:0:
448,192,218885,1,0,0:0:0:0:
320,192,218885,1,0,0:0:0:0:
64,192,218983,1,0,0:0:0:0:
64,192,219082,1,0,0:0:0:0:
448,192,219082,1,0,0:0:0:0:
320,192,219200,1,0,0:0:0:0:
192,192,219200,1,0,0:0:0:0:
320,192,219299,1,0,0:0:0:0:
192,192,219398,1,0,0:0:0:0:
64,192,219398,1,0,0:0:0:0:
448,192,219516,1,0,0:0:0:0:
192,192,219516,1,0,0:0:0:0:
320,192,219615,1,0,0:0:0:0:
192,192,219714,1,0,0:0:0:0:
448,192,219714,1,0,0:0:0:0:
448,192,219832,1,0,0:0:0:0:
64,192,219832,1,0,0:0:0:0:
320,192,219832,1,0,0:0:0:0:
192,192,219931,1,0,0:0:0:0:
192,192,220029,1,0,0:0:0:0:
448,192,220148,1,0,0:0:0:0:
320,192,220246,1,0,0:0:0:0:
320,192,220345,1,0,0:0:0:0:
64,192,220464,1,0,0:0:0:0:
192,192,220562,1,0,0:0:0:0:
192,192,220661,1,0,0:0:0:0:
448,192,220779,1,0,0:0:0:0:
64,192,220878,1,0,0:0:0:0:
64,192,220977,1,0,0:0:0:0:
320,192,221095,1,0,0:0:0:0:
448,192,221194,1,0,0:0:0:0:
192,192,221293,1,0,0:0:0:0:
320,192,221411,1,0,0:0:0:0:
192,192,221510,1,0,0:0:0:0:
64,192,221608,1,0,0:0:0:0:
448,192,221727,1,0,0:0:0:0:
192,192,221825,1,0,0:0:0:0:
320,192,221924,1,0,0:0:0:0:
64,192,222043,1,0,0:0:0:0:
192,192,222141,1,0,0:0:0:0:
448,192,222240,1,0,0:0:0:0:
320,192,222358,1,0,0:0:0:0:
192,192,222358,1,0,0:0:0:0:
64,192,222674,1,0,0:0:0:0:
320,192,222990,1,0,0:0:0:0:
192,192,223306,1,0,0:0:0:0:
448,192,223621,1,0,0:0:0:0:
320,192,223937,1,0,0:0:0:0:
64,192,224253,1,0,0:0:0:0:
448,192,224569,1,0,0:0:0:0:
320,192,224885,1,0,0:0:0:0:
192,192,224885,1,0,0:0:0:0:
448,192,225043,1,0,0:0:0:0:
320,192,225200,1,0,0:0:0:0:
64,192,225358,1,0,0:0:0:0:
192,192,225516,1,0,0:0:0:0:
64,192,225674,1,0,0:0:0:0:
448,192,225832,1,0,0:0:0:0:
192,192,225990,1,0,0:0:0:0:
320,192,226148,1,0,0:0:0:0:
192,192,226306,1,0,0:0:0:0:
448,192,226464,1,0,0:0:0:0:
192,192,226621,1,0,0:0:0:0:
64,192,226779,1,0,0:0:0:0:
448,192,226937,1,0,0:0:0:0:
320,192,227095,1,0,0:0:0:0:
64,192,227253,1,0,0:0:0:0:
320,192,227411,1,0,0:0:0:0:
448,192,227490,1,0,0:0:0:0:
192,192,227569,1,0,0:0:0:0:
64,192,227648,1,0,0:0:0:0:
448,192,227727,1,0,0:0:0:0:
320,192,227806,1,0,0:0:0:0:
192,192,227885,1,0,0:0:0:0:
448,192,227964,1,0,0:0:0:0:
64,192,228043,1,0,0:0:0:0:
192,192,228121,1,0,0:0:0:0:
320,192,228200,1,0,0:0:0:0:
64,192,228279,1,0,0:0:0:0:
448,192,228358,1,0,0:0:0:0:
192,192,228437,1,0,0:0:0:0:
448,192,228516,1,0,0:0:0:0:
64,192,228595,1,0,0:0:0:0:
320,192,228674,1,0,0:0:0:0:
64,192,228753,1,0,0:0:0:0:
192,192,228832,1,0,0:0:0:0:
448,192,228911,1,0,0:0:0:0:
320,192,228990,1,0,0:0:0:0:
64,192,229069,1,0,0:0:0:0:
448,192,229148,1,0,0:0:0:0:
192,192,229227,1,0,0:0:0:0:
320,192,229306,1,0,0:0:0:0:
64,192,229385,1,0,0:0:0:0:
192,192,229464,1,0,0:0:0:0:
320,192,229543,1,0,0:0:0:0:
448,192,229621,1,0,0:0:0:0:
192,192,229700,1,0,0:0:0:0:
64,192,229779,1,0,0:0:0:0:
320,192,229858,1,0,0:0:0:0:
192,192,229937,1,0,0:0:0:0:
448,192,229937,1,0,0:0:0:0:
320,192,230016,1,0,0:0:0:0:
64,192,230095,1,0,0:0:0:0:
192,192,230174,1,0,0:0:0:0:
320,192,230253,1,0,0:0:0:0:
64,192,230253,1,0,0:0:0:0:
448,192,230332,1,0,0:0:0:0:
320,192,230411,1,0,0:0:0:0:
192,192,230490,1,0,0:0:0:0:
64,192,230569,1,0,0:0:0:0:
448,192,230569,1,0,0:0:0:0:
320,192,230648,1,0,0:0:0:0:
64,192,230727,1,0,0:0:0:0:
192,192,230806,1,0,0:0:0:0:
448,192,230885,1,0,0:0:0:0:
64,192,230885,1,0,0:0:0:0:
320,192,230964,1,0,0:0:0:0:
192,192,231043,1,0,0:0:0:0:
320,192,231121,1,0,0:0:0:0:
192,192,231200,1,0,0:0:0:0:
448,192,231200,1,0,0:0:0:0:
64,192,231279,1,0,0:0:0:0:
320,192,231358,1,0,0:0:0:0:
448,192,231437,1,0,0:0:0:0:
192,192,231516,1,0,0:0:0:0:
64,192,231516,1,0,0:0:0:0:
320,192,231595,1,0,0:0:0:0:
192,192,231674,1,0,0:0:0:0:
64,192,231753,1,0,0:0:0:0:
448,192,231832,1,0,0:0:0:0:
320,192,231832,1,0,0:0:0:0:
192,192,231911,1,0,0:0:0:0:
448,192,231990,1,0,0:0:0:0:
320,192,232069,1,0,0:0:0:0:
64,192,232148,1,0,0:0:0:0:
192,192,232148,1,0,0:0:0:0:
448,192,232227,1,0,0:0:0:0:
64,192,232306,1,0,0:0:0:0:
320,192,232385,1,0,0:0:0:0:
448,192,232464,1,0,0:0:0:0:
192,192,232464,1,0,0:0:0:0:
320,192,232543,1,0,0:0:0:0:
192,192,232621,1,0,0:0:0:0:
64,192,232700,1,0,0:0:0:0:
448,192,232779,1,0,0:0:0:0:
320,192,232779,1,0,0:0:0:0:
192,192,232858,1,0,0:0:0:0:
448,192,232937,1,0,0:0:0:0:
64,192,233016,1,0,0:0:0:0:
192,192,233095,1,0,0:0:0:0:
448,192,233095,1,0,0:0:0:0:
320,192,233174,1,0,0:0:0:0:
192,192,233253,1,0,0:0:0:0:
64,192,233332,1,0,0:0:0:0:
448,192,233411,1,0,0:0:0:0:
320,192,233411,1,0,0:0:0:0:
192,192,233490,1,0,0:0:0:0:
320,192,233569,1,0,0:0:0:0:
64,192,233648,1,0,0:0:0:0:
192,192,233727,1,0,0:0:0:0:
448,192,233727,1,0,0:0:0:0:
320,192,233806,1,0,0:0:0:0:
192,192,233885,1,0,0:0:0:0:
448,192,233964,1,0,0:0:0:0:
320,192,234043,1,0,0:0:0:0:
64,192,234043,1,0,0:0:0:0:
192,192,234121,1,0,0:0:0:0:
320,192,234200,1,0,0:0:0:0:
448,192,234279,1,0,0:0:0:0:
320,192,234358,1,0,0:0:0:0:
64,192,234358,1,0,0:0:0:0:
192,192,234437,1,0,0:0:0:0:
448,192,234516,1,0,0:0:0:0:
320,192,234595,1,0,0:0:0:0:
192,192,234674,1,0,0:0:0:0:
64,192,234674,1,0,0:0:0:0:
320,192,234753,1,0,0:0:0:0:
64,192,234832,1,0,0:0:0:0:
192,192,234911,1,0,0:0:0:0:
448,192,234990,1,0,0:0:0:0:
64,192,234990,1,0,0:0:0:0:
320,192,235069,1,0,0:0:0:0:
192,192,235148,1,0,0:0:0:0:
320,192,235227,1,0,0:0:0:0:
448,192,235306,1,0,0:0:0:0:
64,192,235306,1,0,0:0:0:0:
192,192,235385,1,0,0:0:0:0:
320,192,235464,1,0,0:0:0:0:
448,192,235543,1,0,0:0:0:0:
64,192,235621,1,0,0:0:0:0:
320,192,235621,1,0,0:0:0:0:
192,192,235700,1,0,0:0:0:0:
448,192,235779,1,0,0:0:0:0:
320,192,235858,1,0,0:0:0:0:
64,192,235937,1,0,0:0:0:0:
192,192,235937,1,0,0:0:0:0:
320,192,236016,1,0,0:0:0:0:
448,192,236095,1,0,0:0:0:0:
192,192,236174,1,0,0:0:0:0:
448,192,236253,1,0,0:0:0:0:
64,192,236253,1,0,0:0:0:0:
320,192,236332,1,0,0:0:0:0:
192,192,236411,1,0,0:0:0:0:
64,192,236490,1,0,0:0:0:0:
320,192,236569,1,0,0:0:0:0:
192,192,236569,1,0,0:0:0:0:
448,192,236648,1,0,0:0:0:0:
64,192,236727,1,0,0:0:0:0:
192,192,236806,1,0,0:0:0:0:
448,192,236885,1,0,0:0:0:0:
64,192,236885,1,0,0:0:0:0:
320,192,236964,1,0,0:0:0:0:
448,192,237043,1,0,0:0:0:0:
192,192,237121,1,0,0:0:0:0:
320,192,237200,1,0,0:0:0:0:
64,192,237200,1,0,0:0:0:0:
448,192,237279,1,0,0:0:0:0:
320,192,237358,1,0,0:0:0:0:
192,192,237437,1,0,0:0:0:0:
448,192,237516,1,0,0:0:0:0:
64,192,237516,1,0,0:0:0:0:
192,192,237595,1,0,0:0:0:0:
64,192,237674,1,0,0:0:0:0:
320,192,237753,1,0,0:0:0:0:
448,192,237832,1,0,0:0:0:0:
64,192,237832,1,0,0:0:0:0:
192,192,237911,1,0,0:0:0:0:
320,192,237990,1,0,0:0:0:0:
192,192,238069,1,0,0:0:0:0:
64,192,238148,1,0,0:0:0:0:
320,192,238148,1,0,0:0:0:0:
448,192,238227,1,0,0:0:0:0:
192,192,238306,1,0,0:0:0:0:
320,192,238385,1,0,0:0:0:0:
64,192,238464,1,0,0:0:0:0:
448,192,238464,1,0,0:0:0:0:
320,192,238543,1,0,0:0:0:0:
192,192,238621,1,0,0:0:0:0:
64,192,238700,1,0,0:0:0:0:
192,192,238779,1,0,0:0:0:0:
320,192,238779,1,0,0:0:0:0:
448,192,238858,1,0,0:0:0:0:
192,192,238937,1,0,0:0:0:0:
64,192,239016,1,0,0:0:0:0:
320,192,239095,1,0,0:0:0:0:
448,192,239095,1,0,0:0:0:0:
192,192,239174,1,0,0:0:0:0:
320,192,239253,1,0,0:0:0:0:
64,192,239332,1,0,0:0:0:0:
192,192,239411,1,0,0:0:0:0:
448,192,239411,1,0,0:0:0:0:
320,192,239490,1,0,0:0:0:0:
448,192,239569,1,0,0:0:0:0:
64,192,239648,1,0,0:0:0:0:
192,192,239727,1,0,0:0:0:0:
320,192,239727,1,0,0:0:0:0:
64,192,239806,1,0,0:0:0:0:
448,192,239885,1,0,0:0:0:0:
192,192,239964,1,0,0:0:0:0:
320,192,240043,1,0,0:0:0:0:
64,192,240043,1,0,0:0:0:0:
448,192,240121,1,0,0:0:0:0:
192,192,240200,1,0,0:0:0:0:
320,192,240200,1,0,0:0:0:0:
64,192,240279,1,0,0:0:0:0:
448,192,240358,1,0,0:0:0:0:
192,192,240358,1,0,0:0:0:0:
320,192,240437,1,0,0:0:0:0:
192,192,240516,1,0,0:0:0:0:
448,192,240516,1,0,0:0:0:0:
64,192,240595,1,0,0:0:0:0:
320,192,240674,1,0,0:0:0:0:
448,192,240674,1,0,0:0:0:0:
192,192,240753,1,0,0:0:0:0:
64,192,240832,1,0,0:0:0:0:
320,192,240832,1,0,0:0:0:0:
448,192,240911,1,0,0:0:0:0:
192,192,240990,1,0,0:0:0:0:
64,192,240990,1,0,0:0:0:0:
320,192,241069,1,0,0:0:0:0:
448,192,241148,1,0,0:0:0:0:
192,192,241148,1,0,0:0:0:0:
64,192,241227,1,0,0:0:0:0:
320,192,241306,1,0,0:0:0:0:
448,192,241306,1,0,0:0:0:0:
192,192,241385,1,0,0:0:0:0:
64,192,241464,1,0,0:0:0:0:
448,192,241464,1,0,0:0:0:0:
320,192,241543,1,0,0:0:0:0:
192,192,241621,1,0,0:0:0:0:
64,192,241621,1,0,0:0:0:0:
448,192,241700,1,0,0:0:0:0:
192,192,241779,1,0,0:0:0:0:
320,192,241779,1,0,0:0:0:0:
64,192,241858,1,0,0:0:0:0:
448,192,241937,1,0,0:0:0:0:
320,192,241937,1,0,0:0:0:0:
192,192,242095,1,0,0:0:0:0:
448,192,242095,1,0,0:0:0:0:
64,192,242253,1,0,0:0:0:0:
320,192,242253,1,0,0:0:0:0:
192,192,242332,1,0,0:0:0:0:
448,192,242332,1,0,0:0:0:0:
320,192,242411,1,0,0:0:0:0:
64,192,242411,1,0,0:0:0:0:
192,192,242490,1,0,0:0:0:0:
448,192,242490,1,0,0:0:0:0:
64,192,242569,1,0,0:0:0:0:
320,192,242569,1,0,0:0:0:0:
192,192,242648,1,0,0:0:0:0:
448,192,242727,1,0,0:0:0:0:
320,192,242727,1,0,0:0:0:0:
64,192,242806,1,0,0:0:0:0:
192,192,242885,1,0,0:0:0:0:
448,192,242885,1,0,0:0:0:0:
320,192,242964,1,0,0:0:0:0:
64,192,243043,1,0,0:0:0:0:
448,192,243043,1,0,0:0:0:0:
192,192,243121,1,0,0:0:0:0:
320,192,243200,1,0,0:0:0:0:
64,192,243200,1,0,0:0:0:0:
448,192,243279,1,0,0:0:0:0:
192,192,243358,1,0,0:0:0:0:
64,192,243358,1,0,0:0:0:0:
320,192,243437,1,0,0:0:0:0:
448,192,243516,1,0,0:0:0:0:
192,192,243516,1,0,0:0:0:0:
64,192,243595,1,0,0:0:0:0:
320,192,243674,1,0,0:0:0:0:
448,192,243674,1,0,0:0:0:0:
192,192,243753,1,0,0:0:0:0:
320,192,243832,1,0,0:0:0:0:
64,192,243832,1,0,0:0:0:0:
448,192,243911,1,0,0:0:0:0:
192,192,243990,1,0,0:0:0:0:
320,192,243990,1,0,0:0:0:0:
64,192,244069,1,0,0:0:0:0:
448,192,244148,1,0,0:0:0:0:
192,192,244148,1,0,0:0:0:0:
320,192,244227,1,0,0:0:0:0:
64,192,244306,1,0,0:0:0:0:
192,192,244306,1,0,0:0:0:0:
448,192,244385,1,0,0:0:0:0:
320,192,244464,1,0,0:0:0:0:
64,192,244464,1,0,0:0:0:0:
192,192,244543,1,0,0:0:0:0:
320,192,244621,1,0,0:0:0:0:
448,192,244621,1,0,0:0:0:0:
64,192,244700,1,0,0:0:0:0:
192,192,244779,1,0,0:0:0:0:
448,192,244779,1,0,0:0:0:0:
320,192,244858,1,0,0:0:0:0:
64,192,244937,1,0,0:0:0:0:
192,192,244937,1,0,0:0:0:0:
320,192,245016,1,0,0:0:0:0:
64,192,245095,1,0,0:0:0:0:
448,192,245095,1,0,0:0:0:0:
192,192,245174,1,0,0:0:0:0:
320,192,245174,1,0,0:0:0:0:
64,192,245253,1,0,0:0:0:0:
448,192,245253,1,0,0:0:0:0:
320,192,245332,1,0,0:0:0:0:
192,192,245332,1,0,0:0:0:0:
448,192,245411,1,0,0:0:0:0:
64,192,245411,1,0,0:0:0:0:
192,192,245490,1,0,0:0:0:0:
320,192,245569,1,0,0:0:0:0:
64,192,245648,1,0,0:0:0:0:
448,192,245648,1,0,0:0:0:0:
192,192,245727,1,0,0:0:0:0:
320,192,245727,1,0,0:0:0:0:
448,192,245806,1,0,0:0:0:0:
192,192,245885,1,0,0:0:0:0:
64,192,245885,1,0,0:0:0:0:
448,192,245964,1,0,0:0:0:0:
320,192,246043,1,0,0:0:0:0:
192,192,246043,1,0,0:0:0:0:
448,192,246121,1,0,0:0:0:0:
64,192,246200,1,0,0:0:0:0:
320,192,246200,1,0,0:0:0:0:
192,192,246279,1,0,0:0:0:0:
64,192,246358,1,0,0:0:0:0:
448,192,246358,1,0,0:0:0:0:
192,192,246437,1,0,0:0:0:0:
320,192,246437,1,0,0:0:0:0:
64,192,246516,1,0,0:0:0:0:
448,192,246516,1,0,0:0:0:0:
192,192,246595,1,0,0:0:0:0:
64,192,246674,1,0,0:0:0:0:
448,192,246674,1,0,0:0:0:0:
192,192,246753,1,0,0:0:0:0:
448,192,246832,1,0,0:0:0:0:
320,192,246832,1,0,0:0:0:0:
64,192,246911,1,0,0:0:0:0:
192,192,246990,1,0,0:0:0:0:
448,192,246990,1,0,0:0:0:0:
320,192,247069,1,0,0:0:0:0:
64,192,247148,1,0,0:0:0:0:
192,192,247148,1,0,0:0:0:0:
320,192,247227,1,0,0:0:0:0:
448,192,247306,1,0,0:0:0:0:
64,192,247306,1,0,0:0:0:0:
192,192,247385,1,0,0:0:0:0:
64,192,247464,1,0,0:0:0:0:
448,192,247464,1,0,0:0:0:0:
320,192,247543,1,0,0:0:0:0:
192,192,247621,1,0,0:0:0:0:
64,192,247621,1,0,0:0:0:0:
448,192,247700,1,0,0:0:0:0:
320,192,247779,1,0,0:0:0:0:
192,192,247779,1,0,0:0:0:0:
64,192,247858,1,0,0:0:0:0:
448,192,247937,1,0,0:0:0:0:
192,192,247937,1,0,0:0:0:0:
320,192,248016,1,0,0:0:0:0:
448,192,248095,1,0,0:0:0:0:
64,192,248095,1,0,0:0:0:0:
192,192,248174,1,0,0:0:0:0:
320,192,248174,1,0,0:0:0:0:
64,192,248253,1,0,0:0:0:0:
448,192,248253,1,0,0:0:0:0:
320,192,248332,1,0,0:0:0:0:
448,192,248411,1,0,0:0:0:0:
192,192,248411,1,0,0:0:0:0:
64,192,248490,1,0,0:0:0:0:
320,192,248490,1,0,0:0:0:0:
192,192,248569,1,0,0:0:0:0:
448,192,248569,1,0,0:0:0:0:
320,192,248648,1,0,0:0:0:0:
64,192,248727,1,0,0:0:0:0:
192,192,248727,1,0,0:0:0:0:
448,192,248806,1,0,0:0:0:0:
64,192,248885,1,0,0:0:0:0:
320,192,248885,1,0,0:0:0:0:
192,192,248964,1,0,0:0:0:0:
448,192,249043,1,0,0:0:0:0:
320,192,249043,1,0,0:0:0:0:
64,192,249121,1,0,0:0:0:0:
192,192,249200,1,0,0:0:0:0:
448,192,249200,1,0,0:0:0:0:
320,192,249279,1,0,0:0:0:0:
448,192,249358,1,0,0:0:0:0:
64,192,249358,1,0,0:0:0:0:
320,192,249437,1,0,0:0:0:0:
192,192,249516,1,0,0:0:0:0:
64,192,249516,1,0,0:0:0:0:
448,192,249595,1,0,0:0:0:0:
320,192,249674,1,0,0:0:0:0:
192,192,249674,1,0,0:0:0:0:
64,192,249753,1,0,0:0:0:0:
448,192,249832,1,0,0:0:0:0:
320,192,249832,1,0,0:0:0:0:
192,192,249911,1,0,0:0:0:0:
64,192,249911,1,0,0:0:0:0:
320,192,249990,1,0,0:0:0:0:
448,192,249990,1,0,0:0:0:0:
192,192,250069,1,0,0:0:0:0:
64,192,250069,1,0,0:0:0:0:
320,192,250148,1,0,0:0:0:0:
448,192,250148,1,0,0:0:0:0:
64,192,250227,1,0,0:0:0:0:
192,192,250306,1,0,0:0:0:0:
448,192,250306,1,0,0:0:0:0:
320,192,250385,1,0,0:0:0:0:
448,192,250464,1,0,0:0:0:0:
192,192,250464,1,0,0:0:0:0:
64,192,250543,1,0,0:0:0:0:
320,192,250543,1,0,0:0:0:0:
448,192,250621,1,0,0:0:0:0:
192,192,250621,1,0,0:0:0:0:
64,192,250700,1,0,0:0:0:0:
192,192,250779,1,0,0:0:0:0:
320,192,250779,1,0,0:0:0:0:
448,192,250858,1,0,0:0:0:0:
64,192,250937,1,0,0:0:0:0:
320,192,250937,1,0,0:0:0:0:
192,192,251016,1,0,0:0:0:0:
320,192,251095,1,0,0:0:0:0:
448,192,251095,1,0,0:0:0:0:
192,192,251174,1,0,0:0:0:0:
64,192,251253,1,0,0:0:0:0:
320,192,251253,1,0,0:0:0:0:
448,192,251332,1,0,0:0:0:0:
320,192,251411,1,0,0:0:0:0:
192,192,251411,1,0,0:0:0:0:
64,192,251490,1,0,0:0:0:0:
448,192,251490,1,0,0:0:0:0:
192,192,251569,1,0,0:0:0:0:
320,192,251569,1,0,0:0:0:0:
448,192,251648,1,0,0:0:0:0:
64,192,251648,1,0,0:0:0:0:
320,192,251727,1,0,0:0:0:0:
192,192,251727,1,0,0:0:0:0:
64,192,251806,1,0,0:0:0:0:
192,192,251885,1,0,0:0:0:0:
448,192,251885,1,0,0:0:0:0:
320,192,251964,1,0,0:0:0:0:
64,192,251964,1,0,0:0:0:0:
192,192,252043,1,0,0:0:0:0:
448,192,252043,1,0,0:0:0:0:
64,192,252121,1,0,0:0:0:0:
320,192,252121,1,0,0:0:0:0:
192,192,252200,1,0,0:0:0:0:
448,192,252200,1,0,0:0:0:0:
64,192,252279,1,0,0:0:0:0:
320,192,252279,1,0,0:0:0:0:
448,192,252358,1,0,0:0:0:0:
192,192,252358,1,0,0:0:0:0:
320,192,252437,1,0,0:0:0:0:
192,192,252516,1,0,0:0:0:0:
64,192,252516,1,0,0:0:0:0:
320,192,252595,1,0,0:0:0:0:
192,192,252674,1,0,0:0:0:0:
448,192,252674,1,0,0:0:0:0:
64,192,252753,1,0,0:0:0:0:
192,192,252832,1,0,0:0:0:0:
320,192,252832,1,0,0:0:0:0:
64,192,252911,1,0,0:0:0:0:
192,192,252990,1,0,0:0:0:0:
448,192,252990,1,0,0:0:0:0:
320,192,253069,1,0,0:0:0:0:
192,192,253148,1,0,0:0:0:0:
64,192,253148,1,0,0:0:0:0:
320,192,253227,1,0,0:0:0:0:
448,192,253227,1,0,0:0:0:0:
192,192,253306,1,0,0:0:0:0:
64,192,253306,1,0,0:0:0:0:
320,192,253385,1,0,0:0:0:0:
192,192,253464,1,0,0:0:0:0:
448,192,253464,1,0,0:0:0:0:
64,192,253543,1,0,0:0:0:0:
320,192,253621,1,0,0:0:0:0:
448,192,253621,1,0,0:0:0:0:
192,192,253700,1,0,0:0:0:0:
64,192,253779,1,0,0:0:0:0:
448,192,253779,1,0,0:0:0:0:
320,192,253858,1,0,0:0:0:0:
192,192,253858,1,0,0:0:0:0:
64,192,253937,1,0,0:0:0:0:
448,192,253937,1,0,0:0:0:0:
192,192,254016,1,0,0:0:0:0:
320,192,254016,1,0,0:0:0:0:
64,192,254095,1,0,0:0:0:0:
448,192,254095,1,0,0:0:0:0:
192,192,254174,1,0,0:0:0:0:
320,192,254253,1,0,0:0:0:0:
64,192,254253,1,0,0:0:0:0:
448,192,254332,1,0,0:0:0:0:
320,192,254411,1,0,0:0:0:0:
64,192,254411,1,0,0:0:0:0:
192,192,254490,1,0,0:0:0:0:
320,192,254569,1,0,0:0:0:0:
448,192,254569,1,0,0:0:0:0:
64,192,254648,1,0,0:0:0:0:
448,192,254727,1,0,0:0:0:0:
320,192,254727,1,0,0:0:0:0:
192,192,254806,1,0,0:0:0:0:
64,192,254806,1,0,0:0:0:0:
320,192,254885,1,0,0:0:0:0:
448,192,254885,1,0,0:0:0:0:
192,192,254964,1,0,0:0:0:0:
64,192,254964,1,0,0:0:0:0:
320,192,255043,1,0,0:0:0:0:
448,192,255043,1,0,0:0:0:0:
192,192,255121,1,0,0:0:0:0:
64,192,255200,1,0,0:0:0:0:
448,192,255200,1,0,0:0:0:0:
320,192,255279,1,0,0:0:0:0:
192,192,255358,1,0,0:0:0:0:
64,192,255358,1,0,0:0:0:0:
320,192,255437,1,0,0:0:0:0:
448,192,255516,1,0,0:0:0:0:
64,192,255516,1,0,0:0:0:0:
192,192,255595,1,0,0:0:0:0:
320,192,255674,1,0,0:0:0:0:
448,192,255674,1,0,0:0:0:0:
192,192,255753,1,0,0:0:0:0:
64,192,255832,1,0,0:0:0:0:
448,192,255832,1,0,0:0:0:0:
320,192,255911,1,0,0:0:0:0:
448,192,255990,1,0,0:0:0:0:
192,192,255990,1,0,0:0:0:0:
320,192,256069,1,0,0:0:0:0:
64,192,256148,1,0,0:0:0:0:
192,192,256148,1,0,0:0:0:0:
320,192,256227,1,0,0:0:0:0:
64,192,256306,1,0,0:0:0:0:
448,192,256306,1,0,0:0:0:0:
192,192,256385,1,0,0:0:0:0:
320,192,256385,1,0,0:0:0:0:
64,192,256464,1,0,0:0:0:0:
448,192,256464,1,0,0:0:0:0:
192,192,256543,1,0,0:0:0:0:
320,192,256543,1,0,0:0:0:0:
64,192,256621,1,0,0:0:0:0:
448,192,256621,1,0,0:0:0:0:
192,192,256700,1,0,0:0:0:0:
320,192,256779,1,0,0:0:0:0:
448,192,256779,1,0,0:0:0:0:
64,192,256858,1,0,0:0:0:0:
192,192,256937,1,0,0:0:0:0:
448,192,256937,1,0,0:0:0:0:
320,192,257016,1,0,0:0:0:0:
64,192,257095,1,0,0:0:0:0:
192,192,257095,1,0,0:0:0:0:
448,192,257174,1,0,0:0:0:0:
64,192,257253,1,0,0:0:0:0:
320,192,257253,1,0,0:0:0:0:
192,192,257332,1,0,0:0:0:0:
448,192,257332,1,0,0:0:0:0:
320,192,257411,1,0,0:0:0:0:
64,192,257411,1,0,0:0:0:0:
192,192,257490,1,0,0:0:0:0:
448,192,257490,1,0,0:0:0:0:
320,192,257569,1,0,0:0:0:0:
64,192,257569,1,0,0:0:0:0:
448,192,257648,1,0,0:0:0:0:
192,192,257727,1,0,0:0:0:0:
64,192,257727,1,0,0:0:0:0:
320,192,257806,1,0,0:0:0:0:
448,192,257885,1,0,0:0:0:0:
64,192,257885,1,0,0:0:0:0:
192,192,257964,1,0,0:0:0:0:
320,192,258043,1,0,0:0:0:0:
64,192,258043,1,0,0:0:0:0:
448,192,258121,1,0,0:0:0:0:
320,192,258200,1,0,0:0:0:0:
192,192,258200,1,0,0:0:0:0:
64,192,258279,1,0,0:0:0:0:
320,192,258358,1,0,0:0:0:0:
448,192,258358,1,0,0:0:0:0:
192,192,258437,1,0,0:0:0:0:
64,192,258516,1,0,0:0:0:0:
448,192,258516,1,0,0:0:0:0:
320,192,258595,1,0,0:0:0:0:
192,192,258674,1,0,0:0:0:0:
64,192,258674,1,0,0:0:0:0:
320,192,258753,1,0,0:0:0:0:
448,192,258832,1,0,0:0:0:0:
64,192,258832,1,0,0:0:0:0:
320,192,258911,1,0,0:0:0:0:
192,192,258911,1,0,0:0:0:0:
64,192,258990,1,0,0:0:0:0:
448,192,258990,1,0,0:0:0:0:
192,192,259069,1,0,0:0:0:0:
320,192,259069,1,0,0:0:0:0:
448,192,259148,1,0,0:0:0:0:
64,192,259148,1,0,0:0:0:0:
320,192,259227,1,0,0:0:0:0:
192,192,259306,1,0,0:0:0:0:
64,192,259306,1,0,0:0:0:0:
320,192,259385,1,0,0:0:0:0:
192,192,259464,1,0,0:0:0:0:
448,192,259464,1,0,0:0:0:0:
64,192,259543,1,0,0:0:0:0:
192,192,259621,1,0,0:0:0:0:
320,192,259621,1,0,0:0:0:0:
448,192,259700,1,0,0:0:0:0:
192,192,259779,1,0,0:0:0:0:
64,192,259779,1,0,0:0:0:0:
320,192,259858,1,0,0:0:0:0:
448,192,259858,1,0,0:0:0:0:
192,192,259937,1,0,0:0:0:0:
64,192,259937,1,0,0:0:0:0:
320,192,260016,1,0,0:0:0:0:
448,192,260016,1,0,0:0:0:0:
192,192,260095,1,0,0:0:0:0:
64,192,260095,1,0,0:0:0:0:
320,192,260174,1,0,0:0:0:0:
448,192,260253,1,0,0:0:0:0:
64,192,260253,1,0,0:0:0:0:
192,192,260332,1,0,0:0:0:0:
320,192,260411,1,0,0:0:0:0:
448,192,260411,1,0,0:0:0:0:
64,192,260490,1,0,0:0:0:0:
192,192,260569,1,0,0:0:0:0:
320,192,260569,1,0,0:0:0:0:
448,192,260648,1,0,0:0:0:0:
64,192,260727,1,0,0:0:0:0:
320,192,260727,1,0,0:0:0:0:
192,192,260806,1,0,0:0:0:0:
64,192,260885,1,0,0:0:0:0:
448,192,260885,1,0,0:0:0:0:
320,192,260964,1,0,0:0:0:0:
192,192,261043,1,0,0:0:0:0:
448,192,261043,1,0,0:0:0:0:
64,192,261121,1,0,0:0:0:0:
192,192,261200,1,0,0:0:0:0:
320,192,261200,1,0,0:0:0:0:
448,192,261279,1,0,0:0:0:0:
64,192,261358,1,0,0:0:0:0:
192,192,261358,1,0,0:0:0:0:
320,192,261437,1,0,0:0:0:0:
448,192,261437,1,0,0:0:0:0:
192,192,261516,1,0,0:0:0:0:
64,192,261516,1,0,0:0:0:0:
320,192,261595,1,0,0:0:0:0:
448,192,261595,1,0,0:0:0:0:
64,192,261674,1,0,0:0:0:0:
192,192,261674,1,0,0:0:0:0:
448,192,261753,1,0,0:0:0:0:
320,192,261753,1,0,0:0:0:0:
192,192,261832,1,0,0:0:0:0:
64,192,261832,1,0,0:0:0:0:
448,192,261911,1,0,0:0:0:0:
64,192,261990,1,0,0:0:0:0:
192,192,261990,1,0,0:0:0:0:
320,192,262069,1,0,0:0:0:0:
192,192,262148,1,0,0:0:0:0:
448,192,262148,1,0,0:0:0:0:
64,192,262227,1,0,0:0:0:0:
320,192,262227,1,0,0:0:0:0:
448,192,262306,1,0,0:0:0:0:
192,192,262306,1,0,0:0:0:0:
320,192,262385,1,0,0:0:0:0:
64,192,262385,1,0,0:0:0:0:
192,192,262464,1,0,0:0:0:0:
448,192,262464,1,0,0:0:0:0:
320,192,262543,1,0,0:0:0:0:
64,192,262543,1,0,0:0:0:0:
192,192,262621,1,0,0:0:0:0:
320,192,262700,1,0,0:0:0:0:
448,192,262779,1,0,0:0:0:0:
192,192,262779,1,0,0:0:0:0:
64,192,262779,1,0,0:0:0:0:
320,192,262858,1,0,0:0:0:0:
64,192,262937,1,0,0:0:0:0:
448,192,262937,1,0,0:0:0:0:
192,192,263016,1,0,0:0:0:0:
320,192,263095,1,0,0:0:0:0:
448,192,263095,1,0,0:0:0:0:
192,192,263174,1,0,0:0:0:0:
64,192,263253,1,0,0:0:0:0:
448,192,263253,1,0,0:0:0:0:
192,192,263332,1,0,0:0:0:0:
320,192,263411,1,0,0:0:0:0:
448,192,263411,1,0,0:0:0:0:
192,192,263490,1,0,0:0:0:0:
64,192,263569,1,0,0:0:0:0:
448,192,263569,1,0,0:0:0:0:
320,192,263648,1,0,0:0:0:0:
64,192,263727,1,0,0:0:0:0:
192,192,263727,1,0,0:0:0:0:
320,192,263806,1,0,0:0:0:0:
448,192,263885,1,0,0:0:0:0:
64,192,263885,1,0,0:0:0:0:
192,192,263964,1,0,0:0:0:0:
64,192,264043,1,0,0:0:0:0:
320,192,264043,1,0,0:0:0:0:
448,192,264121,1,0,0:0:0:0:
192,192,264121,1,0,0:0:0:0:
320,192,264200,1,0,0:0:0:0:
64,192,264200,1,0,0:0:0:0:
192,192,264279,1,0,0:0:0:0:
448,192,264279,1,0,0:0:0:0:
320,192,264358,1,0,0:0:0:0:
64,192,264437,1,0,0:0:0:0:
448,192,264437,1,0,0:0:0:0:
192,192,264516,1,0,0:0:0:0:
320,192,264516,1,0,0:0:0:0:
64,192,264595,1,0,0:0:0:0:
448,192,264595,1,0,0:0:0:0:
320,192,264674,1,0,0:0:0:0:
192,192,264674,1,0,0:0:0:0:
64,192,264753,1,0,0:0:0:0:
448,192,264753,1,0,0:0:0:0:
320,192,264832,1,0,0:0:0:0:
192,192,264832,1,0,0:0:0:0:
64,192,264911,1,0,0:0:0:0:
448,192,264911,1,0,0:0:0:0:
192,192,264990,1,0,0:0:0:0:
320,192,265069,1,0,0:0:0:0:
448,192,265069,1,0,0:0:0:0:
64,192,265148,1,0,0:0:0:0:
192,192,265227,1,0,0:0:0:0:
448,192,265306,1,0,0:0:0:0:
320,192,265306,1,0,0:0:0:0:
64,192,265306,1,0,0:0:0:0:
192,192,265385,1,0,0:0:0:0:
320,192,265464,1,0,0:0:0:0:
448,192,265464,1,0,0:0:0:0:
64,192,265543,1,0,0:0:0:0:
448,192,265621,1,0,0:0:0:0:
320,192,265700,1,0,0:0:0:0:
64,192,265779,1,0,0:0:0:0:
192,192,265779,1,0,0:0:0:0:
320,192,265858,1,0,0:0:0:0:
192,192,265937,1,0,0:0:0:0:
64,192,265937,1,0,0:0:0:0:
320,192,266016,1,0,0:0:0:0:
448,192,266016,1,0,0:0:0:0:
192,192,266095,1,0,0:0:0:0:
64,192,266095,1,0,0:0:0:0:
320,192,266174,1,0,0:0:0:0:
448,192,266174,1,0,0:0:0:0:
192,192,266253,1,0,0:0:0:0:
64,192,266253,1,0,0:0:0:0:
320,192,266332,1,0,0:0:0:0:
64,192,266411,1,0,0:0:0:0:
448,192,266411,1,0,0:0:0:0:
320,192,266490,1,0,0:0:0:0:
64,192,266569,1,0,0:0:0:0:
448,192,266569,1,0,0:0:0:0:
192,192,266569,1,0,0:0:0:0:
320,192,266648,1,0,0:0:0:0:
64,192,266727,1,0,0:0:0:0:
448,192,266727,1,0,0:0:0:0:
192,192,266806,1,0,0:0:0:0:
320,192,266806,1,0,0:0:0:0:
448,192,266885,1,0,0:0:0:0:
64,192,266885,1,0,0:0:0:0:
192,192,266964,1,0,0:0:0:0:
64,192,267043,1,0,0:0:0:0:
320,192,267043,1,0,0:0:0:0:
192,192,267121,1,0,0:0:0:0:
448,192,267200,1,0,0:0:0:0:
320,192,267200,1,0,0:0:0:0:
64,192,267200,1,0,0:0:0:0:
192,192,267279,1,0,0:0:0:0:
320,192,267358,1,0,0:0:0:0:
448,192,267358,1,0,0:0:0:0:
192,192,267437,1,0,0:0:0:0:
64,192,267516,1,0,0:0:0:0:
448,192,267516,1,0,0:0:0:0:
320,192,267595,1,0,0:0:0:0:
192,192,267674,1,0,0:0:0:0:
64,192,267674,1,0,0:0:0:0:
320,192,267753,1,0,0:0:0:0:
448,192,267832,1,0,0:0:0:0:
192,192,267832,1,0,0:0:0:0:
64,192,267832,1,0,0:0:0:0:
320,192,267911,1,0,0:0:0:0:
448,192,267990,1,0,0:0:0:0:
192,192,268069,1,0,0:0:0:0:
64,192,268148,1,0,0:0:0:0:
320,192,268227,1,0,0:0:0:0:
192,192,268306,1,0,0:0:0:0:
448,192,268385,1,0,0:0:0:0:
320,192,268464,1,0,0:0:0:0:
64,192,268543,1,0,0:0:0:0:
192,192,268621,1,0,0:0:0:0:
448,192,268700,1,0,0:0:0:0:
320,192,268779,1,0,0:0:0:0:
64,192,268858,1,0,0:0:0:0:
448,192,268937,1,0,0:0:0:0:
192,192,269016,1,0,0:0:0:0:
448,192,269095,1,0,0:0:0:0:
320,192,269174,1,0,0:0:0:0:
64,192,269253,1,0,0:0:0:0:
192,192,269332,1,0,0:0:0:0:
448,192,269411,1,0,0:0:0:0:
64,192,269490,1,0,0:0:0:0:
320,192,269569,1,0,0:0:0:0:
448,192,269648,1,0,0:0:0:0:
192,192,269727,1,0,0:0:0:0:
320,192,269806,1,0,0:0:0:0:
64,192,269885,1,0,0:0:0:0:
192,192,269964,1,0,0:0:0:0:
448,192,270043,1,0,0:0:0:0:
320,192,270121,1,0,0:0:0:0:
192,192,270200,1,0,0:0:0:0:
64,192,270279,1,0,0:0:0:0:
320,192,270358,1,0,0:0:0:0:
448,192,270437,1,0,0:0:0:0:
192,192,270516,1,0,0:0:0:0:
448,192,270595,1,0,0:0:0:0:
320,192,270674,1,0,0:0:0:0:
64,192,270753,1,0,0:0:0:0:
192,192,270832,1,0,0:0:0:0:
448,192,270911,1,0,0:0:0:0:
64,192,270990,1,0,0:0:0:0:
320,192,271069,1,0,0:0:0:0:
448,192,271148,1,0,0:0:0:0:
192,192,271227,1,0,0:0:0:0:
448,192,271306,1,0,0:0:0:0:
64,192,271385,1,0,0:0:0:0:
320,192,271464,1,0,0:0:0:0:
448,192,271543,1,0,0:0:0:0:
192,192,271621,1,0,0:0:0:0:
64,192,271621,1,0,0:0:0:0:
320,192,271858,1,0,0:0:0:0:
192,192,271937,1,0,0:0:0:0:
320,192,272016,1,0,0:0:0:0:
192,192,272095,1,0,0:0:0:0:
64,192,272174,1,0,0:0:0:0:
192,192,272253,1,0,0:0:0:0:
64,192,272332,1,0,0:0:0:0:
192,192,272411,1,0,0:0:0:0:
320,192,272490,1,0,0:0:0:0:
448,192,272569,1,0,0:0:0:0:
64,192,272569,1,0,0:0:0:0:
320,192,272727,1,0,0:0:0:0:
320,192,272806,1,0,0:0:0:0:
64,192,272885,1,0,0:0:0:0:
192,192,272885,1,0,0:0:0:0:
448,192,272885,1,0,0:0:0:0:
320,192,272964,1,0,0:0:0:0:
64,192,273043,1,0,0:0:0:0:
192,192,273043,1,0,0:0:0:0:
448,192,273121,1,0,0:0:0:0:
64,192,273200,1,0,0:0:0:0:
320,192,273200,1,0,0:0:0:0:
448,192,273279,1,0,0:0:0:0:
192,192,273279,1,0,0:0:0:0:
320,192,273358,1,0,0:0:0:0:
64,192,273358,1,0,0:0:0:0:
192,192,273437,1,0,0:0:0:0:
448,192,273437,1,0,0:0:0:0:
64,192,273516,1,0,0:0:0:0:
320,192,273516,1,0,0:0:0:0:
192,192,273595,1,0,0:0:0:0:
448,192,273595,1,0,0:0:0:0:
320,192,273674,1,0,0:0:0:0:
64,192,273753,1,0,0:0:0:0:
192,192,273753,1,0,0:0:0:0:
320,192,273832,1,0,0:0:0:0:
64,192,273911,1,0,0:0:0:0:
448,192,273911,1,0,0:0:0:0:
192,192,273990,1,0,0:0:0:0:
448,192,274069,1,0,0:0:0:0:
320,192,274069,1,0,0:0:0:0:
64,192,274148,1,0,0:0:0:0:
192,192,274148,1,0,0:0:0:0:
192,192,274227,1,0,0:0:0:0:
448,192,274306,1,0,0:0:0:0:
64,192,274306,1,0,0:0:0:0:
448,192,274385,1,0,0:0:0:0:
320,192,274464,1,0,0:0:0:0:
64,192,274464,1,0,0:0:0:0:
64,192,274543,1,0,0:0:0:0:
192,192,274621,1,0,0:0:0:0:
448,192,274621,1,0,0:0:0:0:
448,192,274700,1,0,0:0:0:0:
320,192,274779,1,0,0:0:0:0:
192,192,274779,1,0,0:0:0:0:
448,192,274858,1,0,0:0:0:0:
64,192,274858,1,0,0:0:0:0:
192,192,274937,1,0,0:0:0:0:
320,192,274937,1,0,0:0:0:0:
64,192,275016,1,0,0:0:0:0:
448,192,275016,1,0,0:0:0:0:
320,192,275095,1,0,0:0:0:0:
192,192,275095,1,0,0:0:0:0:
448,192,275174,1,0,0:0:0:0:
192,192,275253,1,0,0:0:0:0:
64,192,275253,1,0,0:0:0:0:
320,192,275332,1,0,0:0:0:0:
448,192,275332,1,0,0:0:0:0:
192,192,275411,1,0,0:0:0:0:
64,192,275411,1,0,0:0:0:0:
320,192,275490,1,0,0:0:0:0:
448,192,275569,1,0,0:0:0:0:
64,192,275569,1,0,0:0:0:0:
192,192,275648,1,0,0:0:0:0:
320,192,275648,1,0,0:0:0:0:
64,192,275727,1,0,0:0:0:0:
448,192,275727,1,0,0:0:0:0:
192,192,275806,1,0,0:0:0:0:
320,192,275806,1,0,0:0:0:0:
448,192,275885,1,0,0:0:0:0:
64,192,275885,1,0,0:0:0:0:
192,192,275964,1,0,0:0:0:0:
64,192,276043,1,0,0:0:0:0:
320,192,276043,1,0,0:0:0:0:
448,192,276121,1,0,0:0:0:0:
192,192,276200,1,0,0:0:0:0:
320,192,276200,1,0,0:0:0:0:
64,192,276279,1,0,0:0:0:0:
448,192,276358,1,0,0:0:0:0:
320,192,276358,1,0,0:0:0:0:
192,192,276437,1,0,0:0:0:0:
64,192,276516,1,0,0:0:0:0:
320,192,276516,1,0,0:0:0:0:
448,192,276595,1,0,0:0:0:0:
192,192,276674,1,0,0:0:0:0:
64,192,276674,1,0,0:0:0:0:
64,192,276753,1,0,0:0:0:0:
320,192,276832,1,0,0:0:0:0:
448,192,276832,1,0,0:0:0:0:
448,192,276911,1,0,0:0:0:0:
320,192,276990,1,0,0:0:0:0:
192,192,276990,1,0,0:0:0:0:
64,192,277069,1,0,0:0:0:0:
448,192,277069,1,0,0:0:0:0:
320,192,277148,1,0,0:0:0:0:
192,192,277148,1,0,0:0:0:0:
64,192,277227,1,0,0:0:0:0:
192,192,277306,1,0,0:0:0:0:
448,192,277306,1,0,0:0:0:0:
320,192,277385,1,0,0:0:0:0:
64,192,277464,1,0,0:0:0:0:
448,192,277464,1,0,0:0:0:0:
320,192,277543,1,0,0:0:0:0:
192,192,277621,1,0,0:0:0:0:
64,192,277621,1,0,0:0:0:0:
320,192,277700,1,0,0:0:0:0:
448,192,277779,1,0,0:0:0:0:
64,192,277779,1,0,0:0:0:0:
64,192,277858,1,0,0:0:0:0:
192,192,277937,1,0,0:0:0:0:
448,192,277937,1,0,0:0:0:0:
320,192,278016,1,0,0:0:0:0:
64,192,278016,1,0,0:0:0:0:
192,192,278095,1,0,0:0:0:0:
448,192,278095,1,0,0:0:0:0:
320,192,278174,1,0,0:0:0:0:
64,192,278174,1,0,0:0:0:0:
192,192,278253,1,0,0:0:0:0:
320,192,278332,1,0,0:0:0:0:
448,192,278332,1,0,0:0:0:0:
192,192,278411,1,0,0:0:0:0:
64,192,278411,1,0,0:0:0:0:
320,192,278490,1,0,0:0:0:0:
448,192,278490,1,0,0:0:0:0:
192,192,278569,1,0,0:0:0:0:
64,192,278569,1,0,0:0:0:0:
320,192,278648,1,0,0:0:0:0:
64,192,278727,1,0,0:0:0:0:
448,192,278727,1,0,0:0:0:0:
320,192,278806,1,0,0:0:0:0:
192,192,278885,1,0,0:0:0:0:
64,192,278885,1,0,0:0:0:0:
320,192,278964,1,0,0:0:0:0:
448,192,279043,1,0,0:0:0:0:
64,192,279043,1,0,0:0:0:0:
192,192,279121,1,0,0:0:0:0:
320,192,279200,1,0,0:0:0:0:
448,192,279200,1,0,0:0:0:0:
448,192,279279,1,0,0:0:0:0:
64,192,279358,1,0,0:0:0:0:
320,192,279358,1,0,0:0:0:0:
320,192,279437,1,0,0:0:0:0:
64,192,279516,1,0,0:0:0:0:
192,192,279516,1,0,0:0:0:0:
64,192,279595,1,0,0:0:0:0:
192,192,279674,1,0,0:0:0:0:
448,192,279674,1,0,0:0:0:0:
192,192,279753,1,0,0:0:0:0:
320,192,279832,1,0,0:0:0:0:
448,192,279832,1,0,0:0:0:0:
192,192,279911,1,0,0:0:0:0:
64,192,279911,1,0,0:0:0:0:
320,192,279990,1,0,0:0:0:0:
448,192,279990,1,0,0:0:0:0:
192,192,280069,1,0,0:0:0:0:
64,192,280069,1,0,0:0:0:0:
320,192,280148,1,0,0:0:0:0:
448,192,280148,1,0,0:0:0:0:
192,192,280227,1,0,0:0:0:0:
64,192,280306,1,0,0:0:0:0:
448,192,280306,1,0,0:0:0:0:
320,192,280385,1,0,0:0:0:0:
192,192,280385,1,0,0:0:0:0:
64,192,280464,1,0,0:0:0:0:
448,192,280464,1,0,0:0:0:0:
448,192,280543,1,0,0:0:0:0:
320,192,280621,1,0,0:0:0:0:
192,192,280621,1,0,0:0:0:0:
64,192,280700,1,0,0:0:0:0:
192,192,280779,1,0,0:0:0:0:
320,192,280779,1,0,0:0:0:0:
192,192,280858,1,0,0:0:0:0:
448,192,280937,1,0,0:0:0:0:
320,192,280937,1,0,0:0:0:0:
448,192,281016,1,0,0:0:0:0:
64,192,281095,1,0,0:0:0:0:
320,192,281095,1,0,0:0:0:0:
64,192,281174,1,0,0:0:0:0:
192,192,281253,1,0,0:0:0:0:
320,192,281253,1,0,0:0:0:0:
64,192,281332,1,0,0:0:0:0:
448,192,281332,1,0,0:0:0:0:
320,192,281411,1,0,0:0:0:0:
192,192,281411,1,0,0:0:0:0:
64,192,281490,1,0,0:0:0:0:
448,192,281490,1,0,0:0:0:0:
192,192,281569,1,0,0:0:0:0:
320,192,281569,1,0,0:0:0:0:
448,192,281648,1,0,0:0:0:0:
64,192,281648,1,0,0:0:0:0:
192,192,281727,1,0,0:0:0:0:
320,192,281727,1,0,0:0:0:0:
320,192,281806,1,0,0:0:0:0:
64,192,281885,1,0,0:0:0:0:
192,192,281885,1,0,0:0:0:0:
64,192,281964,1,0,0:0:0:0:
448,192,282043,1,0,0:0:0:0:
320,192,282043,1,0,0:0:0:0:
192,192,282121,1,0,0:0:0:0:
64,192,282121,1,0,0:0:0:0:
320,192,282200,1,0,0:0:0:0:
448,192,282200,1,0,0:0:0:0:
192,192,282279,1,0,0:0:0:0:
64,192,282279,1,0,0:0:0:0:
320,192,282358,1,0,0:0:0:0:
448,192,282358,1,0,0:0:0:0:
192,192,282437,1,0,0:0:0:0:
64,192,282516,1,0,0:0:0:0:
320,192,282516,1,0,0:0:0:0:
448,192,282595,1,0,0:0:0:0:
192,192,282674,1,0,0:0:0:0:
64,192,282674,1,0,0:0:0:0:
320,192,282753,1,0,0:0:0:0:
448,192,282832,1,0,0:0:0:0:
64,192,282832,1,0,0:0:0:0:
192,192,282911,1,0,0:0:0:0:
320,192,282990,1,0,0:0:0:0:
448,192,282990,1,0,0:0:0:0:
448,192,283069,1,0,0:0:0:0:
64,192,283148,1,0,0:0:0:0:
192,192,283148,1,0,0:0:0:0:
320,192,283227,1,0,0:0:0:0:
448,192,283227,1,0,0:0:0:0:
192,192,283306,1,0,0:0:0:0:
64,192,283306,1,0,0:0:0:0:
320,192,283385,1,0,0:0:0:0:
448,192,283464,1,0,0:0:0:0:
64,192,283464,1,0,0:0:0:0:
192,192,283543,1,0,0:0:0:0:
320,192,283621,1,0,0:0:0:0:
64,192,283621,1,0,0:0:0:0:
448,192,283700,1,0,0:0:0:0:
192,192,283779,1,0,0:0:0:0:
64,192,283779,1,0,0:0:0:0:
320,192,283858,1,0,0:0:0:0:
448,192,283937,1,0,0:0:0:0:
192,192,283937,1,0,0:0:0:0:
64,192,284016,1,0,0:0:0:0:
192,192,284095,1,0,0:0:0:0:
320,192,284095,1,0,0:0:0:0:
448,192,284174,1,0,0:0:0:0:
64,192,284253,1,0,0:0:0:0:
192,192,284253,1,0,0:0:0:0:
64,192,284332,1,0,0:0:0:0:
320,192,284411,1,0,0:0:0:0:
320,192,284490,1,0,0:0:0:0:
64,192,284569,1,0,0:0:0:0:
448,192,284569,1,0,0:0:0:0:
448,192,284648,1,0,0:0:0:0:
192,192,284727,1,0,0:0:0:0:
320,192,284727,1,0,0:0:0:0:
192,192,284806,1,0,0:0:0:0:
64,192,284885,1,0,0:0:0:0:
448,192,284885,1,0,0:0:0:0:
320,192,284964,1,0,0:0:0:0:
192,192,284964,1,0,0:0:0:0:
64,192,285043,1,0,0:0:0:0:
448,192,285043,1,0,0:0:0:0:
320,192,285121,1,0,0:0:0:0:
192,192,285121,1,0,0:0:0:0:
64,192,285200,1,0,0:0:0:0:
448,192,285200,1,0,0:0:0:0:
320,192,285279,1,0,0:0:0:0:
192,192,285358,1,0,0:0:0:0:
448,192,285358,1,0,0:0:0:0:
64,192,285437,1,0,0:0:0:0:
192,192,285516,1,0,0:0:0:0:
320,192,285516,1,0,0:0:0:0:
448,192,285595,1,0,0:0:0:0:
64,192,285674,1,0,0:0:0:0:
320,192,285674,1,0,0:0:0:0:
192,192,285753,1,0,0:0:0:0:
64,192,285832,1,0,0:0:0:0:
320,192,285832,1,0,0:0:0:0:
64,192,285911,1,0,0:0:0:0:
192,192,285990,1,0,0:0:0:0:
448,192,285990,1,0,0:0:0:0:
448,192,286069,1,0,0:0:0:0:
64,192,286148,1,0,0:0:0:0:
320,192,286148,1,0,0:0:0:0:
192,192,286227,1,0,0:0:0:0:
448,192,286227,1,0,0:0:0:0:
320,192,286306,1,0,0:0:0:0:
64,192,286306,1,0,0:0:0:0:
192,192,286385,1,0,0:0:0:0:
448,192,286385,1,0,0:0:0:0:
64,192,286464,1,0,0:0:0:0:
320,192,286464,1,0,0:0:0:0:
448,192,286543,1,0,0:0:0:0:
64,192,286621,1,0,0:0:0:0:
192,192,286621,1,0,0:0:0:0:
448,192,286700,1,0,0:0:0:0:
320,192,286779,1,0,0:0:0:0:
192,192,286779,1,0,0:0:0:0:
64,192,286858,1,0,0:0:0:0:
448,192,286858,1,0,0:0:0:0:
320,192,286937,1,0,0:0:0:0:
192,192,286937,1,0,0:0:0:0:
64,192,287016,1,0,0:0:0:0:
448,192,287016,1,0,0:0:0:0:
192,192,287095,1,0,0:0:0:0:
320,192,287095,1,0,0:0:0:0:
448,192,287174,1,0,0:0:0:0:
64,192,287253,1,0,0:0:0:0:
192,192,287253,1,0,0:0:0:0:
320,192,287332,1,0,0:0:0:0:
448,192,287411,1,0,0:0:0:0:
192,192,287411,1,0,0:0:0:0:
64,192,287490,1,0,0:0:0:0:
320,192,287490,1,0,0:0:0:0:
448,192,287569,1,0,0:0:0:0:
192,192,287569,1,0,0:0:0:0:
64,192,287648,1,0,0:0:0:0:
320,192,287648,1,0,0:0:0:0:
448,192,287727,1,0,0:0:0:0:
192,192,287727,1,0,0:0:0:0:
320,192,287806,1,0,0:0:0:0:
64,192,287806,1,0,0:0:0:0:
192,192,287885,1,0,0:0:0:0:
448,192,287885,1,0,0:0:0:0:
320,192,287964,1,0,0:0:0:0:
64,192,288043,1,0,0:0:0:0:
192,192,288043,1,0,0:0:0:0:
448,192,288121,1,0,0:0:0:0:
320,192,288121,1,0,0:0:0:0:
192,192,288200,1,0,0:0:0:0:
64,192,288200,1,0,0:0:0:0:
320,192,288279,1,0,0:0:0:0:
448,192,288279,1,0,0:0:0:0:
192,192,288358,1,0,0:0:0:0:
64,192,288358,1,0,0:0:0:0:
320,192,288437,1,0,0:0:0:0:
64,192,288516,1,0,0:0:0:0:
448,192,288516,1,0,0:0:0:0:
192,192,288595,1,0,0:0:0:0:
320,192,288674,1,0,0:0:0:0:
448,192,288674,1,0,0:0:0:0:
64,192,288753,1,0,0:0:0:0:
192,192,288753,1,0,0:0:0:0:
320,192,288832,1,0,0:0:0:0:
448,192,288832,1,0,0:0:0:0:
192,192,288911,1,0,0:0:0:0:
64,192,288990,1,0,0:0:0:0:
320,192,288990,1,0,0:0:0:0:
448,192,289069,1,0,0:0:0:0:
192,192,289148,1,0,0:0:0:0:
64,192,289148,1,0,0:0:0:0:
320,192,289227,1,0,0:0:0:0:
448,192,289306,1,0,0:0:0:0:
64,192,289306,1,0,0:0:0:0:
192,192,289385,1,0,0:0:0:0:
320,192,289385,1,0,0:0:0:0:
64,192,289464,1,0,0:0:0:0:
448,192,289464,1,0,0:0:0:0:
320,192,289543,1,0,0:0:0:0:
192,192,289543,1,0,0:0:0:0:
64,192,289621,1,0,0:0:0:0:
448,192,289621,1,0,0:0:0:0:
320,192,289700,1,0,0:0:0:0:
192,192,289700,1,0,0:0:0:0:
64,192,289779,1,0,0:0:0:0:
448,192,289779,1,0,0:0:0:0:
192,192,289858,1,0,0:0:0:0:
320,192,289858,1,0,0:0:0:0:
448,192,289937,1,0,0:0:0:0:
64,192,289937,1,0,0:0:0:0:
320,192,290016,1,0,0:0:0:0:
192,192,290095,1,0,0:0:0:0:
64,192,290095,1,0,0:0:0:0:
320,192,290174,1,0,0:0:0:0:
448,192,290174,1,0,0:0:0:0:
192,192,290253,1,0,0:0:0:0:
64,192,290253,1,0,0:0:0:0:
320,192,290332,1,0,0:0:0:0:
448,192,290332,1,0,0:0:0:0:
192,192,290411,1,0,0:0:0:0:
64,192,290411,1,0,0:0:0:0:
320,192,290490,1,0,0:0:0:0:
448,192,290569,1,0,0:0:0:0:
64,192,290569,1,0,0:0:0:0:
448,192,290648,1,0,0:0:0:0:
320,192,290727,1,0,0:0:0:0:
192,192,290727,1,0,0:0:0:0:
192,192,290806,1,0,0:0:0:0:
64,192,290885,1,0,0:0:0:0:
320,192,290885,1,0,0:0:0:0:
64,192,290964,1,0,0:0:0:0:
192,192,291043,1,0,0:0:0:0:
448,192,291043,1,0,0:0:0:0:
448,192,291121,1,0,0:0:0:0:
320,192,291200,1,0,0:0:0:0:
192,192,291200,1,0,0:0:0:0:
448,192,291279,1,0,0:0:0:0:
64,192,291279,1,0,0:0:0:0:
192,192,291358,1,0,0:0:0:0:
320,192,291358,1,0,0:0:0:0:
64,192,291437,1,0,0:0:0:0:
448,192,291437,1,0,0:0:0:0:
192,192,291516,1,0,0:0:0:0:
320,192,291595,1,0,0:0:0:0:
64,192,291595,1,0,0:0:0:0:
192,192,291674,1,0,0:0:0:0:
448,192,291674,1,0,0:0:0:0:
320,192,291753,1,0,0:0:0:0:
64,192,291753,1,0,0:0:0:0:
448,192,291832,1,0,0:0:0:0:
448,192,291911,1,0,0:0:0:0:
64,192,291990,1,0,0:0:0:0:
192,192,291990,1,0,0:0:0:0:
64,192,292069,1,0,0:0:0:0:
320,192,292148,1,0,0:0:0:0:
448,192,292148,1,0,0:0:0:0:
192,192,292227,1,0,0:0:0:0:
64,192,292306,1,0,0:0:0:0:
320,192,292306,1,0,0:0:0:0:
448,192,292385,1,0,0:0:0:0:
320,192,292464,1,0,0:0:0:0:
192,192,292464,1,0,0:0:0:0:
64,192,292464,1,0,0:0:0:0:
448,192,292543,1,0,0:0:0:0:
320,192,292621,1,0,0:0:0:0:
64,192,292700,1,0,0:0:0:0:
448,192,292779,1,0,0:0:0:0:
192,192,292858,1,0,0:0:0:0:
448,192,292937,1,0,0:0:0:0:
320,192,293016,1,0,0:0:0:0:
64,192,293095,1,0,0:0:0:0:
192,192,293095,1,0,0:0:0:0:
448,192,293095,1,0,0:0:0:0:
320,192,293174,1,0,0:0:0:0:
64,192,293253,1,0,0:0:0:0:
192,192,293253,1,0,0:0:0:0:
320,192,293332,1,0,0:0:0:0:
64,192,293411,1,0,0:0:0:0:
448,192,293411,1,0,0:0:0:0:
192,192,293490,1,0,0:0:0:0:
320,192,293490,1,0,0:0:0:0:
448,192,293569,1,0,0:0:0:0:
64,192,293569,1,0,0:0:0:0:
192,192,293648,1,0,0:0:0:0:
320,192,293648,1,0,0:0:0:0:
448,192,293727,1,0,0:0:0:0:
64,192,293806,1,0,0:0:0:0:
192,192,293806,1,0,0:0:0:0:
320,192,293885,1,0,0:0:0:0:
448,192,293885,1,0,0:0:0:0:
192,192,293964,1,0,0:0:0:0:
64,192,293964,1,0,0:0:0:0:
320,192,294043,1,0,0:0:0:0:
448,192,294043,1,0,0:0:0:0:
192,192,294121,1,0,0:0:0:0:
64,192,294200,1,0,0:0:0:0:
448,192,294200,1,0,0:0:0:0:
192,192,294279,1,0,0:0:0:0:
320,192,294358,1,0,0:0:0:0:
448,192,294358,1,0,0:0:0:0:
192,192,294437,1,0,0:0:0:0:
64,192,294516,1,0,0:0:0:0:
448,192,294516,1,0,0:0:0:0:
320,192,294595,1,0,0:0:0:0:
192,192,294674,1,0,0:0:0:0:
64,192,294674,1,0,0:0:0:0:
320,192,294753,1,0,0:0:0:0:
448,192,294832,1,0,0:0:0:0:
192,192,294832,1,0,0:0:0:0:
64,192,294911,1,0,0:0:0:0:
320,192,294990,1,0,0:0:0:0:
448,192,294990,1,0,0:0:0:0:
320,192,295069,1,0,0:0:0:0:
192,192,295148,1,0,0:0:0:0:
64,192,295148,1,0,0:0:0:0:
64,192,295227,1,0,0:0:0:0:
320,192,295306,1,0,0:0:0:0:
448,192,295306,1,0,0:0:0:0:
192,192,295385,1,0,0:0:0:0:
64,192,295464,1,0,0:0:0:0:
448,192,295464,1,0,0:0:0:0:
320,192,295543,1,0,0:0:0:0:
192,192,295621,1,0,0:0:0:0:
64,192,295621,1,0,0:0:0:0:
320,192,295700,1,0,0:0:0:0:
448,192,295700,1,0,0:0:0:0:
192,192,295779,1,0,0:0:0:0:
64,192,295779,1,0,0:0:0:0:
320,192,295858,1,0,0:0:0:0:
448,192,295858,1,0,0:0:0:0:
192,192,295937,1,0,0:0:0:0:
64,192,295937,1,0,0:0:0:0:
64,192,296016,1,0,0:0:0:0:
320,192,296095,1,0,0:0:0:0:
448,192,296095,1,0,0:0:0:0:
320,192,296174,1,0,0:0:0:0:
192,192,296253,1,0,0:0:0:0:
448,192,296253,1,0,0:0:0:0:
64,192,296332,1,0,0:0:0:0:
320,192,296411,1,0,0:0:0:0:
448,192,296411,1,0,0:0:0:0:
192,192,296490,1,0,0:0:0:0:
64,192,296569,1,0,0:0:0:0:
320,192,296569,1,0,0:0:0:0:
448,192,296648,1,0,0:0:0:0:
64,192,296727,1,0,0:0:0:0:
320,192,296727,1,0,0:0:0:0:
192,192,296806,1,0,0:0:0:0:
448,192,296806,1,0,0:0:0:0:
320,192,296885,1,0,0:0:0:0:
64,192,296885,1,0,0:0:0:0:
192,192,296964,1,0,0:0:0:0:
320,192,297043,1,0,0:0:0:0:
448,192,297043,1,0,0:0:0:0:
192,192,297121,1,0,0:0:0:0:
64,192,297200,1,0,0:0:0:0:
320,192,297200,1,0,0:0:0:0:
448,192,297279,1,0,0:0:0:0:
192,192,297279,1,0,0:0:0:0:
320,192,297358,1,0,0:0:0:0:
64,192,297358,1,0,0:0:0:0:
192,192,297437,1,0,0:0:0:0:
448,192,297437,1,0,0:0:0:0:
320,192,297516,1,0,0:0:0:0:
64,192,297516,1,0,0:0:0:0:
192,192,297595,1,0,0:0:0:0:
320,192,297674,1,0,0:0:0:0:
448,192,297674,1,0,0:0:0:0:
192,192,297753,1,0,0:0:0:0:
64,192,297753,1,0,0:0:0:0:
320,192,297832,1,0,0:0:0:0:
448,192,297832,1,0,0:0:0:0:
192,192,297911,1,0,0:0:0:0:
64,192,297911,1,0,0:0:0:0:
320,192,297990,1,0,0:0:0:0:
448,192,297990,1,0,0:0:0:0:
192,192,298069,1,0,0:0:0:0:
320,192,298148,1,0,0:0:0:0:
64,192,298148,1,0,0:0:0:0:
448,192,298227,1,0,0:0:0:0:
192,192,298306,1,0,0:0:0:0:
64,192,298306,1,0,0:0:0:0:
320,192,298385,1,0,0:0:0:0:
448,192,298464,1,0,0:0:0:0:
192,192,298464,1,0,0:0:0:0:
64,192,298543,1,0,0:0:0:0:
320,192,298543,1,0,0:0:0:0:
192,192,298621,1,0,0:0:0:0:
448,192,298621,1,0,0:0:0:0:
320,192,298700,1,0,0:0:0:0:
64,192,298779,1,0,0:0:0:0:
448,192,298779,1,0,0:0:0:0:
192,192,298858,1,0,0:0:0:0:
320,192,298858,1,0,0:0:0:0:
64,192,298937,1,0,0:0:0:0:
448,192,298937,1,0,0:0:0:0:
320,192,299016,1,0,0:0:0:0:
192,192,299016,1,0,0:0:0:0:
64,192,299095,1,0,0:0:0:0:
448,192,299095,1,0,0:0:0:0:
320,192,299174,1,0,0:0:0:0:
192,192,299174,1,0,0:0:0:0:
64,192,299253,1,0,0:0:0:0:
448,192,299253,1,0,0:0:0:0:
320,192,299332,1,0,0:0:0:0:
192,192,299411,1,0,0:0:0:0:
64,192,299411,1,0,0:0:0:0:
192,192,299490,1,0,0:0:0:0:
448,192,299569,1,0,0:0:0:0:
320,192,299569,1,0,0:0:0:0:
448,192,299648,1,0,0:0:0:0:
192,192,299727,1,0,0:0:0:0:
64,192,299727,1,0,0:0:0:0:
64,192,299806,1,0,0:0:0:0:
320,192,299885,1,0,0:0:0:0:
192,192,299885,1,0,0:0:0:0:
320,192,299964,1,0,0:0:0:0:
448,192,300043,1,0,0:0:0:0:
64,192,300043,1,0,0:0:0:0:
448,192,300121,1,0,0:0:0:0:
192,192,300200,1,0,0:0:0:0:
320,192,300200,1,0,0:0:0:0:
192,192,300279,1,0,0:0:0:0:
64,192,300358,1,0,0:0:0:0:
320,192,300358,1,0,0:0:0:0:
320,192,300437,1,0,0:0:0:0:
192,192,300516,1,0,0:0:0:0:
448,192,300516,1,0,0:0:0:0:
192,192,300595,1,0,0:0:0:0:
64,192,300674,1,0,0:0:0:0:
448,192,300674,1,0,0:0:0:0:
192,192,300753,1,0,0:0:0:0:
320,192,300753,1,0,0:0:0:0:
64,192,300832,1,0,0:0:0:0:
448,192,300832,1,0,0:0:0:0:
192,192,300911,1,0,0:0:0:0:
320,192,300990,1,0,0:0:0:0:
448,192,300990,1,0,0:0:0:0:
192,192,301069,1,0,0:0:0:0:
64,192,301148,1,0,0:0:0:0:
448,192,301148,1,0,0:0:0:0:
320,192,301227,1,0,0:0:0:0:
192,192,301227,1,0,0:0:0:0:
64,192,301306,1,0,0:0:0:0:
448,192,301306,1,0,0:0:0:0:
320,192,301385,1,0,0:0:0:0:
192,192,301464,1,0,0:0:0:0:
64,192,301464,1,0,0:0:0:0:
448,192,301543,1,0,0:0:0:0:
192,192,301621,1,0,0:0:0:0:
320,192,301621,1,0,0:0:0:0:
64,192,301700,1,0,0:0:0:0:
448,192,301700,1,0,0:0:0:0:
192,192,301779,1,0,0:0:0:0:
320,192,301779,1,0,0:0:0:0:
64,192,301858,1,0,0:0:0:0:
448,192,301858,1,0,0:0:0:0:
192,192,301937,1,0,0:0:0:0:
320,192,301937,1,0,0:0:0:0:
64,192,302016,1,0,0:0:0:0:
448,192,302016,1,0,0:0:0:0:
320,192,302095,1,0,0:0:0:0:
192,192,302095,1,0,0:0:0:0:
64,192,302174,1,0,0:0:0:0:
448,192,302174,1,0,0:0:0:0:
320,192,302253,1,0,0:0:0:0:
192,192,302253,1,0,0:0:0:0:
64,192,302332,1,0,0:0:0:0:
448,192,302332,1,0,0:0:0:0:
320,192,302411,1,0,0:0:0:0:
192,192,302411,1,0,0:0:0:0:
64,192,302490,1,0,0:0:0:0:
448,192,302490,1,0,0:0:0:0:
320,192,302569,1,0,0:0:0:0:
192,192,302569,1,0,0:0:0:0:
64,192,302648,1,0,0:0:0:0:
448,192,302648,1,0,0:0:0:0:
320,192,302727,1,0,0:0:0:0:
192,192,302727,1,0,0:0:0:0:
64,192,302806,1,0,0:0:0:0:
448,192,302806,1,0,0:0:0:0:
320,192,302885,1,0,0:0:0:0:
192,192,302885,1,0,0:0:0:0:
64,192,302964,1,0,0:0:0:0:
448,192,302964,1,0,0:0:0:0:
320,192,303043,1,0,0:0:0:0:
192,192,303043,1,0,0:0:0:0:
64,192,303121,1,0,0:0:0:0:
448,192,303121,1,0,0:0:0:0:
192,192,303200,1,0,0:0:0:0:
320,192,303200,1,0,0:0:0:0:
64,192,303279,1,0,0:0:0:0:
192,192,303358,1,0,0:0:0:0:
448,192,303358,1,0,0:0:0:0:
320,192,303437,1,0,0:0:0:0:
192,192,303516,1,0,0:0:0:0:
64,192,303516,1,0,0:0:0:0:
320,192,303595,1,0,0:0:0:0:
448,192,303595,1,0,0:0:0:0:
192,192,303674,1,0,0:0:0:0:
64,192,303674,1,0,0:0:0:0:
320,192,303753,1,0,0:0:0:0:
448,192,303832,1,0,0:0:0:0:
192,192,303832,1,0,0:0:0:0:
64,192,303911,1,0,0:0:0:0:
320,192,303911,1,0,0:0:0:0:
192,192,303990,1,0,0:0:0:0:
448,192,303990,1,0,0:0:0:0:
320,192,304069,1,0,0:0:0:0:
192,192,304148,1,0,0:0:0:0:
64,192,304148,1,0,0:0:0:0:
320,192,304227,1,0,0:0:0:0:
448,192,304227,1,0,0:0:0:0:
192,192,304306,1,0,0:0:0:0:
64,192,304306,1,0,0:0:0:0:
320,192,304385,1,0,0:0:0:0:
448,192,304385,1,0,0:0:0:0:
192,192,304464,1,0,0:0:0:0:
64,192,304464,1,0,0:0:0:0:
320,192,304543,1,0,0:0:0:0:
448,192,304621,1,0,0:0:0:0:
64,192,304621,1,0,0:0:0:0:
192,192,304700,1,0,0:0:0:0:
320,192,304779,1,0,0:0:0:0:
448,192,304779,1,0,0:0:0:0:
320,192,304858,1,0,0:0:0:0:
64,192,304937,1,0,0:0:0:0:
192,192,304937,1,0,0:0:0:0:
64,192,305016,1,0,0:0:0:0:
192,192,305095,1,0,0:0:0:0:
448,192,305095,1,0,0:0:0:0:
448,192,305174,1,0,0:0:0:0:
320,192,305253,1,0,0:0:0:0:
192,192,305253,1,0,0:0:0:0:
192,192,305332,1,0,0:0:0:0:
64,192,305411,1,0,0:0:0:0:
320,192,305411,1,0,0:0:0:0:
448,192,305490,1,0,0:0:0:0:
64,192,305569,1,0,0:0:0:0:
192,192,305569,1,0,0:0:0:0:
320,192,305648,1,0,0:0:0:0:
448,192,305727,1,0,0:0:0:0:
192,192,305727,1,0,0:0:0:0:
320,192,305806,1,0,0:0:0:0:
192,192,305885,1,0,0:0:0:0:
64,192,305885,1,0,0:0:0:0:
320,192,305964,1,0,0:0:0:0:
448,192,306043,1,0,0:0:0:0:
64,192,306043,1,0,0:0:0:0:
448,192,306121,1,0,0:0:0:0:
320,192,306200,1,0,0:0:0:0:
192,192,306200,1,0,0:0:0:0:
192,192,306279,1,0,0:0:0:0:
64,192,306358,1,0,0:0:0:0:
448,192,306358,1,0,0:0:0:0:
64,192,306437,1,0,0:0:0:0:
192,192,306516,1,0,0:0:0:0:
320,192,306516,1,0,0:0:0:0:
320,192,306595,1,0,0:0:0:0:
448,192,306674,1,0,0:0:0:0:
64,192,306674,1,0,0:0:0:0:
448,192,306753,1,0,0:0:0:0:
320,192,306832,1,0,0:0:0:0:
64,192,306832,1,0,0:0:0:0:
64,192,306911,1,0,0:0:0:0:
192,192,306990,1,0,0:0:0:0:
320,192,306990,1,0,0:0:0:0:
320,192,307069,1,0,0:0:0:0:
448,192,307148,1,0,0:0:0:0:
64,192,307148,1,0,0:0:0:0:
64,192,307227,1,0,0:0:0:0:
192,192,307306,1,0,0:0:0:0:
320,192,307306,1,0,0:0:0:0:
448,192,307385,1,0,0:0:0:0:
64,192,307385,1,0,0:0:0:0:
192,192,307464,1,0,0:0:0:0:
320,192,307464,1,0,0:0:0:0:
448,192,307543,1,0,0:0:0:0:
192,192,307621,1,0,0:0:0:0:
64,192,307621,1,0,0:0:0:0:
320,192,307700,1,0,0:0:0:0:
448,192,307700,1,0,0:0:0:0:
192,192,307779,1,0,0:0:0:0:
64,192,307779,1,0,0:0:0:0:
320,192,307858,1,0,0:0:0:0:
448,192,307858,1,0,0:0:0:0:
192,192,307937,1,0,0:0:0:0:
64,192,307937,1,0,0:0:0:0:
320,192,308016,1,0,0:0:0:0:
448,192,308016,1,0,0:0:0:0:
192,192,308095,1,0,0:0:0:0:
64,192,308095,1,0,0:0:0:0:
320,192,308174,1,0,0:0:0:0:
448,192,308174,1,0,0:0:0:0:
192,192,308253,1,0,0:0:0:0:
64,192,308253,1,0,0:0:0:0:
320,192,308332,1,0,0:0:0:0:
448,192,308411,1,0,0:0:0:0:
64,192,308411,1,0,0:0:0:0:
192,192,308490,1,0,0:0:0:0:
320,192,308569,1,0,0:0:0:0:
448,192,308569,1,0,0:0:0:0:
192,192,308648,1,0,0:0:0:0:
64,192,308727,1,0,0:0:0:0:
448,192,308727,1,0,0:0:0:0:
320,192,308806,1,0,0:0:0:0:
192,192,308885,1,0,0:0:0:0:
64,192,308885,1,0,0:0:0:0:
320,192,308964,1,0,0:0:0:0:
448,192,309043,1,0,0:0:0:0:
192,192,309043,1,0,0:0:0:0:
64,192,309121,1,0,0:0:0:0:
320,192,309200,1,0,0:0:0:0:
448,192,309200,1,0,0:0:0:0:
192,192,309279,1,0,0:0:0:0:
64,192,309358,1,0,0:0:0:0:
448,192,309358,1,0,0:0:0:0:
320,192,309437,1,0,0:0:0:0:
192,192,309516,1,0,0:0:0:0:
64,192,309516,1,0,0:0:0:0:
320,192,309595,1,0,0:0:0:0:
448,192,309674,1,0,0:0:0:0:
192,192,309753,1,0,0:0:0:0:
64,192,309832,1,0,0:0:0:0:
448,192,309832,1,0,0:0:0:0:
320,192,309911,1,0,0:0:0:0:
192,192,309990,1,0,0:0:0:0:
448,192,310069,1,0,0:0:0:0:
64,192,310148,1,0,0:0:0:0:
192,192,310148,1,0,0:0:0:0:
320,192,310227,1,0,0:0:0:0:
448,192,310306,1,0,0:0:0:0:
64,192,310385,1,0,0:0:0:0:
192,192,310464,1,0,0:0:0:0:
320,192,310464,1,0,0:0:0:0:
448,192,310543,1,0,0:0:0:0:
320,192,310621,1,0,0:0:0:0:
192,192,310700,1,0,0:0:0:0:
64,192,310779,1,0,0:0:0:0:
448,192,310779,1,0,0:0:0:0:
320,192,310858,1,0,0:0:0:0:
448,192,310937,1,0,0:0:0:0:
320,192,311016,1,0,0:0:0:0:
192,192,311095,1,0,0:0:0:0:
64,192,311174,1,0,0:0:0:0:
192,192,311253,1,0,0:0:0:0:
64,192,311332,1,0,0:0:0:0:
192,192,311411,1,0,0:0:0:0:
320,192,311490,1,0,0:0:0:0:
448,192,311569,1,0,0:0:0:0:
320,192,311648,1,0,0:0:0:0:
192,192,311727,1,0,0:0:0:0:
320,192,311806,1,0,0:0:0:0:
192,192,311885,1,0,0:0:0:0:
320,192,311964,1,0,0:0:0:0:
192,192,312043,1,0,0:0:0:0:
320,192,312121,1,0,0:0:0:0:
192,192,312200,1,0,0:0:0:0:
320,192,312279,1,0,0:0:0:0:
192,192,312358,1,0,0:0:0:0:
320,192,312437,1,0,0:0:0:0:
192,192,312516,1,0,0:0:0:0:
320,192,312595,1,0,0:0:0:0:
192,192,312674,1,0,0:0:0:0:
320,192,312753,1,0,0:0:0:0:
192,192,312832,1,0,0:0:0:0:
320,192,312911,1,0,0:0:0:0:
192,192,312990,1,0,0:0:0:0:
320,192,313069,1,0,0:0:0:0:
192,192,313148,1,0,0:0:0:0:
320,192,313227,1,0,0:0:0:0:
192,192,313306,1,0,0:0:0:0:
448,192,313306,1,0,0:0:0:0:
192,192,313464,1,0,0:0:0:0:
320,192,313464,1,0,0:0:0:0:
448,192,313621,1,0,0:0:0:0:
320,192,313621,1,0,0:0:0:0:
64,192,313621,1,0,0:0:0:0:
64,192,313779,1,0,0:0:0:0:
192,192,313779,1,0,0:0:0:0:
320,192,313937,1,0,0:0:0:0:
448,192,313937,1,0,0:0:0:0:
192,192,314095,1,0,0:0:0:0:
320,192,314095,1,0,0:0:0:0:
64,192,314253,1,0,0:0:0:0:
192,192,314253,1,0,0:0:0:0:
448,192,314253,1,0,0:0:0:0:
448,192,314411,1,0,0:0:0:0:
320,192,314411,1,0,0:0:0:0:
64,192,314569,1,0,0:0:0:0:
192,192,314569,1,0,0:0:0:0:
192,192,314727,1,0,0:0:0:0:
320,192,314727,1,0,0:0:0:0:
448,192,314885,1,0,0:0:0:0:
320,192,314885,1,0,0:0:0:0:
64,192,314885,1,0,0:0:0:0:
192,192,315043,1,0,0:0:0:0:
320,192,315043,1,0,0:0:0:0:
64,192,315200,1,0,0:0:0:0:
192,192,315200,1,0,0:0:0:0:
320,192,315358,1,0,0:0:0:0:
448,192,315358,1,0,0:0:0:0:
64,192,315516,1,0,0:0:0:0:
192,192,315516,1,0,0:0:0:0:
448,192,315516,1,0,0:0:0:0:
320,192,315674,1,0,0:0:0:0:
192,192,315674,1,0,0:0:0:0:
448,192,315832,1,0,0:0:0:0:
320,192,315832,1,0,0:0:0:0:
192,192,315990,1,0,0:0:0:0:
64,192,315990,1,0,0:0:0:0:
64,192,316148,1,0,0:0:0:0:
320,192,316148,1,0,0:0:0:0:
448,192,316148,1,0,0:0:0:0:
192,192,316306,1,0,0:0:0:0:
320,192,316306,1,0,0:0:0:0:
64,192,316464,1,0,0:0:0:0:
192,192,316464,1,0,0:0:0:0:
448,192,316621,1,0,0:0:0:0:
320,192,316621,1,0,0:0:0:0:
64,192,316779,1,0,0:0:0:0:
192,192,316779,1,0,0:0:0:0:
448,192,316779,1,0,0:0:0:0:
192,192,316937,1,0,0:0:0:0:
320,192,316937,1,0,0:0:0:0:
448,192,317095,1,0,0:0:0:0:
320,192,317095,1,0,0:0:0:0:
64,192,317253,1,0,0:0:0:0:
192,192,317253,1,0,0:0:0:0:
448,192,317411,1,0,0:0:0:0:
320,192,317411,1,0,0:0:0:0:
64,192,317411,1,0,0:0:0:0:
192,192,317569,1,0,0:0:0:0:
320,192,317569,1,0,0:0:0:0:
192,192,317727,1,0,0:0:0:0:
64,192,317727,1,0,0:0:0:0:
320,192,317885,1,0,0:0:0:0:
448,192,317885,1,0,0:0:0:0:
64,192,318043,1,0,0:0:0:0:
448,192,318043,1,0,0:0:0:0:
192,192,318043,1,0,0:0:0:0:
320,192,318200,1,0,0:0:0:0:
192,192,318200,1,0,0:0:0:0:
448,192,318358,1,0,0:0:0:0:
320,192,318358,1,0,0:0:0:0:
64,192,318516,1,0,0:0:0:0:
192,192,318516,1,0,0:0:0:0:
448,192,318674,1,0,0:0:0:0:
64,192,318674,1,0,0:0:0:0:
448,192,318832,1,0,0:0:0:0:
320,192,318832,1,0,0:0:0:0:
64,192,318990,1,0,0:0:0:0:
192,192,318990,1,0,0:0:0:0:
320,192,319148,1,0,0:0:0:0:
192,192,319148,1,0,0:0:0:0:
64,192,319306,1,0,0:0:0:0:
448,192,319306,1,0,0:0:0:0:
64,192,319464,1,0,0:0:0:0:
192,192,319464,1,0,0:0:0:0:
320,192,319621,1,0,0:0:0:0:
192,192,319621,1,0,0:0:0:0:
448,192,319779,1,0,0:0:0:0:
320,192,319779,1,0,0:0:0:0:
64,192,319937,1,0,0:0:0:0:
448,192,319937,1,0,0:0:0:0:
320,192,320095,1,0,0:0:0:0:
192,192,320095,1,0,0:0:0:0:
448,192,320253,1,0,0:0:0:0:
320,192,320253,1,0,0:0:0:0:
192,192,320411,1,0,0:0:0:0:
64,192,320569,1,0,0:0:0:0:
320,192,320569,1,0,0:0:0:0:
448,192,320727,1,0,0:0:0:0:
192,192,320885,1,0,0:0:0:0:
320,192,321043,1,0,0:0:0:0:
64,192,321200,1,0,0:0:0:0:
448,192,321200,1,0,0:0:0:0:
320,192,321358,1,0,0:0:0:0:
192,192,321516,1,0,0:0:0:0:
448,192,321674,1,0,0:0:0:0:
320,192,321832,1,0,0:0:0:0:
64,192,321990,1,0,0:0:0:0:
192,192,322148,1,0,0:0:0:0:
448,192,322306,1,0,0:0:0:0:
320,192,322464,1,0,0:0:0:0:
64,192,322621,1,0,0:0:0:0:
192,192,322779,1,0,0:0:0:0:
448,192,323095,1,0,0:0:0:0:
320,192,323411,128,0,325937:0:0:0:0:
192,192,325937,128,0,328464:0:0:0:0:
64,192,328464,128,0,330990:0:0:0:0:
448,192,330990,128,0,333516:0:0:0:0:
