osu file format v14

[General]
AudioFilename: audio.mp3
AudioLeadIn: 0
PreviewTime: 271763
Countdown: 0
SampleSet: Normal
StackLeniency: 0.2
Mode: 1
LetterboxInBreaks: 0
WidescreenStoryboard: 1

[Editor]
DistanceSpacing: 1
BeatDivisor: 4
GridSize: 32
TimelineZoom: 3.14

[Metadata]
Title:Euphoria
TitleUnicode:Euphoria
Artist:Ata
ArtistUnicode:Ata
Creator:Genjuro
Version:Ecstasy
Source:
Tags:electronic instrumental psytrance psychedelic trance hitech hi-tech darkpsy infinite potential white records
BeatmapID:2565627
BeatmapSetID:1234186

[Difficulty]
HPDrainRate:7.7
CircleSize:2
OverallDifficulty:7.7
ApproachRate:10
SliderMultiplier:1.4
SliderTickRate:1

[Events]
//Background and Video events
0,0,"bg.jpg",0,10
//Break Periods
//Storyboard Layer 0 (Background)
//Storyboard Layer 1 (Fail)
//Storyboard Layer 2 (Pass)
//Storyboard Layer 3 (Foreground)
//Storyboard Layer 4 (Overlay)
//Storyboard Sound Samples

[TimingPoints]
17922,312.5,4,1,0,29,1,0
18507,-114.285714285714,4,1,0,32,0,0
18820,-111.844687992466,4,1,0,35,0,0
19132,-109.505756717631,4,1,0,38,0,0
19445,-107.262531481553,4,1,0,41,0,0
19757,-105.109476775536,4,1,0,44,0,0
20070,-103.041156698809,4,1,0,47,0,0
20382,-103.041156698809,4,1,0,50,0,0
20422,314.136125654451,4,1,0,50,1,0
20422,-100.526349650981,4,1,0,50,0,0
22935,315.789473684211,4,1,0,50,1,0
25461,314.136125654451,4,1,0,50,1,0
25461,-100.526349650981,4,1,0,50,0,0
27974,315.789473684211,4,1,0,50,1,0
30500,315.789473684211,4,1,0,50,1,0
33302,-101.818167008267,4,1,0,49,0,0
33618,-103.703672976689,4,1,0,48,0,0
33934,-105.660329512304,4,1,0,47,0,0
34250,-107.692357396473,4,1,0,46,0,0
34565,-109.803956016927,4,1,0,45,0,0
34881,-112.000017920003,4,1,0,44,0,0
35197,-114.285714285714,4,1,0,43,0,0
35513,-116.666647222225,4,1,0,42,0,0
35828,-119.148895608887,4,1,0,41,0,0
36144,-121.739066918748,4,1,0,40,0,0
36460,-124.44451081485,4,1,0,39,0,0
36776,-127.272773553736,4,1,0,38,0,0
37092,-130.232582368853,4,1,0,37,0,0
37407,-133.333333333333,4,1,0,36,0,0
37723,-136.585339202861,4,1,0,35,0,0
38039,-139.999944000022,4,1,0,34,0,0
38355,-143.589655226879,4,1,0,33,0,0
38671,-147.368514127483,4,1,0,32,0,0
38986,-151.351416800613,4,1,0,31,0,0
39302,-155.555590123464,4,1,0,30,0,0
39618,-160,4,1,0,29,0,0
39934,-164.705843598625,4,1,0,28,0,0
40250,-169.696887419691,4,1,0,27,0,0
40565,-174.999868750098,4,1,0,26,0,0
40881,-180.645301144749,4,1,0,25,0,0
41197,-186.666766222275,4,1,0,24,0,0
41513,-193.103501545794,4,1,0,23,0,0
41828,-199.840127897682,4,1,0,36,0,0
42144,-184.615271005987,4,1,0,38,0,0
42460,-171.428669387811,4,1,0,40,0,0
42776,-160,4,1,0,42,0,0
43092,-149.999925000038,4,1,0,44,0,0
43407,-141.176537024253,4,1,0,46,0,0
43723,-133.333333333333,4,1,0,48,0,0
44039,-126.315736288111,4,1,0,50,0,0
44355,-120.000048000019,4,1,0,52,0,0
44671,-114.285714285714,4,1,0,54,0,0
44986,-109.090869421502,4,1,0,56,0,0
45302,-104.347862381865,4,1,0,58,0,0
45618,-100,4,1,0,60,0,0
46881,-100,4,1,0,50,0,0
48144,-100,4,1,0,40,0,0
50671,-100,4,1,0,50,0,0
52092,-102.127624807617,4,1,0,49,0,0
52250,-104.347862381865,4,1,0,48,0,0
52407,-106.666666666667,4,1,0,47,0,0
52565,-109.090869421502,4,1,0,46,0,0
52723,-111.627948512725,4,1,0,45,0,0
52881,-114.285714285714,4,1,0,44,0,0
53039,-117.073125044634,4,1,0,43,0,0
53197,-120.000048000019,4,1,0,42,0,0
53355,-123.076923076923,4,1,0,41,0,0
53513,-126.315736288111,4,1,0,40,0,0
53671,-129.729785829097,4,1,0,39,0,0
53828,-133.333333333333,4,1,0,38,0,0
53986,-137.142794449008,4,1,0,37,0,0
54144,-141.176537024253,4,1,0,36,0,0
54302,-145.454545454545,4,1,0,35,0,0
54460,-149.999925000038,4,1,0,50,0,0
54618,-154.838789594214,4,1,0,50,0,0
54776,-160,4,1,0,50,0,0
54934,-165.517150059503,4,1,0,50,0,0
55092,-171.428669387811,4,1,0,60,0,0
55250,-177.777777777778,4,1,0,60,0,0
55407,-184.615271005987,4,1,0,60,0,0
55565,-192.000122880079,4,1,0,60,0,0
55723,-133.333333333333,4,1,0,65,0,0
55842,-128.026547584907,4,1,0,65,0,0
55921,-123.126021945982,4,1,0,65,0,0
56000,-118.586824529447,4,1,0,65,0,0
56078,-114.370413746409,4,1,0,65,0,0
56157,-110.443541261707,4,1,0,65,0,0
56236,-106.777373447457,4,1,0,65,0,0
56315,-103.346675389126,4,1,0,65,0,0
56355,-100.129667919956,4,1,0,70,0,0
56473,-97.1068942981745,4,1,0,70,0,0
56552,-94.2612790690002,4,1,0,70,0,0
56631,-91.5776913080866,4,1,0,70,0,0
56710,-89.0426754830788,4,1,0,70,0,0
56789,-86.6442258121813,4,1,0,70,0,0
56868,-84.3715961334185,4,1,0,70,0,0
56947,-82.2151389312525,4,1,0,70,0,0
56986,-66.6666666666667,4,1,0,80,0,0
58289,-133.333333333333,4,1,0,80,0,0
58368,-133.333333333333,4,1,0,50,0,0
60776,-100,4,1,0,75,0,0
90460,-100,4,1,0,35,0,0
90657,-102.564102564103,4,1,0,35,0,0
90815,-105.263157894737,4,1,0,35,0,0
90868,-104.366376075887,4,1,0,35,0,0
90921,-103.484638222879,4,1,0,35,0,0
90973,-102.617779556486,4,1,0,35,0,0
91026,-101.765323059106,4,1,0,35,0,0
91078,-100.926912766851,4,1,0,35,0,0
91105,-100.102104146229,4,1,0,75,0,0
96815,-100,4,1,0,75,0,0
96973,-101.252595863426,4,1,0,75,0,0
97052,-101.890787340681,4,1,0,75,0,0
97131,-102.536969704427,4,1,0,75,0,0
97289,-103.854346356322,4,1,0,75,0,0
97407,-105.263157894737,4,1,0,50,0,0
97486,-103.896103896104,4,1,0,55,0,0
97565,-102.564102564103,4,1,0,60,0,0
97644,-101.26582278481,4,1,0,65,0,0
97723,-100,4,1,0,70,0,0
97881,-100,4,1,0,75,0,0
98039,-95.2380952380952,4,1,0,70,0,0
98118,-96.1461729496588,4,1,0,65,0,0
98197,-97.0718282993501,4,1,0,60,0,0
98355,-98.9774638212625,4,1,0,50,0,0
98552,-100.959519271153,4,1,0,50,0,0
98710,-103.02257945874,4,1,0,50,0,0
98789,-104.086000016654,4,1,0,50,0,0
98828,-105.263157894737,4,1,0,75,0,0
99026,-101.694949727102,4,1,0,75,0,0
99184,-98.3606234883202,4,1,0,75,0,0
99342,-95.2380952380952,4,1,0,75,0,0
99618,-105.263157894737,4,1,0,60,0,0
99736,-103.923636911597,4,1,0,60,0,0
99934,-66.6666666666667,4,1,0,35,0,0
101197,-100,4,1,0,85,0,0
106289,-90.9090909090909,4,1,0,85,0,0
106368,-91.9540229885058,4,1,0,85,0,0
106447,-93.0232558139535,4,1,0,85,0,0
106526,-94.1176470588235,4,1,0,85,0,0
106605,-95.2380952380952,4,1,0,85,0,0
106684,-96.3855421686747,4,1,0,85,0,0
106763,-97.5609756097561,4,1,0,85,0,0
106842,-98.7654320987654,4,1,0,85,0,0
106921,-100,4,1,0,85,0,0
107631,-98.1964262392634,4,1,0,85,0,0
107710,-96.4566644320873,4,1,0,85,0,0
107868,-93.0232558139535,4,1,0,85,0,0
107947,-94.6402393262372,4,1,0,85,0,0
108026,-96.3145247118992,4,1,0,85,0,0
108105,-98.0490205883333,4,1,0,85,0,0
108184,-99.8471340377882,4,1,0,85,0,0
116552,-102.123870127032,4,1,0,85,0,0
116631,-103.220052766091,4,1,0,85,0,0
116710,-104.339914399534,4,1,0,85,0,0
116789,-105.484453173869,4,1,0,85,0,0
116868,-106.654380082081,4,1,0,85,0,0
116986,-109.073734935554,4,1,0,80,0,0
117184,-111.605399022783,4,1,0,80,0,0
117263,-112.915883312726,4,1,0,80,0,0
117342,-114.257378455857,4,1,0,80,0,0
117500,-117.038595817743,4,1,0,80,0,0
117618,-119.958446394169,4,1,0,75,0,0
117815,-123.027711992126,4,1,0,75,0,0
117973,-126.258162590211,4,1,0,75,0,0
118131,-129.662837723069,4,1,0,75,0,0
118250,-133.25639997175,4,1,0,70,0,0
118605,-141.075759093391,4,1,0,70,0,0
118881,-149.870212396065,4,1,0,65,0,0
119513,-171.216751847001,4,1,0,60,0,0
120144,-200,4,1,0,85,0,0
120460,-177.777777777778,4,1,0,75,0,0
120776,-160,4,1,0,65,0,0
121092,-145.454545454545,4,1,0,55,0,0
121407,-100,4,1,0,85,0,0
126500,-90.9090909090909,4,1,0,85,0,0
126578,-91.9540229885058,4,1,0,85,0,0
126657,-93.0232558139535,4,1,0,85,0,0
126736,-94.1176470588235,4,1,0,85,0,0
126815,-95.2380952380952,4,1,0,85,0,0
126894,-96.3855421686747,4,1,0,85,0,0
126973,-97.5609756097561,4,1,0,85,0,0
127052,-98.7654320987654,4,1,0,85,0,0
127131,-100,4,1,0,85,0,0
127842,-98.1964262392634,4,1,0,85,0,0
127921,-96.4566644320873,4,1,0,85,0,0
128078,-93.0232558139535,4,1,0,85,0,0
128157,-94.6402393262372,4,1,0,85,0,0
128236,-96.3145247118992,4,1,0,85,0,0
128315,-98.0490205883333,4,1,0,85,0,0
128394,-99.8471340377882,4,1,0,85,0,0
136763,-102.127624807617,4,1,0,85,0,0
136842,-103.225806451613,4,1,0,85,0,0
136921,-104.347862381865,4,1,0,85,0,0
137000,-105.49446839755,4,1,0,85,0,0
137078,-106.666666666667,4,1,0,85,0,0
137197,-109.090869421502,4,1,0,80,0,0
137394,-111.627948512725,4,1,0,80,0,0
137473,-112.941133951573,4,1,0,80,0,0
137552,-114.285714285714,4,1,0,80,0,0
137710,-117.073125044634,4,1,0,80,0,0
137828,-120.000048000019,4,1,0,75,0,0
138026,-123.076923076923,4,1,0,75,0,0
138184,-126.315736288111,4,1,0,75,0,0
138342,-129.729785829097,4,1,0,75,0,0
138460,-133.333333333333,4,1,0,70,0,0
138815,-141.176537024253,4,1,0,70,0,0
139092,-149.999925000038,4,1,0,65,0,0
139723,-171.428669387811,4,1,0,60,0,0
140355,-200,4,1,0,85,0,0
140671,-160,4,1,0,75,0,0
140986,-133.333333333333,4,1,0,85,0,0
141302,-114.285714285714,4,1,0,65,0,0
141421,-110.344827586207,4,1,0,65,0,0
141500,-106.666666666667,4,1,0,65,0,0
141618,-100,4,1,0,85,0,0
146868,-101.05266561774,4,1,0,85,0,0
146947,-101.587301587302,4,1,0,85,0,0
147026,-102.127624807617,4,1,0,85,0,0
147105,-102.673831931151,4,1,0,85,0,0
147184,-103.225806451613,4,1,0,85,0,0
147302,-104.347862381865,4,1,0,80,0,0
147500,-105.49446839755,4,1,0,80,0,0
147578,-106.077385574324,4,1,0,80,0,0
147657,-106.666666666667,4,1,0,80,0,0
147815,-107.865207322322,4,1,0,80,0,0
147934,-109.090869421502,4,1,0,85,0,0
148131,-110.344827586207,4,1,0,85,0,0
148289,-111.627948512725,4,1,0,85,0,0
148368,-112.280701754386,4,1,0,85,0,0
148447,-112.941133951573,4,1,0,85,0,0
148526,-113.609510479341,4,1,0,85,0,0
148605,-114.285714285714,4,1,0,85,0,0
148763,-115.662695195256,4,1,0,85,0,0
148842,-116.363636363636,4,1,0,85,0,0
148921,-117.073125044634,4,1,0,85,0,0
149000,-117.791457292351,4,1,0,85,0,0
149078,-118.518518518519,4,1,0,85,0,0
149236,-120.000048000019,4,1,0,85,0,0
149315,-120.754716981132,4,1,0,85,0,0
149552,-123.076923076923,4,1,0,85,0,0
149631,-123.870916595234,4,1,0,85,0,0
149868,-126.315736288111,4,1,0,85,0,0
149947,-127.152371773191,4,1,0,85,0,0
150026,-128,4,1,0,85,0,0
150184,-129.729785829097,4,1,0,85,0,0
150342,-131.506791668256,4,1,0,85,0,0
150500,-133.333333333333,4,1,0,85,0,0
150921,-128.571391836745,4,1,0,85,0,0
151026,-124.137862544628,4,1,0,85,0,0
151131,-120.000048000019,4,1,0,85,0,0
151236,-116.129047242458,4,1,0,85,0,0
151342,-112.499985937502,4,1,0,85,0,0
151447,-109.090869421502,4,1,0,85,0,0
151526,-106.666666666667,4,1,0,85,0,0
151605,-104.347862381865,4,1,0,85,0,0
151684,-102.127624807617,4,1,0,85,0,0
151763,-100,4,1,0,85,0,0
156973,-101.050827555752,4,1,0,85,0,0
157052,-101.584515269168,4,1,0,85,0,0
157131,-102.123870127032,4,1,0,85,0,0
157210,-102.669088288229,4,1,0,85,0,0
157289,-103.220052766091,4,1,0,85,0,0
157447,-104.339914399534,4,1,0,85,0,0
157605,-105.484453173869,4,1,0,85,0,0
157684,-106.066134356094,4,1,0,85,0,0
157763,-106.654380082081,4,1,0,85,0,0
157921,-107.850433019489,4,1,0,85,0,0
158039,-109.073734935554,4,1,0,80,0,0
158236,-110.325106022427,4,1,0,80,0,0
158315,-110.961559586912,4,1,0,80,0,0
158394,-111.605399022783,4,1,0,80,0,0
158552,-112.915883312726,4,1,0,80,0,0
158710,-114.257378455857,4,1,0,80,0,0
158868,-115.631265769214,4,1,0,80,0,0
159026,-117.038595817743,4,1,0,80,0,0
159105,-117.75511645981,4,1,0,80,0,0
159184,-118.480464348636,4,1,0,80,0,0
159302,-119.958446394169,4,1,0,70,0,0
159500,-121.47362078851,4,1,0,70,0,0
159578,-122.245802079157,4,1,0,70,0,0
159657,-123.027711992126,4,1,0,70,0,0
159815,-124.62208353169,4,1,0,70,0,0
159894,-125.434788335066,4,1,0,70,0,0
159973,-126.258162590211,4,1,0,70,0,0
160131,-127.937934749095,4,1,0,70,0,0
160210,-128.794611233466,4,1,0,70,0,0
160289,-129.662837723069,4,1,0,70,0,0
160447,-131.435060565276,4,1,0,70,0,0
160605,-133.333333333333,4,1,0,70,0,0
160763,-128,4,1,0,70,0,0
160842,-125.490196078431,4,1,0,70,0,0
160921,-123.076923076923,4,1,0,70,0,0
161000,-120.754716981132,4,1,0,70,0,0
161078,-118.518518518519,4,1,0,70,0,0
161197,-114.285714285714,4,1,0,75,0,0
161394,-110.344827586207,4,1,0,75,0,0
161473,-108.474576271186,4,1,0,75,0,0
161552,-106.666666666667,4,1,0,75,0,0
161710,-103.225806451613,4,1,0,75,0,0
161828,-100,4,1,0,85,0,0
163210,-98.159509202454,4,1,0,85,0,0
163289,-96.3855421686747,4,1,0,85,0,0
163368,-94.6745562130178,4,1,0,85,0,0
163447,-93.0232558139535,4,1,0,85,0,0
163526,-91.4285714285714,4,1,0,85,0,0
163605,-89.8876404494382,4,1,0,85,0,0
163763,-86.9565217391304,4,1,0,85,0,0
163842,-88.3827112810809,4,1,0,85,0,0
163921,-89.8563825437803,4,1,0,85,0,0
164000,-91.3801138596219,4,1,0,85,0,0
164078,-92.9564136671956,4,1,0,85,0,0
164157,-94.5880501240995,4,1,0,85,0,0
164236,-96.2778965205168,4,1,0,85,0,0
164394,-99.8456386426584,4,1,0,85,0,0
169605,-96.969696969697,4,1,0,85,0,0
169763,-94.1176470588235,4,1,0,85,0,0
169921,-91.4285714285714,4,1,0,85,0,0
170078,-88.8888888888889,4,1,0,85,0,0
170236,-86.4864864864865,4,1,0,85,0,0
170394,-84.2105263157895,4,1,0,85,0,0
170552,-82.0512820512821,4,1,0,85,0,0
170710,-80,4,1,0,85,0,0
170789,-78.0487804878049,4,1,0,85,0,0
170868,-76.1904761904762,4,1,0,85,0,0
170947,-74.4186046511628,4,1,0,85,0,0
171026,-72.7272727272727,4,1,0,85,0,0
171105,-71.1111111111111,4,1,0,85,0,0
171184,-69.5652173913043,4,1,0,85,0,0
171263,-68.0851063829787,4,1,0,85,0,0
171342,-66.6666666666667,4,1,0,85,0,0
171934,-100,4,1,0,75,0,0
180776,-90.9090909090909,4,1,0,85,0,0
181131,-83.3333333333333,4,1,0,85,0,0
181447,-76.9230769230769,4,1,0,85,0,0
181552,-75,4,1,0,85,0,0
181657,-73.1707317073171,4,1,0,85,0,0
181763,-71.4285714285714,4,1,0,85,0,0
181868,-69.7674418604651,4,1,0,85,0,0
181973,-68.1818181818182,4,1,0,85,0,0
182078,-66.6666666666667,4,1,0,85,0,0
212500,-66.9764550969752,4,1,0,85,0,0
212605,-67.2891813127177,4,1,0,85,0,0
212710,-67.60479588422,4,1,0,85,0,0
212815,-67.923431274393,4,1,0,85,0,0
212921,-68.245037903294,4,1,0,85,0,0
213026,-68.5697515512192,4,1,0,85,0,0
213131,-68.8975225139879,4,1,0,85,0,0
213236,-69.228442090062,4,1,0,85,0,0
213342,-69.5626042569531,4,1,0,85,0,0
213447,-69.8999591784238,4,1,0,85,0,0
213552,-70.2406514960907,4,1,0,85,0,0
213657,-70.5846313258829,4,1,0,85,0,0
213763,-70.9319967853619,4,1,0,85,0,0
213868,-71.282848918853,4,1,0,85,0,0
213973,-71.6371378384497,4,1,0,85,0,0
214078,-71.9950179447582,4,1,0,85,0,0
214184,-72.3564393975024,4,1,0,85,0,0
214289,-72.7215607792261,4,1,0,85,0,0
214394,-73.0903323417411,4,1,0,85,0,0
214500,-73.4628630534692,4,1,0,85,0,0
214605,-73.839265210704,4,1,0,85,0,0
214710,-74.2194892956941,4,1,0,85,0,0
214815,-74.603705118411,4,1,0,85,0,0
214921,-74.991863382823,4,1,0,85,0,0
215131,-75.7804821305834,4,1,0,85,0,0
215236,-76.1810152339176,4,1,0,85,0,0
215447,-76.9949783875096,4,1,0,85,0,0
215552,-77.4085476066438,4,1,0,85,0,0
215657,-77.8265231234274,4,1,0,85,0,0
215763,-78.2490369499777,4,1,0,85,0,0
215868,-78.6762253035329,4,1,0,85,0,0
216078,-79.5446862160991,4,1,0,85,0,0
216184,-79.9861144105383,4,1,0,85,0,0
216394,-80.8838992510151,4,1,0,85,0,0
216500,-81.3403589712722,4,1,0,85,0,0
216605,-81.80206681102,4,1,0,85,0,0
216710,-82.2689784249604,4,1,0,85,0,0
216815,-82.7413191944967,4,1,0,85,0,0
216921,-83.219045843708,4,1,0,85,0,0
217026,-83.7023911262073,4,1,0,85,0,0
217131,-84.1913129719449,4,1,0,85,0,0
217342,-85.186567100607,4,1,0,85,0,0
217447,-85.6930338418929,4,1,0,85,0,0
217657,-86.7243267807323,4,1,0,85,0,0
217763,-87.2493000424904,4,1,0,85,0,0
217868,-87.7807447669509,4,1,0,85,0,0
218078,-88.8632172927821,4,1,0,85,0,0
218289,-89.9727202712138,4,1,0,85,0,0
218394,-90.5378855782202,4,1,0,85,0,0
218500,-91.1101959598095,4,1,0,85,0,0
218710,-92.2768860242042,4,1,0,85,0,0
218815,-92.8715512149456,4,1,0,85,0,0
218921,-93.4738432144533,4,1,0,85,0,0
219026,-94.0840867116577,4,1,0,85,0,0
219131,-94.7022608270727,4,1,0,85,0,0
219342,-95.9633957223357,4,1,0,85,0,0
219447,-96.606596684848,4,1,0,85,0,0
219552,-97.2585726137366,4,1,0,85,0,0
219657,-97.9193125280906,4,1,0,85,0,0
219763,-98.5891887095661,4,1,0,85,0,0
219973,-100,4,1,0,85,0,0
220250,-103.225806451613,4,1,0,78,0,0
220565,-106.666666666667,4,1,0,71,0,0
220881,-110.344827586207,4,1,0,64,0,0
221197,-114.285714285714,4,1,0,57,0,0
221513,-118.518518518519,4,1,0,50,0,0
221828,-123.076923076923,4,1,0,43,0,0
222144,-128,4,1,0,36,0,0
222460,-133.333333333333,4,1,0,69,0,0
222539,-160,4,1,0,25,0,0
224986,-200,4,1,0,25,0,0
225302,-193.939393939394,4,1,0,29,0,0
225618,-188.235294117647,4,1,0,33,0,0
225934,-182.857142857143,4,1,0,37,0,0
226250,-177.777777777778,4,1,0,41,0,0
226565,-172.972972972973,4,1,0,45,0,0
226881,-168.421052631579,4,1,0,49,0,0
227197,-164.102564102564,4,1,0,53,0,0
227513,-160,4,1,0,57,0,0
227710,-158.024816217139,4,1,0,57,0,0
227789,-157.055153058099,4,1,0,57,0,0
227868,-156.09756097561,4,1,0,57,0,0
228026,-154.21674855576,4,1,0,57,0,0
228144,-152.380952380952,4,1,0,61,0,0
228342,-150.588348678286,4,1,0,61,0,0
228421,-149.707546308287,4,1,0,61,0,0
228500,-148.837209302326,4,1,0,61,0,0
228657,-147.126328550747,4,1,0,61,0,0
228776,-145.454545454545,4,1,0,65,0,0
228973,-143.820328140461,4,1,0,65,0,0
229052,-143.016708642071,4,1,0,65,0,0
229131,-142.222222222222,4,1,0,65,0,0
229289,-140.65924173416,4,1,0,65,0,0
229407,-139.130434782609,4,1,0,69,0,0
229605,-137.634503318368,4,1,0,69,0,0
229684,-136.898348869014,4,1,0,69,0,0
229763,-136.170212765957,4,1,0,69,0,0
229921,-134.736751335241,4,1,0,69,0,0
230039,-133.333333333333,4,1,0,50,0,0
235407,-139.130434782609,4,1,0,46,0,0
235723,-145.454545454545,4,1,0,42,0,0
236039,-152.380952380952,4,1,0,38,0,0
236355,-160,4,1,0,34,0,0
236671,-168.421052631579,4,1,0,30,0,0
236986,-177.777777777778,4,1,0,26,0,0
237302,-188.235294117647,4,1,0,22,0,0
237618,-200,4,1,0,30,0,0
237855,-193.418734151752,4,1,0,32,0,0
237934,-191.320185810164,4,1,0,34,0,0
238092,-187.2568002307,4,1,0,35,0,0
238250,-183.362090621212,4,1,0,37,0,0
238407,-179.626412986271,4,1,0,39,0,0
238486,-177.815079429996,4,1,0,41,0,0
238565,-176.039911768796,4,1,0,43,0,0
238723,-172.593826318833,4,1,0,44,0,0
238881,-169.28006879542,4,1,0,46,0,0
239118,-164.541341011929,4,1,0,48,0,0
239197,-163.01991125196,4,1,0,50,0,0
239355,-160.060438821699,4,1,0,52,0,0
239434,-158.620634958402,4,1,0,53,0,0
239513,-157.206503318629,4,1,0,55,0,0
239671,-154.452558352177,4,1,0,57,0,0
239828,-151.793439487545,4,1,0,59,0,0
239907,-150.497922376182,4,1,0,61,0,0
239986,-149.224331922666,4,1,0,62,0,0
240144,-146.740741392922,4,1,0,64,0,0
240302,-144.338259598133,4,1,0,66,0,0
240460,-142.013380500711,4,1,0,68,0,0
240539,-140.878801966668,4,1,0,69,0,0
240618,-139.762208578325,4,1,0,71,0,0
240697,-138.663176052315,4,1,0,73,0,0
240776,-137.581293346706,4,1,0,75,0,0
240934,-135.467396384375,4,1,0,77,0,0
241092,-133.333333333333,4,1,0,78,0,0
241171,-131.506791668256,4,1,0,80,0,0
241250,-129.729785829097,4,1,0,82,0,0
241328,-128,4,1,0,84,0,0
241407,-126.315736288111,4,1,0,86,0,0
241486,-124.675376488468,4,1,0,87,0,0
241565,-123.076923076923,4,1,0,89,0,0
241644,-121.518938118911,4,1,0,91,0,0
241723,-120.000048000019,4,1,0,93,0,0
241802,-118.518518518519,4,1,0,95,0,0
241881,-117.073125044634,4,1,0,96,0,0
241960,-115.662695195256,4,1,0,98,0,0
242039,-114.285714285714,4,1,0,100,0,0
242236,-110.384048180429,4,1,0,100,0,0
242394,-106.739989923745,4,1,0,100,0,0
242473,-105.006720430108,4,1,0,100,0,0
242552,-103.328841973002,4,1,0,100,0,0
242631,-101.703844507026,4,1,0,100,0,0
242671,-100.129066366546,4,1,0,85,0,0
268131,-101.587301587302,4,1,0,85,0,0
268210,-102.400052428827,4,1,0,85,0,0
268289,-103.225806451613,4,1,0,85,0,0
268447,-104.918032786885,4,1,0,85,0,0
268565,-106.666666666667,4,1,0,80,0,0
268684,-107.562967361093,4,1,0,80,0,0
268763,-108.474576271186,4,1,0,80,0,0
268842,-109.401769245412,4,1,0,80,0,0
268921,-110.344827586207,4,1,0,80,0,0
269078,-112.280701754386,4,1,0,80,0,0
269197,-114.285714285714,4,1,0,75,0,0
269315,-115.315248827244,4,1,0,75,0,0
269394,-116.363636363636,4,1,0,75,0,0
269552,-118.518518518519,4,1,0,75,0,0
269710,-120.754716981132,4,1,0,75,0,0
269828,-123.076923076923,4,1,0,70,0,0
269947,-124.271767442785,4,1,0,70,0,0
270026,-125.490196078431,4,1,0,70,0,0
270184,-128,4,1,0,70,0,0
270263,-129.292845709676,4,1,0,70,0,0
270342,-130.612244897959,4,1,0,70,0,0
270460,-133.333333333333,4,1,0,65,0,0
270815,-139.130434782609,4,1,0,65,0,0
271131,-145.454545454545,4,1,0,65,0,0
271447,-152.380952380952,4,1,0,65,0,0
271723,-160,4,1,0,70,0,0
271842,-152.780451435678,4,1,0,70,0,0
271921,-146.184511166304,4,1,0,70,0,0
272000,-140.134332771395,4,1,0,70,0,0
272039,-134.565052110316,4,1,0,75,0,0
272157,-129.421692110971,4,1,0,75,0,0
272236,-124.656881932481,4,1,0,75,0,0
272315,-120.230457741399,4,1,0,75,0,0
272355,-116.107743341511,4,1,0,80,0,0
272473,-112.258265856761,4,1,0,80,0,0
272552,-108.655851063252,4,1,0,80,0,0
272631,-105.277564298272,4,1,0,80,0,0
272671,-102.102911566626,4,1,0,85,0,0
272868,-96.2953262100471,4,1,0,85,0,0
272947,-93.6325204470016,4,1,0,85,0,0
273026,-91.1129353945509,4,1,0,85,0,1
292605,-91.0157448136949,4,1,0,85,0,0
293236,-100,4,1,0,85,0,0
302078,-80,4,1,0,85,0,0
302157,-81.2182741116751,4,1,0,85,0,0
302236,-82.4742268041237,4,1,0,85,0,0
302315,-83.7696335078534,4,1,0,85,0,0
302355,-85.1063829787234,4,1,0,75,0,0
302473,-86.4864864864865,4,1,0,75,0,0
302552,-87.9120879120879,4,1,0,75,0,0
302631,-89.3854748603352,4,1,0,75,0,0
302671,-90.9090909090909,4,1,0,65,0,0
302789,-92.485549132948,4,1,0,65,0,0
302868,-94.1176470588235,4,1,0,65,0,0
302947,-95.8083832335329,4,1,0,65,0,0
302986,-97.5609756097561,4,1,0,55,0,0
303184,-101.26582278481,4,1,0,55,0,0
303342,-100,4,1,0,85,0,0
308552,-100.786334985557,4,1,0,85,0,0
308710,-101.585237633267,4,1,0,85,0,0
308789,-101.989405340573,4,1,0,85,0,0
308868,-102.396801943082,4,1,0,85,0,0
308986,-103.221437853985,4,1,0,80,0,0
309105,-103.638864159504,4,1,0,80,0,0
309184,-104.059572023792,4,1,0,80,0,0
309342,-104.911318462504,4,1,0,80,0,0
309500,-105.777123369975,4,1,0,80,0,0
309618,-106.65745146286,4,1,0,75,0,0
309736,-107.103076000343,4,1,0,75,0,0
309815,-107.552439880875,4,1,0,75,0,0
309894,-108.005590369358,4,1,0,75,0,0
309973,-108.462575530626,4,1,0,75,0,0
310131,-109.388365890957,4,1,0,75,0,0
310250,-110.329974888898,4,1,0,70,0,0
310368,-110.806884653357,4,1,0,70,0,0
310447,-111.287935274937,4,1,0,70,0,0
310526,-111.773305852003,4,1,0,70,0,0
310605,-112.26280273068,4,1,0,70,0,0
310763,-113.254772272967,4,1,0,70,0,0
310881,-114.264428455042,4,1,0,65,0,0
311000,-114.77616925353,4,1,0,65,0,0
311078,-115.292381479432,4,1,0,65,0,0
311236,-116.338862531673,4,1,0,65,0,0
311394,-117.404514908025,4,1,0,65,0,0
311473,-117.944834841848,4,1,0,65,0,0
311513,-118.490010699648,4,1,0,60,0,0
311710,-119.595623278571,4,1,0,60,0,0
311868,-120.722062802032,4,1,0,60,0,0
311947,-121.293424562161,4,1,0,60,0,0
312026,-121.870071878968,4,1,0,60,0,0
312105,-122.452228324425,4,1,0,60,0,0
312144,-123.039973226502,4,1,0,55,0,0
312342,-124.232707738828,4,1,0,55,0,0
312500,-125.448635683363,4,1,0,55,0,0
312657,-126.688600686399,4,1,0,55,0,0
312736,-127.317820930031,4,1,0,55,0,0
312776,-127.953486348643,4,1,0,50,0,0
312973,-129.243717462894,4,1,0,50,0,0
313131,-130.560233963939,4,1,0,50,0,0
313289,-131.904021357899,4,1,0,50,0,0
313407,-114.285714285714,4,1,0,75,0,0
321302,-116.363636363636,4,1,0,60,0,0
321934,-120.754716981132,4,1,0,45,0,0
322289,-122.699386503067,4,1,0,45,0,0
322565,-125.490196078431,4,1,0,30,0,0
323197,-130.612244897959,4,1,0,15,0,0
323513,-133.333333333333,4,1,0,20,0,0
324815,-142.857142857143,4,1,0,20,0,0
326039,-153.846153846153,4,1,0,15,0,0
327342,-166.666666666667,4,1,0,15,0,0
328565,-181.818181818181,4,1,0,10,0,0
329868,-200,4,1,0,10,0,0
331092,-222.222222222221,4,1,0,5,0,0
332394,-250,4,1,0,5,0,0

[HitObjects]
256,192,18547,5,0,0:0:0:0:
256,192,18859,1,0,0:0:0:0:
256,192,19172,1,0,0:0:0:0:
256,192,19484,1,0,0:0:0:0:
256,192,19797,1,0,0:0:0:0:
256,192,20109,1,0,0:0:0:0:
256,192,20422,1,0,0:0:0:0:
256,192,20736,1,0,0:0:0:0:
256,192,21050,1,0,0:0:0:0:
256,192,21364,1,0,0:0:0:0:
256,192,21678,1,0,0:0:0:0:
256,192,21992,1,0,0:0:0:0:
256,192,22306,1,0,0:0:0:0:
256,192,22620,1,0,0:0:0:0:
256,192,22935,1,0,0:0:0:0:
256,192,23250,1,0,0:0:0:0:
256,192,23566,1,0,0:0:0:0:
256,192,23882,1,0,0:0:0:0:
256,192,24198,1,0,0:0:0:0:
256,192,24513,1,0,0:0:0:0:
256,192,24829,1,0,0:0:0:0:
256,192,25145,1,0,0:0:0:0:
256,192,25461,1,0,0:0:0:0:
256,192,25775,1,0,0:0:0:0:
256,192,26089,1,0,0:0:0:0:
256,192,26403,1,0,0:0:0:0:
256,192,26717,1,0,0:0:0:0:
256,192,27031,1,0,0:0:0:0:
256,192,27345,1,0,0:0:0:0:
256,192,27659,1,0,0:0:0:0:
256,192,27974,1,0,0:0:0:0:
256,192,28289,1,0,0:0:0:0:
256,192,28605,1,0,0:0:0:0:
256,192,28921,1,0,0:0:0:0:
256,192,29237,1,0,0:0:0:0:
256,192,29552,1,0,0:0:0:0:
256,192,29868,1,0,0:0:0:0:
256,192,30184,1,0,0:0:0:0:
256,192,30500,1,0,0:0:0:0:
256,192,30815,1,0,0:0:0:0:
256,192,31131,1,0,0:0:0:0:
256,192,31447,1,0,0:0:0:0:
256,192,31763,1,0,0:0:0:0:
256,192,32078,1,0,0:0:0:0:
256,192,32394,1,0,0:0:0:0:
256,192,32710,1,0,0:0:0:0:
256,192,33026,1,0,0:0:0:0:
256,192,33342,1,0,0:0:0:0:
256,192,33657,1,0,0:0:0:0:
256,192,33973,1,0,0:0:0:0:
256,192,34289,1,0,0:0:0:0:
256,192,34605,1,0,0:0:0:0:
256,192,34921,1,0,0:0:0:0:
256,192,35236,1,0,0:0:0:0:
256,192,35552,1,0,0:0:0:0:
256,192,35868,1,0,0:0:0:0:
256,192,36184,1,0,0:0:0:0:
256,192,36500,1,0,0:0:0:0:
256,192,36815,1,0,0:0:0:0:
256,192,37131,1,0,0:0:0:0:
256,192,37447,1,0,0:0:0:0:
256,192,37763,1,0,0:0:0:0:
256,192,38078,1,0,0:0:0:0:
256,192,38394,1,0,0:0:0:0:
256,192,38710,1,0,0:0:0:0:
256,192,39026,1,0,0:0:0:0:
256,192,39342,1,0,0:0:0:0:
256,192,39657,1,0,0:0:0:0:
256,192,39973,1,0,0:0:0:0:
256,192,40289,1,0,0:0:0:0:
256,192,40605,1,0,0:0:0:0:
256,192,40921,1,0,0:0:0:0:
256,192,41236,1,0,0:0:0:0:
256,192,41552,1,0,0:0:0:0:
256,192,41868,1,8,0:0:0:0:
256,192,42184,1,8,0:0:0:0:
256,192,42500,1,8,0:0:0:0:
256,192,42815,1,8,0:0:0:0:
256,192,43131,1,8,0:0:0:0:
256,192,43447,1,8,0:0:0:0:
256,192,43763,1,8,0:0:0:0:
256,192,44078,1,8,0:0:0:0:
256,192,44394,1,8,0:0:0:0:
256,192,44710,1,8,0:0:0:0:
256,192,45026,1,8,0:0:0:0:
256,192,45342,1,8,0:0:0:0:
256,192,45657,1,8,0:0:0:0:
256,192,45815,1,8,0:0:0:0:
256,192,45973,1,8,0:0:0:0:
256,192,46131,1,8,0:0:0:0:
256,192,46289,1,8,0:0:0:0:
256,192,46447,1,8,0:0:0:0:
256,192,46605,1,8,0:0:0:0:
256,192,46763,1,8,0:0:0:0:
256,192,46921,1,8,0:0:0:0:
256,192,47078,1,8,0:0:0:0:
256,192,47236,1,8,0:0:0:0:
256,192,47394,1,8,0:0:0:0:
256,192,47552,1,8,0:0:0:0:
256,192,47710,1,8,0:0:0:0:
256,192,47868,1,8,0:0:0:0:
256,192,48026,1,8,0:0:0:0:
256,192,48184,1,8,0:0:0:0:
256,192,48342,1,8,0:0:0:0:
256,192,48500,1,8,0:0:0:0:
256,192,48657,1,8,0:0:0:0:
256,192,48815,1,8,0:0:0:0:
256,192,48973,1,8,0:0:0:0:
256,192,49131,1,8,0:0:0:0:
256,192,49289,1,8,0:0:0:0:
256,192,49447,1,8,0:0:0:0:
256,192,49605,1,8,0:0:0:0:
256,192,49763,1,8,0:0:0:0:
256,192,49921,1,8,0:0:0:0:
256,192,50078,1,8,0:0:0:0:
256,192,50236,1,8,0:0:0:0:
256,192,50394,1,8,0:0:0:0:
256,192,50552,1,8,0:0:0:0:
256,192,50710,1,8,0:0:0:0:
256,192,50868,1,8,0:0:0:0:
256,192,51026,1,8,0:0:0:0:
256,192,51184,1,8,0:0:0:0:
256,192,51342,1,8,0:0:0:0:
256,192,51500,1,8,0:0:0:0:
256,192,51657,1,8,0:0:0:0:
256,192,51815,1,8,0:0:0:0:
256,192,51973,1,8,0:0:0:0:
256,192,52131,1,8,0:0:0:0:
256,192,52289,1,8,0:0:0:0:
256,192,52447,1,8,0:0:0:0:
256,192,52605,1,8,0:0:0:0:
256,192,52763,1,8,0:0:0:0:
256,192,52921,1,8,0:0:0:0:
256,192,53078,1,8,0:0:0:0:
256,192,53236,1,8,0:0:0:0:
256,192,53394,1,8,0:0:0:0:
256,192,53552,1,8,0:0:0:0:
256,192,53710,1,8,0:0:0:0:
256,192,53868,1,8,0:0:0:0:
256,192,54026,1,8,0:0:0:0:
256,192,54184,1,8,0:0:0:0:
256,192,54342,1,8,0:0:0:0:
256,192,54500,1,0,0:0:0:0:
256,192,54657,1,0,0:0:0:0:
256,192,54815,1,0,0:0:0:0:
256,192,54973,1,0,0:0:0:0:
256,192,55131,1,0,0:0:0:0:
256,192,55289,1,0,0:0:0:0:
256,192,55447,1,0,0:0:0:0:
256,192,55605,1,0,0:0:0:0:
256,192,55763,1,0,0:0:0:0:
256,192,55842,1,0,0:0:0:0:
256,192,55921,1,0,0:0:0:0:
256,192,56000,1,0,0:0:0:0:
256,192,56078,1,0,0:0:0:0:
256,192,56157,1,0,0:0:0:0:
256,192,56236,1,0,0:0:0:0:
256,192,56315,1,0,0:0:0:0:
256,192,56394,1,8,0:0:0:0:
256,192,56473,1,8,0:0:0:0:
256,192,56552,1,0,0:0:0:0:
256,192,56631,1,0,0:0:0:0:
256,192,56710,1,8,0:0:0:0:
256,192,56789,1,8,0:0:0:0:
256,192,56868,1,8,0:0:0:0:
256,192,56947,1,8,0:0:0:0:
256,192,57026,8,0,58289,0:0:0:0:
256,192,59868,5,8,0:0:0:0:
256,192,60105,1,8,0:0:0:0:
256,192,60342,1,8,0:0:0:0:
256,192,60500,1,8,0:0:0:0:
256,192,60815,1,0,0:0:0:0:
256,192,60894,1,0,0:0:0:0:
256,192,60973,1,8,0:0:0:0:
256,192,61052,1,8,0:0:0:0:
256,192,61131,1,0,0:0:0:0:
256,192,61210,1,0,0:0:0:0:
256,192,61289,1,8,0:0:0:0:
256,192,61368,1,0,0:0:0:0:
256,192,61447,1,0,0:0:0:0:
256,192,61526,1,0,0:0:0:0:
256,192,61605,1,8,0:0:0:0:
256,192,61684,1,8,0:0:0:0:
256,192,61763,1,0,0:0:0:0:
256,192,61842,1,0,0:0:0:0:
256,192,61921,1,8,0:0:0:0:
256,192,62000,1,0,0:0:0:0:
256,192,62078,1,0,0:0:0:0:
256,192,62157,1,0,0:0:0:0:
256,192,62236,1,8,0:0:0:0:
256,192,62315,1,8,0:0:0:0:
256,192,62394,1,0,0:0:0:0:
256,192,62473,1,0,0:0:0:0:
256,192,62552,1,8,0:0:0:0:
256,192,62631,1,0,0:0:0:0:
256,192,62710,1,0,0:0:0:0:
256,192,62789,1,0,0:0:0:0:
256,192,62868,1,8,0:0:0:0:
256,192,62947,1,8,0:0:0:0:
256,192,63026,1,0,0:0:0:0:
256,192,63105,1,0,0:0:0:0:
256,192,63184,1,8,0:0:0:0:
256,192,63263,1,0,0:0:0:0:
256,192,63342,1,0,0:0:0:0:
256,192,63421,1,0,0:0:0:0:
256,192,63500,1,8,0:0:0:0:
256,192,63578,1,8,0:0:0:0:
256,192,63657,1,0,0:0:0:0:
256,192,63736,1,0,0:0:0:0:
256,192,63815,1,8,0:0:0:0:
256,192,63894,1,0,0:0:0:0:
256,192,63973,1,0,0:0:0:0:
256,192,64052,1,0,0:0:0:0:
256,192,64131,1,8,0:0:0:0:
256,192,64210,1,8,0:0:0:0:
256,192,64289,1,0,0:0:0:0:
256,192,64368,1,0,0:0:0:0:
256,192,64447,1,8,0:0:0:0:
256,192,64526,1,0,0:0:0:0:
256,192,64605,1,0,0:0:0:0:
256,192,64684,1,0,0:0:0:0:
256,192,64763,1,8,0:0:0:0:
256,192,64842,1,8,0:0:0:0:
256,192,64921,1,0,0:0:0:0:
256,192,65000,1,0,0:0:0:0:
256,192,65078,1,8,0:0:0:0:
256,192,65157,1,0,0:0:0:0:
256,192,65236,1,0,0:0:0:0:
256,192,65315,1,0,0:0:0:0:
256,192,65394,1,8,0:0:0:0:
256,192,65473,1,8,0:0:0:0:
256,192,65552,1,0,0:0:0:0:
256,192,65631,1,0,0:0:0:0:
256,192,65710,1,8,0:0:0:0:
256,192,65789,1,0,0:0:0:0:
256,192,65868,1,0,0:0:0:0:
256,192,65947,1,0,0:0:0:0:
256,192,66026,1,8,0:0:0:0:
256,192,66105,1,8,0:0:0:0:
256,192,66184,1,0,0:0:0:0:
256,192,66263,1,0,0:0:0:0:
256,192,66342,1,8,0:0:0:0:
256,192,66421,1,0,0:0:0:0:
256,192,66500,1,0,0:0:0:0:
256,192,66578,1,0,0:0:0:0:
256,192,66657,1,8,0:0:0:0:
256,192,66736,1,8,0:0:0:0:
256,192,66815,1,0,0:0:0:0:
256,192,66894,1,0,0:0:0:0:
256,192,66973,1,8,0:0:0:0:
256,192,67052,1,0,0:0:0:0:
256,192,67131,1,0,0:0:0:0:
256,192,67210,1,0,0:0:0:0:
256,192,67289,1,8,0:0:0:0:
256,192,67368,1,8,0:0:0:0:
256,192,67447,1,0,0:0:0:0:
256,192,67526,1,0,0:0:0:0:
256,192,67605,1,8,0:0:0:0:
256,192,67684,1,0,0:0:0:0:
256,192,67763,1,0,0:0:0:0:
256,192,67842,1,0,0:0:0:0:
256,192,67921,1,8,0:0:0:0:
256,192,68000,1,8,0:0:0:0:
256,192,68078,1,0,0:0:0:0:
256,192,68157,1,0,0:0:0:0:
256,192,68236,1,8,0:0:0:0:
256,192,68315,1,0,0:0:0:0:
256,192,68394,1,0,0:0:0:0:
256,192,68473,1,0,0:0:0:0:
256,192,68552,1,8,0:0:0:0:
256,192,68631,1,8,0:0:0:0:
256,192,68710,1,0,0:0:0:0:
256,192,68789,1,0,0:0:0:0:
256,192,68868,1,8,0:0:0:0:
256,192,68947,1,0,0:0:0:0:
256,192,69026,1,0,0:0:0:0:
256,192,69105,1,0,0:0:0:0:
256,192,69184,1,8,0:0:0:0:
256,192,69263,1,8,0:0:0:0:
256,192,69342,1,0,0:0:0:0:
256,192,69421,1,0,0:0:0:0:
256,192,69500,1,8,0:0:0:0:
256,192,69578,1,0,0:0:0:0:
256,192,69657,1,0,0:0:0:0:
256,192,69736,1,0,0:0:0:0:
256,192,69815,1,8,0:0:0:0:
256,192,69894,1,8,0:0:0:0:
256,192,69973,1,0,0:0:0:0:
256,192,70052,1,0,0:0:0:0:
256,192,70131,1,8,0:0:0:0:
256,192,70210,1,0,0:0:0:0:
256,192,70289,1,0,0:0:0:0:
256,192,70368,1,0,0:0:0:0:
256,192,70447,1,8,0:0:0:0:
256,192,70526,1,8,0:0:0:0:
256,192,70605,1,0,0:0:0:0:
256,192,70684,1,0,0:0:0:0:
256,192,70763,1,8,0:0:0:0:
256,192,70842,1,0,0:0:0:0:
256,192,70921,1,0,0:0:0:0:
256,192,71000,1,0,0:0:0:0:
256,192,71078,1,8,0:0:0:0:
256,192,71157,1,8,0:0:0:0:
256,192,71236,1,0,0:0:0:0:
256,192,71315,1,0,0:0:0:0:
256,192,71394,1,8,0:0:0:0:
256,192,71473,1,0,0:0:0:0:
256,192,71552,1,0,0:0:0:0:
256,192,71631,1,0,0:0:0:0:
256,192,71710,1,8,0:0:0:0:
256,192,71789,1,8,0:0:0:0:
256,192,71868,1,0,0:0:0:0:
256,192,71947,1,0,0:0:0:0:
256,192,72026,1,8,0:0:0:0:
256,192,72105,1,0,0:0:0:0:
256,192,72184,1,0,0:0:0:0:
256,192,72263,1,0,0:0:0:0:
256,192,72342,1,8,0:0:0:0:
256,192,72421,1,8,0:0:0:0:
256,192,72500,1,0,0:0:0:0:
256,192,72578,1,0,0:0:0:0:
256,192,72657,1,8,0:0:0:0:
256,192,72736,1,0,0:0:0:0:
256,192,72815,1,0,0:0:0:0:
256,192,72894,1,0,0:0:0:0:
256,192,72973,1,8,0:0:0:0:
256,192,73052,1,8,0:0:0:0:
256,192,73131,1,0,0:0:0:0:
256,192,73210,1,0,0:0:0:0:
256,192,73289,1,8,0:0:0:0:
256,192,73368,1,0,0:0:0:0:
256,192,73447,1,0,0:0:0:0:
256,192,73526,1,0,0:0:0:0:
256,192,73605,1,8,0:0:0:0:
256,192,73684,1,8,0:0:0:0:
256,192,73763,1,0,0:0:0:0:
256,192,73842,1,0,0:0:0:0:
256,192,73921,1,8,0:0:0:0:
256,192,74000,1,0,0:0:0:0:
256,192,74078,1,0,0:0:0:0:
256,192,74157,1,0,0:0:0:0:
256,192,74236,1,8,0:0:0:0:
256,192,74315,1,8,0:0:0:0:
256,192,74394,1,0,0:0:0:0:
256,192,74473,1,0,0:0:0:0:
256,192,74552,1,8,0:0:0:0:
256,192,74631,1,0,0:0:0:0:
256,192,74710,1,0,0:0:0:0:
256,192,74789,1,0,0:0:0:0:
256,192,74868,1,8,0:0:0:0:
256,192,74947,1,8,0:0:0:0:
256,192,75026,1,0,0:0:0:0:
256,192,75105,1,0,0:0:0:0:
256,192,75184,1,8,0:0:0:0:
256,192,75263,1,0,0:0:0:0:
256,192,75342,1,0,0:0:0:0:
256,192,75421,1,0,0:0:0:0:
256,192,75500,1,8,0:0:0:0:
256,192,75578,1,8,0:0:0:0:
256,192,75657,1,0,0:0:0:0:
256,192,75736,1,0,0:0:0:0:
256,192,75815,1,8,0:0:0:0:
256,192,75894,1,0,0:0:0:0:
256,192,75973,1,0,0:0:0:0:
256,192,76052,1,0,0:0:0:0:
256,192,76131,1,8,0:0:0:0:
256,192,76210,1,8,0:0:0:0:
256,192,76289,1,0,0:0:0:0:
256,192,76368,1,0,0:0:0:0:
256,192,76447,1,8,0:0:0:0:
256,192,76526,1,0,0:0:0:0:
256,192,76605,1,0,0:0:0:0:
256,192,76684,1,0,0:0:0:0:
256,192,76763,1,8,0:0:0:0:
256,192,76842,1,8,0:0:0:0:
256,192,76921,1,0,0:0:0:0:
256,192,77000,1,0,0:0:0:0:
256,192,77078,1,8,0:0:0:0:
256,192,77157,1,0,0:0:0:0:
256,192,77236,1,0,0:0:0:0:
256,192,77315,1,0,0:0:0:0:
256,192,77394,1,8,0:0:0:0:
256,192,77473,1,8,0:0:0:0:
256,192,77552,1,0,0:0:0:0:
256,192,77631,1,0,0:0:0:0:
256,192,77710,1,8,0:0:0:0:
256,192,77789,1,0,0:0:0:0:
256,192,77868,1,0,0:0:0:0:
256,192,77947,1,0,0:0:0:0:
256,192,78026,1,8,0:0:0:0:
256,192,78105,1,8,0:0:0:0:
256,192,78184,1,0,0:0:0:0:
256,192,78263,1,0,0:0:0:0:
256,192,78342,1,8,0:0:0:0:
256,192,78421,1,0,0:0:0:0:
256,192,78500,1,0,0:0:0:0:
256,192,78578,1,0,0:0:0:0:
256,192,78657,1,8,0:0:0:0:
256,192,78736,1,8,0:0:0:0:
256,192,78815,1,0,0:0:0:0:
256,192,78894,1,0,0:0:0:0:
256,192,78973,1,8,0:0:0:0:
256,192,79052,1,0,0:0:0:0:
256,192,79131,1,0,0:0:0:0:
256,192,79210,1,0,0:0:0:0:
256,192,79289,1,8,0:0:0:0:
256,192,79368,1,8,0:0:0:0:
256,192,79447,1,0,0:0:0:0:
256,192,79526,1,0,0:0:0:0:
256,192,79605,1,8,0:0:0:0:
256,192,79684,1,0,0:0:0:0:
256,192,79763,1,0,0:0:0:0:
256,192,79842,1,0,0:0:0:0:
256,192,79921,1,8,0:0:0:0:
256,192,80000,1,8,0:0:0:0:
256,192,80078,1,0,0:0:0:0:
256,192,80157,1,0,0:0:0:0:
256,192,80236,1,8,0:0:0:0:
256,192,80315,1,0,0:0:0:0:
256,192,80394,1,0,0:0:0:0:
256,192,80473,1,0,0:0:0:0:
256,192,80552,1,8,0:0:0:0:
256,192,80631,1,8,0:0:0:0:
256,192,80710,1,0,0:0:0:0:
256,192,80789,1,0,0:0:0:0:
256,192,80868,1,8,0:0:0:0:
256,192,80947,1,0,0:0:0:0:
256,192,81026,1,8,0:0:0:0:
256,192,81105,1,0,0:0:0:0:
256,192,81184,1,0,0:0:0:0:
256,192,81263,1,8,0:0:0:0:
256,192,81342,1,0,0:0:0:0:
256,192,81421,1,0,0:0:0:0:
256,192,81500,1,8,0:0:0:0:
256,192,81578,1,0,0:0:0:0:
256,192,81657,1,8,0:0:0:0:
256,192,81736,1,0,0:0:0:0:
256,192,81815,1,8,0:0:0:0:
256,192,81894,1,8,0:0:0:0:
256,192,81973,1,0,0:0:0:0:
256,192,82052,1,0,0:0:0:0:
256,192,82131,1,8,0:0:0:0:
256,192,82210,1,0,0:0:0:0:
256,192,82289,1,0,0:0:0:0:
256,192,82368,1,0,0:0:0:0:
256,192,82447,1,8,0:0:0:0:
256,192,82526,1,8,0:0:0:0:
256,192,82605,1,0,0:0:0:0:
256,192,82684,1,0,0:0:0:0:
256,192,82763,1,8,0:0:0:0:
256,192,82842,1,0,0:0:0:0:
256,192,82921,1,0,0:0:0:0:
256,192,83000,1,0,0:0:0:0:
256,192,83078,1,8,0:0:0:0:
256,192,83157,1,8,0:0:0:0:
256,192,83236,1,0,0:0:0:0:
256,192,83315,1,8,0:0:0:0:
256,192,83394,1,8,0:0:0:0:
256,192,83473,1,8,0:0:0:0:
256,192,83552,1,0,0:0:0:0:
256,192,83631,1,0,0:0:0:0:
256,192,83710,1,8,0:0:0:0:
256,192,83789,1,8,0:0:0:0:
256,192,83868,1,0,0:0:0:0:
256,192,83947,1,0,0:0:0:0:
256,192,84026,1,8,0:0:0:0:
256,192,84105,1,0,0:0:0:0:
256,192,84184,1,0,0:0:0:0:
256,192,84263,1,0,0:0:0:0:
256,192,84342,1,8,0:0:0:0:
256,192,84421,1,8,0:0:0:0:
256,192,84500,1,0,0:0:0:0:
256,192,84578,1,0,0:0:0:0:
256,192,84657,1,8,0:0:0:0:
256,192,84736,1,0,0:0:0:0:
256,192,84815,1,0,0:0:0:0:
256,192,84894,1,0,0:0:0:0:
256,192,84973,1,8,0:0:0:0:
256,192,85052,1,8,0:0:0:0:
256,192,85131,1,0,0:0:0:0:
256,192,85210,1,0,0:0:0:0:
256,192,85289,1,8,0:0:0:0:
256,192,85368,1,0,0:0:0:0:
256,192,85447,1,0,0:0:0:0:
256,192,85526,1,0,0:0:0:0:
256,192,85605,1,8,0:0:0:0:
256,192,85684,1,8,0:0:0:0:
256,192,85763,1,0,0:0:0:0:
256,192,85842,1,8,0:0:0:0:
256,192,85921,1,8,0:0:0:0:
256,192,86000,1,8,0:0:0:0:
256,192,86078,1,0,0:0:0:0:
256,192,86157,1,0,0:0:0:0:
256,192,86236,1,8,0:0:0:0:
256,192,86315,1,8,0:0:0:0:
256,192,86394,1,0,0:0:0:0:
256,192,86473,1,0,0:0:0:0:
256,192,86552,1,8,0:0:0:0:
256,192,86631,1,0,0:0:0:0:
256,192,86710,1,0,0:0:0:0:
256,192,86789,1,0,0:0:0:0:
256,192,86868,1,8,0:0:0:0:
256,192,86947,1,8,0:0:0:0:
256,192,87026,1,0,0:0:0:0:
256,192,87105,1,0,0:0:0:0:
256,192,87184,1,8,0:0:0:0:
256,192,87263,1,0,0:0:0:0:
256,192,87342,1,0,0:0:0:0:
256,192,87421,1,0,0:0:0:0:
256,192,87500,1,8,0:0:0:0:
256,192,87578,1,8,0:0:0:0:
256,192,87657,1,0,0:0:0:0:
256,192,87736,1,0,0:0:0:0:
256,192,87815,1,8,0:0:0:0:
256,192,87894,1,0,0:0:0:0:
256,192,87973,1,0,0:0:0:0:
256,192,88052,1,0,0:0:0:0:
256,192,88131,1,8,0:0:0:0:
256,192,88210,1,8,0:0:0:0:
256,192,88289,1,0,0:0:0:0:
256,192,88368,1,8,0:0:0:0:
256,192,88447,1,8,0:0:0:0:
256,192,88526,1,8,0:0:0:0:
256,192,88605,1,0,0:0:0:0:
256,192,88684,1,0,0:0:0:0:
256,192,88763,1,8,0:0:0:0:
256,192,88842,1,0,0:0:0:0:
256,192,88921,1,0,0:0:0:0:
256,192,89000,1,8,0:0:0:0:
256,192,89078,1,0,0:0:0:0:
256,192,89157,1,0,0:0:0:0:
256,192,89236,1,8,0:0:0:0:
256,192,89315,1,8,0:0:0:0:
256,192,89394,1,0,0:0:0:0:
256,192,89473,1,0,0:0:0:0:
256,192,89552,1,8,0:0:0:0:
256,192,89631,1,0,0:0:0:0:
256,192,89710,1,0,0:0:0:0:
256,192,89789,1,0,0:0:0:0:
256,192,89868,1,8,0:0:0:0:
256,192,89947,1,8,0:0:0:0:
256,192,90026,1,8,0:0:0:0:
256,192,90105,1,0,0:0:0:0:
256,192,90184,1,8,0:0:0:0:
256,192,90263,1,0,0:0:0:0:
256,192,90342,1,0,0:0:0:0:
256,192,90421,1,0,0:0:0:0:
256,192,90500,1,8,0:0:0:0:
256,192,90657,1,8,0:0:0:0:
256,192,90815,1,8,0:0:0:0:
256,192,90868,1,8,0:0:0:0:
256,192,90921,1,8,0:0:0:0:
256,192,90973,1,8,0:0:0:0:
256,192,91026,1,8,0:0:0:0:
256,192,91078,1,8,0:0:0:0:
256,192,91131,1,0,0:0:0:0:
256,192,91210,1,0,0:0:0:0:
256,192,91289,1,0,0:0:0:0:
256,192,91368,1,0,0:0:0:0:
256,192,91447,1,8,0:0:0:0:
256,192,91526,1,8,0:0:0:0:
256,192,91605,1,0,0:0:0:0:
256,192,91684,1,0,0:0:0:0:
256,192,91763,1,8,0:0:0:0:
256,192,91842,1,0,0:0:0:0:
256,192,91921,1,0,0:0:0:0:
256,192,92000,1,0,0:0:0:0:
256,192,92078,1,8,0:0:0:0:
256,192,92157,1,8,0:0:0:0:
256,192,92236,1,8,0:0:0:0:
256,192,92315,1,0,0:0:0:0:
256,192,92394,1,8,0:0:0:0:
256,192,92473,1,0,0:0:0:0:
256,192,92552,1,0,0:0:0:0:
256,192,92631,1,0,0:0:0:0:
256,192,92710,1,8,0:0:0:0:
256,192,92789,1,8,0:0:0:0:
256,192,92868,1,0,0:0:0:0:
256,192,92947,1,0,0:0:0:0:
256,192,93026,1,8,0:0:0:0:
256,192,93105,1,0,0:0:0:0:
256,192,93184,1,0,0:0:0:0:
256,192,93263,1,0,0:0:0:0:
256,192,93342,1,8,0:0:0:0:
256,192,93421,1,8,0:0:0:0:
256,192,93500,1,8,0:0:0:0:
256,192,93578,1,8,0:0:0:0:
256,192,93657,1,0,0:0:0:0:
256,192,93736,1,0,0:0:0:0:
256,192,93815,1,8,0:0:0:0:
256,192,93894,1,0,0:0:0:0:
256,192,93973,1,0,0:0:0:0:
256,192,94052,1,8,0:0:0:0:
256,192,94131,1,0,0:0:0:0:
256,192,94210,1,0,0:0:0:0:
256,192,94289,1,8,0:0:0:0:
256,192,94368,1,8,0:0:0:0:
256,192,94447,1,0,0:0:0:0:
256,192,94526,1,0,0:0:0:0:
256,192,94605,1,8,0:0:0:0:
256,192,94684,1,0,0:0:0:0:
256,192,94763,1,0,0:0:0:0:
256,192,94842,1,0,0:0:0:0:
256,192,94921,1,8,0:0:0:0:
256,192,95000,1,8,0:0:0:0:
256,192,95078,1,8,0:0:0:0:
256,192,95157,1,0,0:0:0:0:
256,192,95236,1,8,0:0:0:0:
256,192,95315,1,0,0:0:0:0:
256,192,95394,1,0,0:0:0:0:
256,192,95473,1,0,0:0:0:0:
256,192,95552,1,8,0:0:0:0:
256,192,95631,1,8,0:0:0:0:
256,192,95710,1,0,0:0:0:0:
256,192,95789,1,0,0:0:0:0:
256,192,95868,1,8,0:0:0:0:
256,192,95947,1,8,0:0:0:0:
256,192,96026,1,8,0:0:0:0:
256,192,96105,1,8,0:0:0:0:
256,192,96184,1,0,0:0:0:0:
256,192,96342,1,8,0:0:0:0:
256,192,96421,1,0,0:0:0:0:
256,192,96500,1,8,0:0:0:0:
256,192,96578,1,8,0:0:0:0:
256,192,96657,1,0,0:0:0:0:
256,192,96815,1,8,0:0:0:0:
256,192,96973,1,0,0:0:0:0:
256,192,97052,1,8,0:0:0:0:
256,192,97131,1,0,0:0:0:0:
256,192,97289,1,8,0:0:0:0:
256,192,97447,1,0,0:0:0:0:
256,192,97526,1,0,0:0:0:0:
256,192,97605,1,0,0:0:0:0:
256,192,97684,1,0,0:0:0:0:
256,192,97763,1,8,0:0:0:0:
256,192,97921,1,8,0:0:0:0:
256,192,98078,1,0,0:0:0:0:
256,192,98157,1,0,0:0:0:0:
256,192,98236,1,0,0:0:0:0:
256,192,98394,1,8,0:0:0:0:
256,192,98552,1,8,0:0:0:0:
256,192,98710,1,0,0:0:0:0:
256,192,98789,1,8,0:0:0:0:
256,192,98868,1,0,0:0:0:0:
256,192,99026,1,0,0:0:0:0:
256,192,99184,1,0,0:0:0:0:
256,192,99342,1,0,0:0:0:0:
256,192,99657,1,0,0:0:0:0:
256,192,99736,1,8,0:0:0:0:
256,192,99973,8,0,101078,0:0:0:0:
256,192,101236,5,4,0:0:0:0:
256,192,101394,1,8,0:0:0:0:
256,192,101473,1,0,0:0:0:0:
256,192,101552,1,8,0:0:0:0:
256,192,101631,1,8,0:0:0:0:
256,192,101710,1,0,0:0:0:0:
256,192,101868,1,8,0:0:0:0:
256,192,102026,1,0,0:0:0:0:
256,192,102184,1,8,0:0:0:0:
256,192,102263,1,8,0:0:0:0:
256,192,102342,1,0,0:0:0:0:
256,192,102500,1,8,0:0:0:0:
256,192,102657,1,0,0:0:0:0:
256,192,102736,1,0,0:0:0:0:
256,192,102815,1,8,0:0:0:0:
256,192,102973,1,0,0:0:0:0:
256,192,103131,1,8,0:0:0:0:
256,192,103210,1,0,0:0:0:0:
256,192,103289,1,8,0:0:0:0:
256,192,103368,1,8,0:0:0:0:
256,192,103447,1,0,0:0:0:0:
256,192,103526,1,0,0:0:0:0:
256,192,103605,1,8,0:0:0:0:
256,192,103763,1,0,0:0:0:0:
256,192,103842,1,8,0:0:0:0:
256,192,103921,1,0,0:0:0:0:
256,192,104078,1,8,0:0:0:0:
256,192,104236,1,0,0:0:0:0:
256,192,104315,1,0,0:0:0:0:
256,192,104394,1,8,0:0:0:0:
256,192,104473,1,0,0:0:0:0:
256,192,104552,1,8,0:0:0:0:
256,192,104631,1,8,0:0:0:0:
256,192,104710,1,0,0:0:0:0:
256,192,104789,1,8,0:0:0:0:
256,192,104868,1,8,0:0:0:0:
256,192,105026,1,0,0:0:0:0:
256,192,105184,1,8,0:0:0:0:
256,192,105263,1,0,0:0:0:0:
256,192,105342,1,8,0:0:0:0:
256,192,105500,1,0,0:0:0:0:
256,192,105578,1,0,0:0:0:0:
256,192,105657,1,0,0:0:0:0:
256,192,105815,1,8,0:0:0:0:
256,192,105973,1,8,0:0:0:0:
256,192,106131,1,8,0:0:0:0:
256,192,106289,1,0,0:0:0:0:
256,192,106368,1,0,0:0:0:0:
256,192,106447,1,8,0:0:0:0:
256,192,106526,1,8,0:0:0:0:
256,192,106605,1,0,0:0:0:0:
256,192,106684,1,8,0:0:0:0:
256,192,106763,1,8,0:0:0:0:
256,192,106842,1,8,0:0:0:0:
256,192,106921,1,0,0:0:0:0:
256,192,107078,1,8,0:0:0:0:
256,192,107157,1,0,0:0:0:0:
256,192,107236,1,0,0:0:0:0:
256,192,107315,1,8,0:0:0:0:
256,192,107394,1,8,0:0:0:0:
256,192,107552,1,0,0:0:0:0:
256,192,107631,1,0,0:0:0:0:
256,192,107710,1,8,0:0:0:0:
256,192,107868,1,0,0:0:0:0:
256,192,107947,1,8,0:0:0:0:
256,192,108026,1,8,0:0:0:0:
256,192,108105,1,8,0:0:0:0:
256,192,108184,1,0,0:0:0:0:
256,192,108342,1,0,0:0:0:0:
256,192,108500,1,8,0:0:0:0:
256,192,108578,1,0,0:0:0:0:
256,192,108657,1,8,0:0:0:0:
256,192,108815,1,0,0:0:0:0:
256,192,108894,1,8,0:0:0:0:
256,192,109052,1,8,0:0:0:0:
256,192,109131,1,8,0:0:0:0:
256,192,109289,1,0,0:0:0:0:
256,192,109368,1,0,0:0:0:0:
256,192,109447,1,0,0:0:0:0:
256,192,109605,1,8,0:0:0:0:
256,192,109763,1,8,0:0:0:0:
256,192,109842,1,0,0:0:0:0:
256,192,109921,1,8,0:0:0:0:
256,192,110078,1,0,0:0:0:0:
256,192,110157,1,8,0:0:0:0:
256,192,110236,1,8,0:0:0:0:
256,192,110315,1,0,0:0:0:0:
256,192,110394,1,8,0:0:0:0:
256,192,110552,1,0,0:0:0:0:
256,192,110710,1,8,0:0:0:0:
256,192,110868,1,8,0:0:0:0:
256,192,110947,1,8,0:0:0:0:
256,192,111026,1,0,0:0:0:0:
256,192,111105,1,0,0:0:0:0:
256,192,111184,1,0,0:0:0:0:
256,192,111263,1,0,0:0:0:0:
256,192,111342,1,8,0:0:0:0:
256,192,111500,1,0,0:0:0:0:
256,192,111578,1,0,0:0:0:0:
256,192,111657,1,0,0:0:0:0:
256,192,111815,1,8,0:0:0:0:
256,192,111973,1,0,0:0:0:0:
256,192,112052,1,0,0:0:0:0:
256,192,112131,1,8,0:0:0:0:
256,192,112289,1,8,0:0:0:0:
256,192,112447,1,8,0:0:0:0:
256,192,112605,1,0,0:0:0:0:
256,192,112684,1,8,0:0:0:0:
256,192,112763,1,0,0:0:0:0:
256,192,112921,1,8,0:0:0:0:
256,192,113078,1,0,0:0:0:0:
256,192,113157,1,0,0:0:0:0:
256,192,113236,1,8,0:0:0:0:
256,192,113315,1,8,0:0:0:0:
256,192,113394,1,0,0:0:0:0:
256,192,113552,1,8,0:0:0:0:
256,192,113631,1,8,0:0:0:0:
256,192,113710,1,0,0:0:0:0:
256,192,113868,1,8,0:0:0:0:
256,192,114026,1,0,0:0:0:0:
256,192,114105,1,0,0:0:0:0:
256,192,114184,1,0,0:0:0:0:
256,192,114342,1,8,0:0:0:0:
256,192,114500,1,0,0:0:0:0:
256,192,114578,1,0,0:0:0:0:
256,192,114657,1,8,0:0:0:0:
256,192,114815,1,8,0:0:0:0:
256,192,114973,1,8,0:0:0:0:
256,192,115131,1,0,0:0:0:0:
256,192,115210,1,8,0:0:0:0:
256,192,115289,1,0,0:0:0:0:
256,192,115368,1,0,0:0:0:0:
256,192,115447,1,8,0:0:0:0:
256,192,115605,1,0,0:0:0:0:
256,192,115684,1,0,0:0:0:0:
256,192,115763,1,8,0:0:0:0:
256,192,115921,1,8,0:0:0:0:
256,192,116078,1,8,0:0:0:0:
256,192,116236,1,0,0:0:0:0:
256,192,116394,1,8,0:0:0:0:
256,192,116552,1,0,0:0:0:0:
256,192,116631,1,0,0:0:0:0:
256,192,116710,1,0,0:0:0:0:
256,192,116789,1,0,0:0:0:0:
256,192,116868,1,0,0:0:0:0:
256,192,117026,1,8,0:0:0:0:
256,192,117184,1,0,0:0:0:0:
256,192,117263,1,0,0:0:0:0:
256,192,117342,1,0,0:0:0:0:
256,192,117500,1,0,0:0:0:0:
256,192,117657,1,8,0:0:0:0:
256,192,117815,1,0,0:0:0:0:
256,192,117973,1,0,0:0:0:0:
256,192,118131,1,0,0:0:0:0:
256,192,118289,1,8,0:0:0:0:
256,192,118605,1,0,0:0:0:0:
256,192,118921,1,8,0:0:0:0:
256,192,119552,1,8,0:0:0:0:
256,192,120184,1,0,0:0:0:0:
256,192,120500,1,0,0:0:0:0:
256,192,120815,1,0,0:0:0:0:
256,192,121131,1,0,0:0:0:0:
256,192,121447,1,8,0:0:0:0:
256,192,121526,1,8,0:0:0:0:
256,192,121605,1,0,0:0:0:0:
256,192,121684,1,8,0:0:0:0:
256,192,121763,1,0,0:0:0:0:
256,192,121842,1,0,0:0:0:0:
256,192,121921,1,8,0:0:0:0:
256,192,122000,1,8,0:0:0:0:
256,192,122078,1,0,0:0:0:0:
256,192,122157,1,8,0:0:0:0:
256,192,122236,1,0,0:0:0:0:
256,192,122315,1,0,0:0:0:0:
256,192,122394,1,8,0:0:0:0:
256,192,122552,1,0,0:0:0:0:
256,192,122710,1,8,0:0:0:0:
256,192,122868,1,0,0:0:0:0:
256,192,122947,1,0,0:0:0:0:
256,192,123026,1,8,0:0:0:0:
256,192,123184,1,0,0:0:0:0:
256,192,123342,1,8,0:0:0:0:
256,192,123421,1,8,0:0:0:0:
256,192,123500,1,0,0:0:0:0:
256,192,123578,1,0,0:0:0:0:
256,192,123657,1,8,0:0:0:0:
256,192,123736,1,0,0:0:0:0:
256,192,123815,1,8,0:0:0:0:
256,192,123973,1,8,0:0:0:0:
256,192,124131,1,0,0:0:0:0:
256,192,124210,1,0,0:0:0:0:
256,192,124289,1,8,0:0:0:0:
256,192,124447,1,0,0:0:0:0:
256,192,124526,1,0,0:0:0:0:
256,192,124605,1,0,0:0:0:0:
256,192,124684,1,8,0:0:0:0:
256,192,124763,1,0,0:0:0:0:
256,192,124842,1,0,0:0:0:0:
256,192,124921,1,8,0:0:0:0:
256,192,125000,1,0,0:0:0:0:
256,192,125078,1,8,0:0:0:0:
256,192,125236,1,0,0:0:0:0:
256,192,125394,1,8,0:0:0:0:
256,192,125473,1,0,0:0:0:0:
256,192,125552,1,8,0:0:0:0:
256,192,125710,1,0,0:0:0:0:
256,192,125789,1,0,0:0:0:0:
256,192,125868,1,0,0:0:0:0:
256,192,126026,1,8,0:0:0:0:
256,192,126184,1,8,0:0:0:0:
256,192,126342,1,8,0:0:0:0:
256,192,126500,1,0,0:0:0:0:
256,192,126578,1,0,0:0:0:0:
256,192,126657,1,8,0:0:0:0:
256,192,126736,1,8,0:0:0:0:
256,192,126815,1,0,0:0:0:0:
256,192,126894,1,8,0:0:0:0:
256,192,126973,1,8,0:0:0:0:
256,192,127052,1,8,0:0:0:0:
256,192,127131,1,0,0:0:0:0:
256,192,127289,1,8,0:0:0:0:
256,192,127368,1,0,0:0:0:0:
256,192,127447,1,0,0:0:0:0:
256,192,127526,1,8,0:0:0:0:
256,192,127605,1,8,0:0:0:0:
256,192,127763,1,0,0:0:0:0:
256,192,127842,1,0,0:0:0:0:
256,192,127921,1,8,0:0:0:0:
256,192,128078,1,0,0:0:0:0:
256,192,128157,1,8,0:0:0:0:
256,192,128236,1,8,0:0:0:0:
256,192,128315,1,8,0:0:0:0:
256,192,128394,1,0,0:0:0:0:
256,192,128552,1,0,0:0:0:0:
256,192,128710,1,8,0:0:0:0:
256,192,128789,1,0,0:0:0:0:
256,192,128868,1,8,0:0:0:0:
256,192,129026,1,0,0:0:0:0:
256,192,129105,1,8,0:0:0:0:
256,192,129263,1,8,0:0:0:0:
256,192,129342,1,8,0:0:0:0:
256,192,129500,1,0,0:0:0:0:
256,192,129578,1,0,0:0:0:0:
256,192,129657,1,0,0:0:0:0:
256,192,129815,1,8,0:0:0:0:
256,192,129973,1,8,0:0:0:0:
256,192,130052,1,0,0:0:0:0:
256,192,130131,1,8,0:0:0:0:
256,192,130289,1,0,0:0:0:0:
256,192,130368,1,8,0:0:0:0:
256,192,130447,1,8,0:0:0:0:
256,192,130526,1,0,0:0:0:0:
256,192,130605,1,8,0:0:0:0:
256,192,130763,1,0,0:0:0:0:
256,192,130921,1,8,0:0:0:0:
256,192,131078,1,8,0:0:0:0:
256,192,131157,1,8,0:0:0:0:
256,192,131236,1,0,0:0:0:0:
256,192,131315,1,0,0:0:0:0:
256,192,131394,1,0,0:0:0:0:
256,192,131473,1,0,0:0:0:0:
256,192,131552,1,8,0:0:0:0:
256,192,131710,1,0,0:0:0:0:
256,192,131789,1,0,0:0:0:0:
256,192,131868,1,0,0:0:0:0:
256,192,132026,1,8,0:0:0:0:
256,192,132184,1,0,0:0:0:0:
256,192,132263,1,0,0:0:0:0:
256,192,132342,1,8,0:0:0:0:
256,192,132500,1,8,0:0:0:0:
256,192,132657,1,8,0:0:0:0:
256,192,132815,1,0,0:0:0:0:
256,192,132894,1,8,0:0:0:0:
256,192,132973,1,0,0:0:0:0:
256,192,133131,1,8,0:0:0:0:
256,192,133289,1,0,0:0:0:0:
256,192,133368,1,0,0:0:0:0:
256,192,133447,1,8,0:0:0:0:
256,192,133526,1,8,0:0:0:0:
256,192,133605,1,0,0:0:0:0:
256,192,133763,1,8,0:0:0:0:
256,192,133842,1,8,0:0:0:0:
256,192,133921,1,0,0:0:0:0:
256,192,134078,1,8,0:0:0:0:
256,192,134236,1,0,0:0:0:0:
256,192,134315,1,0,0:0:0:0:
256,192,134394,1,0,0:0:0:0:
256,192,134552,1,8,0:0:0:0:
256,192,134710,1,0,0:0:0:0:
256,192,134789,1,0,0:0:0:0:
256,192,134868,1,8,0:0:0:0:
256,192,135026,1,8,0:0:0:0:
256,192,135184,1,8,0:0:0:0:
256,192,135342,1,0,0:0:0:0:
256,192,135421,1,8,0:0:0:0:
256,192,135500,1,0,0:0:0:0:
256,192,135578,1,0,0:0:0:0:
256,192,135657,1,8,0:0:0:0:
256,192,135815,1,0,0:0:0:0:
256,192,135894,1,0,0:0:0:0:
256,192,135973,1,8,0:0:0:0:
256,192,136131,1,8,0:0:0:0:
256,192,136289,1,8,0:0:0:0:
256,192,136447,1,0,0:0:0:0:
256,192,136605,1,8,0:0:0:0:
256,192,136763,1,0,0:0:0:0:
256,192,136842,1,0,0:0:0:0:
256,192,136921,1,0,0:0:0:0:
256,192,137000,1,0,0:0:0:0:
256,192,137078,1,0,0:0:0:0:
256,192,137236,1,8,0:0:0:0:
256,192,137394,1,0,0:0:0:0:
256,192,137473,1,0,0:0:0:0:
256,192,137552,1,0,0:0:0:0:
256,192,137710,1,0,0:0:0:0:
256,192,137868,1,8,0:0:0:0:
256,192,138026,1,0,0:0:0:0:
256,192,138184,1,0,0:0:0:0:
256,192,138342,1,0,0:0:0:0:
256,192,138500,1,8,0:0:0:0:
256,192,138815,1,0,0:0:0:0:
256,192,139131,1,8,0:0:0:0:
256,192,139763,1,8,0:0:0:0:
256,192,140394,1,0,0:0:0:0:
256,192,140710,1,0,0:0:0:0:
256,192,141026,1,8,0:0:0:0:
256,192,141342,1,0,0:0:0:0:
256,192,141421,1,0,0:0:0:0:
256,192,141500,1,0,0:0:0:0:
256,192,141657,1,8,0:0:0:0:
256,192,141736,1,8,0:0:0:0:
256,192,141815,1,8,0:0:0:0:
256,192,141894,1,0,0:0:0:0:
256,192,141973,1,8,0:0:0:0:
256,192,142052,1,8,0:0:0:0:
256,192,142131,1,0,0:0:0:0:
256,192,142210,1,0,0:0:0:0:
256,192,142289,1,8,0:0:0:0:
256,192,142368,1,0,0:0:0:0:
256,192,142447,1,8,0:0:0:0:
256,192,142526,1,8,0:0:0:0:
256,192,142605,1,0,0:0:0:0:
256,192,142684,1,0,0:0:0:0:
256,192,142763,1,8,0:0:0:0:
256,192,142921,1,0,0:0:0:0:
256,192,143000,1,8,0:0:0:0:
256,192,143078,1,8,0:0:0:0:
256,192,143157,1,8,0:0:0:0:
256,192,143236,1,0,0:0:0:0:
256,192,143394,1,0,0:0:0:0:
256,192,143552,1,8,0:0:0:0:
256,192,143631,1,0,0:0:0:0:
256,192,143710,1,0,0:0:0:0:
256,192,143789,1,0,0:0:0:0:
256,192,143868,1,8,0:0:0:0:
256,192,144026,1,8,0:0:0:0:
256,192,144184,1,0,0:0:0:0:
256,192,144263,1,8,0:0:0:0:
256,192,144342,1,0,0:0:0:0:
256,192,144500,1,8,0:0:0:0:
256,192,144578,1,0,0:0:0:0:
256,192,144657,1,8,0:0:0:0:
256,192,144736,1,8,0:0:0:0:
256,192,144815,1,0,0:0:0:0:
256,192,144973,1,8,0:0:0:0:
256,192,145131,1,8,0:0:0:0:
256,192,145210,1,8,0:0:0:0:
256,192,145289,1,0,0:0:0:0:
256,192,145368,1,0,0:0:0:0:
256,192,145447,1,8,0:0:0:0:
256,192,145605,1,0,0:0:0:0:
256,192,145763,1,8,0:0:0:0:
256,192,145921,1,8,0:0:0:0:
256,192,146078,1,8,0:0:0:0:
256,192,146157,1,0,0:0:0:0:
256,192,146236,1,8,0:0:0:0:
256,192,146394,1,8,0:0:0:0:
256,192,146710,1,8,0:0:0:0:
256,192,146868,1,0,0:0:0:0:
256,192,146947,1,0,0:0:0:0:
256,192,147026,1,0,0:0:0:0:
256,192,147105,1,0,0:0:0:0:
256,192,147184,1,0,0:0:0:0:
256,192,147342,1,8,0:0:0:0:
256,192,147500,1,0,0:0:0:0:
256,192,147578,1,0,0:0:0:0:
256,192,147657,1,0,0:0:0:0:
256,192,147815,1,0,0:0:0:0:
256,192,147973,1,8,0:0:0:0:
256,192,148131,1,0,0:0:0:0:
256,192,148289,1,8,0:0:0:0:
256,192,148368,1,0,0:0:0:0:
256,192,148447,1,0,0:0:0:0:
256,192,148526,1,0,0:0:0:0:
256,192,148605,1,8,0:0:0:0:
256,192,148763,1,0,0:0:0:0:
256,192,148842,1,0,0:0:0:0:
256,192,148921,1,8,0:0:0:0:
256,192,149000,1,8,0:0:0:0:
256,192,149078,1,0,0:0:0:0:
256,192,149236,1,8,0:0:0:0:
256,192,149315,1,0,0:0:0:0:
256,192,149552,1,8,0:0:0:0:
256,192,149631,1,0,0:0:0:0:
256,192,149868,1,0,0:0:0:0:
256,192,149947,1,0,0:0:0:0:
256,192,150026,1,0,0:0:0:0:
256,192,150184,1,0,0:0:0:0:
256,192,150342,1,0,0:0:0:0:
256,192,150500,1,8,0:0:0:0:
256,192,150815,1,8,0:0:0:0:
256,192,150921,1,0,0:0:0:0:
256,192,151026,1,0,0:0:0:0:
256,192,151131,1,8,0:0:0:0:
256,192,151236,1,0,0:0:0:0:
256,192,151342,1,0,0:0:0:0:
256,192,151447,1,8,0:0:0:0:
256,192,151526,1,8,0:0:0:0:
256,192,151605,1,0,0:0:0:0:
256,192,151684,1,0,0:0:0:0:
256,192,151763,1,8,0:0:0:0:
256,192,151842,1,8,0:0:0:0:
256,192,151921,1,8,0:0:0:0:
256,192,152000,1,0,0:0:0:0:
256,192,152078,1,8,0:0:0:0:
256,192,152157,1,8,0:0:0:0:
256,192,152236,1,0,0:0:0:0:
256,192,152315,1,0,0:0:0:0:
256,192,152394,1,8,0:0:0:0:
256,192,152473,1,0,0:0:0:0:
256,192,152552,1,8,0:0:0:0:
256,192,152631,1,8,0:0:0:0:
256,192,152710,1,0,0:0:0:0:
256,192,152789,1,0,0:0:0:0:
256,192,152868,1,8,0:0:0:0:
256,192,153026,1,0,0:0:0:0:
256,192,153105,1,8,0:0:0:0:
256,192,153184,1,8,0:0:0:0:
256,192,153263,1,8,0:0:0:0:
256,192,153342,1,0,0:0:0:0:
256,192,153500,1,0,0:0:0:0:
256,192,153657,1,8,0:0:0:0:
256,192,153736,1,0,0:0:0:0:
256,192,153815,1,0,0:0:0:0:
256,192,153894,1,0,0:0:0:0:
256,192,153973,1,8,0:0:0:0:
256,192,154131,1,8,0:0:0:0:
256,192,154289,1,0,0:0:0:0:
256,192,154368,1,8,0:0:0:0:
256,192,154447,1,0,0:0:0:0:
256,192,154605,1,8,0:0:0:0:
256,192,154684,1,0,0:0:0:0:
256,192,154763,1,8,0:0:0:0:
256,192,154842,1,8,0:0:0:0:
256,192,154921,1,0,0:0:0:0:
256,192,155078,1,8,0:0:0:0:
256,192,155236,1,8,0:0:0:0:
256,192,155315,1,8,0:0:0:0:
256,192,155394,1,0,0:0:0:0:
256,192,155473,1,0,0:0:0:0:
256,192,155552,1,8,0:0:0:0:
256,192,155710,1,0,0:0:0:0:
256,192,155868,1,8,0:0:0:0:
256,192,156026,1,8,0:0:0:0:
256,192,156184,1,8,0:0:0:0:
256,192,156263,1,0,0:0:0:0:
256,192,156342,1,8,0:0:0:0:
256,192,156500,1,8,0:0:0:0:
256,192,156815,1,8,0:0:0:0:
256,192,156973,1,0,0:0:0:0:
256,192,157052,1,0,0:0:0:0:
256,192,157131,1,8,0:0:0:0:
256,192,157210,1,8,0:0:0:0:
256,192,157289,1,0,0:0:0:0:
256,192,157447,1,8,0:0:0:0:
256,192,157605,1,0,0:0:0:0:
256,192,157684,1,0,0:0:0:0:
256,192,157763,1,8,0:0:0:0:
256,192,157921,1,0,0:0:0:0:
256,192,158078,1,8,0:0:0:0:
256,192,158236,1,0,0:0:0:0:
256,192,158315,1,8,0:0:0:0:
256,192,158394,1,8,0:0:0:0:
256,192,158552,1,0,0:0:0:0:
256,192,158710,1,8,0:0:0:0:
256,192,158868,1,0,0:0:0:0:
256,192,159026,1,8,0:0:0:0:
256,192,159105,1,8,0:0:0:0:
256,192,159184,1,0,0:0:0:0:
256,192,159342,1,8,0:0:0:0:
256,192,159500,1,0,0:0:0:0:
256,192,159578,1,0,0:0:0:0:
256,192,159657,1,8,0:0:0:0:
256,192,159815,1,8,0:0:0:0:
256,192,159894,1,0,0:0:0:0:
256,192,159973,1,8,0:0:0:0:
256,192,160131,1,0,0:0:0:0:
256,192,160210,1,0,0:0:0:0:
256,192,160289,1,8,0:0:0:0:
256,192,160447,1,0,0:0:0:0:
256,192,160605,1,8,0:0:0:0:
256,192,160763,1,0,0:0:0:0:
256,192,160842,1,0,0:0:0:0:
256,192,160921,1,8,0:0:0:0:
256,192,161000,1,0,0:0:0:0:
256,192,161078,1,0,0:0:0:0:
256,192,161236,1,8,0:0:0:0:
256,192,161394,1,0,0:0:0:0:
256,192,161473,1,0,0:0:0:0:
256,192,161552,1,8,0:0:0:0:
256,192,161710,1,0,0:0:0:0:
256,192,161868,1,8,0:0:0:0:
256,192,161947,1,8,0:0:0:0:
256,192,162026,1,8,0:0:0:0:
256,192,162105,1,0,0:0:0:0:
256,192,162184,1,8,0:0:0:0:
256,192,162263,1,8,0:0:0:0:
256,192,162342,1,0,0:0:0:0:
256,192,162421,1,0,0:0:0:0:
256,192,162500,1,8,0:0:0:0:
256,192,162578,1,0,0:0:0:0:
256,192,162657,1,0,0:0:0:0:
256,192,162736,1,0,0:0:0:0:
256,192,162815,1,8,0:0:0:0:
256,192,162894,1,0,0:0:0:0:
256,192,162973,1,8,0:0:0:0:
256,192,163131,1,0,0:0:0:0:
256,192,163210,1,8,0:0:0:0:
256,192,163289,1,0,0:0:0:0:
256,192,163368,1,0,0:0:0:0:
256,192,163447,1,8,0:0:0:0:
256,192,163526,1,8,0:0:0:0:
256,192,163605,1,0,0:0:0:0:
256,192,163763,1,8,0:0:0:0:
256,192,163842,1,0,0:0:0:0:
256,192,163921,1,8,0:0:0:0:
256,192,164000,1,8,0:0:0:0:
256,192,164078,1,0,0:0:0:0:
256,192,164157,1,0,0:0:0:0:
256,192,164236,1,8,0:0:0:0:
256,192,164394,1,0,0:0:0:0:
256,192,164552,1,8,0:0:0:0:
256,192,164631,1,8,0:0:0:0:
256,192,164710,1,0,0:0:0:0:
256,192,164868,1,8,0:0:0:0:
256,192,165026,1,0,0:0:0:0:
256,192,165105,1,0,0:0:0:0:
256,192,165184,1,8,0:0:0:0:
256,192,165263,1,0,0:0:0:0:
256,192,165342,1,8,0:0:0:0:
256,192,165421,1,8,0:0:0:0:
256,192,165500,1,0,0:0:0:0:
256,192,165657,1,8,0:0:0:0:
256,192,165815,1,0,0:0:0:0:
256,192,165894,1,8,0:0:0:0:
256,192,165973,1,8,0:0:0:0:
256,192,166052,1,0,0:0:0:0:
256,192,166131,1,8,0:0:0:0:
256,192,166289,1,0,0:0:0:0:
256,192,166368,1,0,0:0:0:0:
256,192,166447,1,0,0:0:0:0:
256,192,166605,1,8,0:0:0:0:
256,192,166684,1,0,0:0:0:0:
256,192,166763,1,8,0:0:0:0:
256,192,166842,1,8,0:0:0:0:
256,192,166921,1,0,0:0:0:0:
256,192,167078,1,0,0:0:0:0:
256,192,167236,1,8,0:0:0:0:
256,192,167394,1,8,0:0:0:0:
256,192,167473,1,8,0:0:0:0:
256,192,167552,1,0,0:0:0:0:
256,192,167710,1,0,0:0:0:0:
256,192,167868,1,8,0:0:0:0:
256,192,167947,1,0,0:0:0:0:
256,192,168026,1,8,0:0:0:0:
256,192,168105,1,8,0:0:0:0:
256,192,168184,1,0,0:0:0:0:
256,192,168342,1,0,0:0:0:0:
256,192,168500,1,8,0:0:0:0:
256,192,168657,1,8,0:0:0:0:
256,192,168736,1,8,0:0:0:0:
256,192,168815,1,0,0:0:0:0:
256,192,168973,1,0,0:0:0:0:
256,192,169131,1,8,0:0:0:0:
256,192,169210,1,8,0:0:0:0:
256,192,169289,1,0,0:0:0:0:
256,192,169368,1,0,0:0:0:0:
256,192,169447,1,8,0:0:0:0:
256,192,169605,1,0,0:0:0:0:
256,192,169763,1,8,0:0:0:0:
256,192,169921,1,0,0:0:0:0:
256,192,170078,1,8,0:0:0:0:
256,192,170236,1,0,0:0:0:0:
256,192,170394,1,8,0:0:0:0:
256,192,170552,1,0,0:0:0:0:
256,192,170710,1,8,0:0:0:0:
256,192,170789,1,0,0:0:0:0:
256,192,170868,1,8,0:0:0:0:
256,192,170947,1,0,0:0:0:0:
256,192,171026,1,8,0:0:0:0:
256,192,171105,1,0,0:0:0:0:
256,192,171184,1,8,0:0:0:0:
256,192,171263,1,0,0:0:0:0:
256,192,171342,1,8,0:0:0:0:
256,192,171973,1,4,0:0:0:0:
256,192,172131,1,8,0:0:0:0:
256,192,172289,1,0,0:0:0:0:
256,192,172447,1,8,0:0:0:0:
256,192,172605,1,0,0:0:0:0:
256,192,172763,1,8,0:0:0:0:
256,192,172921,1,0,0:0:0:0:
256,192,173078,1,8,0:0:0:0:
256,192,173236,1,0,0:0:0:0:
256,192,173394,1,8,0:0:0:0:
256,192,173552,1,0,0:0:0:0:
256,192,173710,1,8,0:0:0:0:
256,192,173868,1,0,0:0:0:0:
256,192,174026,1,8,0:0:0:0:
256,192,174184,1,0,0:0:0:0:
256,192,174342,1,8,0:0:0:0:
256,192,174500,1,0,0:0:0:0:
256,192,174657,1,8,0:0:0:0:
256,192,174815,1,0,0:0:0:0:
256,192,174973,1,8,0:0:0:0:
256,192,175131,1,0,0:0:0:0:
256,192,175289,1,8,0:0:0:0:
256,192,175447,1,8,0:0:0:0:
256,192,175500,1,8,0:0:0:0:
256,192,175552,1,8,0:0:0:0:
256,192,175605,1,8,0:0:0:0:
256,192,175763,1,0,0:0:0:0:
256,192,175921,1,8,0:0:0:0:
256,192,176078,1,0,0:0:0:0:
256,192,176236,1,8,0:0:0:0:
256,192,176394,1,0,0:0:0:0:
256,192,176552,1,8,0:0:0:0:
256,192,176710,1,8,0:0:0:0:
256,192,176763,1,8,0:0:0:0:
256,192,176815,1,8,0:0:0:0:
256,192,176868,1,8,0:0:0:0:
256,192,177026,1,4,0:0:0:0:
256,192,177184,1,0,0:0:0:0:
256,192,177342,1,0,0:0:0:0:
256,192,177500,1,0,0:0:0:0:
256,192,177657,1,0,0:0:0:0:
256,192,177815,1,0,0:0:0:0:
256,192,177973,1,8,0:0:0:0:
256,192,178026,1,8,0:0:0:0:
256,192,178078,1,8,0:0:0:0:
256,192,178131,1,8,0:0:0:0:
256,192,178289,1,0,0:0:0:0:
256,192,178368,1,0,0:0:0:0:
256,192,178447,1,0,0:0:0:0:
256,192,178526,1,0,0:0:0:0:
256,192,178605,1,0,0:0:0:0:
256,192,178684,1,0,0:0:0:0:
256,192,178763,1,0,0:0:0:0:
256,192,178842,1,0,0:0:0:0:
256,192,178921,1,0,0:0:0:0:
256,192,179000,1,0,0:0:0:0:
256,192,179078,1,0,0:0:0:0:
256,192,179157,1,0,0:0:0:0:
256,192,179236,1,8,0:0:0:0:
256,192,179289,1,8,0:0:0:0:
256,192,179342,1,8,0:0:0:0:
256,192,179394,1,8,0:0:0:0:
256,192,179552,1,4,0:0:0:0:
256,192,180815,1,8,0:0:0:0:
256,192,181131,1,8,0:0:0:0:
256,192,181447,1,8,0:0:0:0:
256,192,181552,1,8,0:0:0:0:
256,192,181657,1,8,0:0:0:0:
256,192,181763,1,8,0:0:0:0:
256,192,181868,1,8,0:0:0:0:
256,192,181973,1,8,0:0:0:0:
256,192,182078,1,0,0:0:0:0:
256,192,182184,1,8,0:0:0:0:
256,192,182289,1,8,0:0:0:0:
256,192,182394,1,0,0:0:0:0:
256,192,182500,1,8,0:0:0:0:
256,192,182605,1,8,0:0:0:0:
256,192,182710,1,0,0:0:0:0:
256,192,182815,1,0,0:0:0:0:
256,192,182921,1,0,0:0:0:0:
256,192,183026,1,8,0:0:0:0:
256,192,183131,1,8,0:0:0:0:
256,192,183236,1,8,0:0:0:0:
256,192,183342,1,0,0:0:0:0:
256,192,183394,1,0,0:0:0:0:
256,192,183447,1,8,0:0:0:0:
256,192,183500,1,8,0:0:0:0:
256,192,183552,1,0,0:0:0:0:
256,192,183657,1,8,0:0:0:0:
256,192,183763,1,0,0:0:0:0:
256,192,183868,1,0,0:0:0:0:
256,192,183973,1,8,0:0:0:0:
256,192,184026,1,8,0:0:0:0:
256,192,184078,1,0,0:0:0:0:
256,192,184184,1,8,0:0:0:0:
256,192,184289,1,0,0:0:0:0:
256,192,184342,1,0,0:0:0:0:
256,192,184394,1,8,0:0:0:0:
256,192,184500,1,0,0:0:0:0:
256,192,184605,1,8,0:0:0:0:
256,192,184657,1,0,0:0:0:0:
256,192,184710,1,8,0:0:0:0:
256,192,184763,1,8,0:0:0:0:
256,192,184815,1,0,0:0:0:0:
256,192,184921,1,8,0:0:0:0:
256,192,185026,1,0,0:0:0:0:
256,192,185078,1,0,0:0:0:0:
256,192,185131,1,8,0:0:0:0:
256,192,185236,1,0,0:0:0:0:
256,192,185342,1,0,0:0:0:0:
256,192,185447,1,0,0:0:0:0:
256,192,185552,1,8,0:0:0:0:
256,192,185657,1,8,0:0:0:0:
256,192,185763,1,8,0:0:0:0:
256,192,185868,1,0,0:0:0:0:
256,192,185921,1,0,0:0:0:0:
256,192,185973,1,8,0:0:0:0:
256,192,186078,1,0,0:0:0:0:
256,192,186184,1,8,0:0:0:0:
256,192,186236,1,8,0:0:0:0:
256,192,186289,1,0,0:0:0:0:
256,192,186394,1,8,0:0:0:0:
256,192,186500,1,0,0:0:0:0:
256,192,186552,1,0,0:0:0:0:
256,192,186605,1,8,0:0:0:0:
256,192,186657,1,8,0:0:0:0:
256,192,186710,1,0,0:0:0:0:
256,192,186815,1,8,0:0:0:0:
256,192,186921,1,0,0:0:0:0:
256,192,186973,1,0,0:0:0:0:
256,192,187026,1,8,0:0:0:0:
256,192,187131,1,0,0:0:0:0:
256,192,187236,1,8,0:0:0:0:
256,192,187289,1,0,0:0:0:0:
256,192,187342,1,8,0:0:0:0:
256,192,187394,1,8,0:0:0:0:
256,192,187447,1,0,0:0:0:0:
256,192,187552,1,8,0:0:0:0:
256,192,187657,1,8,0:0:0:0:
256,192,187763,1,0,0:0:0:0:
256,192,187868,1,8,0:0:0:0:
256,192,187973,1,8,0:0:0:0:
256,192,188078,1,0,0:0:0:0:
256,192,188184,1,0,0:0:0:0:
256,192,188289,1,0,0:0:0:0:
256,192,188394,1,8,0:0:0:0:
256,192,188500,1,0,0:0:0:0:
256,192,188605,1,8,0:0:0:0:
256,192,188710,1,8,0:0:0:0:
256,192,188815,1,0,0:0:0:0:
256,192,188921,1,8,0:0:0:0:
256,192,189026,1,0,0:0:0:0:
256,192,189131,1,0,0:0:0:0:
256,192,189236,1,0,0:0:0:0:
256,192,189342,1,8,0:0:0:0:
256,192,189447,1,8,0:0:0:0:
256,192,189552,1,8,0:0:0:0:
256,192,189657,1,0,0:0:0:0:
256,192,189710,1,0,0:0:0:0:
256,192,189763,1,8,0:0:0:0:
256,192,189868,1,0,0:0:0:0:
256,192,189973,1,0,0:0:0:0:
256,192,190026,1,0,0:0:0:0:
256,192,190078,1,8,0:0:0:0:
256,192,190184,1,0,0:0:0:0:
256,192,190289,1,8,0:0:0:0:
256,192,190342,1,0,0:0:0:0:
256,192,190394,1,8,0:0:0:0:
256,192,190447,1,0,0:0:0:0:
256,192,190500,1,8,0:0:0:0:
256,192,190605,1,0,0:0:0:0:
256,192,190710,1,0,0:0:0:0:
256,192,190815,1,0,0:0:0:0:
256,192,190921,1,8,0:0:0:0:
256,192,190973,1,8,0:0:0:0:
256,192,191026,1,8,0:0:0:0:
256,192,191131,1,0,0:0:0:0:
256,192,191236,1,8,0:0:0:0:
256,192,191342,1,8,0:0:0:0:
256,192,191447,1,8,0:0:0:0:
256,192,191552,1,0,0:0:0:0:
256,192,191605,1,0,0:0:0:0:
256,192,191657,1,8,0:0:0:0:
256,192,191763,1,0,0:0:0:0:
256,192,191868,1,8,0:0:0:0:
256,192,191921,1,8,0:0:0:0:
256,192,191973,1,0,0:0:0:0:
256,192,192078,1,8,0:0:0:0:
256,192,192184,1,0,0:0:0:0:
256,192,192289,1,8,0:0:0:0:
256,192,192394,1,8,0:0:0:0:
256,192,192500,1,0,0:0:0:0:
256,192,192605,1,8,0:0:0:0:
256,192,192710,1,8,0:0:0:0:
256,192,192815,1,0,0:0:0:0:
256,192,192921,1,0,0:0:0:0:
256,192,193026,1,0,0:0:0:0:
256,192,193131,1,8,0:0:0:0:
256,192,193236,1,8,0:0:0:0:
256,192,193342,1,8,0:0:0:0:
256,192,193447,1,0,0:0:0:0:
256,192,193500,1,0,0:0:0:0:
256,192,193552,1,8,0:0:0:0:
256,192,193657,1,0,0:0:0:0:
256,192,193763,1,8,0:0:0:0:
256,192,193815,1,8,0:0:0:0:
256,192,193868,1,0,0:0:0:0:
256,192,193921,1,0,0:0:0:0:
256,192,193973,1,8,0:0:0:0:
256,192,194078,1,0,0:0:0:0:
256,192,194184,1,0,0:0:0:0:
256,192,194289,1,8,0:0:0:0:
256,192,194342,1,0,0:0:0:0:
256,192,194394,1,8,0:0:0:0:
256,192,194447,1,8,0:0:0:0:
256,192,194500,1,0,0:0:0:0:
256,192,194605,1,8,0:0:0:0:
256,192,194710,1,0,0:0:0:0:
256,192,194815,1,0,0:0:0:0:
256,192,194921,1,0,0:0:0:0:
256,192,195026,1,8,0:0:0:0:
256,192,195078,1,8,0:0:0:0:
256,192,195131,1,0,0:0:0:0:
256,192,195236,1,8,0:0:0:0:
256,192,195342,1,0,0:0:0:0:
256,192,195394,1,0,0:0:0:0:
256,192,195447,1,8,0:0:0:0:
256,192,195552,1,0,0:0:0:0:
256,192,195657,1,8,0:0:0:0:
256,192,195710,1,8,0:0:0:0:
256,192,195763,1,8,0:0:0:0:
256,192,195815,1,8,0:0:0:0:
256,192,195868,1,0,0:0:0:0:
256,192,195973,1,8,0:0:0:0:
256,192,196078,1,0,0:0:0:0:
256,192,196131,1,0,0:0:0:0:
256,192,196184,1,8,0:0:0:0:
256,192,196289,1,8,0:0:0:0:
256,192,196394,1,0,0:0:0:0:
256,192,196447,1,0,0:0:0:0:
256,192,196500,1,8,0:0:0:0:
256,192,196605,1,8,0:0:0:0:
256,192,196710,1,8,0:0:0:0:
256,192,196815,1,8,0:0:0:0:
256,192,196921,1,0,0:0:0:0:
256,192,196973,1,0,0:0:0:0:
256,192,197026,1,0,0:0:0:0:
256,192,197078,1,0,0:0:0:0:
256,192,197131,1,8,0:0:0:0:
256,192,197236,1,0,0:0:0:0:
256,192,197342,1,8,0:0:0:0:
256,192,197447,1,8,0:0:0:0:
256,192,197552,1,0,0:0:0:0:
256,192,197605,1,8,0:0:0:0:
256,192,197657,1,0,0:0:0:0:
256,192,197763,1,8,0:0:0:0:
256,192,197868,1,0,0:0:0:0:
256,192,197973,1,0,0:0:0:0:
256,192,198078,1,0,0:0:0:0:
256,192,198184,1,8,0:0:0:0:
256,192,198236,1,0,0:0:0:0:
256,192,198289,1,8,0:0:0:0:
256,192,198342,1,0,0:0:0:0:
256,192,198394,1,8,0:0:0:0:
256,192,198500,1,0,0:0:0:0:
256,192,198552,1,0,0:0:0:0:
256,192,198605,1,0,0:0:0:0:
256,192,198710,1,8,0:0:0:0:
256,192,198815,1,0,0:0:0:0:
256,192,198868,1,0,0:0:0:0:
256,192,198921,1,0,0:0:0:0:
256,192,199026,1,0,0:0:0:0:
256,192,199131,1,8,0:0:0:0:
256,192,199184,1,8,0:0:0:0:
256,192,199236,1,8,0:0:0:0:
256,192,199342,1,8,0:0:0:0:
256,192,199447,1,0,0:0:0:0:
256,192,199500,1,0,0:0:0:0:
256,192,199552,1,8,0:0:0:0:
256,192,199605,1,8,0:0:0:0:
256,192,199657,1,0,0:0:0:0:
256,192,199763,1,8,0:0:0:0:
256,192,199868,1,8,0:0:0:0:
256,192,199973,1,0,0:0:0:0:
256,192,200078,1,8,0:0:0:0:
256,192,200184,1,0,0:0:0:0:
256,192,200289,1,0,0:0:0:0:
256,192,200394,1,8,0:0:0:0:
256,192,200447,1,8,0:0:0:0:
256,192,200500,1,0,0:0:0:0:
256,192,200605,1,0,0:0:0:0:
256,192,200710,1,8,0:0:0:0:
256,192,200763,1,0,0:0:0:0:
256,192,200815,1,8,0:0:0:0:
256,192,200921,1,0,0:0:0:0:
256,192,201026,1,8,0:0:0:0:
256,192,201131,1,8,0:0:0:0:
256,192,201236,1,0,0:0:0:0:
256,192,201342,1,8,0:0:0:0:
256,192,201447,1,0,0:0:0:0:
256,192,201552,1,0,0:0:0:0:
256,192,201657,1,8,0:0:0:0:
256,192,201763,1,0,0:0:0:0:
256,192,201868,1,8,0:0:0:0:
256,192,201921,1,0,0:0:0:0:
256,192,201973,1,8,0:0:0:0:
256,192,202026,1,8,0:0:0:0:
256,192,202078,1,0,0:0:0:0:
256,192,202184,1,8,0:0:0:0:
256,192,202289,1,0,0:0:0:0:
256,192,202394,1,0,0:0:0:0:
256,192,202500,1,0,0:0:0:0:
256,192,202605,1,8,0:0:0:0:
256,192,202657,1,0,0:0:0:0:
256,192,202710,1,8,0:0:0:0:
256,192,202815,1,0,0:0:0:0:
256,192,202921,1,8,0:0:0:0:
256,192,203026,1,8,0:0:0:0:
256,192,203131,1,0,0:0:0:0:
256,192,203236,1,8,0:0:0:0:
256,192,203289,1,8,0:0:0:0:
256,192,203342,1,0,0:0:0:0:
256,192,203447,1,0,0:0:0:0:
256,192,203552,1,8,0:0:0:0:
256,192,203605,1,0,0:0:0:0:
256,192,203657,1,8,0:0:0:0:
256,192,203763,1,0,0:0:0:0:
256,192,203868,1,8,0:0:0:0:
256,192,203921,1,0,0:0:0:0:
256,192,203973,1,8,0:0:0:0:
256,192,204026,1,8,0:0:0:0:
256,192,204078,1,0,0:0:0:0:
256,192,204184,1,8,0:0:0:0:
256,192,204289,1,8,0:0:0:0:
256,192,204394,1,0,0:0:0:0:
256,192,204500,1,8,0:0:0:0:
256,192,204605,1,0,0:0:0:0:
256,192,204710,1,0,0:0:0:0:
256,192,204815,1,8,0:0:0:0:
256,192,204921,1,0,0:0:0:0:
256,192,205026,1,8,0:0:0:0:
256,192,205078,1,8,0:0:0:0:
256,192,205131,1,0,0:0:0:0:
256,192,205184,1,0,0:0:0:0:
256,192,205236,1,8,0:0:0:0:
256,192,205342,1,0,0:0:0:0:
256,192,205447,1,8,0:0:0:0:
256,192,205552,1,8,0:0:0:0:
256,192,205657,1,8,0:0:0:0:
256,192,205763,1,0,0:0:0:0:
256,192,205815,1,0,0:0:0:0:
256,192,205868,1,8,0:0:0:0:
256,192,205973,1,0,0:0:0:0:
256,192,206078,1,8,0:0:0:0:
256,192,206184,1,8,0:0:0:0:
256,192,206289,1,0,0:0:0:0:
256,192,206394,1,8,0:0:0:0:
256,192,206500,1,0,0:0:0:0:
256,192,206605,1,0,0:0:0:0:
256,192,206710,1,8,0:0:0:0:
256,192,206815,1,8,0:0:0:0:
256,192,206921,1,0,0:0:0:0:
256,192,207026,1,8,0:0:0:0:
256,192,207131,1,0,0:0:0:0:
256,192,207236,1,0,0:0:0:0:
256,192,207342,1,8,0:0:0:0:
256,192,207394,1,8,0:0:0:0:
256,192,207447,1,0,0:0:0:0:
256,192,207552,1,8,0:0:0:0:
256,192,207657,1,0,0:0:0:0:
256,192,207710,1,0,0:0:0:0:
256,192,207763,1,8,0:0:0:0:
256,192,207868,1,0,0:0:0:0:
256,192,207973,1,8,0:0:0:0:
256,192,208078,1,8,0:0:0:0:
256,192,208184,1,8,0:0:0:0:
256,192,208289,1,0,0:0:0:0:
256,192,208394,1,0,0:0:0:0:
256,192,208500,1,0,0:0:0:0:
256,192,208605,1,8,0:0:0:0:
256,192,208657,1,8,0:0:0:0:
256,192,208710,1,0,0:0:0:0:
256,192,208815,1,8,0:0:0:0:
256,192,208921,1,0,0:0:0:0:
256,192,208973,1,0,0:0:0:0:
256,192,209026,1,0,0:0:0:0:
256,192,209078,1,0,0:0:0:0:
256,192,209131,1,8,0:0:0:0:
256,192,209236,1,0,0:0:0:0:
256,192,209342,1,8,0:0:0:0:
256,192,209447,1,0,0:0:0:0:
256,192,209552,1,8,0:0:0:0:
256,192,209605,1,8,0:0:0:0:
256,192,209657,1,8,0:0:0:0:
256,192,209710,1,8,0:0:0:0:
256,192,209763,1,0,0:0:0:0:
256,192,209868,1,8,0:0:0:0:
256,192,209973,1,0,0:0:0:0:
256,192,210078,1,0,0:0:0:0:
256,192,210184,1,8,0:0:0:0:
256,192,210236,1,8,0:0:0:0:
256,192,210289,1,0,0:0:0:0:
256,192,210394,1,8,0:0:0:0:
256,192,210500,1,0,0:0:0:0:
256,192,210605,1,8,0:0:0:0:
256,192,210710,1,8,0:0:0:0:
256,192,210815,1,0,0:0:0:0:
256,192,210868,1,0,0:0:0:0:
256,192,210921,1,8,0:0:0:0:
256,192,211026,1,0,0:0:0:0:
256,192,211131,1,8,0:0:0:0:
256,192,211236,1,8,0:0:0:0:
256,192,211342,1,8,0:0:0:0:
256,192,211447,1,0,0:0:0:0:
256,192,211500,1,0,0:0:0:0:
256,192,211552,1,8,0:0:0:0:
256,192,211657,1,0,0:0:0:0:
256,192,211763,1,8,0:0:0:0:
256,192,211815,1,8,0:0:0:0:
256,192,211868,1,0,0:0:0:0:
256,192,211973,1,8,0:0:0:0:
256,192,212078,1,0,0:0:0:0:
256,192,212131,1,0,0:0:0:0:
256,192,212184,1,8,0:0:0:0:
256,192,212289,1,0,0:0:0:0:
256,192,212394,1,8,0:0:0:0:
256,192,212500,1,8,0:0:0:0:
256,192,212605,1,0,0:0:0:0:
256,192,212710,1,8,0:0:0:0:
256,192,212815,1,0,0:0:0:0:
256,192,212921,1,0,0:0:0:0:
256,192,213026,1,8,0:0:0:0:
256,192,213131,1,8,0:0:0:0:
256,192,213236,1,0,0:0:0:0:
256,192,213342,1,8,0:0:0:0:
256,192,213447,1,0,0:0:0:0:
256,192,213552,1,0,0:0:0:0:
256,192,213657,1,8,0:0:0:0:
256,192,213763,1,8,0:0:0:0:
256,192,213868,1,8,0:0:0:0:
256,192,213973,1,0,0:0:0:0:
256,192,214078,1,0,0:0:0:0:
256,192,214184,1,0,0:0:0:0:
256,192,214289,1,8,0:0:0:0:
256,192,214394,1,0,0:0:0:0:
256,192,214500,1,0,0:0:0:0:
256,192,214605,1,8,0:0:0:0:
256,192,214710,1,0,0:0:0:0:
256,192,214815,1,0,0:0:0:0:
256,192,214921,1,8,0:0:0:0:
256,192,215131,1,0,0:0:0:0:
256,192,215236,1,8,0:0:0:0:
256,192,215447,1,0,0:0:0:0:
256,192,215552,1,8,0:0:0:0:
256,192,215657,1,0,0:0:0:0:
256,192,215763,1,0,0:0:0:0:
256,192,215868,1,8,0:0:0:0:
256,192,216078,1,0,0:0:0:0:
256,192,216184,1,8,0:0:0:0:
256,192,216394,1,0,0:0:0:0:
256,192,216500,1,8,0:0:0:0:
256,192,216605,1,8,0:0:0:0:
256,192,216710,1,0,0:0:0:0:
256,192,216815,1,8,0:0:0:0:
256,192,216921,1,0,0:0:0:0:
256,192,217026,1,0,0:0:0:0:
256,192,217131,1,8,0:0:0:0:
256,192,217342,1,0,0:0:0:0:
256,192,217447,1,8,0:0:0:0:
256,192,217657,1,8,0:0:0:0:
256,192,217763,1,0,0:0:0:0:
256,192,217868,1,8,0:0:0:0:
256,192,218078,1,0,0:0:0:0:
256,192,218289,1,8,0:0:0:0:
256,192,218394,1,8,0:0:0:0:
256,192,218500,1,0,0:0:0:0:
256,192,218710,1,8,0:0:0:0:
256,192,218815,1,0,0:0:0:0:
256,192,218921,1,0,0:0:0:0:
256,192,219026,1,8,0:0:0:0:
256,192,219131,1,8,0:0:0:0:
256,192,219342,1,0,0:0:0:0:
256,192,219447,1,0,0:0:0:0:
256,192,219552,1,0,0:0:0:0:
256,192,219657,1,8,0:0:0:0:
256,192,219763,1,0,0:0:0:0:
256,192,219973,1,8,0:0:0:0:
256,192,220289,1,8,0:0:0:0:
256,192,220605,1,8,0:0:0:0:
256,192,220921,1,8,0:0:0:0:
256,192,221236,1,0,0:0:0:0:
256,192,221552,1,0,0:0:0:0:
256,192,221868,1,0,0:0:0:0:
256,192,222184,1,0,0:0:0:0:
256,192,222500,1,12,0:0:0:0:
256,192,225026,1,0,0:0:0:0:
256,192,225342,1,0,0:0:0:0:
256,192,225657,1,0,0:0:0:0:
256,192,225973,1,0,0:0:0:0:
256,192,226289,1,0,0:0:0:0:
256,192,226605,1,0,0:0:0:0:
256,192,226921,1,0,0:0:0:0:
256,192,227236,1,0,0:0:0:0:
256,192,227552,1,0,0:0:0:0:
256,192,227710,1,0,0:0:0:0:
256,192,227789,1,0,0:0:0:0:
256,192,227868,1,0,0:0:0:0:
256,192,228026,1,0,0:0:0:0:
256,192,228184,1,0,0:0:0:0:
256,192,228342,1,0,0:0:0:0:
256,192,228421,1,0,0:0:0:0:
256,192,228500,1,0,0:0:0:0:
256,192,228657,1,0,0:0:0:0:
256,192,228815,1,0,0:0:0:0:
256,192,228973,1,0,0:0:0:0:
256,192,229052,1,0,0:0:0:0:
256,192,229131,1,0,0:0:0:0:
256,192,229289,1,0,0:0:0:0:
256,192,229447,1,0,0:0:0:0:
256,192,229605,1,0,0:0:0:0:
256,192,229684,1,0,0:0:0:0:
256,192,229763,1,0,0:0:0:0:
256,192,229921,1,0,0:0:0:0:
256,192,230078,1,0,0:0:0:0:
256,192,230157,1,0,0:0:0:0:
256,192,230236,1,0,0:0:0:0:
256,192,230315,1,0,0:0:0:0:
256,192,230394,1,0,0:0:0:0:
256,192,230473,1,0,0:0:0:0:
256,192,230552,1,0,0:0:0:0:
256,192,230631,1,0,0:0:0:0:
256,192,230710,1,0,0:0:0:0:
256,192,230789,1,0,0:0:0:0:
256,192,230868,1,0,0:0:0:0:
256,192,230947,1,0,0:0:0:0:
256,192,231026,1,0,0:0:0:0:
256,192,231105,1,0,0:0:0:0:
256,192,231184,1,0,0:0:0:0:
256,192,231263,1,0,0:0:0:0:
256,192,231342,1,0,0:0:0:0:
256,192,231421,1,0,0:0:0:0:
256,192,231500,1,0,0:0:0:0:
256,192,231578,1,0,0:0:0:0:
256,192,231657,1,0,0:0:0:0:
256,192,231736,1,0,0:0:0:0:
256,192,231815,1,0,0:0:0:0:
256,192,231894,1,0,0:0:0:0:
256,192,231973,1,0,0:0:0:0:
256,192,232052,1,0,0:0:0:0:
256,192,232131,1,0,0:0:0:0:
256,192,232210,1,0,0:0:0:0:
256,192,232289,1,0,0:0:0:0:
256,192,232368,1,0,0:0:0:0:
256,192,232447,1,0,0:0:0:0:
256,192,232526,1,0,0:0:0:0:
256,192,232605,1,0,0:0:0:0:
256,192,232684,1,0,0:0:0:0:
256,192,232763,1,0,0:0:0:0:
256,192,232842,1,0,0:0:0:0:
256,192,232921,1,0,0:0:0:0:
256,192,233000,1,0,0:0:0:0:
256,192,233078,1,0,0:0:0:0:
256,192,233157,1,0,0:0:0:0:
256,192,233236,1,0,0:0:0:0:
256,192,233315,1,0,0:0:0:0:
256,192,233394,1,0,0:0:0:0:
256,192,233473,1,0,0:0:0:0:
256,192,233552,1,0,0:0:0:0:
256,192,233631,1,0,0:0:0:0:
256,192,233710,1,0,0:0:0:0:
256,192,233789,1,0,0:0:0:0:
256,192,233868,1,0,0:0:0:0:
256,192,233947,1,0,0:0:0:0:
256,192,234026,1,0,0:0:0:0:
256,192,234105,1,0,0:0:0:0:
256,192,234184,1,0,0:0:0:0:
256,192,234263,1,0,0:0:0:0:
256,192,234342,1,0,0:0:0:0:
256,192,234421,1,0,0:0:0:0:
256,192,234500,1,0,0:0:0:0:
256,192,234578,1,0,0:0:0:0:
256,192,234657,1,0,0:0:0:0:
256,192,234736,1,0,0:0:0:0:
256,192,234815,1,0,0:0:0:0:
256,192,234894,1,0,0:0:0:0:
256,192,234973,1,0,0:0:0:0:
256,192,235052,1,0,0:0:0:0:
256,192,235131,1,0,0:0:0:0:
256,192,235447,1,0,0:0:0:0:
256,192,235763,1,0,0:0:0:0:
256,192,236078,1,0,0:0:0:0:
256,192,236394,1,0,0:0:0:0:
256,192,236710,1,0,0:0:0:0:
256,192,237026,1,0,0:0:0:0:
256,192,237342,1,0,0:0:0:0:
256,192,237657,1,0,0:0:0:0:
256,192,237894,1,8,0:0:0:0:
256,192,237973,1,0,0:0:0:0:
256,192,238131,1,8,0:0:0:0:
256,192,238289,1,0,0:0:0:0:
256,192,238447,1,8,0:0:0:0:
256,192,238526,1,8,0:0:0:0:
256,192,238605,1,0,0:0:0:0:
256,192,238763,1,8,0:0:0:0:
256,192,238921,1,0,0:0:0:0:
256,192,239157,1,8,0:0:0:0:
256,192,239236,1,0,0:0:0:0:
256,192,239394,1,8,0:0:0:0:
256,192,239473,1,0,0:0:0:0:
256,192,239552,1,8,0:0:0:0:
256,192,239710,1,0,0:0:0:0:
256,192,239868,1,8,0:0:0:0:
256,192,239947,1,8,0:0:0:0:
256,192,240026,1,8,0:0:0:0:
256,192,240184,1,0,0:0:0:0:
256,192,240342,1,8,0:0:0:0:
256,192,240500,1,0,0:0:0:0:
256,192,240578,1,0,0:0:0:0:
256,192,240657,1,8,0:0:0:0:
256,192,240736,1,8,0:0:0:0:
256,192,240815,1,0,0:0:0:0:
256,192,240973,1,8,0:0:0:0:
256,192,241131,1,0,0:0:0:0:
256,192,241210,1,0,0:0:0:0:
256,192,241289,1,8,0:0:0:0:
256,192,241368,1,8,0:0:0:0:
256,192,241447,1,0,0:0:0:0:
256,192,241526,1,8,0:0:0:0:
256,192,241605,1,8,0:0:0:0:
256,192,241684,1,8,0:0:0:0:
256,192,241763,1,0,0:0:0:0:
256,192,241842,1,8,0:0:0:0:
256,192,241921,1,0,0:0:0:0:
256,192,242000,1,0,0:0:0:0:
256,192,242078,1,8,0:0:0:0:
256,192,242236,1,8,0:0:0:0:
256,192,242394,1,8,0:0:0:0:
256,192,242473,1,8,0:0:0:0:
256,192,242552,1,8,0:0:0:0:
256,192,242631,1,8,0:0:0:0:
256,192,242710,1,0,0:0:0:0:
256,192,242789,1,0,0:0:0:0:
256,192,242868,1,8,0:0:0:0:
256,192,242947,1,8,0:0:0:0:
256,192,243026,1,0,0:0:0:0:
256,192,243105,1,0,0:0:0:0:
256,192,243184,1,8,0:0:0:0:
256,192,243263,1,0,0:0:0:0:
256,192,243342,1,0,0:0:0:0:
256,192,243421,1,0,0:0:0:0:
256,192,243500,1,8,0:0:0:0:
256,192,243578,1,8,0:0:0:0:
256,192,243657,1,0,0:0:0:0:
256,192,243736,1,0,0:0:0:0:
256,192,243815,1,8,0:0:0:0:
256,192,243894,1,0,0:0:0:0:
256,192,243973,1,0,0:0:0:0:
256,192,244052,1,0,0:0:0:0:
256,192,244131,1,8,0:0:0:0:
256,192,244210,1,8,0:0:0:0:
256,192,244289,1,0,0:0:0:0:
256,192,244447,1,0,0:0:0:0:
256,192,244526,1,0,0:0:0:0:
256,192,244605,1,8,0:0:0:0:
256,192,244763,1,8,0:0:0:0:
256,192,244842,1,0,0:0:0:0:
256,192,244921,1,8,0:0:0:0:
256,192,245000,1,8,0:0:0:0:
256,192,245078,1,0,0:0:0:0:
256,192,245236,1,8,0:0:0:0:
256,192,245394,1,0,0:0:0:0:
256,192,245473,1,8,0:0:0:0:
256,192,245552,1,0,0:0:0:0:
256,192,245710,1,0,0:0:0:0:
256,192,245789,1,0,0:0:0:0:
256,192,245868,1,8,0:0:0:0:
256,192,245947,1,0,0:0:0:0:
256,192,246026,1,8,0:0:0:0:
256,192,246184,1,8,0:0:0:0:
256,192,246263,1,8,0:0:0:0:
256,192,246342,1,0,0:0:0:0:
256,192,246500,1,0,0:0:0:0:
256,192,246578,1,0,0:0:0:0:
256,192,246657,1,8,0:0:0:0:
256,192,246736,1,8,0:0:0:0:
256,192,246815,1,0,0:0:0:0:
256,192,246894,1,8,0:0:0:0:
256,192,246973,1,8,0:0:0:0:
256,192,247052,1,8,0:0:0:0:
256,192,247131,1,0,0:0:0:0:
256,192,247289,1,8,0:0:0:0:
256,192,247368,1,0,0:0:0:0:
256,192,247447,1,8,0:0:0:0:
256,192,247605,1,8,0:0:0:0:
256,192,247763,1,0,0:0:0:0:
256,192,247842,1,0,0:0:0:0:
256,192,247921,1,8,0:0:0:0:
256,192,248078,1,0,0:0:0:0:
256,192,248236,1,8,0:0:0:0:
256,192,248315,1,8,0:0:0:0:
256,192,248394,1,0,0:0:0:0:
256,192,248473,1,0,0:0:0:0:
256,192,248552,1,8,0:0:0:0:
256,192,248710,1,0,0:0:0:0:
256,192,248789,1,8,0:0:0:0:
256,192,248868,1,0,0:0:0:0:
256,192,249026,1,8,0:0:0:0:
256,192,249105,1,0,0:0:0:0:
256,192,249184,1,8,0:0:0:0:
256,192,249263,1,8,0:0:0:0:
256,192,249342,1,0,0:0:0:0:
256,192,249421,1,8,0:0:0:0:
256,192,249500,1,0,0:0:0:0:
256,192,249578,1,0,0:0:0:0:
256,192,249657,1,8,0:0:0:0:
256,192,249815,1,0,0:0:0:0:
256,192,249894,1,0,0:0:0:0:
256,192,249973,1,8,0:0:0:0:
256,192,250052,1,0,0:0:0:0:
256,192,250131,1,8,0:0:0:0:
256,192,250289,1,0,0:0:0:0:
256,192,250447,1,8,0:0:0:0:
256,192,250605,1,0,0:0:0:0:
256,192,250684,1,8,0:0:0:0:
256,192,250842,1,0,0:0:0:0:
256,192,250921,1,8,0:0:0:0:
256,192,251000,1,8,0:0:0:0:
256,192,251078,1,0,0:0:0:0:
256,192,251236,1,8,0:0:0:0:
256,192,251394,1,8,0:0:0:0:
256,192,251552,1,0,0:0:0:0:
256,192,251631,1,8,0:0:0:0:
256,192,251710,1,0,0:0:0:0:
256,192,251789,1,0,0:0:0:0:
256,192,251868,1,8,0:0:0:0:
256,192,251947,1,0,0:0:0:0:
256,192,252026,1,8,0:0:0:0:
256,192,252105,1,8,0:0:0:0:
256,192,252184,1,0,0:0:0:0:
256,192,252342,1,8,0:0:0:0:
256,192,252421,1,0,0:0:0:0:
256,192,252500,1,8,0:0:0:0:
256,192,252657,1,0,0:0:0:0:
256,192,252815,1,8,0:0:0:0:
256,192,252973,1,0,0:0:0:0:
256,192,253052,1,8,0:0:0:0:
256,192,253131,1,0,0:0:0:0:
256,192,253289,1,8,0:0:0:0:
256,192,253447,1,0,0:0:0:0:
256,192,253526,1,8,0:0:0:0:
256,192,253605,1,0,0:0:0:0:
256,192,253763,1,8,0:0:0:0:
256,192,253921,1,0,0:0:0:0:
256,192,254000,1,8,0:0:0:0:
256,192,254078,1,0,0:0:0:0:
256,192,254157,1,0,0:0:0:0:
256,192,254236,1,8,0:0:0:0:
256,192,254394,1,8,0:0:0:0:
256,192,254552,1,0,0:0:0:0:
256,192,254631,1,0,0:0:0:0:
256,192,254710,1,8,0:0:0:0:
256,192,254868,1,0,0:0:0:0:
256,192,254947,1,0,0:0:0:0:
256,192,255026,1,8,0:0:0:0:
256,192,255105,1,8,0:0:0:0:
256,192,255184,1,0,0:0:0:0:
256,192,255342,1,8,0:0:0:0:
256,192,255500,1,0,0:0:0:0:
256,192,255578,1,8,0:0:0:0:
256,192,255657,1,0,0:0:0:0:
256,192,255815,1,8,0:0:0:0:
256,192,255973,1,0,0:0:0:0:
256,192,256052,1,8,0:0:0:0:
256,192,256131,1,0,0:0:0:0:
256,192,256289,1,8,0:0:0:0:
256,192,256447,1,0,0:0:0:0:
256,192,256526,1,8,0:0:0:0:
256,192,256605,1,0,0:0:0:0:
256,192,256684,1,0,0:0:0:0:
256,192,256763,1,8,0:0:0:0:
256,192,256921,1,8,0:0:0:0:
256,192,257078,1,0,0:0:0:0:
256,192,257157,1,0,0:0:0:0:
256,192,257236,1,8,0:0:0:0:
256,192,257394,1,0,0:0:0:0:
256,192,257473,1,0,0:0:0:0:
256,192,257552,1,8,0:0:0:0:
256,192,257631,1,8,0:0:0:0:
256,192,257710,1,0,0:0:0:0:
256,192,257868,1,8,0:0:0:0:
256,192,258026,1,0,0:0:0:0:
256,192,258105,1,8,0:0:0:0:
256,192,258184,1,0,0:0:0:0:
256,192,258342,1,8,0:0:0:0:
256,192,258500,1,0,0:0:0:0:
256,192,258578,1,8,0:0:0:0:
256,192,258657,1,0,0:0:0:0:
256,192,258815,1,8,0:0:0:0:
256,192,258973,1,0,0:0:0:0:
256,192,259052,1,8,0:0:0:0:
256,192,259131,1,0,0:0:0:0:
256,192,259210,1,0,0:0:0:0:
256,192,259289,1,8,0:0:0:0:
256,192,259447,1,8,0:0:0:0:
256,192,259605,1,0,0:0:0:0:
256,192,259684,1,0,0:0:0:0:
256,192,259763,1,8,0:0:0:0:
256,192,259921,1,0,0:0:0:0:
256,192,260000,1,8,0:0:0:0:
256,192,260078,1,8,0:0:0:0:
256,192,260157,1,8,0:0:0:0:
256,192,260236,1,0,0:0:0:0:
256,192,260394,1,8,0:0:0:0:
256,192,260552,1,0,0:0:0:0:
256,192,260631,1,8,0:0:0:0:
256,192,260710,1,0,0:0:0:0:
256,192,260868,1,8,0:0:0:0:
256,192,261026,1,0,0:0:0:0:
256,192,261105,1,8,0:0:0:0:
256,192,261184,1,0,0:0:0:0:
256,192,261342,1,8,0:0:0:0:
256,192,261500,1,0,0:0:0:0:
256,192,261578,1,0,0:0:0:0:
256,192,261657,1,8,0:0:0:0:
256,192,261736,1,0,0:0:0:0:
256,192,261815,1,8,0:0:0:0:
256,192,261894,1,8,0:0:0:0:
256,192,261973,1,0,0:0:0:0:
256,192,262052,1,8,0:0:0:0:
256,192,262131,1,0,0:0:0:0:
256,192,262210,1,0,0:0:0:0:
256,192,262289,1,8,0:0:0:0:
256,192,262447,1,8,0:0:0:0:
256,192,262605,1,0,0:0:0:0:
256,192,262684,1,0,0:0:0:0:
256,192,262763,1,0,0:0:0:0:
256,192,262921,1,8,0:0:0:0:
256,192,263000,1,8,0:0:0:0:
256,192,263078,1,0,0:0:0:0:
256,192,263157,1,0,0:0:0:0:
256,192,263236,1,8,0:0:0:0:
256,192,263394,1,8,0:0:0:0:
256,192,263552,1,0,0:0:0:0:
256,192,263631,1,8,0:0:0:0:
256,192,263710,1,8,0:0:0:0:
256,192,263789,1,0,0:0:0:0:
256,192,263868,1,0,0:0:0:0:
256,192,264026,1,8,0:0:0:0:
256,192,264184,1,0,0:0:0:0:
256,192,264263,1,0,0:0:0:0:
256,192,264342,1,0,0:0:0:0:
256,192,264421,1,0,0:0:0:0:
256,192,264500,1,8,0:0:0:0:
256,192,264657,1,0,0:0:0:0:
256,192,264736,1,8,0:0:0:0:
256,192,264894,1,0,0:0:0:0:
256,192,264973,1,0,0:0:0:0:
256,192,265052,1,0,0:0:0:0:
256,192,265131,1,8,0:0:0:0:
256,192,265210,1,8,0:0:0:0:
256,192,265289,1,8,0:0:0:0:
256,192,265368,1,8,0:0:0:0:
256,192,265447,1,0,0:0:0:0:
256,192,265526,1,8,0:0:0:0:
256,192,265605,1,0,0:0:0:0:
256,192,265684,1,0,0:0:0:0:
256,192,265763,1,8,0:0:0:0:
256,192,265921,1,0,0:0:0:0:
256,192,266078,1,0,0:0:0:0:
256,192,266157,1,8,0:0:0:0:
256,192,266315,1,0,0:0:0:0:
256,192,266394,1,8,0:0:0:0:
256,192,266473,1,8,0:0:0:0:
256,192,266552,1,0,0:0:0:0:
256,192,266710,1,8,0:0:0:0:
256,192,266868,1,0,0:0:0:0:
256,192,266947,1,0,0:0:0:0:
256,192,267026,1,8,0:0:0:0:
256,192,267184,1,8,0:0:0:0:
256,192,267342,1,0,0:0:0:0:
256,192,267421,1,0,0:0:0:0:
256,192,267500,1,8,0:0:0:0:
256,192,267578,1,0,0:0:0:0:
256,192,267657,1,8,0:0:0:0:
256,192,267736,1,8,0:0:0:0:
256,192,267815,1,0,0:0:0:0:
256,192,267973,1,8,0:0:0:0:
256,192,268131,1,0,0:0:0:0:
256,192,268210,1,0,0:0:0:0:
256,192,268289,1,8,0:0:0:0:
256,192,268447,1,0,0:0:0:0:
256,192,268605,1,8,0:0:0:0:
256,192,268684,1,8,0:0:0:0:
256,192,268763,1,0,0:0:0:0:
256,192,268842,1,0,0:0:0:0:
256,192,268921,1,8,0:0:0:0:
256,192,269078,1,0,0:0:0:0:
256,192,269236,1,8,0:0:0:0:
256,192,269315,1,8,0:0:0:0:
256,192,269394,1,0,0:0:0:0:
256,192,269552,1,8,0:0:0:0:
256,192,269710,1,8,0:0:0:0:
256,192,269868,1,0,0:0:0:0:
256,192,269947,1,0,0:0:0:0:
256,192,270026,1,8,0:0:0:0:
256,192,270184,1,8,0:0:0:0:
256,192,270263,1,8,0:0:0:0:
256,192,270342,1,0,0:0:0:0:
256,192,270500,1,8,0:0:0:0:
256,192,270815,1,8,0:0:0:0:
256,192,271131,1,8,0:0:0:0:
256,192,271447,1,8,0:0:0:0:
256,192,271763,1,0,0:0:0:0:
256,192,271842,1,0,0:0:0:0:
256,192,271921,1,0,0:0:0:0:
256,192,272000,1,0,0:0:0:0:
256,192,272078,1,8,0:0:0:0:
256,192,272157,1,8,0:0:0:0:
256,192,272236,1,8,0:0:0:0:
256,192,272315,1,8,0:0:0:0:
256,192,272394,1,0,0:0:0:0:
256,192,272473,1,0,0:0:0:0:
256,192,272552,1,0,0:0:0:0:
256,192,272631,1,0,0:0:0:0:
256,192,272710,1,8,0:0:0:0:
256,192,272868,1,0,0:0:0:0:
256,192,272947,1,0,0:0:0:0:
256,192,273026,1,8,0:0:0:0:
256,192,273105,1,8,0:0:0:0:
256,192,273184,1,0,0:0:0:0:
256,192,273263,1,0,0:0:0:0:
256,192,273342,1,8,0:0:0:0:
256,192,273421,1,0,0:0:0:0:
256,192,273500,1,8,0:0:0:0:
256,192,273578,1,8,0:0:0:0:
256,192,273657,1,0,0:0:0:0:
256,192,273710,1,0,0:0:0:0:
256,192,273763,1,0,0:0:0:0:
256,192,273815,1,8,0:0:0:0:
256,192,273894,1,8,0:0:0:0:
256,192,273973,1,0,0:0:0:0:
256,192,274026,1,0,0:0:0:0:
256,192,274078,1,0,0:0:0:0:
256,192,274131,1,8,0:0:0:0:
256,192,274210,1,8,0:0:0:0:
256,192,274289,1,0,0:0:0:0:
256,192,274368,1,0,0:0:0:0:
256,192,274447,1,0,0:0:0:0:
256,192,274526,1,0,0:0:0:0:
256,192,274605,1,8,0:0:0:0:
256,192,274684,1,8,0:0:0:0:
256,192,274763,1,8,0:0:0:0:
256,192,274842,1,8,0:0:0:0:
256,192,274921,1,0,0:0:0:0:
256,192,274973,1,0,0:0:0:0:
256,192,275026,1,0,0:0:0:0:
256,192,275078,1,8,0:0:0:0:
256,192,275157,1,0,0:0:0:0:
256,192,275236,1,8,0:0:0:0:
256,192,275315,1,8,0:0:0:0:
256,192,275394,1,0,0:0:0:0:
256,192,275473,1,0,0:0:0:0:
256,192,275552,1,8,0:0:0:0:
256,192,275631,1,0,0:0:0:0:
256,192,275710,1,8,0:0:0:0:
256,192,275789,1,0,0:0:0:0:
256,192,275868,1,8,0:0:0:0:
256,192,275947,1,8,0:0:0:0:
256,192,276026,1,8,0:0:0:0:
256,192,276105,1,0,0:0:0:0:
256,192,276184,1,8,0:0:0:0:
256,192,276236,1,8,0:0:0:0:
256,192,276289,1,8,0:0:0:0:
256,192,276342,1,0,0:0:0:0:
256,192,276421,1,0,0:0:0:0:
256,192,276500,1,8,0:0:0:0:
256,192,276578,1,0,0:0:0:0:
256,192,276657,1,8,0:0:0:0:
256,192,276736,1,8,0:0:0:0:
256,192,276815,1,0,0:0:0:0:
256,192,276894,1,8,0:0:0:0:
256,192,276973,1,0,0:0:0:0:
256,192,277052,1,0,0:0:0:0:
256,192,277131,1,8,0:0:0:0:
256,192,277210,1,0,0:0:0:0:
256,192,277289,1,8,0:0:0:0:
256,192,277342,1,0,0:0:0:0:
256,192,277394,1,0,0:0:0:0:
256,192,277447,1,8,0:0:0:0:
256,192,277526,1,0,0:0:0:0:
256,192,277605,1,8,0:0:0:0:
256,192,277657,1,8,0:0:0:0:
256,192,277710,1,8,0:0:0:0:
256,192,277763,1,0,0:0:0:0:
256,192,277842,1,0,0:0:0:0:
256,192,277921,1,8,0:0:0:0:
256,192,278000,1,8,0:0:0:0:
256,192,278078,1,0,0:0:0:0:
256,192,278131,1,0,0:0:0:0:
256,192,278184,1,0,0:0:0:0:
256,192,278236,1,8,0:0:0:0:
256,192,278315,1,8,0:0:0:0:
256,192,278394,1,0,0:0:0:0:
256,192,278447,1,0,0:0:0:0:
256,192,278500,1,0,0:0:0:0:
256,192,278552,1,8,0:0:0:0:
256,192,278631,1,8,0:0:0:0:
256,192,278710,1,0,0:0:0:0:
256,192,278789,1,8,0:0:0:0:
256,192,278868,1,0,0:0:0:0:
256,192,278947,1,0,0:0:0:0:
256,192,279026,1,8,0:0:0:0:
256,192,279105,1,0,0:0:0:0:
256,192,279184,1,8,0:0:0:0:
256,192,279263,1,8,0:0:0:0:
256,192,279342,1,0,0:0:0:0:
256,192,279421,1,0,0:0:0:0:
256,192,279500,1,0,0:0:0:0:
256,192,279578,1,0,0:0:0:0:
256,192,279657,1,8,0:0:0:0:
256,192,279736,1,8,0:0:0:0:
256,192,279815,1,8,0:0:0:0:
256,192,279894,1,8,0:0:0:0:
256,192,279973,1,0,0:0:0:0:
256,192,280026,1,0,0:0:0:0:
256,192,280078,1,0,0:0:0:0:
256,192,280131,1,8,0:0:0:0:
256,192,280184,1,8,0:0:0:0:
256,192,280236,1,8,0:0:0:0:
256,192,280289,1,0,0:0:0:0:
256,192,280368,1,8,0:0:0:0:
256,192,280447,1,0,0:0:0:0:
256,192,280526,1,0,0:0:0:0:
256,192,280605,1,8,0:0:0:0:
256,192,280684,1,8,0:0:0:0:
256,192,280763,1,0,0:0:0:0:
256,192,280842,1,8,0:0:0:0:
256,192,280921,1,8,0:0:0:0:
256,192,281000,1,8,0:0:0:0:
256,192,281078,1,0,0:0:0:0:
256,192,281157,1,0,0:0:0:0:
256,192,281236,1,8,0:0:0:0:
256,192,281289,1,8,0:0:0:0:
256,192,281342,1,8,0:0:0:0:
256,192,281394,1,0,0:0:0:0:
256,192,281447,1,0,0:0:0:0:
256,192,281500,1,0,0:0:0:0:
256,192,281552,1,8,0:0:0:0:
256,192,281631,1,0,0:0:0:0:
256,192,281710,1,8,0:0:0:0:
256,192,281789,1,8,0:0:0:0:
256,192,281868,1,0,0:0:0:0:
256,192,281947,1,0,0:0:0:0:
256,192,282026,1,0,0:0:0:0:
256,192,282105,1,0,0:0:0:0:
256,192,282184,1,8,0:0:0:0:
256,192,282263,1,0,0:0:0:0:
256,192,282342,1,8,0:0:0:0:
256,192,282394,1,0,0:0:0:0:
256,192,282447,1,0,0:0:0:0:
256,192,282500,1,8,0:0:0:0:
256,192,282578,1,0,0:0:0:0:
256,192,282657,1,8,0:0:0:0:
256,192,282710,1,8,0:0:0:0:
256,192,282763,1,8,0:0:0:0:
256,192,282815,1,0,0:0:0:0:
256,192,282894,1,0,0:0:0:0:
256,192,282973,1,8,0:0:0:0:
256,192,283052,1,0,0:0:0:0:
256,192,283131,1,8,0:0:0:0:
256,192,283210,1,8,0:0:0:0:
256,192,283289,1,0,0:0:0:0:
256,192,283368,1,0,0:0:0:0:
256,192,283447,1,8,0:0:0:0:
256,192,283500,1,8,0:0:0:0:
256,192,283552,1,8,0:0:0:0:
256,192,283605,1,0,0:0:0:0:
256,192,283684,1,0,0:0:0:0:
256,192,283763,1,8,0:0:0:0:
256,192,283842,1,8,0:0:0:0:
256,192,283921,1,0,0:0:0:0:
256,192,284000,1,8,0:0:0:0:
256,192,284078,1,0,0:0:0:0:
256,192,284131,1,0,0:0:0:0:
256,192,284184,1,0,0:0:0:0:
256,192,284236,1,8,0:0:0:0:
256,192,284315,1,8,0:0:0:0:
256,192,284394,1,0,0:0:0:0:
256,192,284473,1,0,0:0:0:0:
256,192,284552,1,0,0:0:0:0:
256,192,284631,1,0,0:0:0:0:
256,192,284710,1,8,0:0:0:0:
256,192,284789,1,8,0:0:0:0:
256,192,284868,1,8,0:0:0:0:
256,192,284947,1,8,0:0:0:0:
256,192,285026,1,0,0:0:0:0:
256,192,285078,1,0,0:0:0:0:
256,192,285131,1,0,0:0:0:0:
256,192,285184,1,8,0:0:0:0:
256,192,285263,1,0,0:0:0:0:
256,192,285342,1,8,0:0:0:0:
256,192,285421,1,8,0:0:0:0:
256,192,285500,1,0,0:0:0:0:
256,192,285578,1,0,0:0:0:0:
256,192,285657,1,8,0:0:0:0:
256,192,285736,1,0,0:0:0:0:
256,192,285815,1,8,0:0:0:0:
256,192,285894,1,0,0:0:0:0:
256,192,285973,1,8,0:0:0:0:
256,192,286052,1,8,0:0:0:0:
256,192,286131,1,8,0:0:0:0:
256,192,286210,1,0,0:0:0:0:
256,192,286289,1,8,0:0:0:0:
256,192,286342,1,8,0:0:0:0:
256,192,286394,1,8,0:0:0:0:
256,192,286447,1,0,0:0:0:0:
256,192,286526,1,0,0:0:0:0:
256,192,286605,1,8,0:0:0:0:
256,192,286684,1,0,0:0:0:0:
256,192,286763,1,8,0:0:0:0:
256,192,286842,1,8,0:0:0:0:
256,192,286921,1,0,0:0:0:0:
256,192,287000,1,8,0:0:0:0:
256,192,287078,1,0,0:0:0:0:
256,192,287157,1,0,0:0:0:0:
256,192,287236,1,8,0:0:0:0:
256,192,287315,1,0,0:0:0:0:
256,192,287394,1,8,0:0:0:0:
256,192,287447,1,0,0:0:0:0:
256,192,287500,1,0,0:0:0:0:
256,192,287552,1,8,0:0:0:0:
256,192,287631,1,0,0:0:0:0:
256,192,287710,1,8,0:0:0:0:
256,192,287763,1,8,0:0:0:0:
256,192,287815,1,8,0:0:0:0:
256,192,287868,1,0,0:0:0:0:
256,192,287947,1,0,0:0:0:0:
256,192,288026,1,8,0:0:0:0:
256,192,288105,1,8,0:0:0:0:
256,192,288184,1,0,0:0:0:0:
256,192,288236,1,0,0:0:0:0:
256,192,288289,1,0,0:0:0:0:
256,192,288342,1,8,0:0:0:0:
256,192,288421,1,8,0:0:0:0:
256,192,288500,1,0,0:0:0:0:
256,192,288552,1,0,0:0:0:0:
256,192,288605,1,0,0:0:0:0:
256,192,288657,1,8,0:0:0:0:
256,192,288736,1,8,0:0:0:0:
256,192,288815,1,0,0:0:0:0:
256,192,288894,1,8,0:0:0:0:
256,192,288973,1,0,0:0:0:0:
256,192,289052,1,0,0:0:0:0:
256,192,289131,1,8,0:0:0:0:
256,192,289210,1,0,0:0:0:0:
256,192,289289,1,8,0:0:0:0:
256,192,289368,1,8,0:0:0:0:
256,192,289447,1,0,0:0:0:0:
256,192,289526,1,0,0:0:0:0:
256,192,289605,1,0,0:0:0:0:
256,192,289684,1,0,0:0:0:0:
256,192,289763,1,8,0:0:0:0:
256,192,289842,1,8,0:0:0:0:
256,192,289921,1,8,0:0:0:0:
256,192,290000,1,8,0:0:0:0:
256,192,290078,1,0,0:0:0:0:
256,192,290131,1,0,0:0:0:0:
256,192,290184,1,0,0:0:0:0:
256,192,290236,1,8,0:0:0:0:
256,192,290289,1,8,0:0:0:0:
256,192,290342,1,8,0:0:0:0:
256,192,290394,1,0,0:0:0:0:
256,192,290473,1,8,0:0:0:0:
256,192,290552,1,0,0:0:0:0:
256,192,290631,1,0,0:0:0:0:
256,192,290710,1,8,0:0:0:0:
256,192,290789,1,8,0:0:0:0:
256,192,290868,1,0,0:0:0:0:
256,192,290947,1,8,0:0:0:0:
256,192,291026,1,8,0:0:0:0:
256,192,291105,1,8,0:0:0:0:
256,192,291184,1,0,0:0:0:0:
256,192,291263,1,0,0:0:0:0:
256,192,291342,1,8,0:0:0:0:
256,192,291394,1,8,0:0:0:0:
256,192,291447,1,8,0:0:0:0:
256,192,291500,1,0,0:0:0:0:
256,192,291552,1,0,0:0:0:0:
256,192,291605,1,0,0:0:0:0:
256,192,291657,1,8,0:0:0:0:
256,192,291736,1,0,0:0:0:0:
256,192,291815,1,8,0:0:0:0:
256,192,291894,1,8,0:0:0:0:
256,192,291973,1,0,0:0:0:0:
256,192,292052,1,0,0:0:0:0:
256,192,292131,1,0,0:0:0:0:
256,192,292210,1,0,0:0:0:0:
256,192,292289,1,8,0:0:0:0:
256,192,292368,1,0,0:0:0:0:
256,192,292447,1,8,0:0:0:0:
256,192,292500,1,8,0:0:0:0:
256,192,292552,1,8,0:0:0:0:
256,192,292605,1,0,0:0:0:0:
256,192,293236,1,12,0:0:0:0:
256,192,293394,1,0,0:0:0:0:
256,192,293552,1,8,0:0:0:0:
256,192,293631,1,8,0:0:0:0:
256,192,293710,1,0,0:0:0:0:
256,192,293868,1,8,0:0:0:0:
256,192,294026,1,0,0:0:0:0:
256,192,294105,1,0,0:0:0:0:
256,192,294184,1,8,0:0:0:0:
256,192,294263,1,8,0:0:0:0:
256,192,294342,1,0,0:0:0:0:
256,192,294500,1,8,0:0:0:0:
256,192,294657,1,0,0:0:0:0:
256,192,294815,1,8,0:0:0:0:
256,192,294894,1,8,0:0:0:0:
256,192,294973,1,0,0:0:0:0:
256,192,295052,1,8,0:0:0:0:
256,192,295131,1,0,0:0:0:0:
256,192,295210,1,0,0:0:0:0:
256,192,295289,1,8,0:0:0:0:
256,192,295368,1,0,0:0:0:0:
256,192,295447,1,8,0:0:0:0:
256,192,295605,1,0,0:0:0:0:
256,192,295763,1,8,0:0:0:0:
256,192,295842,1,8,0:0:0:0:
256,192,295921,1,0,0:0:0:0:
256,192,296078,1,8,0:0:0:0:
256,192,296157,1,0,0:0:0:0:
256,192,296236,1,0,0:0:0:0:
256,192,296315,1,0,0:0:0:0:
256,192,296394,1,8,0:0:0:0:
256,192,296552,1,0,0:0:0:0:
256,192,296710,1,8,0:0:0:0:
256,192,296789,1,0,0:0:0:0:
256,192,296868,1,8,0:0:0:0:
256,192,296947,1,8,0:0:0:0:
256,192,297026,1,0,0:0:0:0:
256,192,297105,1,8,0:0:0:0:
256,192,297184,1,0,0:0:0:0:
256,192,297263,1,0,0:0:0:0:
256,192,297342,1,8,0:0:0:0:
256,192,297500,1,8,0:0:0:0:
256,192,297657,1,0,0:0:0:0:
256,192,297736,1,0,0:0:0:0:
256,192,297815,1,8,0:0:0:0:
256,192,297973,1,8,0:0:0:0:
256,192,298052,1,0,0:0:0:0:
256,192,298131,1,8,0:0:0:0:
256,192,298289,1,0,0:0:0:0:
256,192,298447,1,0,0:0:0:0:
256,192,298605,1,0,0:0:0:0:
256,192,298684,1,0,0:0:0:0:
256,192,298763,1,8,0:0:0:0:
256,192,298921,1,8,0:0:0:0:
256,192,299000,1,8,0:0:0:0:
256,192,299078,1,0,0:0:0:0:
256,192,299236,1,8,0:0:0:0:
256,192,299394,1,8,0:0:0:0:
256,192,299552,1,0,0:0:0:0:
256,192,299631,1,0,0:0:0:0:
256,192,299710,1,8,0:0:0:0:
256,192,299789,1,8,0:0:0:0:
256,192,299868,1,0,0:0:0:0:
256,192,300026,1,8,0:0:0:0:
256,192,300184,1,0,0:0:0:0:
256,192,300263,1,8,0:0:0:0:
256,192,300342,1,8,0:0:0:0:
256,192,300421,1,0,0:0:0:0:
256,192,300500,1,8,0:0:0:0:
256,192,300657,1,8,0:0:0:0:
256,192,300815,1,0,0:0:0:0:
256,192,300894,1,0,0:0:0:0:
256,192,300973,1,8,0:0:0:0:
256,192,301131,1,8,0:0:0:0:
256,192,301289,1,0,0:0:0:0:
256,192,301368,1,0,0:0:0:0:
256,192,301447,1,8,0:0:0:0:
256,192,301526,1,0,0:0:0:0:
256,192,301605,1,8,0:0:0:0:
256,192,301763,1,0,0:0:0:0:
256,192,301842,1,8,0:0:0:0:
256,192,301921,1,0,0:0:0:0:
256,192,302078,1,8,0:0:0:0:
256,192,302157,1,8,0:0:0:0:
256,192,302236,1,8,0:0:0:0:
256,192,302315,1,0,0:0:0:0:
256,192,302394,1,8,0:0:0:0:
256,192,302473,1,8,0:0:0:0:
256,192,302552,1,0,0:0:0:0:
256,192,302631,1,0,0:0:0:0:
256,192,302710,1,8,0:0:0:0:
256,192,302789,1,0,0:0:0:0:
256,192,302868,1,0,0:0:0:0:
256,192,302947,1,0,0:0:0:0:
256,192,303026,1,8,0:0:0:0:
256,192,303184,1,0,0:0:0:0:
256,192,303342,1,12,0:0:0:0:
256,192,303500,1,0,0:0:0:0:
256,192,303657,1,8,0:0:0:0:
256,192,303736,1,8,0:0:0:0:
256,192,303815,1,0,0:0:0:0:
256,192,303973,1,8,0:0:0:0:
256,192,304131,1,0,0:0:0:0:
256,192,304210,1,0,0:0:0:0:
256,192,304289,1,8,0:0:0:0:
256,192,304368,1,8,0:0:0:0:
256,192,304447,1,0,0:0:0:0:
256,192,304605,1,8,0:0:0:0:
256,192,304763,1,0,0:0:0:0:
256,192,304921,1,8,0:0:0:0:
256,192,305000,1,8,0:0:0:0:
256,192,305078,1,0,0:0:0:0:
256,192,305157,1,8,0:0:0:0:
256,192,305236,1,0,0:0:0:0:
256,192,305315,1,0,0:0:0:0:
256,192,305394,1,8,0:0:0:0:
256,192,305473,1,0,0:0:0:0:
256,192,305552,1,8,0:0:0:0:
256,192,305710,1,0,0:0:0:0:
256,192,305868,1,8,0:0:0:0:
256,192,305947,1,8,0:0:0:0:
256,192,306026,1,0,0:0:0:0:
256,192,306184,1,8,0:0:0:0:
256,192,306263,1,0,0:0:0:0:
256,192,306342,1,0,0:0:0:0:
256,192,306421,1,0,0:0:0:0:
256,192,306500,1,8,0:0:0:0:
256,192,306657,1,0,0:0:0:0:
256,192,306815,1,8,0:0:0:0:
256,192,306894,1,0,0:0:0:0:
256,192,306973,1,8,0:0:0:0:
256,192,307052,1,8,0:0:0:0:
256,192,307131,1,0,0:0:0:0:
256,192,307210,1,8,0:0:0:0:
256,192,307289,1,0,0:0:0:0:
256,192,307368,1,0,0:0:0:0:
256,192,307447,1,8,0:0:0:0:
256,192,307605,1,8,0:0:0:0:
256,192,307763,1,0,0:0:0:0:
256,192,307842,1,0,0:0:0:0:
256,192,307921,1,8,0:0:0:0:
256,192,308078,1,8,0:0:0:0:
256,192,308157,1,0,0:0:0:0:
256,192,308236,1,8,0:0:0:0:
256,192,308394,1,0,0:0:0:0:
256,192,308552,1,0,0:0:0:0:
256,192,308710,1,8,0:0:0:0:
256,192,308789,1,8,0:0:0:0:
256,192,308868,1,8,0:0:0:0:
256,192,309026,1,8,0:0:0:0:
256,192,309105,1,8,0:0:0:0:
256,192,309184,1,0,0:0:0:0:
256,192,309342,1,8,0:0:0:0:
256,192,309500,1,8,0:0:0:0:
256,192,309657,1,0,0:0:0:0:
256,192,309736,1,0,0:0:0:0:
256,192,309815,1,8,0:0:0:0:
256,192,309894,1,8,0:0:0:0:
256,192,309973,1,0,0:0:0:0:
256,192,310131,1,8,0:0:0:0:
256,192,310289,1,0,0:0:0:0:
256,192,310368,1,8,0:0:0:0:
256,192,310447,1,0,0:0:0:0:
256,192,310526,1,0,0:0:0:0:
256,192,310605,1,8,0:0:0:0:
256,192,310763,1,8,0:0:0:0:
256,192,310921,1,0,0:0:0:0:
256,192,311000,1,0,0:0:0:0:
256,192,311078,1,0,0:0:0:0:
256,192,311236,1,8,0:0:0:0:
256,192,311394,1,0,0:0:0:0:
256,192,311473,1,0,0:0:0:0:
256,192,311552,1,0,0:0:0:0:
256,192,311710,1,8,0:0:0:0:
256,192,311868,1,0,0:0:0:0:
256,192,311947,1,8,0:0:0:0:
256,192,312026,1,8,0:0:0:0:
256,192,312105,1,8,0:0:0:0:
256,192,312184,1,0,0:0:0:0:
256,192,312342,1,0,0:0:0:0:
256,192,312500,1,8,0:0:0:0:
256,192,312657,1,0,0:0:0:0:
256,192,312736,1,0,0:0:0:0:
256,192,312815,1,0,0:0:0:0:
256,192,312973,1,0,0:0:0:0:
256,192,313131,1,8,0:0:0:0:
256,192,313289,1,8,0:0:0:0:
256,192,313447,1,4,0:0:0:0:
256,192,313763,1,8,0:0:0:0:
256,192,314078,1,0,0:0:0:0:
256,192,314236,1,0,0:0:0:0:
256,192,314394,1,8,0:0:0:0:
256,192,314710,1,0,0:0:0:0:
256,192,315026,1,8,0:0:0:0:
256,192,315184,1,8,0:0:0:0:
256,192,315342,1,0,0:0:0:0:
256,192,315657,1,8,0:0:0:0:
256,192,315973,1,0,0:0:0:0:
256,192,316289,1,8,0:0:0:0:
256,192,316605,1,0,0:0:0:0:
256,192,316763,1,0,0:0:0:0:
256,192,316921,1,8,0:0:0:0:
256,192,317236,1,0,0:0:0:0:
256,192,317552,1,8,0:0:0:0:
256,192,317868,1,0,0:0:0:0:
256,192,318026,1,0,0:0:0:0:
256,192,318184,1,8,0:0:0:0:
256,192,318342,1,8,0:0:0:0:
256,192,318500,1,0,0:0:0:0:
256,192,318815,1,8,0:0:0:0:
256,192,319131,1,0,0:0:0:0:
256,192,319289,1,0,0:0:0:0:
256,192,319447,1,8,0:0:0:0:
256,192,319763,1,0,0:0:0:0:
256,192,320078,1,8,0:0:0:0:
256,192,320236,1,8,0:0:0:0:
256,192,320394,1,0,0:0:0:0:
256,192,320710,1,8,0:0:0:0:
256,192,321026,1,0,0:0:0:0:
256,192,321342,1,8,0:0:0:0:
256,192,321973,1,8,0:0:0:0:
256,192,322605,1,8,0:0:0:0:
256,192,323236,1,8,0:0:0:0:
256,192,323552,8,0,325921,0:0:0:0:
256,192,326078,8,0,328447,0:0:0:0:
256,192,328605,8,0,330973,0:0:0:0:
256,192,331131,8,0,333342,0:0:0:0:
