osu file format v14

[General]
AudioFilename: Ata - Euphoria.mp3
AudioLeadIn: 0
PreviewTime: 101081
Countdown: 0
SampleSet: Soft
StackLeniency: 0.7
Mode: 0
LetterboxInBreaks: 1
WidescreenStoryboard: 1

[Editor]
Bookmarks: 20555,27818,40450,60660,65713,68239,80871,88450,97292,101081,111186,121292,141502,151607,161713,171818,192029,202134,212239,222344,242555,262765,272871,303186,313292,323397
DistanceSpacing: 1.8
BeatDivisor: 6
GridSize: 4
TimelineZoom: 3.700003

[Metadata]
Title:Euphoria
TitleUnicode:Euphoria
Artist:Ata
ArtistUnicode:Ata
Creator:Ciyus Miapah
Version:Ultimate Power
Source:
Tags:marathon ata_kuso WHTR-0002 White Records 190 Infinite Potential Album hi-tech Hardcore Fullon darkpsy psytrance psychedelic trance ciiyusmiapah electronic instrumental fort you! ak18 fxtra
BeatmapID:1861487
BeatmapSetID:890438

[Difficulty]
HPDrainRate:4
CircleSize:4
OverallDifficulty:9.5
ApproachRate:9.8
SliderMultiplier:1.5
SliderTickRate:1

[Events]
//Background and Video events
0,0,"BG.jpg",0,0
//Break Periods
//Storyboard Layer 0 (Background)
//Storyboard Layer 1 (Fail)
//Storyboard Layer 2 (Pass)
//Storyboard Layer 3 (Foreground)
//Storyboard Sound Samples

[TimingPoints]
37,315.789473684211,4,2,1,25,1,0
510,-200,4,2,1,25,0,0
2089,-200,4,2,1,32,0,0
10458,-200,4,2,1,41,0,0
10773,-200,4,2,1,64,0,0
11089,-200,4,2,1,84,0,0
11405,-200,4,2,1,64,0,0
11721,-200,4,2,1,39,0,0
12037,-200,4,2,1,20,0,0
12984,-200,4,2,1,45,0,0
15115,-200,4,2,1,5,0,0
15352,-200,4,2,1,49,0,0
15392,-200,4,2,1,5,0,0
15984,-200,4,2,1,42,0,0
18352,-200,4,2,1,75,0,0
27826,-133.333333333333,4,2,1,100,0,0
35405,-200,4,2,1,100,0,0
37931,-200,4,2,1,5,0,0
39194,-200,4,2,1,10,0,0
39826,-200,4,2,1,40,0,0
40458,-133.333333333333,4,2,1,100,0,0
60668,-100,4,2,1,70,0,0
80879,-100,4,2,1,80,0,0
99826,-100,4,2,1,40,0,0
101089,-66.6666666666667,4,2,1,100,0,0
120352,-58.8235294117647,4,2,1,100,0,0
120668,-52.6315789473684,4,2,1,100,0,0
120984,-50,4,2,1,100,0,0
121300,-66.6666666666667,4,2,1,100,0,0
171826,-100,4,2,1,100,0,0
179444,-100,4,2,1,5,0,0
180668,-55.5555555555556,4,2,1,100,0,0
181931,-55.5555555555556,4,2,1,100,0,1
222352,-166.666666666667,4,2,1,100,0,0
227405,-100,4,2,1,100,0,0
241931,-50,4,2,1,100,0,0
242563,-62.5,4,2,1,100,0,1
269089,-100,4,2,1,100,0,0
272879,-58.8235294117647,4,2,1,100,0,1
292458,-58.8235294117647,4,2,1,100,0,0
292615,-100,4,2,1,100,0,0
293089,-58.8235294117647,4,2,1,100,0,1
312115,-58.8235294117647,4,2,1,5,0,1
313300,-100,4,2,1,100,0,0
321510,-100,4,2,1,68,0,0
322142,-100,4,2,1,31,0,0
322773,-100,4,2,1,15,0,0
323089,-100,4,2,1,5,0,0
323405,-100,4,2,0,20,0,0

[Colours]
Combo1 : 128,0,255
Combo2 : 60,255,255
Combo3 : 128,128,255
Combo4 : 0,255,128
Combo5 : 28,141,255
Combo6 : 255,128,0
Combo7 : 255,0,0
Combo8 : 255,0,128

[HitObjects]
84,172,510,6,0,B|116:140|164:128|224:176|224:176|284:104|312:128|324:88|304:48|264:32|228:56,2,375,0|2|0,0:0|0:0|0:0,0:0:0:0:
76,300,3984,2,0,B|116:336|192:328|221:291|221:291|232:300|232:300|252:296|252:296|264:304|264:304|284:304|284:304|296:312|296:312|328:276|399:278|399:278|344:264|316:224,1,450,0|0,0:0|0:0,0:0:0:0:
468,136,6431,6,0,B|444:124|432:76|432:76|420:92|420:92|404:92|404:92|396:108|396:108|380:104|380:104|372:112|356:116|356:116|340:104|316:104|316:104|228:136|164:124|148:92|164:68|204:40|252:52|252:96|228:128|184:144|164:160|175:196|175:196|184:232|156:272|116:256|104:228|112:180|152:192,1,693.75,0|2,0:0|0:0,0:0:0:0:
138,190,9510,1,2,0:0:0:0:
260,360,10142,102,0,B|272:288|408:268|481:335|481:335|464:304|464:304|476:284|476:284|456:260|456:260|464:224|464:224|436:200|436:200|400:256|340:240,1,525,2|2,0:0|0:0,0:0:0:0:
96,236,12984,1,2,0:0:0:0:
96,236,13142,2,0,B|72:228|48:236|24:264|28:316|48:340|88:348|88:348|116:332|116:332|140:344|140:344|144:308|172:292|116:248|96:180|128:96,1,487.5,2|0,0:0|0:0,0:0:0:0:
207,119,15352,2,0,P|199:168|222:228,1,112.5,2|0,0:0|0:0,0:0:0:0:
296,159,15984,2,0,B|307:158|307:158|325:180|397:161|397:161|409:94|340:78|340:78|274:194|331:266|331:266|367:271|396:260,1,487.5,2|0,0:0|0:0,0:0:0:0:
480,332,18352,1,2,0:0:0:0:
488,248,18668,1,0,0:0:0:0:
492,164,18984,5,2,0:0:0:0:
496,80,19300,1,0,0:0:0:0:
368,32,19615,1,2,0:0:0:0:
380,112,19931,1,0,0:0:0:0:
392,192,20247,101,2,0:0:0:0:
400,276,20563,1,0,0:0:0:0:
280,344,20879,1,2,0:0:0:0:
276,260,21194,1,0,0:0:0:0:
264,180,21510,5,2,0:0:0:0:
184,196,21826,1,0,0:0:0:0:
104,216,22142,1,2,0:0:0:0:
24,232,22458,1,0,0:0:0:0:
24,68,22773,101,2,0:0:0:0:
104,80,23089,1,0,0:0:0:0:
186,95,23405,1,2,0:0:0:0:
269,105,23721,1,0,0:0:0:0:
448,72,24037,5,2,0:0:0:0:
376,108,24352,1,0,0:0:0:0:
356,188,24668,1,2,0:0:0:0:
380,268,24984,1,0,0:0:0:0:
272,376,25300,101,2,0:0:0:0:
214,317,25615,1,0,0:0:0:0:
132,306,25931,1,2,0:0:0:0:
55,337,26247,1,0,0:0:0:0:
36,188,26563,5,2,0:0:0:0:
40,104,26879,1,0,0:0:0:0:
104,48,27194,1,2,0:0:0:0:
188,56,27510,1,0,0:0:0:0:
244,116,27826,102,0,B|298:143|345:110|345:110|351:127|351:127|351:81|409:89|425:19|425:19|389:47|342:46,1,337.500012874604,0|0,0:0|0:0,0:0:0:0:
460,184,29089,2,0,P|424:188|364:244,1,112.500004291535,2|0,0:0|0:0,0:0:0:0:
296,364,29721,1,2,0:0:0:0:
216,244,30037,1,0,0:0:0:0:
120,352,30352,5,2,0:0:0:0:
216,244,30668,1,0,0:0:0:0:
92,168,30984,1,2,0:0:0:0:
216,244,31300,1,0,0:0:0:0:
220,100,31615,1,2,0:0:0:0:
216,244,31931,1,0,0:0:0:0:
340,176,32247,1,2,0:0:0:0:
216,244,32563,1,0,0:0:0:0:
352,296,32879,102,0,L|464:288,1,112.500004291535,2|0,0:0|0:0,0:0:0:0:
488,220,33352,1,0,0:0:0:0:
424,184,33510,2,0,L|364:200,1,56.2500021457673,2|0,0:0|0:0,0:0:0:0:
200,272,33826,2,0,L|256:284,1,56.2500021457673,0|0,0:0|0:0,0:0:0:0:
368,168,34142,2,0,L|312:192,1,56.2500021457673,2|0,0:0|0:0,0:0:0:0:
240,304,34458,2,0,L|300:312,1,56.2500021457673,0|0,0:0|0:0,0:0:0:0:
316,176,34773,2,0,L|256:216,1,56.2500021457673,2|0,0:0|0:0,0:0:0:0:
280,328,35089,2,0,L|336:320,1,56.2500021457673,0|0,0:0|0:0,0:0:0:0:
151,148,35405,6,0,B|151:120|135:96|95:72|31:111|31:111|41:64|119:64|119:64|147:80|179:88|255:96|281:58|291:36|263:0|223:-4|187:16|179:52|223:80|235:148,1,600,2|0,0:0|0:0,0:0:0:0:
256,192,38089,12,0,40458,0:0:0:0:
312,236,41089,101,0,0:0:0:0:
144,252,41405,1,0,0:0:0:0:
224,104,41721,5,2,0:0:0:0:
304,132,41879,2,0,L|328:96,2,28.1250010728836,0|0|2,0:0|0:0|0:0,0:0:0:0:
332,212,42194,2,0,L|372:204,2,28.1250010728836,0|0|2,0:0|0:0|0:0,0:0:0:0:
308,292,42510,2,0,L|344:320,2,28.1250010728836,0|0|2,0:0|0:0|0:0,0:0:0:0:
228,320,42826,2,0,L|224:360,2,28.1250010728836,0|0|2,0:0|0:0|0:0,0:0:0:0:
148,292,43142,101,0,0:0:0:0:
148,292,43221,1,0,0:0:0:0:
148,292,43300,1,2,0:0:0:0:
136,208,43458,1,0,0:0:0:0:
136,208,43537,1,0,0:0:0:0:
136,208,43615,1,2,0:0:0:0:
184,140,43773,1,0,0:0:0:0:
184,140,43852,1,0,0:0:0:0:
184,140,43931,1,2,0:0:0:0:
268,124,44089,2,0,L|260:84,2,28.1250010728836,0|0|2,0:0|0:0|0:0,0:0:0:0:
344,160,44405,5,0,0:0:0:0:
344,160,44484,1,0,0:0:0:0:
344,160,44563,1,2,0:0:0:0:
424,132,44721,1,0,0:0:0:0:
424,132,44800,1,0,0:0:0:0:
424,132,44879,1,2,0:0:0:0:
496,172,45037,2,0,P|508:144|504:124,2,28.1250010728836,0|0|2,0:0|0:0|0:0,0:0:0:0:
468,252,45352,1,0,0:0:0:0:
476,260,45431,1,0,0:0:0:0:
480,268,45510,101,2,0:0:0:0:
436,340,45668,1,0,0:0:0:0:
352,348,45826,1,2,0:0:0:0:
284,300,45984,1,0,0:0:0:0:
260,220,46142,1,2,0:0:0:0:
244,304,46300,1,0,0:0:0:0:
168,340,46458,1,2,0:0:0:0:
88,320,46615,1,0,0:0:0:0:
44,248,46773,5,2,0:0:0:0:
108,304,46931,1,0,0:0:0:0:
192,300,47089,1,2,0:0:0:0:
240,232,47247,1,0,0:0:0:0:
236,148,47405,1,2,0:0:0:0:
168,96,47563,1,0,0:0:0:0:
88,116,47721,1,2,0:0:0:0:
40,184,47879,1,0,0:0:0:0:
84,256,48037,101,2,0:0:0:0:
80,172,48194,1,0,0:0:0:0:
148,124,48352,1,2,0:0:0:0:
232,124,48510,1,0,0:0:0:0:
300,172,48668,1,2,0:0:0:0:
292,256,48826,1,0,0:0:0:0:
344,320,48984,1,2,0:0:0:0:
428,312,49142,1,0,0:0:0:0:
480,248,49300,5,2,0:0:0:0:
480,164,49458,1,0,0:0:0:0:
412,112,49615,1,2,0:0:0:0:
336,148,49773,1,0,0:0:0:0:
304,228,49931,1,2,0:0:0:0:
232,276,50089,1,0,0:0:0:0:
148,268,50247,1,2,0:0:0:0:
80,220,50405,1,0,0:0:0:0:
64,136,50563,102,0,L|72:44,2,84.3750032186509,0|0|0,0:0|0:0|0:0,0:0:0:0:
48,220,51194,1,2,0:0:0:0:
100,288,51352,1,0,0:0:0:0:
180,316,51510,1,2,0:0:0:0:
260,292,51668,1,0,0:0:0:0:
320,232,51826,5,2,0:0:0:0:
404,236,51984,1,0,0:0:0:0:
432,316,52142,1,2,0:0:0:0:
364,364,52300,1,0,0:0:0:0:
288,328,52458,1,2,0:0:0:0:
288,244,52615,1,0,0:0:0:0:
288,160,52773,1,2,0:0:0:0:
292,76,52931,1,0,0:0:0:0:
360,28,53089,101,2,0:0:0:0:
324,104,53247,1,0,0:0:0:0:
328,188,53405,1,2,0:0:0:0:
384,252,53563,1,0,0:0:0:0:
464,276,53721,1,2,0:0:0:0:
400,220,53879,1,0,0:0:0:0:
316,224,54037,1,2,0:0:0:0:
240,260,54194,1,0,0:0:0:0:
209,290,54352,5,2,0:0:0:0:
184,305,54510,1,0,0:0:0:0:
170,309,54668,1,2,0:0:0:0:
156,306,54826,1,0,0:0:0:0:
144,301,54984,1,2,0:0:0:0:
134,298,55141,1,0,0:0:0:0:
125,298,55299,1,2,0:0:0:0:
116,300,55457,1,0,0:0:0:0:
88,324,55615,102,0,P|68:304|60:284,3,28.1250010728836,2|0|0|0,0:0|0:0|0:0|0:0,0:0:0:0:
40,272,55931,2,0,P|44:236|48:228,3,28.1250010728836,2|0|0|0,0:0|0:0|0:0|0:0,0:0:0:0:
28,204,56247,2,0,P|32:192|44:176,3,28.1250010728836,2|0|0|0,0:0|0:0|0:0|0:0,0:0:0:0:
32,136,56563,2,0,L|64:128,3,28.1250010728836,2|0|0|0,0:0|0:0|0:0|0:0,0:0:0:0:
100,116,56879,1,2,0:0:0:0:
256,192,56958,12,0,58142,0:0:0:0:
256,192,58221,12,0,60352,0:0:0:0:
360,228,60668,37,2,0:0:0:0:
328,252,60747,1,0,0:0:0:0:
288,260,60826,1,0,0:0:0:0:
248,252,60905,1,0,0:0:0:0:
216,224,60984,1,2,0:0:0:0:
180,204,61063,1,0,0:0:0:0:
140,204,61142,1,0,0:0:0:0:
104,220,61221,1,0,0:0:0:0:
84,256,61300,101,2,0:0:0:0:
92,296,61379,1,0,0:0:0:0:
124,324,61458,1,0,0:0:0:0:
164,328,61537,1,0,0:0:0:0:
200,312,61615,1,2,0:0:0:0:
232,288,61694,1,0,0:0:0:0:
272,284,61773,1,0,0:0:0:0:
312,296,61852,1,0,0:0:0:0:
348,320,61931,5,2,0:0:0:0:
388,320,62010,1,0,0:0:0:0:
424,300,62089,1,0,0:0:0:0:
432,260,62168,1,0,0:0:0:0:
416,220,62247,1,2,0:0:0:0:
392,188,62326,1,0,0:0:0:0:
384,148,62405,1,0,0:0:0:0:
400,112,62484,1,0,0:0:0:0:
436,96,62563,101,2,0:0:0:0:
476,104,62642,1,0,0:0:0:0:
496,140,62721,1,0,0:0:0:0:
488,180,62800,1,0,0:0:0:0:
460,208,62879,1,2,0:0:0:0:
420,220,62958,1,0,0:0:0:0:
380,220,63037,1,0,0:0:0:0:
340,208,63115,1,0,0:0:0:0:
304,188,63194,5,2,0:0:0:0:
264,180,63273,1,0,0:0:0:0:
224,184,63352,1,0,0:0:0:0:
188,204,63431,1,0,0:0:0:0:
160,232,63510,1,2,0:0:0:0:
120,240,63589,1,0,0:0:0:0:
80,232,63668,1,0,0:0:0:0:
44,212,63747,1,0,0:0:0:0:
28,176,63826,101,2,0:0:0:0:
28,136,63905,1,0,0:0:0:0:
52,100,63984,1,0,0:0:0:0:
88,84,64063,1,0,0:0:0:0:
128,92,64142,1,2,0:0:0:0:
164,108,64221,1,0,0:0:0:0:
204,104,64300,1,0,0:0:0:0:
240,84,64379,1,0,0:0:0:0:
264,52,64458,5,2,0:0:0:0:
300,36,64537,1,0,0:0:0:0:
340,36,64615,1,0,0:0:0:0:
376,52,64694,1,0,0:0:0:0:
400,88,64773,1,2,0:0:0:0:
404,128,64852,1,0,0:0:0:0:
384,164,64931,1,0,0:0:0:0:
344,180,65010,1,0,0:0:0:0:
304,180,65089,101,2,0:0:0:0:
264,188,65168,1,0,0:0:0:0:
232,216,65247,1,0,0:0:0:0:
224,256,65326,1,0,0:0:0:0:
236,296,65405,1,2,0:0:0:0:
272,320,65484,1,0,0:0:0:0:
312,324,65563,1,0,0:0:0:0:
348,304,65642,1,0,0:0:0:0:
360,264,65721,5,2,0:0:0:0:
320,292,65800,1,0,0:0:0:0:
272,292,65879,1,0,0:0:0:0:
240,256,65958,1,0,0:0:0:0:
264,212,66037,1,2,0:0:0:0:
312,204,66115,1,0,0:0:0:0:
360,216,66194,1,0,0:0:0:0:
404,236,66273,1,0,0:0:0:0:
452,232,66352,101,2,0:0:0:0:
480,184,66431,1,0,0:0:0:0:
476,128,66510,1,0,0:0:0:0:
440,84,66589,1,0,0:0:0:0:
384,72,66668,1,2,0:0:0:0:
332,96,66747,1,0,0:0:0:0:
280,112,66826,1,0,0:0:0:0:
224,112,66905,1,0,0:0:0:0:
176,80,66984,5,2,0:0:0:0:
121,66,67063,1,0,0:0:0:0:
65,74,67142,1,0,0:0:0:0:
24,112,67221,1,0,0:0:0:0:
7,165,67300,1,2,0:0:0:0:
22,219,67379,1,0,0:0:0:0:
62,258,67458,1,0,0:0:0:0:
116,271,67537,1,0,0:0:0:0:
169,255,67615,101,2,0:0:0:0:
207,239,67694,1,0,0:0:0:0:
247,246,67773,1,0,0:0:0:0:
272,276,67852,1,0,0:0:0:0:
288,312,67931,1,2,0:0:0:0:
316,344,68010,1,0,0:0:0:0:
356,356,68089,1,0,0:0:0:0:
396,356,68168,1,0,0:0:0:0:
432,332,68247,5,2,0:0:0:0:
388,304,68326,1,0,0:0:0:0:
336,300,68405,1,0,0:0:0:0:
284,312,68484,1,0,0:0:0:0:
240,340,68563,1,2,0:0:0:0:
188,336,68642,1,0,0:0:0:0:
148,300,68721,1,0,0:0:0:0:
136,248,68800,1,0,0:0:0:0:
156,200,68879,101,2,0:0:0:0:
200,168,68958,1,0,0:0:0:0:
252,164,69037,1,0,0:0:0:0:
300,180,69115,1,0,0:0:0:0:
344,208,69194,1,2,0:0:0:0:
396,208,69273,1,0,0:0:0:0:
440,176,69352,1,0,0:0:0:0:
452,124,69431,1,0,0:0:0:0:
436,84,69510,5,2,0:0:0:0:
404,60,69589,1,0,0:0:0:0:
364,52,69668,1,0,0:0:0:0:
324,60,69747,1,0,0:0:0:0:
296,90,69826,1,2,0:0:0:0:
286,130,69905,1,0,0:0:0:0:
292,170,69984,1,0,0:0:0:0:
312,206,70063,1,0,0:0:0:0:
341,234,70142,101,2,0:0:0:0:
369,263,70221,1,0,0:0:0:0:
370,304,70300,1,0,0:0:0:0:
356,343,70379,1,0,0:0:0:0:
327,372,70458,1,2,0:0:0:0:
286,379,70537,1,0,0:0:0:0:
245,376,70615,1,0,0:0:0:0:
207,358,70694,1,0,0:0:0:0:
184,323,70773,5,2,0:0:0:0:
235,345,70852,1,0,0:0:0:0:
291,347,70931,1,0,0:0:0:0:
329,306,71010,1,0,0:0:0:0:
342,251,71089,1,2,0:0:0:0:
305,207,71168,1,0,0:0:0:0:
248,204,71247,1,0,0:0:0:0:
197,228,71326,1,0,0:0:0:0:
170,277,71405,101,2,0:0:0:0:
129,285,71484,1,0,0:0:0:0:
89,272,71563,1,0,0:0:0:0:
70,235,71642,1,0,0:0:0:0:
72,193,71721,1,2,0:0:0:0:
97,151,71800,1,0,0:0:0:0:
143,136,71879,1,0,0:0:0:0:
191,137,71958,1,0,0:0:0:0:
237,150,72037,5,2,0:0:0:0:
259,183,72115,1,0,0:0:0:0:
295,202,72194,1,0,0:0:0:0:
336,202,72273,1,0,0:0:0:0:
373,185,72352,1,2,0:0:0:0:
350,150,72431,1,0,0:0:0:0:
310,138,72510,1,0,0:0:0:0:
268,136,72589,1,0,0:0:0:0:
234,160,72668,101,2,0:0:0:0:
229,201,72747,1,0,0:0:0:0:
250,236,72826,1,0,0:0:0:0:
283,259,72905,1,0,0:0:0:0:
324,260,72984,1,2,0:0:0:0:
359,238,73063,1,0,0:0:0:0:
397,222,73142,1,0,0:0:0:0:
438,219,73221,1,0,0:0:0:0:
475,236,73300,5,2,0:0:0:0:
460,272,73379,1,0,0:0:0:0:
424,292,73458,1,0,0:0:0:0:
384,300,73537,1,0,0:0:0:0:
344,296,73615,1,2,0:0:0:0:
304,284,73694,1,0,0:0:0:0:
264,280,73773,1,0,0:0:0:0:
224,288,73852,1,0,0:0:0:0:
188,308,73931,101,2,0:0:0:0:
148,320,74010,1,0,0:0:0:0:
108,312,74089,1,0,0:0:0:0:
80,284,74168,1,0,0:0:0:0:
68,244,74247,1,2,0:0:0:0:
76,204,74326,1,0,0:0:0:0:
104,172,74405,1,0,0:0:0:0:
144,160,74484,1,0,0:0:0:0:
184,168,74563,5,2,0:0:0:0:
224,180,74642,1,0,0:0:0:0:
264,180,74721,1,0,0:0:0:0:
304,168,74800,1,0,0:0:0:0:
332,136,74879,1,2,0:0:0:0:
344,96,74958,1,0,0:0:0:0:
332,56,75037,1,0,0:0:0:0:
300,32,75115,1,0,0:0:0:0:
260,24,75194,101,2,0:0:0:0:
220,32,75273,1,0,0:0:0:0:
192,64,75352,1,0,0:0:0:0:
184,104,75431,1,0,0:0:0:0:
196,144,75510,1,2,0:0:0:0:
228,172,75589,1,0,0:0:0:0:
248,208,75668,1,0,0:0:0:0:
248,248,75747,1,0,0:0:0:0:
232,288,75826,5,2,0:0:0:0:
264,260,75905,1,0,0:0:0:0:
304,248,75984,1,0,0:0:0:0:
344,248,76063,1,0,0:0:0:0:
380,268,76142,1,2,0:0:0:0:
420,268,76221,1,0,0:0:0:0:
452,240,76300,1,0,0:0:0:0:
464,200,76379,1,0,0:0:0:0:
460,160,76458,101,2,0:0:0:0:
441,118,76537,1,0,0:0:0:0:
402,96,76615,1,0,0:0:0:0:
357,86,76694,1,0,0:0:0:0:
312,93,76773,1,2,0:0:0:0:
271,112,76852,1,0,0:0:0:0:
243,147,76931,1,0,0:0:0:0:
234,191,77010,1,0,0:0:0:0:
241,235,77089,5,2,0:0:0:0:
213,265,77168,1,0,0:0:0:0:
178,288,77247,1,0,0:0:0:0:
136,288,77326,1,0,0:0:0:0:
96,274,77405,1,2,0:0:0:0:
67,244,77484,1,0,0:0:0:0:
57,203,77563,1,0,0:0:0:0:
68,163,77642,1,0,0:0:0:0:
99,136,77721,101,2,0:0:0:0:
138,148,77800,1,0,0:0:0:0:
178,141,77879,1,0,0:0:0:0:
210,115,77958,1,0,0:0:0:0:
227,77,78037,1,2,0:0:0:0:
211,39,78115,1,0,0:0:0:0:
174,19,78194,1,0,0:0:0:0:
132,23,78273,1,0,0:0:0:0:
101,50,78352,5,2,0:0:0:0:
97,91,78431,1,0,0:0:0:0:
117,126,78510,1,0,0:0:0:0:
153,145,78589,1,0,0:0:0:0:
194,148,78668,1,2,0:0:0:0:
228,118,78747,1,0,0:0:0:0:
269,100,78826,1,0,0:0:0:0:
314,100,78905,1,0,0:0:0:0:
352,123,78984,101,2,0:0:0:0:
372,160,79063,1,0,0:0:0:0:
388,196,79142,1,0,0:0:0:0:
420,224,79221,1,0,0:0:0:0:
460,232,79300,1,2,0:0:0:0:
488,260,79379,1,0,0:0:0:0:
496,300,79458,1,0,0:0:0:0:
480,340,79537,1,0,0:0:0:0:
444,356,79615,5,2,0:0:0:0:
412,332,79694,1,0,0:0:0:0:
372,324,79773,1,0,0:0:0:0:
332,336,79852,1,0,0:0:0:0:
300,364,79931,1,2,0:0:0:0:
260,356,80010,1,0,0:0:0:0:
232,324,80089,1,0,0:0:0:0:
220,284,80168,1,0,0:0:0:0:
232,244,80247,101,2,0:0:0:0:
196,264,80326,1,0,0:0:0:0:
156,272,80405,1,0,0:0:0:0:
120,256,80484,1,0,0:0:0:0:
88,232,80563,1,2,0:0:0:0:
102,189,80642,1,0,0:0:0:0:
138,161,80721,1,0,0:0:0:0:
182,154,80800,1,0,0:0:0:0:
224,164,80879,5,2,0:0:0:0:
248,212,80958,1,0,0:0:0:0:
292,240,81037,1,4,0:0:0:0:
344,240,81115,1,0,0:0:0:0:
388,212,81194,1,2,0:0:0:0:
408,164,81273,1,0,0:0:0:0:
400,112,81352,1,4,0:0:0:0:
368,68,81431,1,0,0:0:0:0:
316,52,81510,101,2,0:0:0:0:
280,92,81589,1,0,0:0:0:0:
232,112,81668,1,4,0:0:0:0:
180,104,81747,1,0,0:0:0:0:
144,68,81826,1,2,0:0:0:0:
92,76,81905,1,0,0:0:0:0:
64,120,81984,1,4,0:0:0:0:
72,172,82063,1,0,0:0:0:0:
120,192,82142,5,2,0:0:0:0:
160,184,82221,1,0,0:0:0:0:
200,188,82300,1,4,0:0:0:0:
236,204,82379,1,0,0:0:0:0:
260,240,82458,1,2,0:0:0:0:
280,204,82537,1,0,0:0:0:0:
316,184,82615,1,4,0:0:0:0:
356,184,82694,1,0,0:0:0:0:
392,200,82773,101,2,0:0:0:0:
416,232,82852,1,0,0:0:0:0:
408,272,82931,1,4,0:0:0:0:
380,300,83010,1,0,0:0:0:0:
340,312,83089,1,2,0:0:0:0:
300,300,83168,1,0,0:0:0:0:
260,296,83247,1,4,0:0:0:0:
220,308,83326,1,0,0:0:0:0:
192,336,83405,5,2,0:0:0:0:
160,308,83484,1,0,0:0:0:0:
120,300,83563,1,4,0:0:0:0:
80,316,83642,1,0,0:0:0:0:
40,316,83721,1,2,0:0:0:0:
16,284,83800,1,0,0:0:0:0:
8,244,83879,1,4,0:0:0:0:
24,204,83958,1,0,0:0:0:0:
60,188,84037,101,2,0:0:0:0:
96,208,84115,1,0,0:0:0:0:
136,216,84194,1,4,0:0:0:0:
176,212,84273,1,0,0:0:0:0:
208,184,84352,1,2,0:0:0:0:
200,144,84431,1,0,0:0:0:0:
172,116,84510,1,4,0:0:0:0:
136,96,84589,1,0,0:0:0:0:
96,88,84668,5,2,0:0:0:0:
120,120,84747,1,0,0:0:0:0:
160,128,84826,1,4,0:0:0:0:
200,128,84905,1,0,0:0:0:0:
240,116,84984,1,2,0:0:0:0:
272,88,85063,1,0,0:0:0:0:
308,72,85142,1,4,0:0:0:0:
348,72,85221,1,0,0:0:0:0:
388,80,85300,101,2,0:0:0:0:
416,108,85379,1,0,0:0:0:0:
432,148,85458,1,4,0:0:0:0:
432,188,85537,1,0,0:0:0:0:
412,224,85615,1,2,0:0:0:0:
380,248,85694,1,0,0:0:0:0:
340,256,85773,1,4,0:0:0:0:
300,252,85852,1,0,0:0:0:0:
264,232,85931,5,2,0:0:0:0:
212,220,86010,1,0,0:0:0:0:
159,224,86089,1,4,0:0:0:0:
114,251,86168,1,0,0:0:0:0:
99,301,86247,1,2,0:0:0:0:
118,349,86326,1,0,0:0:0:0:
166,369,86405,1,4,0:0:0:0:
218,373,86484,1,0,0:0:0:0:
264,348,86563,101,2,0:0:0:0:
291,298,86642,1,0,0:0:0:0:
289,241,86721,1,4,0:0:0:0:
265,189,86800,1,0,0:0:0:0:
219,156,86879,1,2,0:0:0:0:
164,140,86958,1,0,0:0:0:0:
107,143,87037,1,4,0:0:0:0:
57,168,87115,1,0,0:0:0:0:
34,219,87194,5,2,0:0:0:0:
40,271,87273,1,0,0:0:0:0:
75,309,87352,1,4,0:0:0:0:
125,324,87431,1,0,0:0:0:0:
176,314,87510,1,2,0:0:0:0:
200,276,87589,1,0,0:0:0:0:
243,262,87668,1,4,0:0:0:0:
286,273,87747,1,0,0:0:0:0:
322,299,87826,101,2,0:0:0:0:
370,319,87905,1,0,0:0:0:0:
422,316,87984,1,4,0:0:0:0:
468,292,88063,1,0,0:0:0:0:
486,242,88142,1,10,0:0:0:0:
487,189,88221,1,0,0:0:0:0:
454,147,88300,1,4,0:0:0:0:
402,137,88379,1,0,0:0:0:0:
354,161,88458,5,2,0:1:0:0:
322,198,88537,1,0,0:0:0:0:
280,222,88615,1,0,0:0:0:0:
231,230,88694,1,0,0:0:0:0:
187,208,88773,2,0,P|169:186|163:165,1,37.5,8|0,0:0|0:0,0:0:0:0:
136,52,88931,1,0,0:0:0:0:
88,52,89010,1,0,0:0:0:0:
44,76,89089,2,0,P|32:120|32:148,3,37.5,2|0|0|0,0:1|0:0|0:0|0:0,0:0:0:0:
64,204,89405,2,0,P|76:232|92:264,1,37.5,8|0,0:0|0:0,0:0:0:0:
144,320,89563,1,0,0:0:0:0:
192,328,89642,1,0,0:0:0:0:
240,312,89721,101,2,0:1:0:0:
268,263,89800,1,0,0:0:0:0:
266,206,89879,2,0,L|250:138,1,37.5,0|0,0:0|0:0,0:0:0:0:
300,72,90037,2,0,L|308:24,3,37.5,8|0|0|0,0:0|0:0|0:0|0:0,0:0:0:0:
392,108,90352,1,2,0:1:0:0:
380,156,90431,1,0,0:0:0:0:
384,204,90510,1,0,0:0:0:0:
416,240,90589,1,0,0:0:0:0:
460,264,90668,2,0,L|488:272,6,18.75,8|0|0|0|0|0|0,0:0|0:0|0:0|0:0|0:0|0:0|0:0,0:0:0:0:
396,324,90984,6,0,P|368:320|352:324,3,37.5,2|0|0|0,0:1|0:0|0:0|0:0,0:0:0:0:
236,348,91300,1,8,0:0:0:0:
188,360,91379,1,0,0:0:0:0:
140,360,91458,1,0,0:0:0:0:
96,344,91537,1,0,0:0:0:0:
68,304,91615,1,2,0:1:0:0:
58,249,91693,1,0,0:0:0:0:
71,195,91772,1,0,0:0:0:0:
112,155,91852,1,0,0:0:0:0:
168,149,91931,2,0,L|215:165,3,37.5,8|0|0|0,0:0|0:0|0:0|0:0,0:0:0:0:
288,248,92247,101,2,0:1:0:0:
336,256,92326,1,0,0:0:0:0:
384,240,92405,1,0,0:0:0:0:
412,200,92484,1,0,0:0:0:0:
416,152,92563,2,0,L|408:100,3,37.5,8|0|0|0,0:0|0:0|0:0|0:0,0:0:0:0:
344,32,92879,1,2,0:1:0:0:
289,21,92958,1,0,0:0:0:0:
233,24,93037,1,0,0:0:0:0:
192,62,93115,1,0,0:0:0:0:
185,118,93194,2,0,L|193:166,3,37.5,8|0|0|0,0:0|0:0|0:0|0:0,0:0:0:0:
158,297,93510,5,2,0:1:0:0:
114,334,93589,1,0,0:0:0:0:
57,339,93668,1,0,0:0:0:0:
13,304,93747,1,0,0:0:0:0:
0,251,93826,1,8,0:0:0:0:
24,200,93905,1,0,0:0:0:0:
40,160,93984,1,0,0:0:0:0:
36,120,94063,1,0,0:0:0:0:
24,80,94142,1,2,0:1:0:0:
56,104,94221,1,0,0:0:0:0:
72,140,94300,1,0,0:0:0:0:
76,180,94379,1,0,0:0:0:0:
64,220,94458,2,0,P|44:248|32:256,3,37.5,8|0|0|0,0:0|0:0|0:0|0:0,0:0:0:0:
164,160,94773,101,2,0:1:0:0:
152,120,94852,1,0,0:0:0:0:
160,80,94931,1,0,0:0:0:0:
188,52,95010,1,0,0:0:0:0:
228,44,95089,1,8,0:0:0:0:
256,80,95168,1,0,0:0:0:0:
268,124,95247,1,0,0:0:0:0:
264,168,95326,1,0,0:0:0:0:
244,208,95405,1,2,0:1:0:0:
220,244,95484,1,0,0:0:0:0:
228,288,95563,1,0,0:0:0:0:
260,320,95642,1,0,0:0:0:0:
304,328,95721,2,0,P|328:320|344:304,3,37.5,8|0|0|0,0:0|0:0|0:0|0:0,0:0:0:0:
368,216,96037,5,2,0:1:0:0:
368,216,96115,1,0,0:0:0:0:
368,216,96194,1,0,0:0:0:0:
368,216,96273,1,0,0:0:0:0:
368,216,96352,2,0,L|408:224,3,37.5,8|0|0|0,0:0|0:0|0:0|0:0,0:0:0:0:
320,108,96668,2,0,L|312:60,2,37.5,2|0|0,0:1|0:0|0:0,0:0:0:0:
284,136,96905,1,0,0:0:0:0:
240,148,96984,2,0,L|188:144,2,37.5,8|0|0,0:0|0:0|0:0,0:0:0:0:
260,188,97221,1,0,0:0:0:0:
280,228,97300,101,2,0:1:0:0:
264,224,97379,1,0,0:0:0:0:
248,220,97458,1,0,0:0:0:0:
232,216,97537,1,0,0:0:0:0:
216,212,97615,1,0,0:0:0:0:
240,244,97694,1,0,0:0:0:0:
264,276,97773,1,0,0:0:0:0:
288,312,97852,1,0,0:0:0:0:
312,344,97931,1,0,0:0:0:0:
328,308,98010,1,0,0:0:0:0:
340,268,98089,1,0,0:0:0:0:
352,228,98168,1,0,0:0:0:0:
364,188,98247,2,0,L|376:136,3,37.5,0|0|0|0,0:0|0:0|0:0|0:0,0:0:0:0:
272,24,98563,6,0,L|284:112,1,75,0|0,0:0|0:0,0:0:0:0:
272,104,98800,1,0,0:0:0:0:
260,112,98879,2,0,L|272:152,1,37.5,0|0,0:0|0:0,0:0:0:0:
400,136,99037,2,0,L|392:180,1,37.5,0|0,0:0|0:0,0:0:0:0:
248,120,99194,1,0,0:0:0:0:
256,140,99273,1,0,0:0:0:0:
264,160,99352,1,0,0:0:0:0:
272,180,99431,1,0,0:0:0:0:
280,200,99510,1,0,0:0:0:0:
232,176,99589,1,0,0:0:0:0:
180,180,99668,1,0,0:0:0:0:
136,212,99747,1,0,0:0:0:0:
120,264,99826,102,0,L|116:288,6,18.75,0|0|0|0|0|0|0,0:0|0:0|0:0|0:0|0:0|0:0|0:0,0:0:0:0:
100,288,100142,2,0,L|112:336,3,37.5,0|0|0|0,0:0|0:0|0:0|0:0,0:0:0:0:
64,328,100458,2,0,L|140:360,3,75,0|0|0|0,0:0|0:0|0:0|0:0,0:0:0:0:
216,292,101089,38,0,L|332:332,1,112.500004291535,2|4,0:1|0:0,0:0:0:0:
336,320,101326,1,0,0:0:0:0:
356,312,101405,2,0,L|408:332,1,56.2500021457673,8|0,0:0|0:0,0:0:0:0:
308,216,101563,2,0,L|340:144,1,56.2500021457673,4|0,0:0|0:0,0:0:0:0:
208,172,101721,1,2,0:1:0:0:
204,136,101800,1,0,0:0:0:0:
200,100,101879,1,4,0:0:0:0:
192,64,101958,1,0,0:0:0:0:
172,44,102037,2,0,L|100:40,1,56.2500021457673,8|0,0:0|0:0,0:0:0:0:
304,120,102194,2,0,L|368:112,1,56.2500021457673,4|0,0:0|0:0,0:0:0:0:
120,136,102352,102,0,L|-12:120,1,112.500004291535,2|4,0:1|0:0,0:0:0:0:
16,136,102589,1,0,0:0:0:0:
20,148,102668,2,0,L|88:144,1,56.2500021457673,8|0,0:0|0:0,0:0:0:0:
285,164,102826,1,4,0:0:0:0:
329,176,102905,1,0,0:0:0:0:
353,213,102984,2,0,P|386:223|414:223,2,56.2500021457673,2|0|4,0:1|0:0|0:0,0:0:0:0:
141,239,103221,1,0,0:0:0:0:
148,256,103300,2,0,P|128:292|124:324,1,56.2500021457673,8|0,0:0|0:0,0:0:0:0:
208,120,103458,2,0,P|204:88|192:56,1,56.2500021457673,4|0,0:0|0:0,0:0:0:0:
240,232,103615,6,0,L|252:300,3,56.2500021457673,2|0|4|0,0:1|0:0|0:0|0:0,0:0:0:0:
384,304,103931,2,0,L|376:380,1,56.2500021457673,8|0,0:0|0:0,0:0:0:0:
428,80,104089,1,4,0:0:0:0:
434,86,104168,1,0,0:0:0:0:
440,92,104247,1,2,0:1:0:0:
396,128,104326,1,0,0:0:0:0:
340,144,104405,1,4,0:0:0:0:
284,140,104484,1,0,0:0:0:0:
236,108,104563,2,0,P|224:76|220:40,1,56.2500021457673,8|0,0:0|0:0,0:0:0:0:
232,264,104721,2,0,P|240:300|240:340,1,56.2500021457673,4|0,0:0|0:0,0:0:0:0:
144,200,104879,102,0,P|102:196|81:181,2,56.2500021457673,2|0|4,0:1|0:0|0:0,0:0:0:0:
156,188,105115,1,0,0:0:0:0:
152,172,105194,2,0,P|124:151|111:128,1,56.2500021457673,8|0,0:0|0:0,0:0:0:0:
324,184,105352,1,4,0:0:0:0:
344,204,105431,1,0,0:0:0:0:
352,232,105510,2,0,L|344:280,2,28.1250010728836,2|0|0,0:1|0:0|0:0,0:0:0:0:
312,56,105668,2,0,L|320:20,2,28.1250010728836,4|0|0,0:0|0:0|0:0,0:0:0:0:
439,127,105826,2,0,L|504:110,1,56.2500021457673,8|0,0:0|0:0,0:0:0:0:
260,244,105984,2,0,L|192:252,1,56.2500021457673,4|0,0:0|0:0,0:0:0:0:
406,213,106142,6,0,L|469:228,3,56.2500021457673,2|0|4|0,0:1|0:0|0:0|0:0,0:0:0:0:
288,156,106458,1,8,0:0:0:0:
232,164,106537,1,0,0:0:0:0:
176,172,106615,1,4,0:0:0:0:
120,180,106694,1,0,0:0:0:0:
64,188,106773,2,0,L|0:200,1,56.2500021457673,2|0,0:1|0:0,0:0:0:0:
136,84,106931,2,0,L|112:24,1,56.2500021457673,4|0,0:0|0:0,0:0:0:0:
140,300,107089,1,8,0:0:0:0:
140,300,107168,1,0,0:0:0:0:
140,300,107247,1,4,0:0:0:0:
140,300,107326,1,0,0:0:0:0:
140,300,107405,101,2,0:1:0:0:
172,272,107484,1,0,0:0:0:0:
216,268,107563,1,4,0:0:0:0:
260,280,107642,1,0,0:0:0:0:
300,304,107721,1,8,0:0:0:0:
272,256,107800,1,0,0:0:0:0:
268,200,107879,1,4,0:0:0:0:
280,144,107958,1,0,0:0:0:0:
316,100,108037,2,0,P|328:92|388:80,1,56.2500021457673,2|0,0:1|0:0,0:0:0:0:
436,208,108194,1,4,0:0:0:0:
428,216,108273,1,0,0:0:0:0:
420,224,108352,2,0,L|360:216,1,56.2500021457673,8|0,0:0|0:0,0:0:0:0:
184,156,108510,2,0,L|120:160,1,56.2500021457673,4|0,0:0|0:0,0:0:0:0:
408,104,108668,5,2,0:1:0:0:
432,116,108747,1,0,0:0:0:0:
460,124,108826,1,4,0:0:0:0:
488,120,108905,1,0,0:0:0:0:
508,100,108984,1,8,0:0:0:0:
460,72,109063,1,0,0:0:0:0:
404,68,109142,1,4,0:0:0:0:
356,96,109221,1,0,0:0:0:0:
316,132,109300,2,0,P|268:140|184:112,1,112.500004291535,2|4,0:1|0:0,0:0:0:0:
188,132,109537,1,0,0:0:0:0:
168,132,109615,2,0,P|164:100|172:56,1,56.2500021457673,8|0,0:0|0:0,0:0:0:0:
224,272,109773,2,0,P|240:296|244:336,1,56.2500021457673,4|0,0:0|0:0,0:0:0:0:
136,224,109931,101,2,0:1:0:0:
108,220,110010,1,0,0:0:0:0:
80,224,110089,2,0,P|60:192|48:168,1,56.2500021457673,4|0,0:0|0:0,0:0:0:0:
132,320,110247,2,0,P|120:352|108:372,1,56.2500021457673,8|0,0:0|0:0,0:0:0:0:
16,168,110405,2,0,P|20:132|36:100,1,56.2500021457673,4|0,0:0|0:0,0:0:0:0:
256,200,110563,2,0,P|256:240|248:312,1,112.500004291535,2|4,0:1|0:0,0:0:0:0:
264,328,110800,1,0,0:0:0:0:
276,344,110879,2,0,P|276:304|280:272,1,56.2500021457673,8|0,0:0|0:0,0:0:0:0:
216,116,111037,2,0,P|228:80|244:48,1,56.2500021457673,4|0,0:0|0:0,0:0:0:0:
352,220,111194,38,0,P|368:256|376:284,2,56.2500021457673,2|0|4,0:1|0:0|0:0,0:0:0:0:
364,196,111431,1,0,0:0:0:0:
372,176,111510,2,0,L|440:184,1,56.2500021457673,8|0,0:0|0:0,0:0:0:0:
140,200,111668,2,0,L|76:188,2,56.2500021457673,4|0|2,0:0|0:0|0:1,0:0:0:0:
151,217,111905,1,0,0:0:0:0:
162,237,111984,2,0,L|158:309,1,56.2500021457673,4|0,0:0|0:0,0:0:0:0:
116,100,112142,2,0,L|104:32,1,56.2500021457673,8|0,0:0|0:0,0:0:0:0:
48,260,112300,2,0,L|32:328,1,56.2500021457673,4|0,0:0|0:0,0:0:0:0:
192,132,112458,85,2,0:1:0:0:
204,108,112537,1,0,0:0:0:0:
216,84,112615,1,4,0:0:0:0:
228,60,112694,1,0,0:0:0:0:
244,36,112773,2,0,L|256:104,1,56.2500021457673,8|0,0:0|0:0,0:0:0:0:
248,252,112931,2,0,P|256:224|272:192,1,56.2500021457673,4|0,0:0|0:0,0:0:0:0:
368,80,113089,2,0,P|400:88|432:88,2,56.2500021457673,2|0|4,0:1|0:0|0:0,0:0:0:0:
344,96,113326,1,0,0:0:0:0:
340,124,113405,2,0,P|364:148|376:172,3,56.2500021457673,8|0|4|0,0:0|0:0|0:0|0:0,0:0:0:0:
368,304,113721,5,2,0:1:0:0:
364,312,113800,1,0,0:0:0:0:
360,320,113879,1,4,0:0:0:0:
356,328,113958,1,0,0:0:0:0:
352,336,114037,2,0,L|280:328,1,56.2500021457673,8|0,0:0|0:0,0:0:0:0:
136,280,114194,1,4,0:0:0:0:
124,284,114273,1,0,0:0:0:0:
112,288,114352,1,2,0:1:0:0:
100,292,114431,1,0,0:0:0:0:
88,296,114510,2,0,L|32:288,1,56.2500021457673,4|0,0:0|0:0,0:0:0:0:
144,160,114668,2,0,L|178:115,1,56.2500021457673,8|0,0:0|0:0,0:0:0:0:
236,280,114826,2,0,L|257:332,1,56.2500021457673,4|0,0:0|0:0,0:0:0:0:
108,168,114984,85,2,0:1:0:0:
128,116,115063,1,0,0:0:0:0:
180,92,115142,1,4,0:0:0:0:
236,88,115221,1,0,0:0:0:0:
288,104,115300,2,0,P|316:116|352:120,2,56.2500021457673,8|0|4,0:0|0:0|0:0,0:0:0:0:
400,188,115537,1,0,0:0:0:0:
432,176,115615,2,0,P|448:140|448:100,1,56.2500021457673,2|0,0:1|0:0,0:0:0:0:
304,229,115773,2,0,P|304:269|312:297,1,56.2500021457673,4|0,0:0|0:0,0:0:0:0:
372,100,115931,2,0,P|368:64|360:32,1,56.2500021457673,8|0,0:0|0:0,0:0:0:0:
406,271,116089,2,0,P|447:302|468:306,1,56.2500021457673,4|0,0:0|0:0,0:0:0:0:
268,120,116247,5,2,0:1:0:0:
212,112,116326,1,0,0:0:0:0:
160,132,116405,1,4,0:0:0:0:
132,180,116484,1,0,0:0:0:0:
124,236,116563,2,0,P|128:276|140:296,1,56.2500021457673,8|0,0:0|0:0,0:0:0:0:
36,160,116721,1,4,0:0:0:0:
40,152,116800,1,0,0:0:0:0:
44,144,116879,102,0,L|40:84,3,56.2500021457673,2|0|4|0,0:1|0:0|0:0|0:0,0:0:0:0:
132,8,117194,2,0,L|124:76,3,56.2500021457673,8|0|4|0,0:0|0:0|0:0|0:0,0:0:0:0:
216,200,117510,5,2,0:1:0:0:
260,236,117589,1,0,0:0:0:0:
316,236,117668,1,4,0:0:0:0:
364,208,117747,1,0,0:0:0:0:
392,160,117826,2,0,L|380:96,3,56.2500021457673,8|0|4|0,0:0|0:0|0:0|0:0,0:0:0:0:
468,220,118142,1,2,0:1:0:0:
448,240,118221,1,0,0:0:0:0:
440,268,118300,1,4,0:0:0:0:
444,296,118379,1,0,0:0:0:0:
460,320,118458,2,0,L|392:316,3,56.2500021457673,8|0|4|0,0:0|0:0|0:0|0:0,0:0:0:0:
312,348,118773,101,2,0:1:0:0:
272,328,118852,1,0,0:0:0:0:
228,324,118931,1,4,0:0:0:0:
184,336,119010,1,0,0:0:0:0:
152,368,119089,2,0,P|128:360|88:344,1,56.2500021457673,8|0,0:0|0:0,0:0:0:0:
128,256,119247,1,4,0:0:0:0:
120,236,119326,1,0,0:0:0:0:
116,212,119405,2,0,P|120:176|128:148,3,56.2500021457673,2|0|4|0,0:1|0:0|0:0|0:0,0:0:0:0:
144,16,119721,2,0,P|152:44|156:72,1,56.2500021457673,8|0,0:0|0:0,0:0:0:0:
212,200,119879,1,4,0:0:0:0:
228,184,119958,1,0,0:0:0:0:
248,172,120037,6,0,L|315:185,3,56.2500021457673,2|0|4|0,0:1|0:0|0:0|0:0,0:0:0:0:
392,96,120352,2,0,L|327:79,3,63.7500012159348,2|0|0|0,0:0|0:0|0:0|0:0,0:0:0:0:
284,282,120668,2,0,L|365:261,3,71.2499980974198,2|0|0|0,0:0|0:0|0:0|0:0,0:0:0:0:
482,161,120984,1,2,0:0:0:0:
425,135,121062,1,0,0:0:0:0:
363,132,121141,1,0,0:0:0:0:
305,154,121220,1,0,0:0:0:0:
260,188,121300,101,2,0:1:0:0:
216,204,121379,1,0,0:0:0:0:
172,204,121458,1,4,0:0:0:0:
128,192,121537,1,0,0:0:0:0:
92,164,121615,1,8,0:0:0:0:
76,120,121694,1,0,0:0:0:0:
76,76,121773,1,4,0:0:0:0:
96,36,121852,1,0,0:0:0:0:
140,20,121931,1,2,0:1:0:0:
156,36,122010,1,0,0:0:0:0:
160,56,122089,1,4,0:0:0:0:
160,80,122168,1,0,0:0:0:0:
152,100,122247,2,0,P|124:132|104:144,1,56.2500021457673,8|0,0:0|0:0,0:0:0:0:
136,284,122405,2,0,P|116:312|108:344,1,56.2500021457673,4|0,0:0|0:0,0:0:0:0:
256,168,122563,6,0,P|244:132|244:100,2,56.2500021457673,2|0|4,0:1|0:0|0:0,0:0:0:0:
244,212,122800,1,0,0:0:0:0:
240,256,122879,2,0,L|304:264,1,56.2500021457673,8|0,0:0|0:0,0:0:0:0:
336,128,123037,1,4,0:0:0:0:
344,136,123115,1,0,0:0:0:0:
352,144,123194,2,0,L|416:132,2,56.2500021457673,2|0|4,0:1|0:0|0:0,0:0:0:0:
336,292,123431,1,0,0:0:0:0:
320,312,123510,2,0,L|256:304,1,56.2500021457673,8|0,0:0|0:0,0:0:0:0:
128,240,123668,2,0,L|68:244,1,56.2500021457673,4|0,0:0|0:0,0:0:0:0:
228,140,123826,102,0,P|220:104|220:68,3,56.2500021457673,2|0|4|0,0:1|0:0|0:0|0:0,0:0:0:0:
168,320,124142,2,0,P|164:348|152:380,1,56.2500021457673,8|0,0:0|0:0,0:0:0:0:
264,239,124300,2,0,P|307:266|318:281,1,56.2500021457673,4|0,0:0|0:0,0:0:0:0:
180,144,124458,1,2,0:1:0:0:
188,100,124537,1,0,0:0:0:0:
220,68,124615,1,4,0:0:0:0:
264,52,124694,1,0,0:0:0:0:
308,56,124773,1,8,0:0:0:0:
348,76,124852,1,0,0:0:0:0:
376,108,124931,2,0,P|392:148|396:176,1,56.2500021457673,4|0,0:0|0:0,0:0:0:0:
376,280,125089,5,2,0:1:0:0:
340,308,125168,1,0,0:0:0:0:
296,316,125247,1,4,0:0:0:0:
256,300,125326,1,0,0:0:0:0:
208,304,125405,1,8,0:0:0:0:
169,326,125484,1,0,0:0:0:0:
134,296,125563,1,4,0:0:0:0:
92,276,125642,1,0,0:0:0:0:
52,268,125721,2,0,P|20:272|-4:268,1,56.2500021457673,2|0,0:1|0:0,0:0:0:0:
84,156,125879,2,0,P|76:124|76:92,1,56.2500021457673,4|0,0:0|0:0,0:0:0:0:
192,200,126037,2,0,P|224:204|256:216,1,56.2500021457673,8|0,0:0|0:0,0:0:0:0:
52,140,126194,1,4,0:0:0:0:
56,96,126273,1,0,0:0:0:0:
76,56,126352,102,0,L|152:24,3,56.2500021457673,2|0|4|0,0:1|0:0|0:0|0:0,0:0:0:0:
200,104,126668,1,8,0:0:0:0:
240,124,126747,1,0,0:0:0:0:
284,128,126826,1,4,0:0:0:0:
328,116,126905,1,0,0:0:0:0:
364,88,126984,2,0,P|372:56|376:24,3,56.2500021457673,2|0|4|0,0:1|0:0|0:0|0:0,0:0:0:0:
386,200,127300,2,0,P|412:217|451:231,1,56.2500021457673,8|0,0:0|0:0,0:0:0:0:
261,93,127458,2,0,P|240:58|211:37,1,56.2500021457673,4|0,0:0|0:0,0:0:0:0:
288,224,127615,5,2,0:1:0:0:
296,268,127694,1,0,0:0:0:0:
284,312,127773,1,4,0:0:0:0:
252,344,127852,1,0,0:0:0:0:
208,360,127931,2,0,L|144:352,3,56.2500021457673,8|0|4|0,0:0|0:0|0:0|0:0,0:0:0:0:
20,304,128247,2,0,P|56:300|88:304,1,56.2500021457673,2|0,0:1|0:0,0:0:0:0:
200,232,128405,1,4,0:0:0:0:
192,236,128484,1,0,0:0:0:0:
184,240,128563,2,0,P|144:240|128:236,1,56.2500021457673,8|0,0:0|0:0,0:0:0:0:
16,180,128721,2,0,P|44:172|76:172,1,56.2500021457673,4|0,0:0|0:0,0:0:0:0:
196,112,128879,101,2,0:1:0:0:
216,120,128958,1,0,0:0:0:0:
240,124,129037,1,4,0:0:0:0:
264,124,129115,1,0,0:0:0:0:
288,120,129194,2,0,P|312:108|360:104,1,56.2500021457673,8|0,0:0|0:0,0:0:0:0:
180,100,129352,1,4,0:0:0:0:
144,76,129431,1,0,0:0:0:0:
100,64,129510,2,0,L|40:64,2,56.2500021457673,2|0|4,0:1|0:0|0:0,0:0:0:0:
140,44,129747,1,0,0:0:0:0:
180,24,129826,6,0,P|216:28|244:48,1,56.2500021457673,8|0,0:0|0:0,0:0:0:0:
364,124,129984,2,0,P|400:128|432:124,1,56.2500021457673,4|0,0:0|0:0,0:0:0:0:
304,232,130142,101,2,0:1:0:0:
260,220,130221,1,0,0:0:0:0:
216,220,130300,2,0,L|160:236,1,56.2500021457673,4|0,0:0|0:0,0:0:0:0:
404,228,130458,2,0,L|464:212,1,56.2500021457673,8|0,0:0|0:0,0:0:0:0:
234,141,130615,1,4,0:0:0:0:
225,119,130694,1,0,0:0:0:0:
217,98,130773,2,0,L|231:25,1,56.2500021457673,2|0,0:1|0:0,0:0:0:0:
196,340,130931,1,4,0:0:0:0:
217,333,131010,1,0,0:0:0:0:
240,328,131089,1,8,0:0:0:0:
292,352,131168,1,0,0:0:0:0:
344,332,131247,1,4,0:0:0:0:
368,280,131326,1,0,0:0:0:0:
360,224,131405,38,0,L|344:152,2,56.2500021457673,2|0|4,0:1|0:0|0:0,0:0:0:0:
400,99,131642,1,0,0:0:0:0:
409,84,131721,2,0,L|476:83,1,56.2500021457673,8|0,0:0|0:0,0:0:0:0:
266,209,131879,2,0,L|210:199,3,56.2500021457673,4|0|2|0,0:0|0:0|0:1|0:0,0:0:0:0:
216,80,132194,2,0,L|232:24,1,56.2500021457673,4|0,0:0|0:0,0:0:0:0:
120,112,132352,2,0,L|92:48,1,56.2500021457673,8|0,0:0|0:0,0:0:0:0:
88,208,132510,2,0,L|28:200,1,56.2500021457673,4|0,0:0|0:0,0:0:0:0:
124,296,132668,85,2,0:1:0:0:
108,320,132747,1,0,0:0:0:0:
92,344,132826,2,0,L|16:332,1,56.2500021457673,4|0,0:0|0:0,0:0:0:0:
172,192,132984,2,0,L|156:116,1,56.2500021457673,8|0,0:0|0:0,0:0:0:0:
216,320,133142,2,0,L|184:372,1,56.2500021457673,4|0,0:0|0:0,0:0:0:0:
280,224,133300,2,0,L|264:168,1,56.2500021457673,2|0,0:1|0:0,0:0:0:0:
316,348,133458,1,4,0:0:0:0:
316,348,133537,1,0,0:0:0:0:
316,348,133615,2,0,L|388:340,3,56.2500021457673,8|0|4|0,0:0|0:0|0:0|0:0,0:0:0:0:
492,272,133931,5,2,0:1:0:0:
464,264,134010,1,0,0:0:0:0:
436,256,134089,1,4,0:0:0:0:
408,248,134168,1,0,0:0:0:0:
380,240,134247,2,0,P|348:252|304:256,1,56.2500021457673,8|0,0:0|0:0,0:0:0:0:
192,208,134405,1,4,0:0:0:0:
168,196,134484,1,0,0:0:0:0:
140,196,134563,1,2,0:1:0:0:
112,204,134642,1,0,0:0:0:0:
92,224,134721,2,0,L|100:288,1,56.2500021457673,4|0,0:0|0:0,0:0:0:0:
237,283,134879,2,0,L|269:343,1,56.2500021457673,8|0,0:0|0:0,0:0:0:0:
292,172,135037,2,0,L|366:170,1,56.2500021457673,4|0,0:0|0:0,0:0:0:0:
208,88,135194,85,2,0:1:0:0:
164,104,135273,1,0,0:0:0:0:
120,112,135352,1,4,0:0:0:0:
76,104,135431,1,0,0:0:0:0:
40,76,135510,2,0,P|24:44|20:16,1,56.2500021457673,8|0,0:0|0:0,0:0:0:0:
244,76,135668,1,4,0:0:0:0:
244,100,135747,1,0,0:0:0:0:
240,120,135826,2,0,L|224:184,1,56.2500021457673,2|0,0:1|0:0,0:0:0:0:
328,284,135984,2,0,L|316:348,1,56.2500021457673,4|0,0:0|0:0,0:0:0:0:
444,148,136142,2,0,L|432:212,1,56.2500021457673,8|0,0:0|0:0,0:0:0:0:
312,272,136300,2,0,L|301:327,1,56.2500021457673,4|0,0:0|0:0,0:0:0:0:
208,144,136458,6,0,L|196:208,3,56.2500021457673,2|0|4|0,0:1|0:0|0:0|0:0,0:0:0:0:
180,320,136773,1,8,0:0:0:0:
140,344,136852,1,0,0:0:0:0:
96,344,136931,1,4,0:0:0:0:
52,328,137010,1,0,0:0:0:0:
32,288,137089,2,0,P|40:260|40:216,3,56.2500021457673,2|0|4|0,0:1|0:0|0:0|0:0,0:0:0:0:
64,112,137405,2,0,P|84:144|100:164,3,56.2500021457673,8|0|4|0,0:0|0:0|0:0|0:0,0:0:0:0:
116,264,137721,102,0,P|144:240|176:232,1,56.2500021457673,2|0,0:1|0:0,0:0:0:0:
260,288,137879,1,4,0:0:0:0:
280,300,137958,1,0,0:0:0:0:
304,304,138037,2,0,L|376:288,3,56.2500021457673,8|0|4|0,0:0|0:0|0:0|0:0,0:0:0:0:
296,200,138352,2,0,L|308:140,3,56.2500021457673,2|0|4|0,0:1|0:0|0:0|0:0,0:0:0:0:
224,116,138668,1,8,0:0:0:0:
228,100,138747,1,0,0:0:0:0:
232,84,138826,1,4,0:0:0:0:
236,68,138905,1,0,0:0:0:0:
232,52,138984,5,2,0:1:0:0:
272,44,139063,1,0,0:0:0:0:
312,44,139142,1,4,0:0:0:0:
348,56,139221,1,0,0:0:0:0:
380,80,139300,1,8,0:0:0:0:
416,92,139379,1,0,0:0:0:0:
456,88,139458,1,4,0:0:0:0:
488,68,139537,1,0,0:0:0:0:
504,32,139615,1,2,0:1:0:0:
460,40,139694,1,0,0:0:0:0:
428,72,139773,1,4,0:0:0:0:
412,112,139852,1,0,0:0:0:0:
416,156,139931,2,0,L|432:220,1,56.2500021457673,8|0,0:0|0:0,0:0:0:0:
408,328,140089,1,4,0:0:0:0:
408,328,140168,1,0,0:0:0:0:
408,328,140247,22,0,B|300:316|300:316|224:344,1,168.750006437302,2|0,0:1|0:0,0:0:0:0:
132,356,140563,2,0,P|96:340|56:216,1,168.750006437302,8|0,0:0|0:0,0:0:0:0:
128,140,140879,2,0,L|320:160,1,168.750006437302,2|0,0:1|0:0,0:0:0:0:
372,236,141194,1,8,0:0:0:0:
432,184,141273,1,2,0:0:0:0:
424,104,141352,1,6,0:0:0:0:
372,44,141431,1,2,0:0:0:0:
296,32,141510,85,2,0:1:0:0:
260,60,141589,1,0,0:0:0:0:
216,72,141668,1,4,0:0:0:0:
172,72,141747,1,0,0:0:0:0:
132,56,141826,1,8,0:0:0:0:
88,64,141905,1,0,0:0:0:0:
56,96,141984,1,4,0:0:0:0:
44,140,142063,1,0,0:0:0:0:
52,184,142142,1,2,0:1:0:0:
88,212,142221,1,0,0:0:0:0:
132,224,142300,1,4,0:0:0:0:
176,216,142379,1,0,0:0:0:0:
204,184,142458,2,0,P|216:156|220:112,1,56.2500021457673,8|0,0:0|0:0,0:0:0:0:
212,292,142615,2,0,P|196:336|196:372,1,56.2500021457673,4|0,0:0|0:0,0:0:0:0:
232,160,142773,101,2,0:1:0:0:
276,148,142852,1,0,0:0:0:0:
320,152,142931,1,4,0:0:0:0:
360,176,143010,1,0,0:0:0:0:
380,216,143089,2,0,P|384:248|376:280,3,56.2500021457673,8|0|4|0,0:0|0:0|0:0|0:0,0:0:0:0:
316,336,143405,1,2,0:1:0:0:
276,352,143484,1,0,0:0:0:0:
232,352,143563,1,4,0:0:0:0:
192,332,143642,1,0,0:0:0:0:
164,296,143721,2,0,P|160:264|168:236,1,56.2500021457673,8|0,0:0|0:0,0:0:0:0:
136,32,143879,2,0,P|144:64|140:108,1,56.2500021457673,4|0,0:0|0:0,0:0:0:0:
160,248,144037,5,2,0:1:0:0:
132,212,144115,1,0,0:0:0:0:
92,192,144194,1,4,0:0:0:0:
48,192,144273,1,0,0:0:0:0:
8,212,144352,1,8,0:0:0:0:
60,232,144431,1,0,0:0:0:0:
116,228,144510,1,4,0:0:0:0:
168,208,144589,1,0,0:0:0:0:
208,168,144668,2,0,P|264:136|372:140,1,168.750006437302,2|0,0:1|0:0,0:0:0:0:
344,244,144984,2,0,P|304:264|268:264,1,56.2500021457673,8|0,0:0|0:0,0:0:0:0:
464,248,145142,1,4,0:0:0:0:
480,228,145221,1,0,0:0:0:0:
488,200,145300,102,0,L|456:16,1,168.750006437302,2|0,0:1|0:0,0:0:0:0:
376,256,145615,2,0,L|368:328,1,56.2500021457673,8|0,0:0|0:0,0:0:0:0:
344,88,145773,2,0,L|328:16,1,56.2500021457673,4|0,0:0|0:0,0:0:0:0:
248,264,145931,1,2,0:1:0:0:
248,264,146010,1,0,0:0:0:0:
248,264,146089,2,0,L|260:336,1,56.2500021457673,4|0,0:0|0:0,0:0:0:0:
120,240,146247,1,8,0:0:0:0:
120,240,146326,1,0,0:0:0:0:
120,240,146405,1,4,0:0:0:0:
120,240,146484,1,0,0:0:0:0:
152,264,146563,5,2,0:1:0:0:
96,276,146642,1,0,0:0:0:0:
52,244,146721,1,4,0:0:0:0:
36,192,146800,1,0,0:0:0:0:
44,136,146879,2,0,L|56:72,3,56.2500021457673,8|0|4|0,0:0|0:0|0:0|0:0,0:0:0:0:
152,144,147194,2,0,L|192:96,3,56.2500021457673,2|0|4|0,0:1|0:0|0:0|0:0,0:0:0:0:
232,228,147510,2,0,L|288:216,3,56.2500021457673,8|0|4|0,0:0|0:0|0:0|0:0,0:0:0:0:
236,336,147826,101,2,0:1:0:0:
292,344,147905,1,0,0:0:0:0:
348,348,147984,1,4,0:0:0:0:
404,356,148063,1,0,0:0:0:0:
460,364,148142,1,8,0:0:0:0:
452,336,148221,1,0,0:0:0:0:
432,316,148300,1,4,0:0:0:0:
404,308,148379,1,0,0:0:0:0:
376,308,148458,2,0,P|344:320|312:324,1,56.2500021457673,2|0,0:1|0:0,0:0:0:0:
400,200,148615,1,4,0:0:0:0:
372,188,148694,1,0,0:0:0:0:
356,168,148773,2,0,P|352:136|356:96,1,56.2500021457673,8|0,0:0|0:0,0:0:0:0:
488,224,148931,2,0,P|512:272|512:300,1,56.2500021457673,4|0,0:0|0:0,0:0:0:0:
288,240,149089,5,2,0:1:0:0:
268,216,149168,2,0,L|144:224,1,112.500004291535,0|0,0:0|0:0,0:0:0:0:
84,176,149405,2,0,P|72:144|72:112,1,56.2500021457673,8|0,0:0|0:0,0:0:0:0:
92,284,149563,1,4,0:0:0:0:
112,296,149642,1,0,0:0:0:0:
128,304,149721,1,2,0:1:0:0:
72,316,149800,1,0,0:0:0:0:
16,328,149879,2,0,P|12:356|16:384,1,56.2500021457673,4|0,0:0|0:0,0:0:0:0:
160,132,150037,2,0,P|176:80|176:56,1,56.2500021457673,8|0,0:0|0:0,0:0:0:0:
160,320,150194,2,0,P|184:336|212:368,1,56.2500021457673,4|0,0:0|0:0,0:0:0:0:
244,192,150352,102,0,P|284:168|420:156,1,168.750006437302,2|0,0:1|0:0,0:0:0:0:
380,268,150668,2,0,P|340:284|292:288,2,75.000002861023,8|0|0,0:0|0:0|0:0,0:0:0:0:
326,66,150984,2,0,P|289:72|255:87,2,75.000002861023,2|0|0,0:1|0:0|0:0,0:0:0:0:
428,276,151300,1,8,0:0:0:0:
380,308,151379,1,0,0:0:0:0:
324,320,151458,1,4,0:0:0:0:
268,316,151537,1,0,0:0:0:0:
216,296,151615,5,2,0:1:0:0:
165,271,151694,1,0,0:0:0:0:
109,261,151773,1,4,0:0:0:0:
61,291,151852,1,0,0:0:0:0:
70,346,151931,1,8,0:0:0:0:
121,368,152010,1,0,0:0:0:0:
162,329,152089,1,4,0:0:0:0:
142,276,152168,1,0,0:0:0:0:
100,237,152247,1,2,0:1:0:0:
60,216,152326,1,0,0:0:0:0:
38,176,152405,1,4,0:0:0:0:
38,130,152484,1,0,0:0:0:0:
51,87,152563,2,0,L|119:73,1,56.2500021457673,8|0,0:0|0:0,0:0:0:0:
284,200,152721,2,0,L|356:214,1,56.2500021457673,4|0,0:0|0:0,0:0:0:0:
184,116,152879,101,2,0:1:0:0:
192,160,152958,1,0,0:0:0:0:
164,196,153037,1,4,0:0:0:0:
128,220,153115,1,0,0:0:0:0:
84,228,153194,1,8,0:0:0:0:
75,272,153273,1,0,0:0:0:0:
94,312,153352,1,4,0:0:0:0:
130,338,153431,1,0,0:0:0:0:
174,345,153510,1,2,0:1:0:0:
222,316,153589,1,0,0:0:0:0:
274,295,153668,1,4,0:0:0:0:
330,300,153747,1,0,0:0:0:0:
385,307,153826,2,0,L|449:315,1,56.2500021457673,8|0,0:0|0:0,0:0:0:0:
388,176,153984,2,0,L|456:160,1,56.2500021457673,4|0,0:0|0:0,0:0:0:0:
312,96,154142,6,0,L|328:40,3,56.2500021457673,2|0|4|0,0:1|0:0|0:0|0:0,0:0:0:0:
192,160,154458,1,8,0:0:0:0:
164,124,154537,1,0,0:0:0:0:
124,104,154615,1,4,0:0:0:0:
80,96,154694,1,0,0:0:0:0:
36,104,154773,2,0,P|72:128|196:112,1,168.750006437302,2|0,0:1|0:0,0:0:0:0:
124,252,155089,2,0,P|88:252|64:264,3,56.2500021457673,8|0|4|0,0:0|0:0|0:0|0:0,0:0:0:0:
212,204,155405,102,0,L|392:196,1,168.750006437302,2|0,0:1|0:0,0:0:0:0:
448,256,155721,2,0,P|456:288|460:332,1,56.2500021457673,8|0,0:0|0:0,0:0:0:0:
436,116,155879,2,0,P|448:84|468:64,1,56.2500021457673,4|0,0:0|0:0,0:0:0:0:
368,296,156037,2,0,P|352:336|340:364,1,56.2500021457673,2|0,0:1|0:0,0:0:0:0:
344,72,156194,2,0,P|352:36|368:4,1,56.2500021457673,4|0,0:0|0:0,0:0:0:0:
276,288,156352,2,0,P|240:312|216:320,3,56.2500021457673,8|0|4|0,0:0|0:0|0:0|0:0,0:0:0:0:
104,296,156668,5,2,0:1:0:0:
80,256,156747,1,0,0:0:0:0:
76,212,156826,1,4,0:0:0:0:
84,168,156905,1,0,0:0:0:0:
112,132,156984,2,0,P|120:92|116:64,3,56.2500021457673,8|0|4|0,0:0|0:0|0:0|0:0,0:0:0:0:
168,232,157300,2,0,P|176:196|188:176,3,56.2500021457673,2|0|4|0,0:1|0:0|0:0|0:0,0:0:0:0:
224,72,157615,1,8,0:0:0:0:
244,112,157694,1,0,0:0:0:0:
280,140,157773,1,4,0:0:0:0:
324,152,157852,1,0,0:0:0:0:
368,148,157931,102,0,L|428:132,1,56.2500021457673,2|0,0:1|0:0,0:0:0:0:
260,272,158089,2,0,P|248:300|244:348,1,56.2500021457673,4|0,0:0|0:0,0:0:0:0:
325,79,158247,2,0,P|313:45|298:27,1,56.2500021457673,8|0,0:0|0:0,0:0:0:0:
351,245,158405,2,4,P|363:273|379:297,1,56.2500021457673,4|0,0:0|0:0,0:0:0:0:
424,151,158563,2,0,P|440:122|445:93,3,56.2500021457673,2|0|4|0,0:1|0:0|0:0|0:0,0:0:0:0:
295,83,158879,2,0,P|264:51|233:38,3,56.2500021457673,8|0|4|0,0:0|0:0|0:0|0:0,0:0:0:0:
192,204,159194,5,2,0:1:0:0:
160,236,159273,1,0,0:0:0:0:
116,252,159352,1,4,0:0:0:0:
72,252,159431,1,0,0:0:0:0:
28,236,159510,1,8,0:0:0:0:
64,208,159589,1,0,0:0:0:0:
108,200,159668,1,4,0:0:0:0:
152,208,159747,1,0,0:0:0:0:
192,228,159826,2,0,P|216:248|232:272,3,56.2500021457673,2|0|4|0,0:1|0:0|0:0|0:0,0:0:0:0:
284,348,160142,1,8,0:0:0:0:
324,368,160221,1,0,0:0:0:0:
368,364,160300,1,4,0:0:0:0:
408,340,160379,1,0,0:0:0:0:
432,300,160458,102,0,L|420:232,1,56.2500021457673,2|0,0:1|0:0,0:0:0:0:
316,164,160615,1,4,0:0:0:0:
316,164,160694,1,0,0:0:0:0:
316,164,160773,2,0,L|328:100,3,56.2500021457673,8|0|4|0,0:0|0:0|0:0|0:0,0:0:0:0:
184,84,161089,2,0,L|172:16,1,56.2500021457673,2|0,0:1|0:0,0:0:0:0:
336,180,161247,2,0,L|356:120,1,56.2500021457673,4|0,0:0|0:0,0:0:0:0:
156,96,161405,2,0,L|140:40,3,56.2500021457673,8|0|4|0,0:0|0:0|0:0|0:0,0:0:0:0:
216,196,161721,5,2,0:1:0:0:
196,236,161800,1,0,0:0:0:0:
160,260,161879,1,4,0:0:0:0:
116,276,161958,1,0,0:0:0:0:
72,268,162037,2,0,P|40:264|12:264,3,56.2500021457673,8|0|4|0,0:0|0:0|0:0|0:0,0:0:0:0:
164,360,162352,1,2,0:1:0:0:
204,336,162431,1,0,0:0:0:0:
248,324,162510,1,4,0:0:0:0:
292,324,162589,1,0,0:0:0:0:
336,336,162668,2,0,L|408:356,1,56.2500021457673,8|0,0:0|0:0,0:0:0:0:
312,232,162826,2,0,L|368:212,1,56.2500021457673,4|0,0:0|0:0,0:0:0:0:
276,128,162984,101,2,0:1:0:0:
272,108,163063,1,0,0:0:0:0:
268,84,163142,1,4,0:0:0:0:
264,64,163221,1,0,0:0:0:0:
260,40,163300,2,0,L|340:56,1,56.2500021457673,8|0,0:0|0:0,0:0:0:0:
116,184,163458,2,0,L|60:168,1,56.2500021457673,4|0,0:0|0:0,0:0:0:0:
248,148,163615,1,2,0:1:0:0:
292,140,163694,1,0,0:0:0:0:
336,132,163773,1,4,0:0:0:0:
380,124,163852,1,0,0:0:0:0:
424,120,163931,2,0,L|420:180,1,56.2500021457673,8|0,0:0|0:0,0:0:0:0:
368,360,164089,2,0,L|356:300,1,56.2500021457673,4|0,0:0|0:0,0:0:0:0:
208,216,164247,6,0,L|220:148,2,56.2500021457673,2|0|4,0:1|0:0|0:0,0:0:0:0:
236,252,164484,1,0,0:0:0:0:
248,296,164563,2,0,L|236:368,1,56.2500021457673,8|0,0:0|0:0,0:0:0:0:
124,276,164721,2,0,L|60:288,1,56.2500021457673,4|0,0:0|0:0,0:0:0:0:
340,240,164879,1,2,0:1:0:0:
360,248,164958,1,0,0:0:0:0:
380,256,165037,1,4,0:0:0:0:
400,264,165115,1,0,0:0:0:0:
420,272,165194,2,0,L|484:260,1,56.2500021457673,8|0,0:0|0:0,0:0:0:0:
368,148,165352,2,0,L|384:80,1,56.2500021457673,4|0,0:0|0:0,0:0:0:0:
224,180,165510,102,0,L|204:108,3,56.2500021457673,2|0|4|0,0:1|0:0|0:0|0:0,0:0:0:0:
212,320,165826,2,0,L|196:384,1,56.2500021457673,8|0,0:0|0:0,0:0:0:0:
176,156,165984,2,0,L|160:96,1,56.2500021457673,4|0,0:0|0:0,0:0:0:0:
180,304,166142,1,2,0:1:0:0:
156,340,166221,1,0,0:0:0:0:
128,376,166300,1,4,0:0:0:0:
101,339,166379,1,0,0:0:0:0:
74,302,166458,1,8,0:0:0:0:
110,252,166537,1,0,0:0:0:0:
165,227,166615,1,4,0:0:0:0:
224,245,166694,1,0,0:0:0:0:
272,284,166773,5,2,0:1:0:0:
320,300,166852,1,0,0:0:0:0:
368,288,166931,1,4,0:0:0:0:
400,248,167010,1,0,0:0:0:0:
408,200,167089,2,0,L|396:132,1,56.2500021457673,8|0,0:0|0:0,0:0:0:0:
300,56,167247,2,0,L|360:28,1,56.2500021457673,4|0,0:0|0:0,0:0:0:0:
316,204,167405,1,2,0:1:0:0:
284,164,167484,1,0,0:0:0:0:
240,144,167563,1,4,0:0:0:0:
188,140,167642,1,0,0:0:0:0:
140,148,167721,1,8,0:0:0:0:
88,148,167800,1,0,0:0:0:0:
52,112,167879,1,4,0:0:0:0:
36,64,167958,1,0,0:0:0:0:
36,12,168037,101,2,0:1:0:0:
72,40,168115,1,0,0:0:0:0:
92,80,168194,1,4,0:0:0:0:
100,124,168273,1,0,0:0:0:0:
80,184,168352,1,8,0:0:0:0:
76,244,168431,1,0,0:0:0:0:
112,296,168510,1,4,0:0:0:0:
164,328,168589,1,0,0:0:0:0:
224,316,168668,2,0,P|240:304|288:292,3,56.2500021457673,2|0|4|0,0:1|0:0|0:0|0:0,0:0:0:0:
368,308,168984,1,8,0:0:0:0:
428,324,169063,1,0,0:0:0:0:
484,296,169142,1,4,0:0:0:0:
504,236,169221,1,0,0:0:0:0:
500,176,169300,6,0,L|484:112,1,56.2500021457673,2|0,0:1|0:0,0:0:0:0:
352,284,169458,2,0,L|352:348,1,56.2500021457673,4|0,0:0|0:0,0:0:0:0:
412,156,169615,2,0,L|396:92,1,56.2500021457673,8|0,0:0|0:0,0:0:0:0:
264,264,169773,2,0,L|264:328,1,56.2500021457673,4|0,0:0|0:0,0:0:0:0:
320,136,169931,2,0,L|306:81,1,56.2500021457673,2|0,0:1|0:0,0:0:0:0:
172,244,170089,2,0,L|172:300,1,56.2500021457673,4|0,0:0|0:0,0:0:0:0:
232,120,170247,2,0,L|218:65,1,56.2500021457673,8|0,0:0|0:0,0:0:0:0:
84,228,170405,2,0,L|84:284,1,56.2500021457673,4|0,0:0|0:0,0:0:0:0:
152,144,170563,37,2,0:1:0:0:
148,130,170641,1,0,0:0:0:0:
145,116,170720,1,4,0:0:0:0:
142,103,170799,1,0,0:0:0:0:
138,89,170878,1,8,0:0:0:0:
135,75,170957,1,0,0:0:0:0:
132,62,171036,1,4,0:0:0:0:
128,48,171115,1,0,0:0:0:0:
125,34,171194,1,0,0:0:0:0:
64,248,171826,6,0,P|107:250|140:264,1,75,0|4,0:0|0:0,0:0:0:0:
204,342,172142,2,0,P|242:341|280:326,1,75,0|4,0:0|0:0,0:0:0:0:
325,234,172458,2,0,P|360:230|400:238,1,75,0|4,0:0|0:0,0:0:0:0:
479,170,172773,1,0,0:0:0:0:
449,69,172931,1,4,0:0:0:0:
344,59,173089,102,0,P|307:84|258:92,1,75,0|4,0:0|0:0,0:0:0:0:
185,39,173405,2,0,P|147:64|125:99,1,75,0|4,0:0|0:0,0:0:0:0:
25,100,173721,2,0,P|20:136|37:188,1,75,0|4,0:0|0:0,0:0:0:0:
20,276,174037,1,0,0:0:0:0:
116,240,174194,1,4,0:0:0:0:
216,276,174352,6,0,P|252:301|288:312,1,75,0|4,0:0|0:0,0:0:0:0:
388,346,174668,2,0,P|433:337|468:318,1,75,0|4,0:0|0:0,0:0:0:0:
487,214,174984,2,0,P|482:166|467:126,1,75,0|4,0:0|0:0,0:0:0:0:
364,111,175300,2,0,L|368:79,6,18.75,0|0|0|0|4|0|0,0:0|0:0|0:0|0:0|0:0|0:0|0:0,0:0:0:0:
352,134,175615,102,0,P|307:123|272:126,1,75,0|4,0:0|0:0,0:0:0:0:
184,75,175931,2,0,P|140:84|100:75,1,75,0|4,0:0|0:0,0:0:0:0:
30,148,176247,1,0,0:0:0:0:
51,250,176405,1,4,0:0:0:0:
144,204,176563,2,0,L|152:184,6,18.75,0|0|0|0|4|0|0,0:0|0:0|0:0|0:0|0:0|0:0|0:0,0:0:0:0:
148,228,176879,5,0,0:0:0:0:
212,312,177037,1,4,0:0:0:0:
316,336,177194,1,0,0:0:0:0:
420,320,177352,1,4,0:0:0:0:
492,244,177510,1,0,0:0:0:0:
468,140,177668,1,4,0:0:0:0:
468,140,177747,1,0,0:0:0:0:
468,140,177826,2,0,L|460:112,6,18.75,0|0|0|0|4|0|0,0:0|0:0|0:0|0:0|0:0|0:0|0:0,0:0:0:0:
360,139,178142,102,0,L|369:99,3,37.5,0|0|4|0,0:0|0:0|0:0|0:0,0:0:0:0:
270,48,178458,2,0,L|307:16,3,37.5,0|0|4|0,0:0|0:0|0:0|0:0,0:0:0:0:
240,154,178773,1,0,0:0:0:0:
213,179,178852,1,0,0:0:0:0:
178,192,178931,1,4,0:0:0:0:
141,188,179010,1,0,0:0:0:0:
109,170,179089,2,0,P|100:193|101:202,6,18.75,0|0|0|0|0|0|0,0:0|0:0|0:0|0:0|0:0|0:0|0:0,0:0:0:0:
123,221,179405,6,0,P|145:175|111:87,1,150,0|0,0:0|2:0,0:0:0:0:
112,88,180668,101,8,0:0:0:0:
400,88,180984,1,8,0:0:0:0:
136,304,181300,2,0,L|28:328,2,89.999997253418,8|8|8,0:0|0:0|0:0,0:0:0:0:
376,304,181615,2,0,L|484:328,2,89.999997253418,8|8|8,0:0|0:0|0:0,0:0:0:0:
116,184,181931,69,2,1:0:0:0:
236,248,182037,2,0,P|252:288|256:340,1,89.999997253418,0|2,0:0|0:0,0:0:0:0:
188,100,182247,2,0,P|180:88|168:12,1,89.999997253418,8|0,1:2|0:0,0:0:0:0:
166,320,182458,1,2,0:0:0:0:
346,198,182563,2,0,P|390:171|466:157,1,89.999997253418,2|0,1:0|0:0,0:0:0:0:
138,186,182773,1,2,0:0:0:0:
336,86,182879,2,0,P|373:69|434:63,1,89.999997253418,8|0,1:2|0:0,0:0:0:0:
106,265,183089,1,2,0:0:0:0:
284,104,183194,101,2,1:0:0:0:
180,310,183300,1,0,0:0:0:0:
149,101,183405,1,2,0:0:0:0:
272,264,183510,2,0,L|264:364,1,89.999997253418,8|0,1:2|0:0,0:0:0:0:
284,104,183721,1,2,0:0:0:0:
384,248,183826,1,2,1:0:0:0:
184,184,183931,1,0,0:0:0:0:
373,84,184037,1,2,0:0:0:0:
368,280,184142,2,0,L|363:380,1,89.999997253418,8|0,1:2|0:0,0:0:0:0:
456,65,184352,1,2,0:0:0:0:
196,152,184458,6,0,P|149:161|72:148,1,89.999997253418,2|0,1:0|0:0,0:0:0:0:
452,176,184668,1,2,0:0:0:0:
204,244,184773,2,0,P|160:257|84:260,1,89.999997253418,8|0,1:2|0:0,0:0:0:0:
356,217,184984,1,2,0:0:0:0:
232,52,185089,1,2,1:0:0:0:
308,304,185194,1,0,0:0:0:0:
160,128,185300,1,2,0:0:0:0:
408,152,185405,2,0,L|512:160,1,89.999997253418,8|0,1:2|0:0,0:0:0:0:
216,276,185615,1,2,0:0:0:0:
308,104,185721,101,2,1:0:0:0:
288,344,185826,1,0,0:0:0:0:
196,152,185931,1,2,0:0:0:0:
392,296,186037,2,0,P|438:313|491:313,1,89.999997253418,8|0,1:2|0:0,0:0:0:0:
124,280,186247,1,2,0:0:0:0:
304,196,186352,2,0,P|351:179|423:174,1,89.999997253418,2|0,1:0|0:0,0:0:0:0:
68,176,186563,1,2,0:0:0:0:
308,304,186668,1,8,1:2:0:0:
272,80,186773,1,0,0:0:0:0:
208,320,186879,1,2,0:0:0:0:
120,96,186984,5,2,1:0:0:0:
196,348,187089,1,0,0:0:0:0:
280,180,187194,1,2,0:0:0:0:
104,200,187300,2,0,P|51:200|3:193,1,89.999997253418,8|0,1:2|0:0,0:0:0:0:
328,248,187510,1,2,0:0:0:0:
164,96,187615,2,0,P|147:50|144:8,1,89.999997253418,2|0,1:0|0:0,0:0:0:0:
288,344,187826,1,2,0:0:0:0:
360,148,187931,2,0,P|367:101|368:36,1,89.999997253418,8|0,1:2|0:0,0:0:0:0:
92,232,188142,1,2,0:0:0:0:
344,256,188247,102,0,P|384:256|448:240,1,89.999997253418,2|0,1:0|0:0,0:0:0:0:
160,180,188458,1,2,0:0:0:0:
407,286,188563,2,0,P|469:268|502:239,1,89.999997253418,8|0,1:2|0:0,0:0:0:0:
128,164,188773,1,2,0:0:0:0:
318,223,188879,1,2,1:0:0:0:
184,336,188984,1,0,0:0:0:0:
272,116,189089,1,2,0:0:0:0:
124,264,189194,2,0,P|86:293|39:314,1,89.999997253418,8|0,1:2|0:0,0:0:0:0:
416,200,189405,1,2,0:0:0:0:
150,111,189510,21,2,1:0:0:0:
379,289,189615,1,0,0:0:0:0:
108,186,189721,1,2,0:0:0:0:
366,108,189826,1,8,1:2:0:0:
259,270,189931,1,0,0:0:0:0:
207,46,190037,1,2,0:0:0:0:
260,302,190142,1,2,1:0:0:0:
385,78,190247,1,0,0:0:0:0:
199,184,190352,1,2,0:0:0:0:
412,249,190458,2,0,L|509:269,1,89.999997253418,8|0,1:2|0:0,0:0:0:0:
179,279,190668,1,2,0:0:0:0:
228,92,190773,6,0,L|240:0,1,89.999997253418,6|0,1:0|0:0,0:0:0:0:
194,314,190984,1,2,0:0:0:0:
139,74,191089,1,8,1:2:0:0:
318,314,191194,1,10,0:0:0:0:
373,74,191300,1,8,1:2:0:0:
163,291,191405,2,0,P|128:318|61:332,1,89.999997253418,2|0,0:1|0:0,0:0:0:0:
254,51,191615,1,2,0:0:0:0:
349,291,191721,2,0,P|384:318|451:332,1,89.999997253418,10|0,1:2|0:0,0:0:0:0:
171,160,191931,1,2,0:0:0:0:
376,80,192037,86,0,L|489:37,1,89.999997253418,6|0,1:0|0:0,0:0:0:0:
96,140,192247,1,2,0:0:0:0:
360,192,192352,2,0,L|480:212,1,89.999997253418,8|2,1:2|0:0,0:0:0:0:
72,112,192563,1,2,0:0:0:0:
276,72,192668,1,2,1:0:0:0:
124,304,192773,1,0,0:0:0:0:
172,88,192879,1,2,0:0:0:0:
316,280,192984,2,0,L|340:384,1,89.999997253418,8|0,1:2|0:0,0:0:0:0:
252,42,193194,1,2,0:0:0:0:
416,240,193300,101,2,1:0:0:0:
216,184,193405,1,0,0:0:0:0:
332,44,193510,1,2,0:0:0:0:
296,256,193615,2,0,L|279:365,1,89.999997253418,8|0,1:2|0:0,0:0:0:0:
176,40,193826,1,2,0:0:0:0:
392,192,193931,2,0,L|478:243,1,89.999997253418,2|0,1:0|0:0,0:0:0:0:
136,216,194142,1,2,0:0:0:0:
384,96,194247,2,0,L|480:56,1,89.999997253418,8|0,1:2|0:0,0:0:0:0:
224,292,194458,1,2,0:0:0:0:
208,100,194563,6,0,L|196:-4,1,89.999997253418,2|0,1:0|0:0,0:0:0:0:
200,320,194773,1,2,0:0:0:0:
304,148,194879,1,8,1:2:0:0:
104,200,194984,1,0,0:0:0:0:
340,276,195089,1,2,0:0:0:0:
120,336,195194,2,0,L|16:360,1,89.999997253418,2|0,1:0|0:0,0:0:0:0:
226,202,195405,1,2,0:0:0:0:
420,232,195510,2,0,L|512:244,1,89.999997253418,8|0,1:2|0:0,0:0:0:0:
243,347,195721,1,2,0:0:0:0:
258,106,195826,102,0,P|268:60|293:9,1,89.999997253418,2|0,1:0|0:0,0:0:0:0:
316,300,196037,1,2,0:0:0:0:
172,120,196142,2,0,P|155:82|152:12,1,89.999997253418,8|0,1:2|0:0,0:0:0:0:
288,332,196352,1,2,0:0:0:0:
392,208,196458,1,2,1:0:0:0:
122,194,196563,1,0,0:0:0:0:
332,84,196668,1,2,0:0:0:0:
156,304,196773,2,0,B|120:328|120:328|69:345,1,89.999997253418,8|0,1:2|0:0,0:0:0:0:
392,208,196984,1,2,0:0:0:0:
238,358,197089,5,2,1:0:0:0:
373,96,197194,1,0,0:0:0:0:
185,196,197300,1,2,0:0:0:0:
372,301,197405,2,0,L|475:358,1,89.999997253418,8|0,1:2|0:0,0:0:0:0:
154,199,197615,1,2,0:0:0:0:
416,172,197721,2,0,L|508:160,1,89.999997253418,2|0,1:0|0:0,0:0:0:0:
129,202,197931,1,2,0:0:0:0:
336,112,198037,1,8,1:2:0:0:
232,336,198142,1,0,0:0:0:0:
208,72,198247,1,2,0:0:0:0:
320,256,198352,102,0,L|376:350,1,89.999997253418,2|0,1:0|0:0,0:0:0:0:
184,48,198563,1,2,0:0:0:0:
393,215,198668,2,0,L|473:280,1,89.999997253418,8|0,1:2|0:0,0:0:0:0:
160,32,198879,1,2,0:0:0:0:
419,134,198984,2,0,L|509:166,1,89.999997253418,2|0,1:0|0:0,0:0:0:0:
256,156,199194,1,2,0:0:0:0:
472,104,199300,1,8,1:2:0:0:
328,284,199405,1,0,0:0:0:0:
344,28,199510,1,2,0:0:0:0:
472,244,199615,22,0,L|460:344,1,89.999997253418,2|0,1:0|0:0,0:0:0:0:
236,180,199826,1,2,0:0:0:0:
440,80,199931,1,8,1:2:0:0:
348,324,200037,1,0,0:0:0:0:
308,48,200142,1,2,0:0:0:0:
224,264,200247,2,0,L|188:360,1,89.999997253418,2|0,1:0|0:0,0:0:0:0:
348,128,200458,1,2,0:0:0:0:
124,184,200563,2,0,L|16:208,1,89.999997253418,8|0,1:2|0:0,0:0:0:0:
340,240,200773,1,2,0:0:0:0:
100,72,200879,5,6,1:0:0:0:
412,192,200984,1,0,0:0:0:0:
100,300,201089,1,2,0:0:0:0:
368,104,201194,1,8,1:2:0:0:
124,184,201300,1,0,0:0:0:0:
372,280,201405,1,2,0:0:0:0:
121,89,201510,2,0,B|79:65|62:16,1,89.999997253418,2|0,1:0|0:0,0:0:0:0:
256,246,201721,1,2,0:0:0:0:
391,89,201826,2,0,B|433:65|450:16,1,89.999997253418,8|0,1:2|0:0,0:0:0:0:
256,344,202037,1,2,0:0:0:0:
256,112,202142,86,0,L|256:12,1,89.999997253418,2|2,1:0|0:0,0:0:0:0:
256,304,202352,1,2,0:0:0:0:
84,148,202458,2,0,P|73:104|74:59,1,89.999997253418,10|2,1:2|0:0,0:0:0:0:
256,344,202668,1,2,0:0:0:0:
428,148,202773,2,0,P|438:104|437:59,1,89.999997253418,6|2,1:0|0:0,0:0:0:0:
128,268,202984,1,2,0:0:0:0:
380,268,203089,1,8,1:2:0:0:
160,96,203194,1,2,0:0:0:0:
256,304,203300,1,2,0:0:0:0:
344,104,203405,102,0,L|328:16,1,89.999997253418,6|0,1:0|0:0,0:0:0:0:
392,352,203615,1,2,0:0:0:0:
232,192,203721,1,8,1:2:0:0:
432,276,203826,1,2,0:0:0:0:
164,272,203931,1,2,0:0:0:0:
396,188,204037,2,0,L|496:152,1,89.999997253418,2|0,1:0|0:0,0:0:0:0:
256,344,204247,1,2,0:0:0:0:
328,120,204352,2,0,P|352:84|424:44,1,89.999997253418,8|0,1:2|0:0,0:0:0:0:
60,136,204563,1,2,0:0:0:0:
284,264,204668,6,0,P|288:316|276:364,1,89.999997253418,2|0,1:0|0:0,0:0:0:0:
208,40,204879,1,2,0:0:0:0:
124,312,204984,1,8,1:2:0:0:
296,124,205089,1,2,0:0:0:0:
40,224,205194,1,2,0:0:0:0:
316,236,205300,2,0,P|368:232|432:204,2,89.999997253418,2|2|2,1:0|0:0|0:0,0:0:0:0:
136,224,205615,2,0,P|82:192|34:184,1,89.999997253418,8|0,1:2|0:0,0:0:0:0:
296,360,205826,1,2,0:0:0:0:
260,128,205931,102,0,L|244:16,1,89.999997253418,2|0,1:0|0:0,0:0:0:0:
192,364,206142,1,2,0:0:0:0:
364,152,206247,2,0,P|376:96|376:48,1,89.999997253418,8|0,1:2|0:0,0:0:0:0:
156,356,206458,1,2,0:0:0:0:
376,256,206563,2,0,P|416:236|484:228,1,89.999997253418,2|0,1:0|0:0,0:0:0:0:
132,348,206773,1,2,0:0:0:0:
212,120,206879,2,0,P|228:76|232:8,1,89.999997253418,8|0,1:2|0:0,0:0:0:0:
104,332,207089,1,2,0:0:0:0:
288,188,207194,6,0,L|384:156,1,89.999997253418,2|2,1:2|0:0,0:0:0:0:
32,280,207405,1,2,0:0:0:0:
248,92,207510,1,10,1:2:0:0:
208,328,207615,1,2,0:0:0:0:
64,60,207721,1,2,0:0:0:0:
336,108,207826,2,0,L|460:128,1,89.999997253418,2|0,1:0|0:0,0:0:0:0:
120,208,208037,1,2,0:0:0:0:
376,304,208142,2,0,L|476:336,1,89.999997253418,8|0,1:2|0:0,0:0:0:0:
104,248,208352,1,2,0:0:0:0:
400,212,208458,102,0,L|496:204,1,89.999997253418,2|0,1:0|0:0,0:0:0:0:
272,64,208668,1,2,0:0:0:0:
144,268,208773,2,0,B|136:316|136:316|144:384,2,89.999997253418,8|0|2,1:2|0:0|0:0,0:0:0:0:
220,124,209089,2,0,P|232:68|228:8,1,89.999997253418,2|0,1:0|0:0,0:0:0:0:
16,184,209300,1,2,0:0:0:0:
272,304,209405,2,0,L|372:288,1,89.999997253418,8|0,1:2|0:0,0:0:0:0:
64,268,209615,1,2,0:0:0:0:
340,188,209721,22,0,L|460:196,1,89.999997253418,2|0,1:0|0:0,0:0:0:0:
196,236,209931,1,2,0:0:0:0:
392,116,210037,2,0,P|416:56|424:16,1,89.999997253418,8|0,1:2|0:0,0:0:0:0:
256,328,210247,1,2,0:0:0:0:
120,116,210352,2,0,P|96:56|88:16,1,89.999997253418,2|0,1:0|0:0,0:0:0:0:
256,364,210563,1,2,0:0:0:0:
256,148,210668,2,0,L|256:32,1,89.999997253418,8|0,1:2|0:0,0:0:0:0:
128,356,210879,1,2,0:0:0:0:
384,356,210984,5,6,1:0:0:0:
48,280,211089,1,8,1:2:0:0:
464,280,211194,1,8,1:2:0:0:
112,200,211300,2,0,L|16:192,1,89.999997253418,10|4,1:2|0:2,0:0:0:0:
256,28,211510,1,8,0:0:0:0:
400,200,211615,2,0,L|496:192,1,89.999997253418,6|0,1:2|0:0,0:0:0:0:
256,28,211826,1,2,1:2:0:0:
256,276,211931,2,0,L|256:376,1,89.999997253418,8|0,1:2|0:0,0:0:0:0:
140,88,212142,1,2,1:2:0:0:
371,277,212247,86,0,P|408:313|452:342,1,89.999997253418,6|0,1:0|0:0,0:0:0:0:
254,108,212458,1,2,0:0:0:0:
141,277,212563,2,0,P|109:314|60:342,1,89.999997253418,8|0,1:2|0:0,0:0:0:0:
255,80,212773,1,2,0:0:0:0:
396,263,212878,2,0,P|424:296|484:332,1,89.999997253418,2|0,1:0|0:0,0:0:0:0:
240,176,213089,1,2,0:0:0:0:
192,344,213194,1,8,1:2:0:0:
348,256,213300,1,0,0:0:0:0:
128,256,213405,1,2,0:0:0:0:
256,144,213510,102,0,P|264:88|264:44,1,89.999997253418,6|0,1:0|0:0,0:0:0:0:
168,352,213721,1,2,0:0:0:0:
368,112,213826,2,0,P|364:52|352:8,1,89.999997253418,8|0,1:2|0:0,0:0:0:0:
256,288,214037,1,2,0:0:0:0:
144,112,214142,2,0,P|148:52|160:8,1,89.999997253418,2|0,1:0|0:0,0:0:0:0:
344,352,214352,1,2,0:0:0:0:
72,172,214458,2,0,P|52:128|48:64,1,89.999997253418,8|0,1:2|0:0,0:0:0:0:
256,328,214668,1,2,0:0:0:0:
412,172,214773,6,0,P|452:144|500:132,1,89.999997253418,6|0,1:0|0:0,0:0:0:0:
344,352,214984,1,2,0:0:0:0:
236,176,215089,2,0,B|232:136|232:136|244:68,2,89.999997253418,8|0|2,1:2|0:0|0:0,0:0:0:0:
344,260,215405,2,0,P|408:276|440:308,1,89.999997253418,2|0,1:0|0:0,0:0:0:0:
164,280,215615,1,2,0:0:0:0:
336,132,215721,2,0,P|352:76|356:24,1,89.999997253418,8|0,1:2|0:0,0:0:0:0:
244,348,215931,1,2,0:0:0:0:
144,112,216037,102,0,P|124:72|72:24,1,89.999997253418,6|0,1:0|0:0,0:0:0:0:
204,368,216247,1,2,0:0:0:0:
84,196,216352,2,0,P|37:181|-12:180,1,89.999997253418,8|0,1:2|0:0,0:0:0:0:
256,56,216563,1,2,0:0:0:0:
428,188,216668,2,0,L|503:243,1,89.999997253418,2|0,1:0|0:0,0:0:0:0:
232,136,216879,1,2,0:0:0:0:
432,80,216984,2,0,L|508:23,1,89.999997253418,8|0,1:2|0:0,0:0:0:0:
156,280,217194,1,2,0:0:0:0:
324,176,217300,5,6,1:0:0:0:
288,360,217405,1,0,0:0:0:0:
200,176,217510,1,2,0:0:0:0:
400,300,217615,2,0,L|503:340,1,89.999997253418,8|0,1:2|0:0,0:0:0:0:
128,304,217826,1,2,0:0:0:0:
376,272,217931,1,2,1:0:0:0:
168,160,218037,1,0,0:0:0:0:
256,376,218142,1,2,0:0:0:0:
340,148,218247,2,0,L|320:48,1,89.999997253418,8|0,1:2|0:0,0:0:0:0:
256,340,218458,1,2,0:0:0:0:
432,188,218563,102,0,P|452:140|452:76,1,89.999997253418,6|0,1:0|0:0,0:0:0:0:
256,256,218773,1,2,0:0:0:0:
80,188,218879,2,0,P|60:140|60:76,1,89.999997253418,8|0,1:2|0:0,0:0:0:0:
256,240,219089,1,2,0:0:0:0:
104,336,219194,2,0,P|56:352|12:348,1,89.999997253418,2|0,1:0|0:0,0:0:0:0:
168,124,219405,1,2,0:0:0:0:
352,256,219510,2,0,P|356:292|344:360,1,89.999997253418,8|0,1:2|0:0,0:0:0:0:
220,36,219721,1,2,0:0:0:0:
256,220,219826,5,6,1:0:0:0:
256,192,219879,12,0,222247,0:0:0:0:
256,192,222352,38,0,P|204:208|164:198,7,89.9999972534181
256,192,224879,2,0,P|308:176|348:186,7,89.9999972534181,0|0|0|0|0|0|0|0,0:0|0:0|0:0|0:0|0:0|0:0|0:0|0:0,0:0:0:0:
320,228,227405,5,2,0:0:0:0:
320,228,227484,1,0,0:0:0:0:
320,228,227563,1,0,0:0:0:0:
320,228,227642,1,0,0:0:0:0:
320,228,227721,1,2,0:0:0:0:
320,228,227800,1,0,0:0:0:0:
320,228,227879,1,0,0:0:0:0:
320,228,227958,1,0,0:0:0:0:
320,228,228037,1,2,0:0:0:0:
320,228,228115,1,0,0:0:0:0:
320,228,228194,1,0,0:0:0:0:
320,228,228273,1,0,0:0:0:0:
320,228,228352,1,2,0:0:0:0:
320,228,228431,1,0,0:0:0:0:
320,228,228510,1,0,0:0:0:0:
320,228,228589,1,0,0:0:0:0:
320,228,228668,101,2,0:0:0:0:
320,228,228747,1,0,0:0:0:0:
320,228,228826,1,0,0:0:0:0:
320,228,228905,1,0,0:0:0:0:
320,228,228984,1,2,0:0:0:0:
320,228,229063,1,0,0:0:0:0:
320,228,229142,1,0,0:0:0:0:
320,228,229221,1,0,0:0:0:0:
320,228,229300,1,2,0:0:0:0:
320,228,229379,1,0,0:0:0:0:
320,228,229458,1,0,0:0:0:0:
320,228,229537,1,0,0:0:0:0:
320,228,229615,1,2,0:0:0:0:
320,228,229694,1,0,0:0:0:0:
320,228,229773,1,0,0:0:0:0:
320,228,229852,1,0,0:0:0:0:
320,228,229931,5,2,0:0:0:0:
312,264,230010,1,0,0:0:0:0:
280,284,230089,1,0,0:0:0:0:
244,288,230168,1,0,0:0:0:0:
208,276,230247,1,2,0:0:0:0:
184,248,230326,1,0,0:0:0:0:
172,212,230405,1,0,0:0:0:0:
172,176,230484,1,0,0:0:0:0:
188,144,230563,1,2,0:0:0:0:
220,124,230642,1,0,0:0:0:0:
256,116,230721,1,0,0:0:0:0:
292,116,230800,1,0,0:0:0:0:
328,128,230879,1,2,0:0:0:0:
360,144,230958,1,0,0:0:0:0:
396,148,231037,1,0,0:0:0:0:
432,140,231115,1,0,0:0:0:0:
460,116,231194,101,2,0:0:0:0:
468,80,231273,1,0,0:0:0:0:
456,44,231352,1,0,0:0:0:0:
428,20,231431,1,0,0:0:0:0:
392,12,231510,1,2,0:0:0:0:
356,24,231589,1,0,0:0:0:0:
328,48,231668,1,0,0:0:0:0:
312,80,231747,1,0,0:0:0:0:
312,116,231826,1,2,0:0:0:0:
328,152,231905,1,0,0:0:0:0:
352,184,231984,1,0,0:0:0:0:
384,204,232063,1,0,0:0:0:0:
420,216,232142,1,2,0:0:0:0:
452,232,232221,1,0,0:0:0:0:
476,260,232300,1,0,0:0:0:0:
484,296,232379,1,0,0:0:0:0:
472,332,232458,5,2,0:0:0:0:
440,348,232537,1,0,0:0:0:0:
404,352,232615,1,0,0:0:0:0:
368,340,232694,1,0,0:0:0:0:
344,308,232773,1,2,0:0:0:0:
332,272,232852,1,0,0:0:0:0:
336,236,232931,1,0,0:0:0:0:
344,200,233010,1,0,0:0:0:0:
364,168,233089,1,2,0:0:0:0:
368,132,233168,1,0,0:0:0:0:
352,96,233247,1,0,0:0:0:0:
324,72,233326,1,0,0:0:0:0:
288,56,233405,1,2,0:0:0:0:
252,48,233484,1,0,0:0:0:0:
216,52,233563,1,0,0:0:0:0:
184,72,233642,1,0,0:0:0:0:
156,116,233721,101,2,0:0:0:0:
152,168,233800,1,0,0:0:0:0:
180,212,233879,1,0,0:0:0:0:
228,236,233958,1,0,0:0:0:0:
280,248,234037,1,2,0:0:0:0:
232,264,234115,1,0,0:0:0:0:
192,300,234194,1,0,0:0:0:0:
140,300,234273,1,0,0:0:0:0:
96,320,234352,1,2,0:0:0:0:
96,272,234431,1,0,0:0:0:0:
80,224,234510,1,0,0:0:0:0:
48,188,234589,1,0,0:0:0:0:
4,164,234668,1,2,0:0:0:0:
44,148,234747,1,0,0:0:0:0:
72,116,234826,1,0,0:0:0:0:
84,76,234905,1,0,0:0:0:0:
84,36,234984,5,2,0:0:0:0:
56,60,235063,1,0,0:0:0:0:
44,96,235142,1,0,0:0:0:0:
52,132,235221,1,0,0:0:0:0:
76,160,235300,1,2,0:0:0:0:
112,176,235379,1,0,0:0:0:0:
148,176,235458,1,0,0:0:0:0:
180,160,235537,1,0,0:0:0:0:
204,132,235615,1,2,0:0:0:0:
228,160,235694,1,0,0:0:0:0:
252,188,235773,1,0,0:0:0:0:
256,224,235852,1,0,0:0:0:0:
248,260,235931,1,2,0:0:0:0:
284,248,236010,1,0,0:0:0:0:
320,248,236089,1,0,0:0:0:0:
356,256,236168,1,0,0:0:0:0:
384,280,236247,101,2,0:0:0:0:
420,276,236326,1,0,0:0:0:0:
444,248,236405,1,0,0:0:0:0:
452,212,236484,1,0,0:0:0:0:
444,176,236563,1,2,0:0:0:0:
424,144,236642,1,0,0:0:0:0:
392,124,236721,1,0,0:0:0:0:
356,120,236800,1,0,0:0:0:0:
320,132,236879,5,2,0:0:0:0:
324,124,236958,1,0,0:0:0:0:
324,116,237037,1,0,0:0:0:0:
324,108,237115,1,0,0:0:0:0:
324,100,237194,1,2,0:0:0:0:
324,92,237273,1,0,0:0:0:0:
324,84,237352,1,0,0:0:0:0:
320,76,237431,1,0,0:0:0:0:
316,68,237510,102,0,L|296:24,3,37.5,2|0|0|0,0:0|0:0|0:0|0:0,0:0:0:0:
232,104,237826,2,0,L|196:92,3,37.5,2|0|0|0,0:0|0:0|0:0|0:0,0:0:0:0:
248,196,238142,2,0,L|196:208,3,37.5,2|0|0|0,0:0|0:0|0:0|0:0,0:0:0:0:
336,240,238458,2,0,L|308:272,3,37.5,2|0|0|0,0:0|0:0|0:0|0:0,0:0:0:0:
396,344,238773,5,2,0:0:0:0:
388,344,238852,1,0,0:0:0:0:
380,344,238931,1,0,0:0:0:0:
372,344,239010,1,0,0:0:0:0:
364,344,239089,1,2,0:0:0:0:
356,344,239168,1,0,0:0:0:0:
348,344,239247,1,0,0:0:0:0:
340,344,239326,1,0,0:0:0:0:
332,344,239405,101,2,0:0:0:0:
324,344,239484,1,0,0:0:0:0:
316,344,239563,1,0,0:0:0:0:
308,344,239642,1,0,0:0:0:0:
300,344,239721,1,2,0:0:0:0:
292,344,239800,1,0,0:0:0:0:
284,344,239879,1,0,0:0:0:0:
276,344,239958,1,0,0:0:0:0:
268,344,240037,5,2,0:0:0:0:
243,351,240115,1,0,0:0:0:0:
216,348,240194,1,0,0:0:0:0:
192,336,240273,1,0,0:0:0:0:
175,315,240352,1,2,0:0:0:0:
169,277,240431,1,0,0:0:0:0:
181,241,240510,1,0,0:0:0:0:
212,220,240589,1,0,0:0:0:0:
249,215,240668,5,2,0:0:0:0:
294,231,240747,1,0,0:0:0:0:
341,243,240826,1,0,0:0:0:0:
387,228,240905,1,0,0:0:0:0:
430,204,240984,1,2,0:0:0:0:
459,156,241063,1,0,0:0:0:0:
455,99,241142,1,0,0:0:0:0:
428,49,241221,1,0,0:0:0:0:
377,23,241300,5,2,0:0:0:0:
309,14,241379,1,0,0:0:0:0:
242,24,241458,1,0,0:0:0:0:
184,58,241537,1,0,0:0:0:0:
154,117,241615,1,2,0:0:0:0:
154,192,241694,1,0,0:0:0:0:
186,259,241773,1,0,0:0:0:0:
254,290,241852,1,0,0:0:0:0:
329,303,241931,22,0,P|372:307|412:297,1,75,2|0,0:0|0:0,0:0:0:0:
108,184,242089,2,0,P|60:176|28:180,1,75
336,156,242247,1,2,0:0:0:0:
336,156,242326,1,0,0:0:0:0:
336,156,242405,1,0,0:0:0:0:
336,156,242484,1,0,0:0:0:0:
336,156,242563,102,0,P|380:136|400:120,1,60,2|0,0:1|0:0,0:0:0:0:
159,298,242721,2,0,P|141:344|140:379,1,60,4|0,0:0|0:0,0:0:0:0:
205,166,242879,1,8,0:2:0:0:
190,130,242958,1,0,0:0:0:0:
157,107,243037,1,4,0:0:0:0:
119,97,243115,1,0,0:0:0:0:
80,98,243194,1,2,0:1:0:0:
129,76,243273,1,0,0:0:0:0:
182,66,243352,1,4,0:0:0:0:
235,68,243431,1,0,0:0:0:0:
283,92,243510,2,0,P|313:100|357:88,1,60,8|0,0:2|0:0,0:0:0:0:
120,182,243668,2,0,P|71:180|40:191,1,60,4|0,0:0|0:0,0:0:0:0:
236,254,243826,5,2,0:1:0:0:
289,281,243905,1,0,0:0:0:0:
348,271,243984,1,4,0:0:0:0:
395,234,244063,1,0,0:0:0:0:
405,174,244142,1,8,0:2:0:0:
446,217,244221,1,0,0:0:0:0:
450,276,244300,1,4,0:0:0:0:
433,333,244379,1,0,0:0:0:0:
382,365,244458,2,0,L|302:358,1,60,2|0,0:1|0:0,0:0:0:0:
224,188,244615,1,4,0:0:0:0:
224,188,244694,1,0,0:0:0:0:
224,188,244773,2,0,P|220:147|227:123,1,60,8|0,0:2|0:0,0:0:0:0:
108,275,244931,2,0,P|69:284|31:277,1,60,4|0,0:0|0:0,0:0:0:0:
248,208,245089,102,0,L|319:186,1,60,2|0,0:1|0:0,0:0:0:0:
152,348,245247,2,0,L|82:374,1,60,4|0,0:0|0:0,0:0:0:0:
107,190,245405,2,0,L|36:168,1,60,8|0,0:2|0:0,0:0:0:0:
218,113,245563,1,4,0:0:0:0:
231,99,245642,1,0,0:0:0:0:
242,88,245721,2,0,L|229:16,1,60,2|0,0:1|0:0,0:0:0:0:
340,249,245879,1,4,0:0:0:0:
327,263,245958,1,0,0:0:0:0:
316,274,246037,2,0,L|329:346,1,60,8|0,0:0|0:0,0:0:0:0:
443,144,246194,1,4,0:0:0:0:
450,114,246273,1,0,0:0:0:0:
457,84,246352,5,2,0:1:0:0:
412,43,246431,1,0,0:0:0:0:
352,32,246510,1,4,0:0:0:0:
294,54,246589,1,0,0:0:0:0:
250,95,246668,2,0,P|252:150|264:172,1,60,8|0,0:2|0:0,0:0:0:0:
362,287,246826,2,0,P|401:308|413:332,1,60,4|0,0:0|0:0,0:0:0:0:
208,299,246984,1,2,0:1:0:0:
161,244,247063,1,0,0:0:0:0:
140,175,247142,1,4,0:0:0:0:
144,103,247221,1,0,0:0:0:0:
175,38,247300,2,0,P|238:19|278:25,1,60,8|0,0:0|0:0,0:0:0:0:
80,278,247458,2,0,P|54:300|14:314,1,60,4|0,0:0|0:0,0:0:0:0:
244,185,247615,102,0,P|266:166|329:172,1,60,2|0,0:1|0:0,0:0:0:0:
50,144,247773,2,0,P|36:125|22:85,1,60,4|0,0:0|0:0,0:0:0:0:
171,365,247931,1,8,0:2:0:0:
205,331,248010,1,0,0:0:0:0:
251,318,248089,1,4,0:0:0:0:
314,334,248168,1,0,0:0:0:0:
379,330,248247,1,2,0:1:0:0:
433,293,248326,1,0,0:0:0:0:
457,231,248405,2,0,P|458:195|450:168,1,60,4|0,0:0|0:0,0:0:0:0:
273,107,248563,2,0,P|242:107|201:94,1,60,8|0,0:0|0:0,0:0:0:0:
392,276,248721,2,0,P|392:320|384:360,1,60,4|0,0:0|0:0,0:0:0:0:
420,52,248879,6,0,L|492:40,1,60,2|0,0:1|0:0,0:0:0:0:
292,232,249037,2,0,L|232:228,1,60,4|0,0:0|0:0,0:0:0:0:
76,192,249194,2,0,L|8:200,1,60,8|0,0:2|0:0,0:0:0:0:
358,160,249352,2,0,P|391:169|419:168,1,60,4|0,0:0|0:0,0:0:0:0:
232,36,249510,1,2,0:1:0:0:
196,76,249589,1,0,0:0:0:0:
216,128,249668,1,4,0:0:0:0:
268,148,249747,1,0,0:0:0:0:
320,132,249826,1,8,0:2:0:0:
392,136,249905,1,0,0:0:0:0:
452,176,249984,1,4,0:0:0:0:
472,244,250063,1,0,0:0:0:0:
452,312,250142,102,0,P|436:340|404:360,1,60,2|0,0:1|0:0,0:0:0:0:
192,320,250300,2,0,P|148:330|124:326,1,60,4|0,0:0|0:0,0:0:0:0:
266,179,250458,1,8,0:0:0:0:
301,123,250537,1,0,0:0:0:0:
364,107,250615,1,4,0:0:0:0:
420,142,250694,1,0,0:0:0:0:
431,206,250773,1,2,0:1:0:0:
423,236,250852,2,0,L|363:233,1,60,0|4,0:0|0:0,0:0:0:0:
216,224,251010,1,0,0:0:0:0:
198,215,251089,2,0,L|114:227,1,60,8|0,0:2|0:0,0:0:0:0:
340,48,251247,2,0,L|408:36,1,60,4|0,0:0|0:0,0:0:0:0:
200,112,251405,5,2,0:1:0:0:
136,124,251484,1,0,0:0:0:0:
72,140,251563,1,4,0:0:0:0:
40,84,251642,1,0,0:0:0:0:
12,24,251721,1,8,0:2:0:0:
76,44,251800,1,0,0:0:0:0:
104,104,251879,1,4,0:0:0:0:
80,168,251958,1,0,0:0:0:0:
40,220,252037,1,2,0:1:0:0:
27,284,252115,1,0,0:0:0:0:
68,335,252194,1,4,0:0:0:0:
129,360,252273,1,0,0:0:0:0:
194,356,252352,1,8,0:2:0:0:
252,324,252431,1,0,0:0:0:0:
300,279,252510,1,4,0:0:0:0:
308,290,252589,1,0,0:0:0:0:
313,299,252668,102,0,P|323:313|342:366,1,60,2|0,0:1|0:0,0:0:0:0:
300,196,252826,2,0,P|278:183|248:152,1,60,4|0,0:0|0:0,0:0:0:0:
396,236,252984,2,0,L|464:224,1,60,8|0,0:2|0:0,0:0:0:0:
192,216,253142,2,0,P|156:220|124:248,1,60,4|0,0:0|0:0,0:0:0:0:
340,120,253300,2,0,P|362:124|416:110,1,60,2|0,0:1|0:0,0:0:0:0:
184,72,253458,2,0,P|176:36|176:8,1,60,4|0,0:0|0:0,0:0:0:0:
272,288,253615,2,0,P|268:324|252:364,1,60,8|0,0:2|0:0,0:0:0:0:
268,84,253773,1,4,0:0:0:0:
300,48,253852,1,0,0:0:0:0:
348,40,253931,5,2,0:1:0:0:
396,52,254010,1,0,0:0:0:0:
428,88,254089,2,0,P|436:140|424:164,1,60,4|0,0:0|0:0,0:0:0:0:
408,284,254247,2,0,P|372:304|332:312,1,60,8|0,0:2|0:0,0:0:0:0:
164,268,254405,2,0,P|132:256|88:256,1,60,4|0,0:0|0:0,0:0:0:0:
388,264,254563,2,0,P|432:268|464:288,1,60,2|0,0:1|0:0,0:0:0:0:
160,244,254721,2,0,L|100:220,1,60,4|0,0:0|0:0,0:0:0:0:
246,114,254879,2,0,L|224:29,1,60,8|0,0:2|0:0,0:0:0:0:
400,156,255037,2,0,L|434:79,1,60,4|0,0:0|0:0,0:0:0:0:
236,312,255194,102,0,P|204:344|180:348,1,60,2|0,0:1|0:0,0:0:0:0:
356,165,255352,1,4,0:2:0:0:
364,139,255431,1,0,0:0:0:0:
360,116,255510,2,0,P|372:80|404:52,1,60,8|0,0:0|0:0,0:0:0:0:
336,316,255668,2,0,P|341:355|336:383,1,60,4|0,0:0|0:0,0:0:0:0:
224,136,255826,1,2,0:1:0:0:
212,108,255905,1,0,0:0:0:0:
200,80,255984,2,0,P|192:56|188:8,1,60,4|0,0:0|0:0,0:0:0:0:
76,244,256142,2,0,P|68:292|68:324,1,60,8|0,0:2|0:0,0:0:0:0:
244,180,256300,1,4,0:0:0:0:
295,149,256379,1,0,0:0:0:0:
324,94,256458,5,2,0:1:0:0:
372,130,256537,1,0,0:0:0:0:
424,151,256615,2,0,P|440:147|480:123,1,60,4|0,0:0|0:0,0:0:0:0:
327,242,256773,2,0,P|312:274|312:314,1,60,8|0,0:2|0:0,0:0:0:0:
364,91,256931,2,0,P|368:63|357:25,1,60,4|0,0:0|0:0,0:0:0:0:
252,188,257089,2,0,P|214:179|182:185,1,60,2|0,0:1|0:0,0:0:0:0:
417,301,257247,2,0,L|410:362,1,60,4|0,0:0|0:0,0:0:0:0:
236,267,257405,2,0,L|168:303,1,60,8|0,0:2|0:0,0:0:0:0:
208,80,257563,2,0,L|128:64,1,60,4|0,0:0|0:0,0:0:0:0:
416,172,257721,102,0,P|436:148|448:116,1,60,2|0,0:1|0:0,0:0:0:0:
221,249,257879,1,4,0:0:0:0:
205,277,257958,1,0,0:0:0:0:
197,305,258037,2,0,P|197:341|205:381,1,60,8|0,0:2|0:0,0:0:0:0:
364,108,258194,2,0,P|352:72|340:52,1,60,4|0,0:0|0:0,0:0:0:0:
144,196,258352,1,2,0:1:0:0:
116,232,258431,1,0,0:0:0:0:
84,260,258510,2,0,P|72:284|72:336,1,60,4|0,0:0|0:0,0:0:0:0:
316,308,258668,2,0,P|339:343|369:359,1,60,8|0,0:0|0:0,0:0:0:0:
288,169,258826,1,4,0:0:0:0:
269,99,258905,1,0,0:0:0:0:
217,49,258984,5,2,0:1:0:0:
148,25,259063,1,0,0:0:0:0:
76,33,259142,2,0,P|35:45|7:61,1,60,4|0,0:0|0:0,0:0:0:0:
124,212,259300,2,0,P|104:240|88:272,1,60,8|0,0:2|0:0,0:0:0:0:
288,300,259458,1,4,0:0:0:0:
288,332,259537,1,0,0:0:0:0:
300,364,259615,2,0,P|312:324|316:296,1,60,2|0,0:1|0:0,0:0:0:0:
288,136,259773,2,0,L|266:56,1,60,4|0,0:0|0:0,0:0:0:0:
404,260,259931,2,0,L|481:285,1,60,8|0,0:2|0:0,0:0:0:0:
206,274,260089,2,0,L|142:324,1,60,4|0,0:0|0:0,0:0:0:0:
392,116,260247,102,0,P|432:112|472:116,1,60,2|0,0:1|0:0,0:0:0:0:
172,160,260405,1,4,0:0:0:0:
132,168,260484,1,0,0:0:0:0:
108,204,260563,2,0,P|72:216|32:216,1,60,8|0,0:0|0:0,0:0:0:0:
384,32,260721,2,0,P|411:24|443:22,1,60,4|0,0:0|0:0,0:0:0:0:
96,96,260879,2,0,P|64:88|32:72,1,60,2|0,0:1|0:0,0:0:0:0:
312,244,261037,1,4,0:0:0:0:
304,288,261115,1,0,0:0:0:0:
272,316,261194,2,0,P|248:268|244:248,1,60,8|0,0:2|0:0,0:0:0:0:
242,5,261352,1,4,0:0:0:0:
272,76,261431,1,0,0:0:0:0:
261,153,261510,5,2,0:1:0:0:
203,206,261589,1,0,0:0:0:0:
127,225,261668,1,4,0:0:0:0:
49,212,261747,1,0,0:0:0:0:
0,150,261826,1,8,0:2:0:0:
30,98,261905,1,0,0:0:0:0:
85,75,261984,1,4,0:0:0:0:
144,69,262063,1,0,0:0:0:0:
202,81,262142,2,0,P|238:68|261:52,1,60,2|0,0:1|0:0,0:0:0:0:
83,306,262300,2,0,P|47:332|36:360,1,60,4|0,0:0|0:0,0:0:0:0:
231,217,262458,2,0,P|269:201|293:168,1,60,8|0,0:0|0:0,0:0:0:0:
83,148,262615,2,0,P|65:122|43:105,1,60,4|0,0:0|0:0,0:0:0:0:
261,345,262773,101,6,0:1:0:0:
313,357,262852,1,0,0:0:0:0:
366,351,262931,1,4,0:0:0:0:
414,327,263010,1,0,0:0:0:0:
437,278,263089,2,0,P|440:247|433:214,1,60,8|0,0:2|0:0,0:0:0:0:
264,236,263247,2,0,P|220:240|184:232,1,60,4|0,0:0|0:0,0:0:0:0:
405,103,263405,2,0,P|445:99|485:107,1,60,2|0,0:1|0:0,0:0:0:0:
256,136,263563,1,4,0:0:0:0:
232,128,263642,1,0,0:0:0:0:
212,112,263721,2,0,P|264:104|296:112,1,60,8|0,0:2|0:0,0:0:0:0:
460,68,263879,2,0,P|424:80|392:84,1,60,4|0,0:0|0:0,0:0:0:0:
192,88,264037,5,2,0:1:0:0:
123,67,264115,1,0,0:0:0:0:
53,86,264194,1,4,0:0:0:0:
20,150,264273,1,0,0:0:0:0:
30,223,264352,2,0,L|50:299,1,60,8|0,0:2|0:0,0:0:0:0:
180,236,264510,1,4,0:0:0:0:
204,252,264589,2,0,L|220:320,1,60,0|2,0:0|0:1,0:0:0:0:
344,272,264747,1,0,0:0:0:0:
360,280,264826,1,4,0:0:0:0:
380,292,264905,1,0,0:0:0:0:
396,300,264984,1,8,0:2:0:0:
408,228,265063,1,0,0:0:0:0:
412,156,265142,1,4,0:0:0:0:
416,84,265221,1,0,0:0:0:0:
424,32,265300,101,2,0:1:0:0:
452,104,265379,1,0,0:0:0:0:
408,168,265458,1,4,0:0:0:0:
332,180,265537,1,0,0:0:0:0:
264,144,265615,1,8,0:2:0:0:
216,100,265694,1,0,0:0:0:0:
164,88,265773,1,4,0:0:0:0:
112,84,265852,1,0,0:0:0:0:
84,106,265931,5,2,0:1:0:0:
71,123,266010,2,0,P|60:161|59:185,1,60,0|4,0:0|0:0,0:0:0:0:
211,264,266168,1,0,0:1:0:0:
204,282,266247,2,0,P|218:318|232:338,1,60,8|0,0:0|0:0,0:0:0:0:
240,100,266405,2,0,P|225:61|203:34,1,60,4|0,0:0|0:0,0:0:0:0:
371,164,266563,102,0,P|401:154|433:129,1,60,2|0,0:1|0:0,0:0:0:0:
176,196,266721,1,4,0:0:0:0:
144,228,266800,1,0,0:0:0:0:
124,272,266879,2,0,P|80:296|48:300,1,60,8|0,0:2|0:0,0:0:0:0:
288,272,267037,2,0,P|320:288|352:288,1,60,4|0,0:0|0:0,0:0:0:0:
440,184,267194,2,0,P|476:168|500:168,1,60,2|0,0:1|0:0,0:0:0:0:
304,120,267352,2,0,P|292:84|288:44,1,60,4|0,0:0|0:0,0:0:0:0:
376,304,267510,6,0,P|388:348|384:372,1,60,8|0,0:2|0:0,0:0:0:0:
388,76,267668,2,0,P|392:36|408:8,1,60,4|0,0:0|0:0,0:0:0:0:
256,192,267826,1,2,0:1:0:0:
256,192,267905,12,0,271615,0:0:0:0:
224,80,271931,102,0,P|252:96|260:112,3,37.5
372,112,272247,2,0,P|380:136|380:152,3,37.5,0|0|0|0,0:0|0:0|0:0|0:0,0:0:0:0:
428,264,272563,5,10,0:0:0:0:
392,304,272642,1,2,0:0:0:0:
340,320,272721,1,2,0:0:0:0:
288,320,272800,1,2,0:0:0:0:
208,284,272879,5,6,0:1:0:0:
128,268,272958,1,0,0:0:0:0:
48,292,273037,2,0,P|27:319|0:336,1,63.7500012159348,4|0,0:0|0:0,0:0:0:0:
154,179,273194,1,8,0:0:0:0:
235,193,273273,1,0,0:0:0:0:
307,233,273352,2,0,P|352:261|388:271,1,63.7500012159348,4|0,0:0|0:0,0:0:0:0:
231,108,273510,5,2,0:1:0:0:
170,88,273589,1,0,0:0:0:0:
106,91,273668,1,4,0:0:0:0:
53,127,273747,1,0,0:0:0:0:
33,187,273826,1,8,0:0:0:0:
96,191,273905,1,0,0:0:0:0:
150,158,273984,1,4,0:0:0:0:
186,105,274063,1,0,0:0:0:0:
197,42,274142,101,2,0:1:0:0:
263,92,274221,1,0,0:0:0:0:
343,111,274300,1,4,0:0:0:0:
423,90,274379,1,0,0:0:0:0:
494,48,274458,1,8,0:0:0:0:
411,54,274537,1,0,0:0:0:0:
344,101,274615,1,4,0:0:0:0:
316,179,274694,1,0,0:0:0:0:
332,260,274773,5,2,0:1:0:0:
315,321,274852,1,0,0:0:0:0:
264,360,274931,1,4,0:0:0:0:
200,363,275010,1,0,0:0:0:0:
140,340,275089,1,8,0:0:0:0:
103,287,275168,1,0,0:0:0:0:
93,223,275247,1,4,0:0:0:0:
118,164,275326,1,0,0:0:0:0:
164,120,275405,102,0,P|176:83|175:45,1,63.7500012159348,2|0,0:1|0:0,0:0:0:0:
352,256,275563,2,0,P|364:304|364:336,1,63.7500012159348,4|0,0:0|0:0,0:0:0:0:
355,102,275721,1,8,0:0:0:0:
364,71,275800,1,0,0:0:0:0:
360,37,275879,2,0,P|396:29|436:29,1,63.7500012159348,4|0,0:0|0:0,0:0:0:0:
186,117,276037,5,2,0:1:0:0:
139,149,276115,1,0,0:0:0:0:
81,150,276194,1,4,0:0:0:0:
30,123,276273,1,0,0:0:0:0:
15,67,276352,1,8,0:0:0:0:
79,26,276431,1,0,0:0:0:0:
155,29,276510,1,4,0:0:0:0:
218,71,276589,1,0,0:0:0:0:
269,127,276668,102,0,P|311:155|347:157,1,63.7500012159348,2|0,0:1|0:0,0:0:0:0:
446,99,276826,2,0,P|471:62|471:37,1,63.7500012159348,4|0,0:0|0:0,0:0:0:0:
265,230,276984,2,0,P|256:278|256:297,1,63.7500012159348,8|0,0:0|0:0,0:0:0:0:
418,191,277142,2,0,L|486:199,1,63.7500012159348,4|0,0:0|0:0,0:0:0:0:
372,73,277300,6,0,L|448:49,1,63.7500012159348,2|0,0:1|0:0,0:0:0:0:
202,87,277458,1,4,0:0:0:0:
218,78,277537,1,0,0:0:0:0:
228,72,277615,1,8,0:0:0:0:
148,56,277694,1,0,0:0:0:0:
68,76,277773,1,4,0:0:0:0:
20,144,277852,1,0,0:0:0:0:
12,228,277931,101,2,0:1:0:0:
26,283,278010,1,0,0:0:0:0:
75,312,278089,1,4,0:0:0:0:
132,309,278168,1,0,0:0:0:0:
176,272,278247,1,8,0:0:0:0:
192,216,278326,1,0,0:0:0:0:
231,174,278405,1,4,0:0:0:0:
287,165,278484,1,0,0:0:0:0:
343,173,278563,5,2,0:1:0:0:
391,204,278642,1,0,0:0:0:0:
410,258,278721,2,0,P|413:285|402:322,1,63.7500012159348,4|0,0:0|0:0,0:0:0:0:
250,192,278879,1,8,0:0:0:0:
228,118,278958,1,0,0:0:0:0:
253,44,279037,2,0,P|271:25|314:7,1,63.7500012159348,4|0,0:0|0:0,0:0:0:0:
472,144,279194,101,2,0:1:0:0:
408,196,279273,1,0,0:0:0:0:
324,200,279352,1,4,0:0:0:0:
244,184,279431,1,0,0:0:0:0:
176,136,279510,1,8,0:0:0:0:
92,132,279589,1,0,0:0:0:0:
32,192,279668,1,4,0:0:0:0:
24,276,279747,1,0,0:0:0:0:
80,336,279826,5,2,0:1:0:0:
148,350,279905,1,0,0:0:0:0:
210,318,279984,1,4,0:0:0:0:
236,253,280063,1,0,0:0:0:0:
244,184,280142,1,8,0:0:0:0:
267,250,280221,1,0,0:0:0:0:
317,298,280300,1,4,0:0:0:0:
384,318,280379,1,0,0:0:0:0:
448,300,280458,101,2,0:1:0:0:
473,268,280537,2,0,P|479:227|469:197,1,63.7500012159348,0|4,0:0|0:0,0:0:0:0:
353,132,280694,1,0,0:0:0:0:
299,203,280773,1,8,0:0:0:0:
213,229,280852,1,0,0:0:0:0:
127,202,280931,1,4,0:0:0:0:
87,122,281010,1,0,0:0:0:0:
116,37,281089,5,2,0:1:0:0:
183,17,281168,1,0,0:0:0:0:
253,15,281247,1,4,0:0:0:0:
318,39,281326,1,0,0:0:0:0:
378,75,281405,1,8,0:0:0:0:
372,116,281484,1,0,0:0:0:0:
364,156,281563,1,4,0:0:0:0:
352,196,281642,1,0,0:0:0:0:
344,236,281721,101,2,0:1:0:0:
264,195,281800,1,0,0:0:0:0:
174,190,281879,1,4,0:0:0:0:
92,226,281958,1,0,0:0:0:0:
49,304,282037,2,0,P|41:332|41:376,1,63.7500012159348,8|0,0:0|0:0,0:0:0:0:
42,141,282194,1,4,0:0:0:0:
54,122,282273,1,0,0:0:0:0:
70,102,282352,6,0,P|62:62|46:34,1,63.7500012159348,2|0,0:1|0:0,0:0:0:0:
152,328,282510,1,4,0:0:0:0:
196,352,282589,1,0,0:0:0:0:
248,352,282668,1,8,0:0:0:0:
288,324,282747,1,0,0:0:0:0:
340,316,282826,1,4,0:0:0:0:
392,324,282905,1,0,0:0:0:0:
440,354,282984,101,2,0:1:0:0:
398,305,283063,1,0,0:0:0:0:
336,289,283142,1,4,0:0:0:0:
272,294,283221,1,0,0:0:0:0:
215,323,283300,1,8,0:0:0:0:
249,269,283379,1,0,0:0:0:0:
297,227,283458,1,4,0:0:0:0:
359,216,283537,1,0,0:0:0:0:
420,229,283615,5,2,0:1:0:0:
435,167,283694,1,0,0:0:0:0:
410,108,283773,1,4,0:0:0:0:
354,76,283852,1,0,0:0:0:0:
290,73,283931,1,8,0:0:0:0:
245,109,284010,1,0,0:0:0:0:
190,125,284089,1,4,0:0:0:0:
133,116,284168,1,0,0:0:0:0:
80,92,284247,101,2,0:1:0:0:
155,57,284326,1,0,0:0:0:0:
237,53,284405,1,4,0:0:0:0:
304,100,284484,1,0,0:0:0:0:
347,170,284563,1,8,0:0:0:0:
342,252,284642,1,0,0:0:0:0:
306,327,284721,1,4,0:0:0:0:
232,365,284800,1,0,0:0:0:0:
150,349,284879,5,2,0:1:0:0:
107,310,284958,1,0,0:0:0:0:
99,253,285037,1,4,0:0:0:0:
113,198,285115,1,0,0:0:0:0:
154,158,285194,2,0,P|186:158|234:170,1,63.7500012159348,8|0,0:0|0:0,0:0:0:0:
268,328,285352,2,0,P|304:312|332:292,1,63.7500012159348,4|0,0:0|0:0,0:0:0:0:
455,216,285510,102,0,P|485:239|510:247,1,63.7500012159348,2|0,0:1|0:0,0:0:0:0:
244,240,285668,2,0,P|209:257|183:280,1,63.7500012159348,4|0,0:0|0:0,0:0:0:0:
384,117,285826,1,8,0:0:0:0:
428,103,285905,1,0,0:0:0:0:
470,83,285984,2,0,P|492:59|509:28,1,63.7500012159348,4|0,0:0|0:0,0:0:0:0:
252,129,286142,5,2,0:1:0:0:
200,102,286221,1,0,0:0:0:0:
139,105,286300,1,4,0:0:0:0:
94,141,286379,1,0,0:0:0:0:
87,198,286458,1,8,0:0:0:0:
122,272,286537,1,0,0:0:0:0:
200,307,286615,1,4,0:0:0:0:
282,305,286694,1,0,0:0:0:0:
350,258,286773,102,0,P|400:247|434:259,1,63.7500012159348,2|0,0:1|0:0,0:0:0:0:
219,221,286931,2,0,P|190:196|181:161,1,63.7500012159348,4|0,0:0|0:0,0:0:0:0:
390,319,287089,2,0,P|428:340|454:372,1,63.7500012159348,8|0,0:0|0:0,0:0:0:0:
456,115,287247,1,4,0:0:0:0:
456,115,287326,1,0,0:0:0:0:
456,115,287405,6,0,P|487:99|518:65,1,63.7500012159348,2|0,0:1|0:0,0:0:0:0:
298,137,287563,1,4,0:0:0:0:
238,115,287642,1,0,0:0:0:0:
175,126,287721,1,8,0:0:0:0:
116,164,287800,1,0,0:0:0:0:
44,168,287879,1,4,0:0:0:0:
8,108,287958,1,0,0:0:0:0:
28,40,288037,101,2,0:1:0:0:
60,80,288115,1,0,0:0:0:0:
72,128,288194,1,4,0:0:0:0:
68,180,288273,1,0,0:0:0:0:
44,224,288352,1,8,0:0:0:0:
32,276,288431,1,0,0:0:0:0:
48,324,288510,1,4,0:0:0:0:
88,356,288589,1,0,0:0:0:0:
140,356,288668,5,2,0:1:0:0:
91,314,288747,1,0,0:0:0:0:
68,255,288826,1,4,0:0:0:0:
80,192,288905,1,0,0:0:0:0:
123,144,288984,1,8,0:0:0:0:
179,172,289063,1,0,0:0:0:0:
236,199,289142,1,4,0:0:0:0:
293,227,289221,1,0,0:0:0:0:
350,254,289300,101,2,0:1:0:0:
432,241,289379,1,0,0:0:0:0:
474,169,289458,1,4,0:0:0:0:
471,86,289537,1,0,0:0:0:0:
411,29,289615,1,8,0:0:0:0:
328,18,289694,1,0,0:0:0:0:
248,42,289773,1,4,0:0:0:0:
201,110,289852,1,0,0:0:0:0:
201,192,289931,5,2,0:1:0:0:
253,247,290010,1,0,0:0:0:0:
326,267,290089,1,4,0:0:0:0:
402,261,290168,1,0,0:0:0:0:
462,214,290247,1,8,0:0:0:0:
421,148,290326,1,0,0:0:0:0:
348,124,290405,1,4,0:0:0:0:
271,124,290484,1,0,0:0:0:0:
195,136,290563,101,2,0:1:0:0:
174,152,290642,2,0,P|160:189|160:226,1,63.7500012159348,0|4,0:0|0:0,0:0:0:0:
205,365,290800,1,0,0:0:0:0:
256,291,290879,1,8,0:0:0:0:
267,202,290958,1,0,0:0:0:0:
245,115,291037,1,4,0:0:0:0:
187,48,291115,1,0,0:0:0:0:
108,8,291194,5,2,0:1:0:0:
92,69,291273,1,0,0:0:0:0:
77,131,291352,1,4,0:0:0:0:
64,193,291431,1,0,0:0:0:0:
51,255,291510,1,8,0:0:0:0:
91,205,291589,1,0,0:0:0:0:
154,196,291668,1,4,0:0:0:0:
207,231,291747,1,0,0:0:0:0:
236,288,291826,101,2,0:1:0:0:
322,308,291905,1,0,0:0:0:0:
398,261,291984,1,4,0:0:0:0:
388,172,292063,1,0,0:0:0:0:
351,90,292142,2,0,P|343:56|347:21,1,63.7500012159348,8|0,0:0|0:0,0:0:0:0:
469,212,292300,2,0,P|505:240|513:283,1,63.7500012159348,4|0,0:0|0:0,0:0:0:0:
351,290,292458,2,0,P|359:330|359:370,1,63.7500012159348,2|0,0:1|0:0,0:0:0:0:
300,186,292615,22,0,P|266:159|248:127,2,75
328,200,293089,101,6,0:1:0:0:
296,240,293168,1,0,0:0:0:0:
248,260,293247,1,4,0:0:0:0:
196,264,293326,1,0,0:0:0:0:
148,252,293405,1,8,0:0:0:0:
100,192,293484,1,0,0:0:0:0:
100,116,293563,1,4,0:0:0:0:
136,48,293642,1,0,0:0:0:0:
212,32,293721,101,2,0:1:0:0:
228,80,293800,1,0,0:0:0:0:
206,126,293879,1,4,0:0:0:0:
165,157,293958,1,0,0:0:0:0:
114,161,294037,2,0,P|80:145|68:105,1,63.7500012159348,8|0,0:0|0:0,0:0:0:0:
202,267,294194,2,0,P|227:300|232:337,1,63.7500012159348,4|0,0:0|0:0,0:0:0:0:
53,377,294352,5,2,0:1:0:0:
101,317,294431,1,0,0:0:0:0:
175,297,294510,1,4,0:0:0:0:
251,303,294589,1,0,0:0:0:0:
311,349,294668,1,8,0:0:0:0:
399,336,294747,1,0,0:0:0:0:
445,259,294826,1,4,0:0:0:0:
445,169,294905,1,0,0:0:0:0:
399,92,294984,101,2,0:1:0:0:
314,62,295063,1,0,0:0:0:0:
226,78,295142,1,4,0:0:0:0:
162,140,295221,1,0,0:0:0:0:
162,229,295300,1,8,0:0:0:0:
211,218,295379,1,0,0:0:0:0:
261,227,295458,1,4,0:0:0:0:
297,262,295537,1,0,0:0:0:0:
316,311,295615,5,2,0:1:0:0:
391,299,295694,1,0,0:0:0:0:
437,238,295773,1,4,0:0:0:0:
433,161,295852,1,0,0:0:0:0:
384,86,295931,1,8,0:0:0:0:
297,63,296010,1,0,0:0:0:0:
213,94,296089,1,4,0:0:0:0:
163,168,296168,1,0,0:0:0:0:
175,256,296247,101,2,0:1:0:0:
189,200,296326,1,0,0:0:0:0:
158,151,296405,1,4,0:0:0:0:
105,127,296484,1,0,0:0:0:0:
47,129,296563,1,8,0:0:0:0:
96,54,296642,1,0,0:0:0:0:
185,50,296721,1,4,0:0:0:0:
260,98,296800,1,0,0:0:0:0:
294,180,296879,5,2,0:1:0:0:
271,200,296958,2,0,L|267:272,1,63.7500012159348,0|4,0:0|0:0,0:0:0:0:
152,300,297115,1,0,0:0:0:0:
124,316,297194,2,0,L|128:384,1,63.7500012159348,8|0,0:0|0:0,0:0:0:0:
292,300,297352,2,0,L|288:376,1,63.7500012159348,4|0,0:0|0:0,0:0:0:0:
152,172,297510,101,2,0:1:0:0:
111,141,297589,1,0,0:0:0:0:
62,125,297668,2,0,P|26:124|0:132,1,63.7500012159348,4|0,0:0|0:0,0:0:0:0:
111,272,297826,2,0,P|114:319|126:344,1,63.7500012159348,8|0,0:0|0:0,0:0:0:0:
292,270,297984,2,0,P|320:299|343:312,1,63.7500012159348,4|0,0:0|0:0,0:0:0:0:
312,105,298142,5,2,0:1:0:0:
343,49,298221,1,0,0:0:0:0:
405,37,298300,1,4,0:0:0:0:
463,63,298379,1,0,0:0:0:0:
497,138,298458,1,8,0:0:0:0:
488,220,298537,1,0,0:0:0:0:
441,287,298615,2,0,P|437:327|439:359,1,63.7500012159348,4|0,0:0|0:0,0:0:0:0:
312,120,298773,101,2,0:1:0:0:
236,92,298852,1,0,0:0:0:0:
152,92,298931,2,0,P|115:98|80:116,1,63.7500012159348,4|0,0:0|0:0,0:0:0:0:
96,248,299089,2,0,L|84:320,1,63.7500012159348,8|0,0:0|0:0,0:0:0:0:
243,287,299247,2,0,L|259:355,1,63.7500012159348,4|0,0:0|0:0,0:0:0:0:
200,176,299405,5,2,0:1:0:0:
272,123,299484,1,0,0:0:0:0:
360,110,299563,1,4,0:0:0:0:
447,129,299642,1,0,0:0:0:0:
492,205,299721,2,0,P|504:249|504:289,1,63.7500012159348,8|0,0:0|0:0,0:0:0:0:
420,53,299879,2,0,P|435:26|470:7,1,63.7500012159348,4|0,0:0|0:0,0:0:0:0:
388,248,300037,101,2,0:1:0:0:
329,314,300115,1,0,0:0:0:0:
244,343,300194,1,4,0:0:0:0:
156,323,300273,1,0,0:0:0:0:
74,286,300352,2,0,P|46:274|14:270,1,63.7500012159348,8|0,0:0|0:0,0:0:0:0:
176,196,300510,2,0,P|160:164|140:136,1,63.7500012159348,4|0,0:0|0:0,0:0:0:0:
308,152,300668,5,2,0:1:0:0:
292,72,300747,1,0,0:0:0:0:
220,32,300826,2,0,P|172:24|136:28,1,63.7500012159348,4|0,0:0|0:0,0:0:0:0:
308,152,300984,2,0,P|356:160|392:156,1,63.7500012159348,8|0,0:0|0:0,0:0:0:0:
168,176,301142,1,4,0:0:0:0:
92,208,301221,1,0,0:0:0:0:
65,286,301300,101,2,0:1:0:0:
107,258,301379,1,0,0:0:0:0:
157,254,301458,1,4,0:0:0:0:
205,270,301537,1,0,0:0:0:0:
239,306,301615,1,8,0:0:0:0:
307,352,301694,1,0,0:0:0:0:
389,350,301773,1,4,0:0:0:0:
450,294,301852,1,0,0:0:0:0:
475,215,301931,5,2,0:1:0:0:
462,139,302010,1,0,0:0:0:0:
411,81,302089,1,4,0:0:0:0:
336,61,302168,1,0,0:0:0:0:
262,81,302247,1,8,0:0:0:0:
236,153,302326,1,0,0:0:0:0:
170,192,302405,1,4,0:0:0:0:
93,185,302484,1,0,0:0:0:0:
28,140,302563,101,2,0:1:0:0:
104,128,302642,1,0,0:0:0:0:
180,140,302721,1,4,0:0:0:0:
244,180,302800,1,0,0:0:0:0:
280,248,302879,1,8,0:0:0:0:
332,303,302958,1,0,0:0:0:0:
408,309,303037,1,4,0:0:0:0:
473,271,303115,1,0,0:0:0:0:
504,201,303194,5,6,0:1:0:0:
461,239,303273,1,0,0:0:0:0:
406,259,303352,1,4,0:0:0:0:
349,249,303431,1,0,0:0:0:0:
312,204,303510,1,8,0:0:0:0:
323,121,303589,1,0,0:0:0:0:
384,65,303668,2,0,P|422:61|462:72,1,63.7500012159348,4|0,0:0|0:0,0:0:0:0:
264,288,303826,102,0,L|188:304,1,63.7500012159348,2|0,0:1|0:0,0:0:0:0:
400,180,303984,2,0,L|472:168,1,63.7500012159348,4|0,0:0|0:0,0:0:0:0:
240,332,304142,2,0,L|156:332,1,63.7500012159348,8|0,0:0|0:0,0:0:0:0:
384,144,304300,2,0,L|472:148,1,63.7500012159348,4|0,0:0|0:0,0:0:0:0:
196,352,304458,5,2,0:1:0:0:
127,367,304537,1,0,0:0:0:0:
60,346,304615,1,4,0:0:0:0:
11,294,304694,1,0,0:0:0:0:
3,224,304773,1,8,0:0:0:0:
90,207,304852,1,0,0:0:0:0:
156,147,304931,1,4,0:0:0:0:
178,60,305010,1,0,0:0:0:0:
111,0,305089,101,2,0:1:0:0:
94,87,305168,1,0,0:0:0:0:
132,167,305247,1,4,0:0:0:0:
209,211,305326,1,0,0:0:0:0:
297,222,305405,1,8,0:0:0:0:
357,202,305484,1,0,0:0:0:0:
420,211,305563,1,4,0:0:0:0:
468,252,305642,1,0,0:0:0:0:
485,313,305721,5,2,0:1:0:0:
426,263,305800,1,0,0:0:0:0:
350,248,305879,1,4,0:0:0:0:
276,267,305958,1,0,0:0:0:0:
220,319,306037,1,8,0:0:0:0:
135,293,306115,1,0,0:0:0:0:
97,211,306194,1,4,0:0:0:0:
120,124,306273,1,0,0:0:0:0:
191,70,306352,101,2,0:1:0:0:
242,107,306431,1,0,0:0:0:0:
305,106,306510,1,4,0:0:0:0:
361,77,306589,1,0,0:0:0:0:
380,16,306668,1,8,0:0:0:0:
290,12,306747,1,0,0:0:0:0:
207,46,306826,1,4,0:0:0:0:
178,130,306905,1,0,0:0:0:0:
198,217,306984,5,2,0:1:0:0:
206,233,307063,2,0,L|214:301,1,63.7500012159348,0|4,0:0|0:0,0:0:0:0:
285,123,307221,1,0,0:0:0:0:
297,95,307300,2,0,L|281:15,1,63.7500012159348,8|0,0:0|0:0,0:0:0:0:
448,200,307458,1,4,0:0:0:0:
448,200,307537,1,0,0:0:0:0:
448,200,307615,102,0,L|516:208,1,63.7500012159348,2|0,0:1|0:0,0:0:0:0:
290,268,307773,2,0,L|282:344,1,63.7500012159348,4|0,0:0|0:0,0:0:0:0:
138,168,307931,2,0,L|130:244,1,63.7500012159348,8|0,0:0|0:0,0:0:0:0:
312,96,308089,2,0,L|304:172,1,63.7500012159348,4|0,0:0|0:0,0:0:0:0:
120,80,308247,6,0,L|32:100,1,63.7500012159348,2|0,0:1|0:0,0:0:0:0:
339,69,308405,2,0,L|427:89,1,63.7500012159348,6|0,0:1|0:0,0:0:0:0:
149,208,308563,2,0,L|61:228,1,63.7500012159348,8|0,0:0|0:0,0:0:0:0:
414,238,308721,2,0,L|502:258,1,63.7500012159348,12|0,0:0|0:0,0:0:0:0:
292,316,308879,101,2,0:1:0:0:
222,334,308958,1,0,0:0:0:0:
156,337,309037,1,6,0:0:0:0:
123,326,309115,1,0,0:0:0:0:
91,313,309194,2,0,P|68:288|58:254,1,63.7500012159348,10|0,0:0|0:0,0:0:0:0:
234,164,309352,2,0,P|232:127|257:81,1,63.7500012159348,14|0,0:0|0:0,0:0:0:0:
417,197,309510,5,2,0:1:0:0:
384,264,309589,1,0,0:0:0:0:
316,300,309668,1,6,0:0:0:0:
240,312,309747,1,0,0:0:0:0:
168,288,309826,2,0,P|136:280|100:280,1,63.7500012159348,10|0,0:0|0:0,0:0:0:0:
208,120,309984,2,0,P|196:88|180:56,1,63.7500012159348,14|0,0:0|0:0,0:0:0:0:
256,220,310142,101,2,0:1:0:0:
256,220,310221,1,0,0:0:0:0:
256,220,310300,1,6,0:0:0:0:
256,220,310379,1,0,0:0:0:0:
256,220,310458,2,0,L|336:204,1,63.7500012159348,10|0,0:0|0:0,0:0:0:0:
140,180,310615,2,0,L|64:168,1,63.7500012159348,14|0,0:0|0:0,0:0:0:0:
328,96,310773,5,2,0:1:0:0:
328,96,310852,1,0,0:0:0:0:
328,96,310931,1,4,0:0:0:0:
140,268,311089,1,8,0:0:0:0:
396,148,311247,1,4,0:0:0:0:
396,148,311326,1,0,0:0:0:0:
396,148,311405,102,0,L|456:108,3,63.7500012159348,0|0|4|0,0:1|0:0|0:0|0:0,0:0:0:0:
404,240,311721,1,2,0:0:0:0:
320,228,311800,1,2,0:0:0:0:
240,216,311879,1,6,0:0:0:0:
160,200,311958,1,2,0:0:0:0:
80,188,312037,1,2,0:0:0:0:
256,192,312115,12,0,313221,0:0:0:0:
224,127,313300,22,0,L|212:39,1,75,0|4,0:1|0:0,0:0:0:0:
288,256,313615,2,0,L|300:344,1,75,8|4,0:2|0:0,0:0:0:0:
180,252,313931,5,0,0:1:0:0:
332,132,314089,1,4,0:0:0:0:
164,260,314247,1,8,0:2:0:0:
348,124,314405,1,4,0:0:0:0:
180,132,314563,101,0,0:1:0:0:
332,252,314721,1,4,0:0:0:0:
164,124,314879,1,8,0:2:0:0:
348,260,315037,1,4,0:0:0:0:
258,95,315194,5,0,0:1:0:0:
253,288,315352,1,4,0:0:0:0:
254,77,315510,1,8,0:2:0:0:
257,306,315668,1,4,0:0:0:0:
380,144,315826,102,0,L|416:68,1,75,0|4,0:1|0:0,0:0:0:0:
132,240,316142,2,0,L|96:316,1,75,8|4,0:2|0:0,0:0:0:0:
252,56,316458,5,0,0:1:0:0:
260,328,316615,1,4,0:0:0:0:
172,84,316773,1,10,0:2:0:0:
339,299,316930,1,4,0:0:0:0:
124,158,317089,101,0,0:1:0:0:
387,225,317246,1,4,0:0:0:0:
172,84,317405,1,8,0:2:0:0:
339,299,317562,1,4,0:0:0:0:
252,56,317721,5,0,0:1:0:0:
259,327,317878,1,4,0:0:0:0:
326,75,318037,1,8,0:2:0:0:
185,308,318194,1,4,0:0:0:0:
176,92,318352,102,0,L|164:8,1,75,0|4,0:1|0:0,0:0:0:0:
336,292,318668,2,0,L|348:376,1,75,8|4,0:2|0:0,0:0:0:0:
116,156,318984,5,0,0:1:0:0:
396,228,319142,1,4,0:0:0:0:
112,208,319300,1,8,0:2:0:0:
399,175,319458,1,4,0:0:0:0:
127,258,319615,101,0,0:1:0:0:
384,125,319773,1,4,0:0:0:0:
160,300,319931,1,8,0:2:0:0:
351,83,320089,1,4,0:0:0:0:
205,327,320247,5,0,0:1:0:0:
306,56,320405,1,4,0:0:0:0:
284,268,320563,1,8,0:2:0:0:
236,112,320721,1,4,0:0:0:0:
256,192,320879,101,0,0:1:0:0:
256,192,320958,12,0,323089,0:0:0:0:
256,192,323405,5,2,0:0:0:0:
