osu file format v14

[General]
AudioFilename: audio.mp3
AudioLeadIn: 0
PreviewTime: 100660
Countdown: 0
SampleSet: Soft
StackLeniency: 0.4
Mode: 0
LetterboxInBreaks: 0
WidescreenStoryboard: 1

[Editor]
Bookmarks: 13753,281385
DistanceSpacing: 1.6
BeatDivisor: 8
GridSize: 8
TimelineZoom: 1.4

[Metadata]
Title:Kanojo Kaku Katariki
TitleUnicode:彼女かく語りき
Artist:At the Garret x Kekkan Orgel
ArtistUnicode:At the Garret×欠陥オルゴール
Creator:Heratikus
Version:Insane
Source:
Tags:classical folk orchestral japanese female vocals vocalist gekijou no kemono 劇場の化物 kekkan orugooru 兎角Arle arlequin
BeatmapID:3084541
BeatmapSetID:1485927

[Difficulty]
HPDrainRate:4.5
CircleSize:4.4
OverallDifficulty:7
ApproachRate:8.5
SliderMultiplier:1.7
SliderTickRate:1

[Events]
//Background and Video events
0,0,"kanojokakukatariki.jpg",0,0
//Break Periods
2,123820,139260
2,191188,198997
//Storyboard Layer 0 (Background)
//Storyboard Layer 1 (Fail)
//Storyboard Layer 2 (Pass)
//Storyboard Layer 3 (Foreground)
//Storyboard Layer 4 (Overlay)
//Storyboard Sound Samples

[TimingPoints]
5726,526.315789473684,4,2,1,50,1,0
14148,-100,4,2,1,50,0,0
30990,-80,4,2,1,70,0,0
52042,526.315789473684,4,2,2,50,1,0
52042,-117.647058823529,4,2,2,50,0,0
85726,-111.111111111111,4,2,2,60,0,0
100726,-100,4,2,1,70,0,0
101120,-100,4,2,1,5,0,0
101252,-100,4,2,1,70,0,0
102041,-133.333333333333,4,2,1,60,0,0
102436,-133.333333333333,4,2,1,5,0,0
102568,-80,4,2,1,80,0,1
119410,-80,4,2,1,80,0,0
121515,-80,4,2,1,80,0,1
123620,526.315789473684,4,2,1,45,1,0
123620,-133.333333333333,4,2,1,45,0,0
140462,-133.333333333333,4,2,1,50,0,0
157304,-117.647058823529,4,2,2,60,0,0
174146,-100,4,2,1,50,0,0
199672,-100,4,2,1,70,0,0
200067,-100,4,2,1,5,0,0
200198,-100,4,2,1,70,0,0
200988,-133.333333333333,4,2,1,60,0,0
201383,-133.333333333333,4,2,1,5,0,0
201514,526.315789473684,4,2,1,80,1,1
201514,-80,4,2,1,80,0,1
218224,-80,4,2,1,80,0,0
218356,-80,4,2,1,80,0,1
235198,-80,4,2,1,80,0,0
237303,-80,4,2,1,80,0,1
239408,-80,4,2,1,80,0,0
241514,-80,4,2,1,80,0,1
243619,-80,4,2,1,80,0,0
245724,-80,4,2,1,80,0,1
247829,526.315789473684,4,2,1,60,1,0
247829,-100,4,2,1,60,0,0
264671,-90.9090909090909,4,2,1,65,0,0

[Colours]
Combo1 : 170,148,216
Combo2 : 221,210,170
Combo3 : 215,45,164
Combo4 : 215,182,68
Combo5 : 128,128,128
Combo6 : 62,102,164

[HitObjects]
104,21,14147,6,0,L|189:39,1,85,14|0,1:2|3:2,0:0:0:0:
0,0,14674,1,8,1:2:0:0:
128,214,14937,1,2,3:2:0:0:
94,197,15069,1,2,2:2:0:0:
60,180,15200,2,0,L|34:100,1,85,10|2,1:2|3:2,0:0:0:0:
94,283,15726,2,0,L|120:363,1,85,10|2,1:2|3:2,0:0:0:0:
283,321,16253,6,0,L|199:303,1,85,10|0,1:2|3:2,0:0:0:0:
383,345,16779,1,8,1:2:0:0:
250,188,17042,1,2,3:2:0:0:
288,177,17174,1,2,2:2:0:0:
327,166,17305,2,0,L|354:247,1,85,10|2,1:2|3:2,0:0:0:0:
500,309,17832,22,0,B|477:305|456:312|441:327|441:327|423:343|400:348|375:343,1,127.5,10|0,1:2|0:0,0:0:0:0:
382,344,18358,1,10,1:2:0:0:
447,202,18884,5,8,1:2:0:0:
467,58,19148,1,2,3:2:0:0:
460,67,19279,1,2,2:2:0:0:
451,74,19411,6,0,P|413:89|361:81,1,85,10|2,1:2|3:2,0:0:0:0:
219,0,19937,2,0,P|250:25|270:74,1,85,10|2,1:2|3:2,0:0:0:0:
258,214,20463,2,0,P|226:188|206:139,1,85,10|2,1:2|3:2,0:0:0:0:
26,140,20990,2,0,P|64:125|116:133,1,85,10|2,1:2|3:2,0:0:0:0:
133,346,21516,2,0,P|137:304|122:266,1,85,10|0,1:2|3:2,0:0:0:0:
74,203,21911,1,2,2:2:0:0:
26,140,22042,2,0,P|10:100|15:58,1,85,10|0,1:2|3:2,0:0:0:0:
191,27,22569,6,0,L|98:41,1,85,14|0,1:2|3:2,0:0:0:0:
283,12,23095,1,8,1:2:0:0:
140,212,23358,1,2,3:2:0:0:
179,195,23490,1,2,2:2:0:0:
218,179,23621,2,0,L|250:100,1,85,10|2,1:2|3:2,0:0:0:0:
174,290,24147,2,0,L|142:369,1,85,10|2,1:2|3:2,0:0:0:0:
276,273,24674,6,0,L|360:260,1,85,10|0,1:2|3:2,0:0:0:0:
512,357,25200,1,8,1:2:0:0:
330,340,25463,1,2,3:2:0:0:
345,300,25595,1,2,2:2:0:0:
360,260,25726,2,0,L|391:180,1,85,10|2,1:2|3:2,0:0:0:0:
462,0,26253,2,0,L|430:79,1,85,10|2,1:2|3:2,0:0:0:0:
230,112,26779,22,0,L|314:100,1,85,10|0,1:2|3:2,0:0:0:0:
128,128,27305,1,8,1:2:0:0:
161,356,27569,1,0,3:2:0:0:
158,334,27700,1,2,2:2:0:0:
155,314,27832,2,0,L|144:230,2,85,10|2|10,1:2|3:2|1:2,0:0:0:0:
0,384,28621,1,2,3:2:0:0:
161,356,28884,6,0,L|245:344,1,85,10|0,1:2|3:2,0:0:0:0:
415,318,29411,2,0,L|331:330,1,85,8|2,1:2|3:2,0:0:0:0:
288,337,29805,1,2,2:2:0:0:
245,344,29937,2,0,L|161:356,1,85,10|0,1:2|3:2,0:0:0:0:
330,330,30463,5,8,1:2:0:0:
415,318,30595,1,8,3:2:0:0:
500,306,30726,1,8,1:2:0:0:
512,127,30990,6,0,B|459:121|459:121|395:158,1,106.25,6|8,3:2|1:2,0:0:0:0:
293,210,31384,1,0,0:0:0:0:
287,213,31516,2,0,B|286:159,1,53.125,2|0,3:2|3:2,0:0:0:0:
286,29,31779,2,0,B|331:55,1,53.125,8|0,1:2|0:0,0:0:0:0:
188,145,32042,6,0,B|92:201,1,106.25,2|8,3:2|1:2,0:0:0:0:
0,348,32437,1,0,0:0:0:0:
6,344,32569,2,0,B|97:290|97:290,1,106.25,2|8,3:2|1:2,0:0:0:0:
265,193,33095,6,0,B|314:216|314:216|326:274,1,106.25,6|8,3:2|1:2,0:0:0:0:
210,362,33490,2,0,B|205:308|205:308|249:268,1,106.25,2|0,2:2|3:2,0:0:0:0:
339,359,33884,2,0,B|288:341,1,53.125,10|0,1:2|0:0,0:0:0:0:
407,301,34147,6,0,B|487:231,1,106.25,2|8,3:2|1:2,0:0:0:0:
369,104,34542,1,0,0:0:0:0:
370,110,34674,2,0,B|389:214,1,106.25,2|8,3:2|1:2,0:0:0:0:
423,384,35200,6,0,B|372:366,1,53.125,6|0,3:2|0:0,0:0:0:0:
238,319,35463,2,0,B|288:336,1,53.125,10|0,1:2|0:0,0:0:0:0:
307,217,35726,2,0,B|256:234,1,53.125,2|0,3:2|3:2,0:0:0:0:
122,282,35990,2,0,B|172:264,1,53.125,10|0,1:2|0:0,0:0:0:0:
237,150,36253,6,0,B|136:184,1,106.25,2|8,3:2|1:2,0:0:0:0:
75,8,36647,1,0,0:0:0:0:
80,12,36779,2,0,B|160:81,1,106.25,2|8,3:2|1:2,0:0:0:0:
318,218,37305,6,0,B|236:149,1,106.25,6|8,3:2|1:2,0:0:0:0:
352,40,37700,1,0,0:0:0:0:
351,45,37832,2,0,B|341:97,1,53.125,0|0,3:2|3:2,0:0:0:0:
306,290,38095,5,10,1:2:0:0:
318,218,38226,1,2,2:2:0:0:
386,192,38358,2,0,L|436:174,1,53.125,6|0,3:2|0:0,0:0:0:0:
489,0,38621,2,0,L|439:18,1,53.125,8|0,1:2|0:0,0:0:0:0:
316,123,38884,5,10,3:2:0:0:
245,57,39016,1,8,3:2:0:0:
223,151,39147,1,8,1:2:0:0:
152,85,39279,1,8,3:2:0:0:
130,179,39411,6,0,B|118:227|118:227|120:233|120:233|106:293,1,106.25,6|8,3:2|1:2,0:0:0:0:
6,376,39805,1,0,0:0:0:0:
4,384,39937,2,0,L|54:368,1,53.125,0|0,3:2|3:2,0:0:0:0:
221,309,40200,1,10,1:2:0:0:
291,346,40332,1,2,2:2:0:0:
361,384,40463,6,0,L|384:280,1,106.25,2|8,3:2|1:2,0:0:0:0:
430,84,40858,1,0,0:0:0:0:
429,90,40990,2,0,L|405:193,1,106.25,2|8,3:2|1:2,0:0:0:0:
246,103,41516,6,0,L|297:88|338:125,1,106.25,6|8,3:2|1:2,0:0:0:0:
190,172,41911,2,0,L|151:135|163:81,1,106.25,2|0,2:2|3:2,0:0:0:0:
278,186,42305,2,0,L|265:237,1,53.125,10|0,1:2|0:0,0:0:0:0:
226,384,42569,6,0,L|150:310,1,106.25,2|8,3:2|1:2,0:0:0:0:
0,162,42963,1,0,0:0:0:0:
6,168,43095,2,0,L|81:241,1,106.25,2|8,3:2|1:2,0:0:0:0:
218,109,43621,6,0,B|178:121|178:121|172:118|172:118|114:135,2,106.25,6|8|0,3:2|1:2|3:2,0:0:0:0:
38,103,44411,1,10,1:2:0:0:
99,62,44542,1,2,2:2:0:0:
160,21,44674,6,0,L|218:17,1,53.125,2|0,3:2|0:0,0:0:0:0:
363,109,44937,2,0,L|311:106,1,53.125,10|0,1:2|0:0,0:0:0:0:
166,28,45200,2,0,L|219:25,1,53.125,2|0,3:2|3:2,0:0:0:0:
364,101,45463,2,0,L|311:98,1,53.125,10|0,1:2|0:0,0:0:0:0:
512,0,45726,6,0,B|509:41|509:41|513:46|513:46|510:107,2,106.25,6|8|0,3:2|1:2|3:2,0:0:0:0:
433,142,46516,1,10,1:2:0:0:
364,101,46647,1,2,2:2:0:0:
295,142,46779,6,0,L|290:199,1,53.125,6|0,3:2|0:0,0:0:0:0:
361,316,47042,2,0,L|356:259,1,53.125,10|0,1:2|0:0,0:0:0:0:
432,159,47305,2,0,L|427:216,1,53.125,6|0,3:2|0:0,0:0:0:0:
495,325,47569,1,10,1:2:0:0:
427,220,47700,1,8,3:2:0:0:
361,316,47832,6,0,L|247:326,2,106.25,6|8|0,3:2|1:2|3:2,0:0:0:0:
370,316,48490,1,0,3:2:0:0:
281,224,48621,2,0,L|286:281,1,53.125,8|0,1:2|0:2,0:0:0:0:
187,381,48884,6,0,B|168:331|168:331|180:279,1,106.25,2|8,3:2|1:2,0:0:0:0:
241,138,49279,2,0,B|207:179|207:179|155:193,1,106.25,2|0,2:2|3:2,0:0:0:0:
4,213,49674,2,0,B|56:221,1,53.125,10|0,1:2|0:0,0:0:0:0:
179,279,49937,5,6,3:2:0:0:
179,279,50200,1,8,1:2:0:0:
179,279,50463,6,0,B|231:270,1,53.125,2|8,3:2|1:2,0:0:0:0:
405,315,50726,2,0,B|353:306,1,53.125,0|8,2:2|3:2,0:0:0:0:
329,154,50990,5,6,3:2:0:0:
329,154,51253,1,8,1:2:0:0:
391,242,51516,5,10,3:2:0:0:
435,142,51647,1,8,1:2:0:0:
382,236,51779,1,8,3:2:0:0:
443,146,51911,1,8,1:2:0:0:
495,243,52042,6,0,B|493:270|481:293|462:310|462:310|441:325|430:351|430:376,1,144.500002756119,6|8,1:2|1:2,0:0:0:0:
314,375,52831,2,0,P|333:379|357:374,1,36.1250006890297,2|10,3:2|1:2,0:0:0:0:
238,355,53094,2,0,P|219:351|195:356,2,36.1250006890297,2|8|0,3:2|1:2|3:2,0:0:0:0:
126,384,53620,1,14,1:2:0:0:
14,355,53884,2,0,P|33:351|57:356,1,36.1250006890297,2|8,3:2|1:2,0:0:0:0:
119,301,54147,54,0,P|131:267|127:231,1,72.2500013780594,6|0,1:2|3:2,0:0:0:0:
71,189,54542,2,0,P|93:216|126:231,1,72.2500013780594,2|0,2:2|0:0,0:0:0:0:
235,210,54936,2,0,P|250:218|264:231,1,36.1250006890297,2|10,3:2|1:2,0:0:0:0:
155,209,55199,2,0,P|139:217|125:230,2,36.1250006890297,2|8|0,3:2|1:2|3:2,0:0:0:0:
0,184,55726,2,0,P|42:145|36:83,1,108.375002067089,14|8,1:2|1:2,0:0:0:0:
175,78,56252,6,0,B|147:76|124:64|107:45|107:45|92:24|67:13|41:13,1,144.500002756119,6|8,1:2|1:2,0:0:0:0:
149,155,57042,2,0,P|171:161|199:156,1,36.1250006890297,2|10,3:2|1:2,0:0:0:0:
257,111,57305,2,0,P|263:73|254:36,1,72.2500013780594,2|2,3:2|3:2,0:0:0:0:
184,160,57831,2,0,P|148:173|121:199,1,72.2500013780594,14|2,1:2|3:2,0:0:0:0:
262,199,58226,1,8,1:2:0:0:
266,206,58357,6,0,B|282:227|306:238|330:239|330:239|332:239|332:239|358:240|382:254|396:273,1,144.500002756119,6|8,1:2|1:2,0:0:0:0:
512,384,59147,2,0,P|498:375|486:359,1,36.1250006890297,2|8,3:2|1:2,0:0:0:0:
476,249,59410,2,0,P|475:265|467:284,2,36.1250006890297,6|8|0,3:2|1:2|3:2,0:0:0:0:
409,342,59936,5,14,1:2:0:0:
334,305,60068,1,8,3:2:0:0:
277,367,60199,2,0,L|237:370,1,36.1250006890297,8|0,1:2|0:0,0:0:0:0:
104,285,60463,6,0,B|167:280|167:280|176:286|176:286|255:278,1,144.500002756119,6|8,1:2|1:2,0:0:0:0:
142,360,61252,2,0,L|102:363,1,36.1250006890297,2|10,3:2|1:2,0:0:0:0:
0,323,61515,2,0,L|40:326,2,36.1250006890297,2|8|0,3:2|1:2|3:2,0:0:0:0:
124,255,62042,2,0,L|101:288,1,36.1250006890297,14|0,1:2|0:0,0:0:0:0:
15,211,62305,2,0,L|30:244,1,36.1250006890297,2|8,3:2|1:2,0:0:0:0:
97,173,62568,6,0,L|140:109,1,72.2500013780594,6|0,1:2|3:2,0:0:0:0:
209,119,62963,2,0,L|132:111,1,72.2500013780594,2|0,2:2|0:0,0:0:0:0:
17,100,63357,2,0,L|38:68,1,36.1250006890297,2|10,3:2|1:2,0:0:0:0:
137,112,63620,2,0,L|120:77,2,36.1250006890297,2|8|0,3:2|1:2|3:2,0:0:0:0:
90,6,64147,6,0,P|128:0|166:14,1,72.2500013780594,14|2,1:2|3:2,0:0:0:0:
242,77,64542,1,8,1:2:0:0:
249,82,64673,2,0,B|271:95|297:95|318:85|318:85|318:85|318:85|342:74|367:76|387:88,1,144.500002756119,6|8,1:2|1:2,0:0:0:0:
349,194,65463,6,0,P|347:173|352:150,1,36.1250006890297,2|10,3:2|1:2,0:0:0:0:
467,104,65726,2,0,P|469:83|464:60,1,36.1250006890297,2|8,3:2|1:2,0:0:0:0:
385,3,65989,1,2,3:2:0:0:
427,174,66252,1,14,1:2:0:0:
257,124,66515,2,0,P|255:144|260:168,1,36.1250006890297,2|8,3:2|1:2,0:0:0:0:
367,266,66778,6,0,B|341:256|315:256|291:263|291:263|265:269|239:268|215:260,1,144.500002756119,6|8,1:2|1:2,0:0:0:0:
225,384,67568,2,0,P|242:379|264:378,1,36.1250006890297,0|8,3:2|1:2,0:0:0:0:
382,378,67831,2,0,P|365:383|343:384,2,36.1250006890297,2|8|0,3:2|1:2|3:2,0:0:0:0:
507,384,68357,54,0,P|481:371|457:335,1,72.2500013780594,14|0,1:2|3:2,0:0:0:0:
452,251,68752,1,8,3:2:0:0:
452,243,68884,6,0,P|470:212|501:194,2,72.2500013780594,6|0|8,1:2|3:2|1:2,0:0:0:0:
512,121,69673,2,0,P|496:123|475:119,1,36.1250006890297,2|10,3:2|1:2,0:0:0:0:
350,93,69936,2,0,P|366:91|387:95,2,36.1250006890297,2|8|0,3:2|1:2|3:2,0:0:0:0:
512,14,70463,2,0,P|482:34|447:36,1,72.2500013780594,14|2,1:2|3:2,0:0:0:0:
371,6,70857,1,8,1:2:0:0:
363,4,70989,6,0,P|327:5|298:26,1,72.2500013780594,6|0,1:2|3:2,0:0:0:0:
284,93,71384,2,0,P|300:61|297:25,1,72.2500013780594,2|0,2:2|0:0,0:0:0:0:
189,9,71778,2,0,P|173:18|156:24,1,36.1250006890297,2|10,3:2|1:2,0:0:0:0:
264,10,72042,2,0,P|280:19|297:25,2,36.1250006890297,2|8|0,3:2|1:2|3:2,0:0:0:0:
226,147,72568,2,0,P|191:154|157:145,1,72.2500013780594,14|2,1:2|3:2,0:0:0:0:
93,100,72963,1,8,1:2:0:0:
87,95,73094,54,0,P|52:85|17:92,2,72.2500013780594,6|0|8,1:2|3:2|1:2,0:0:0:0:
162,0,73884,2,0,P|162:24|155:42,1,36.1250006890297,2|10,3:2|1:2,0:0:0:0:
87,95,74147,2,0,P|87:119|94:137,1,36.1250006890297,2|8,3:2|1:2,0:0:0:0:
160,215,74410,1,2,3:2:0:0:
3,211,74673,1,14,1:2:0:0:
79,291,74936,2,0,P|58:289|36:298,1,36.1250006890297,2|0,3:2|0:0,0:0:0:0:
167,302,75199,6,0,P|188:304|229:269,2,72.2500013780594,6|0|8,1:2|3:2|1:2,0:0:0:0:
238,165,75989,2,0,P|247:186|248:201,1,36.1250006890297,2|8,3:2|1:2,0:0:0:0:
340,268,76252,2,0,P|316:265|303:258,2,36.1250006890297,6|8|0,3:2|1:2|3:2,0:0:0:0:
340,268,76778,5,14,1:2:0:0:
339,194,76910,1,8,3:2:0:0:
401,147,77042,2,0,P|423:137|438:135,1,36.1250006890297,8|0,1:2|0:0,0:0:0:0:
499,241,77305,54,0,P|477:231|425:237,2,72.2500013780594,6|0|8,1:2|3:2|1:2,0:0:0:0:
374,291,78094,2,0,P|367:304|362:331,1,36.1250006890297,2|10,3:2|1:2,0:0:0:0:
468,362,78357,2,0,P|461:349|456:321,2,36.1250006890297,2|8|0,3:2|1:2|3:2,0:0:0:0:
284,365,78884,1,14,1:2:0:0:
277,253,79147,2,0,P|284:266|289:294,1,36.1250006890297,2|8,3:2|1:2,0:0:0:0:
204,384,79410,6,0,P|172:382|134:363,1,72.2500013780594,6|0,1:2|3:2,0:0:0:0:
173,231,79805,2,0,P|187:259|189:302,1,72.2500013780594,2|0,2:2|0:0,0:0:0:0:
77,304,80199,2,0,P|90:292|106:284,1,36.1250006890297,2|8,3:2|1:2,0:0:0:0:
202,211,80463,2,0,P|188:222|172:230,2,36.1250006890297,2|8|0,3:2|1:2|3:2,0:0:0:0:
126,314,80989,6,0,P|114:300|106:284,1,36.1250006890297,14|0,1:2|0:0,0:0:0:0:
152,200,81252,2,0,P|164:213|172:230,1,36.1250006890297,2|8,3:2|1:2,0:0:0:0:
96,127,81515,2,0,P|128:111|164:109,2,72.2500013780594,6|0|8,1:2|3:2|1:2,0:0:0:0:
281,166,82305,53,2,3:2:0:0:
275,168,82436,1,10,1:2:0:0:
269,169,82568,2,0,P|245:169|226:164,1,36.1250006890297,2|8,3:2|1:2,0:0:0:0:
353,205,82831,2,0,P|365:225|370:244,1,36.1250006890297,2|0,3:2|0:0,0:0:0:0:
342,124,83094,2,0,P|354:103|392:76,1,72.2500013780594,14|2,1:2|3:2,0:0:0:0:
489,96,83489,1,8,1:2:0:0:
491,88,83620,6,0,P|490:52|475:19,2,72.2500013780594,6|0|8,1:2|3:2|1:2,0:0:0:0:
430,163,84410,2,0,P|446:174|475:184,1,36.1250006890297,0|8,3:2|1:2,0:0:0:0:
512,259,84673,2,0,P|495:270|466:280,2,36.1250006890297,2|8|0,3:2|1:2|3:2,0:0:0:0:
512,384,85199,22,0,L|441:373,1,72.2500013780594,14|2,1:2|3:2,0:0:0:0:
354,372,85594,1,8,3:2:0:0:
345,373,85726,2,0,L|259:386,2,76.4999976654053,6|0|8,1:2|3:2|1:2,0:0:0:0:
247,288,86515,6,0,L|289:294,1,38.2499988327027,2|8,3:2|1:2,0:0:0:0:
189,357,86778,2,0,L|147:363,2,38.2499988327027,2|8|0,3:2|1:2|3:2,0:0:0:0:
117,269,87173,2,0,L|159:275,2,38.2499988327027,2|12|0,2:2|1:2|0:0,0:0:0:0:
66,376,87568,2,0,L|24:382,1,38.2499988327027,2|8,3:2|1:2,0:0:0:0:
37,224,87831,6,0,B|32:260|32:260|34:267|34:267|28:308,2,76.4999976654053,6|0|8,1:2|3:2|1:2,0:0:0:0:
130,384,88620,2,0,L|124:343,1,38.2499988327027,0|8,3:2|1:2,0:0:0:0:
29,299,88884,2,0,L|35:258,2,38.2499988327027,2|8|0,3:2|1:2|3:2,0:0:0:0:
162,173,89410,2,0,B|126:177|126:177|118:175|118:175|77:181,1,76.4999976654053,14|0,1:2|3:2,0:0:0:0:
26,99,89805,1,8,1:2:0:0:
26,91,89936,54,0,L|14:5,2,76.4999976654053,6|0|8,1:2|3:2|1:2,0:0:0:0:
192,44,90726,1,2,3:2:0:0:
193,51,90857,1,10,1:2:0:0:
195,58,90989,2,0,L|201:96,1,38.2499988327027,2|8,3:2|1:2,0:0:0:0:
144,158,91252,1,2,3:2:0:0:
273,36,91515,1,14,1:2:0:0:
315,209,91778,2,0,L|357:194,1,38.2499988327027,2|8,3:2|1:2,0:0:0:0:
479,159,92041,6,0,L|398:131,1,76.4999976654053,6|2,1:2|3:2,0:0:0:0:
449,0,92568,2,0,L|465:81,1,76.4999976654053,10|2,1:2|3:2,0:0:0:0:
334,109,92963,1,8,1:2:0:0:
327,106,93094,2,0,L|359:76,2,38.2499988327027,6|8|0,3:2|1:2|3:2,0:0:0:0:
412,240,93620,2,0,B|403:278|403:278|407:285|407:285|398:327,1,76.4999976654053,14|0,1:2|3:2,0:0:0:0:
297,384,94015,1,8,3:2:0:0:
286,382,94147,6,0,B|244:379|244:379|238:374|238:374|193:371,2,76.4999976654053,6|0|8,1:2|3:2|1:2,0:0:0:0:
111,355,94936,2,0,L|133:324,1,38.2499988327027,2|10,3:2|1:2,0:0:0:0:
214,267,95199,54,0,B|255:264|255:264|261:259|261:259|306:256,2,76.4999976654053,2|0|12,3:2|3:2|1:2,0:0:0:0:
383,239,95989,2,0,L|360:208,1,38.2499988327027,2|10,3:2|1:2,0:0:0:0:
276,169,96252,6,0,B|234:166|234:166|228:161|228:161|183:158,2,76.4999976654053,6|0|8,1:2|3:2|1:2,0:0:0:0:
108,181,97041,6,0,L|105:142,1,38.2499988327027,2|8,3:2|1:2,0:0:0:0:
19,94,97305,2,0,L|16:132,1,38.2499988327027,2|8,3:2|1:2,0:0:0:0:
98,49,97568,2,0,L|95:10,1,38.2499988327027,2|0,3:2|0:0,0:0:0:0:
180,93,97831,2,0,L|218:90,1,38.2499988327027,14|0,1:2|0:0,0:0:0:0:
312,165,98094,2,0,L|273:162,1,38.2499988327027,2|8,3:2|1:2,0:0:0:0:
271,14,98357,54,0,L|351:8,1,76.4999976654053,6|0,1:2|3:2,0:0:0:0:
463,103,98884,2,0,L|383:97,1,76.4999976654053,8|0,1:2|3:2,0:0:0:0:
295,186,99278,2,0,L|333:183,1,38.2499988327027,8|0,1:2|3:2,0:0:0:0:
416,269,99541,2,0,L|377:266,1,38.2499988327027,8|0,1:2|3:2,0:0:0:0:
183,199,99936,1,12,1:2:0:0:
246,329,100199,1,0,3:2:0:0:
246,329,100331,1,8,1:2:0:0:
246,329,100463,1,4,2:2:0:0:
401,142,100726,6,0,P|380:80|330:37,1,127.5,2|0,2:2|0:0,0:0:0:0:
246,25,101252,1,2,2:2:0:0:
170,49,101384,1,2,2:2:0:0:
127,103,101515,1,2,2:2:0:0:
111,156,101647,1,2,2:2:0:0:
113,194,101778,1,2,2:2:0:0:
123,220,101910,1,2,2:2:0:0:
138,236,102041,6,0,P|189:250|239:234,1,95.6250036478044,6|0,2:2|0:0,0:0:0:0:
459,193,102568,6,0,P|445:142|406:106,1,106.25,6|8,3:2|1:2,0:0:0:0:
211,89,102963,1,0,0:0:0:0:
216,96,103094,2,0,P|247:106|285:105,1,53.125,0|0,3:2|3:2,0:0:0:0:
355,0,103357,1,10,1:2:0:0:
333,71,103489,1,2,2:2:0:0:
268,108,103620,6,0,P|231:145|219:195,1,106.25,2|8,3:2|1:2,0:0:0:0:
226,383,104015,1,0,0:0:0:0:
227,374,104147,2,0,P|213:323|175:287,1,106.25,2|8,3:2|1:2,0:0:0:0:
15,206,104673,6,0,P|66:218|115:203,1,106.25,6|8,3:2|1:2,0:0:0:0:
112,41,105068,2,0,P|75:78|63:128,1,106.25,2|0,2:2|3:2,0:0:0:0:
192,156,105463,2,0,P|175:135|154:120,1,53.125,10|0,1:2|0:0,0:0:0:0:
282,20,105726,6,0,P|272:44|289:126,1,106.25,2|8,3:2|1:2,0:0:0:0:
463,172,106120,1,0,0:0:0:0:
457,178,106252,2,0,P|406:192|356:179,1,106.25,2|8,3:2|1:2,0:0:0:0:
226,264,106778,6,0,B|243:272|262:272|278:266|278:266|295:259|313:261|329:268,2,106.25,6|8|0,3:2|1:2|3:2,0:0:0:0:
392,337,107568,1,10,1:2:0:0:
399,349,107699,1,2,2:2:0:0:
404,362,107831,6,0,P|425:342|453:335,1,53.125,2|0,3:2|0:0,0:0:0:0:
508,286,108094,2,0,P|489:267|464:259,1,53.125,10|0,1:2|0:0,0:0:0:0:
404,201,108357,2,0,P|423:182|448:174,1,53.125,2|0,3:2|3:2,0:0:0:0:
512,115,108620,2,0,P|493:96|468:88,1,53.125,10|0,1:2|0:0,0:0:0:0:
346,84,108884,6,0,B|327:85|310:95|299:108|299:108|288:122|272:130|254:132,2,106.25,6|8|0,3:2|1:2|3:2,0:0:0:0:
177,124,109673,5,10,1:2:0:0:
145,53,109805,1,2,2:2:0:0:
67,45,109936,2,0,L|14:42,1,53.125,6|0,3:2|0:0,0:0:0:0:
78,184,110199,2,0,L|131:187,1,53.125,8|0,1:2|0:0,0:0:0:0:
258,331,110463,5,14,1:2:0:0:
194,259,110594,1,8,3:2:0:0:
164,351,110726,1,10,1:2:0:0:
100,279,110857,1,8,3:2:0:0:
70,371,110989,6,0,P|31:348|3:288,1,106.25,6|8,3:2|1:2,0:0:0:0:
122,187,111384,1,0,0:0:0:0:
131,187,111515,2,0,P|170:210|185:236,1,53.125,0|0,3:2|3:2,0:0:0:0:
258,331,111778,1,10,1:2:0:0:
246,253,111910,1,2,2:2:0:0:
307,204,112041,6,0,P|355:191|421:211,1,106.25,2|8,3:2|1:2,0:0:0:0:
482,342,112436,1,0,0:0:0:0:
476,337,112568,2,0,P|428:324|362:344,1,106.25,2|8,3:2|1:2,0:0:0:0:
228,377,113094,6,0,P|240:329|220:263,1,106.25,6|8,3:2|1:2,0:0:0:0:
59,275,113489,2,0,P|94:310|161:325,1,106.25,2|0,2:2|3:2,0:0:0:0:
181,194,113884,2,0,P|160:210|144:231,1,53.125,10|0,1:2|0:0,0:0:0:0:
38,110,114147,6,0,P|64:121|143:115,1,106.25,2|8,3:2|1:2,0:0:0:0:
326,87,114541,1,0,0:0:0:0:
319,82,114673,2,0,P|292:70|213:76,1,106.25,2|8,3:2|1:2,0:0:0:0:
395,157,115199,6,0,B|405:173|405:192|397:208|397:208|388:224|390:243|399:258,2,106.25,6|8|0,3:2|1:2|3:2,0:0:0:0:
459,310,115989,1,10,1:2:0:0:
383,335,116120,1,2,2:2:0:0:
307,360,116252,6,0,P|273:365|250:361,1,53.125,2|0,3:2|0:0,0:0:0:0:
122,290,116515,2,0,P|156:285|179:289,1,53.125,10|0,1:2|0:0,0:0:0:0:
308,352,116778,2,0,P|282:357|256:356,1,53.125,2|0,3:2|3:2,0:0:0:0:
120,295,117041,2,0,P|146:290|173:294,1,53.125,10|0,1:2|0:0,0:0:0:0:
22,377,117305,6,0,B|27:359|26:341|20:325|20:325|14:307|14:289|19:273,2,106.25,6|8|0,3:2|1:2|3:2,0:0:0:0:
0,166,118094,5,10,1:2:0:0:
44,197,118226,1,2,2:2:0:0:
99,194,118357,2,0,P|108:168|109:142,1,53.125,6|0,3:2|0:0,0:0:0:0:
43,16,118620,2,0,P|32:39|31:66,1,53.125,10|0,1:2|0:0,0:0:0:0:
175,67,118884,5,14,1:2:0:0:
256,10,119015,1,8,3:2:0:0:
265,108,119147,1,10,1:2:0:0:
346,51,119278,1,8,3:2:0:0:
355,149,119410,6,0,P|318:192|264:209,2,106.25,6|8|0,3:2|1:2|3:2,0:0:0:0:
356,140,120068,1,0,3:2:0:0:
265,99,120199,2,0,P|276:75|295:56,1,53.125,8|0,1:2|0:0,0:0:0:0:
512,14,120463,6,0,P|459:19|416:50,1,106.25,2|8,3:2|1:2,0:0:0:0:
478,209,120857,2,0,P|499:160|494:108,1,106.25,2|0,2:2|3:2,0:0:0:0:
356,125,121252,2,0,P|378:138|404:146,1,53.125,10|0,1:2|0:0,0:0:0:0:
452,296,121515,5,6,3:2:0:0:
452,296,121778,1,8,1:2:0:0:
452,296,122041,6,0,L|398:294,1,53.125,2|8,3:2|1:2,0:0:0:0:
201,294,122305,2,0,L|255:292,1,53.125,0|8,2:2|1:2,0:0:0:0:
314,143,122568,5,6,3:2:0:0:
314,143,122831,1,8,1:2:0:0:
238,65,123094,5,10,3:2:0:0:
218,174,123226,1,8,1:2:0:0:
246,68,123357,1,8,3:2:0:0:
210,171,123489,1,8,1:2:0:0:
135,95,123620,5,6,2:2:0:0:
512,384,139935,86,0,P|493:373|481:355,3,31.8750012159348,2|0|0|0,2:2|0:0|0:0|0:0,0:0:0:0:
454,266,140462,2,0,P|453:287|444:307,3,31.8750012159348,2|0|0|0,2:2|0:0|0:0|0:0,0:0:0:0:
374,323,140988,2,0,P|354:311|342:294,1,31.8750012159348,2|0,2:2|0:0,0:0:0:0:
364,225,141251,2,0,P|383:214|404:212,1,31.8750012159348,2|0,2:2|0:0,0:0:0:0:
433,143,141514,2,0,P|413:132|392:130,3,31.8750012159348,2|0|0|0,2:2|0:0|0:0|0:0,0:0:0:0:
299,150,142041,6,0,P|318:138|330:121,1,31.8750012159348,2|0,2:2|0:0,0:0:0:0:
362,61,142304,2,0,P|357:45|359:30,1,31.8750012159348,2|0,2:2|0:0,0:0:0:0:
255,39,142567,2,0,P|259:54|258:70,3,31.8750012159348,2|0|0|0,2:2|0:0|0:0|0:0,0:0:0:0:
190,111,143093,2,0,P|174:107|161:98,1,31.8750012159348,2|0,2:2|0:0,0:0:0:0:
160,18,143356,2,0,P|171:6|185:0,1,31.8750012159348,2|0,2:2|0:0,0:0:0:0:
88,62,143620,2,0,P|76:73|62:80,3,31.8750012159348,2|0|0|0,2:2|0:0|0:0|0:0,0:0:0:0:
3,139,144146,6,0,P|15:150|29:157,3,31.8750012159348,2|0|0|0,2:2|0:0|0:0|0:0,0:0:0:0:
142,148,144672,2,0,P|128:156|113:161,3,31.8750012159348,2|0|0|0,2:2|0:0|0:0|0:0,0:0:0:0:
139,254,145198,2,0,P|127:243|113:236,3,31.8750012159348,2|0|0|0,2:2|0:0|0:0|0:0,0:0:0:0:
28,231,145725,2,0,P|13:236|0:245,3,31.8750012159348,2|0|0|0,2:2|0:0|0:0|0:0,0:0:0:0:
0,330,146251,54,0,P|12:341|26:348,1,31.8750012159348,2|0,2:2|0:0,0:0:0:0:
110,352,146514,2,0,P|125:347|139:339,1,31.8750012159348,2|0,2:2|0:0,0:0:0:0:
190,275,146777,2,0,P|193:259|192:243,3,31.8750012159348,2|0|0|0,2:2|0:0|0:0|0:0,0:0:0:0:
122,186,147304,6,0,P|134:175|148:168,1,31.8750012159348,2|0,2:2|0:0,0:0:0:0:
232,163,147567,2,0,P|247:167|260:176,1,31.8750012159348,2|0,2:2|0:0,0:0:0:0:
312,241,147830,1,2,2:2:0:0:
314,248,147962,1,2,2:2:0:0:
315,256,148093,1,2,2:2:0:0:
315,264,148225,1,2,2:2:0:0:
314,272,148356,6,0,P|310:287|303:301,3,31.8750012159348,2|2|2|2,2:2|2:2|2:2|2:2,0:0:0:0:
387,338,148883,2,0,P|390:322|397:308,3,31.8750012159348,2|0|0|0,2:2|0:0|0:0|0:0,0:0:0:0:
465,257,149409,2,0,P|461:241|454:227,1,31.8750012159348,2|0,2:2|0:0,0:0:0:0:
391,175,149672,2,0,P|394:159|401:145,1,31.8750012159348,2|0,2:2|0:0,0:0:0:0:
496,89,149935,2,0,P|480:93|464:94,3,31.8750012159348,2|0|0|0,2:2|0:0|0:0|0:0,0:0:0:0:
404,39,150462,54,0,P|388:34|372:33,1,31.8750012159348,2|0,2:2|0:0,0:0:0:0:
321,106,150725,2,0,P|305:110|289:111,1,31.8750012159348,2|0,2:2|0:0,0:0:0:0:
222,57,150988,2,0,P|217:41|216:25,2,31.8750012159348,2|0|0,2:2|0:0|0:0,0:0:0:0:
164,122,151383,2,0,P|159:137|158:153,2,31.8750012159348,2|0|0,2:2|0:0|0:0,0:0:0:0:
105,58,151777,2,0,P|109:42|110:26,1,31.8750012159348,2|0,2:2|0:0,0:0:0:0:
50,124,152041,2,0,P|54:139|55:155,3,31.8750012159348,2|0|0|0,2:2|0:0|0:0|0:0,0:0:0:0:
49,233,152567,6,0,P|45:248|38:262,1,31.8750012159348,2|0,2:2|0:0,0:0:0:0:
85,331,152830,2,0,P|100:326|116:325,1,31.8750012159348,2|0,2:2|0:0,0:0:0:0:
151,251,153093,2,0,P|139:240|130:226,5,31.8750012159348,2|0|0|0|0|0,2:2|0:0|0:0|0:0|0:0|0:0,0:0:0:0:
125,150,153883,5,2,2:2:0:0:
127,139,154014,1,2,2:2:0:0:
132,130,154146,2,0,P|142:118|156:109,1,31.8750012159348,2|0,2:2|0:0,0:0:0:0:
240,101,154409,2,0,P|255:104|269:111,1,31.8750012159348,2|0,2:2|0:0,0:0:0:0:
332,166,154672,2,0,P|346:173|361:176,1,31.8750012159348,2|0,2:2|0:0,0:0:0:0:
445,168,154935,2,0,P|458:159|469:147,1,31.8750012159348,2|0,2:2|0:0,0:0:0:0:
494,74,155198,54,0,P|493:58|488:42,3,31.8750012159348,2|0|0|0,2:2|0:0|0:0|0:0,0:0:0:0:
395,59,155725,2,0,P|395:74|400:90,3,31.8750012159348,2|0|0|0,2:2|0:0|0:0|0:0,0:0:0:0:
445,168,156251,5,2,2:2:0:0:
448,178,156383,1,2,2:2:0:0:
450,188,156514,1,2,2:2:0:0:
450,199,156646,1,2,2:2:0:0:
449,209,156777,1,2,2:2:0:0:
446,219,156909,1,2,2:2:0:0:
441,229,157041,2,0,P|430:240|416:249,1,31.8750012159348,2|0,2:2|0:0,0:0:0:0:
313,237,157304,6,0,P|330:259|334:306,1,72.2500013780594,6|0,3:2|3:2,0:0:0:0:
291,353,157698,2,0,P|301:326|340:299,1,72.2500013780594,2|0,2:2|0:0,0:0:0:0:
446,318,158093,2,0,P|463:313|477:302,1,36.1250006890297,2|8,3:2|1:2,0:0:0:0:
367,316,158356,2,0,P|350:311|335:300,2,36.1250006890297,2|8|0,3:2|1:2|3:2,0:0:0:0:
218,330,158883,1,12,1:2:0:0:
69,345,159146,2,0,P|84:335|95:321,1,36.1250006890297,2|8,3:2|1:2,0:0:0:0:
201,240,159409,54,0,P|185:248|125:234,1,72.2500013780594,6|0,3:2|3:2,0:0:0:0:
98,184,159804,2,0,P|113:193|131:252,1,72.2500013780594,2|0,2:2|0:0,0:0:0:0:
91,343,160198,2,0,P|92:360|99:377,1,36.1250006890297,2|8,3:2|1:2,0:0:0:0:
107,265,160462,2,0,P|118:251|133:241,2,36.1250006890297,2|8|0,3:2|1:2|3:2,0:0:0:0:
211,214,160988,2,0,P|240:196|257:157,1,72.2500013780594,14|0,1:2|3:2,0:0:0:0:
253,77,161383,1,8,1:2:0:0:
253,69,161514,6,0,P|268:36|298:17,1,72.2500013780594,6|0,3:2|3:2,0:0:0:0:
428,18,162041,2,0,P|457:37|472:69,1,72.2500013780594,10|0,1:2|3:2,0:0:0:0:
477,159,162435,1,8,1:2:0:0:
470,161,162567,2,0,P|450:167|432:167,1,36.1250006890297,2|8,3:2|1:2,0:0:0:0:
334,225,162830,2,0,P|354:231|372:231,1,36.1250006890297,2|0,3:2|0:0,0:0:0:0:
454,292,163093,2,0,P|434:298|416:298,1,36.1250006890297,14|0,1:2|0:0,0:0:0:0:
354,360,163356,2,0,P|374:366|392:366,1,36.1250006890297,2|8,3:2|1:2,0:0:0:0:
284,301,163620,6,0,B|260:290|235:293|214:304|214:304|192:316|166:316|144:306,1,144.500002756119,6|8,3:2|1:2,0:0:0:0:
257,376,164409,2,0,P|280:384|301:384,1,36.1250006890297,2|8,3:2|1:2,0:0:0:0:
179,230,164672,2,0,P|156:222|135:222,2,36.1250006890297,6|8|0,3:2|1:2|3:2,0:0:0:0:
77,384,165198,53,14,1:2:0:0:
49,309,165330,1,8,3:2:0:0:
62,230,165462,2,0,P|65:212|59:188,1,36.1250006890297,8|0,1:2|0:0,0:0:0:0:
12,123,165725,6,0,B|32:107|57:102|80:107|80:107|105:113|130:106|148:91,1,144.500002756119,6|8,3:2|1:2,0:0:0:0:
47,15,166514,1,0,3:2:0:0:
53,19,166646,1,8,1:2:0:0:
60,22,166777,2,0,P|82:27|99:26,2,36.1250006890297,2|8|0,3:2|1:2|3:2,0:0:0:0:
191,5,167172,1,2,2:2:0:0:
198,4,167304,2,0,P|216:4|233:8,1,36.1250006890297,12|0,1:2|0:0,0:0:0:0:
332,34,167567,2,0,P|349:38|367:38,1,36.1250006890297,2|8,3:2|1:2,0:0:0:0:
479,8,167830,6,0,B|467:31|468:56|478:78|478:78|488:101|487:126|476:147,1,144.500002756119,6|8,3:2|1:2,0:0:0:0:
341,207,168620,2,0,P|358:203|382:205,1,36.1250006890297,2|8,3:2|1:2,0:0:0:0:
495,230,168883,2,0,P|478:234|454:232,2,36.1250006890297,2|8|0,3:2|1:2|3:2,0:0:0:0:
277,266,169409,2,0,P|259:302|259:339,1,72.2500013780594,14|0,1:2|3:2,0:0:0:0:
368,369,169804,1,8,1:2:0:0:
375,364,169935,54,0,P|392:327|392:290,2,72.2500013780594,6|0|8,3:2|3:2|1:2,0:0:0:0:
163,294,170725,2,0,P|180:296|197:304,1,36.1250006890297,0|8,3:2|1:2,0:0:0:0:
288,374,170988,2,0,P|270:371|253:363,2,36.1250006890297,0|8|0,3:2|1:2|3:2,0:0:0:0:
85,308,171514,1,12,1:2:0:0:
215,203,171777,1,2,3:2:0:0:
206,197,171909,1,10,1:2:0:0:
196,193,172041,6,0,P|162:184|113:192,2,72.2500013780594,6|0|8,3:2|3:2|1:2,0:0:0:0:
28,126,172830,2,0,P|49:131|72:129,1,36.1250006890297,0|8,3:2|1:2,0:0:0:0:
168,81,173093,2,0,P|147:76|124:78,2,36.1250006890297,6|8|0,3:2|1:2|3:2,0:0:0:0:
16,18,173620,5,12,1:2:0:0:
89,13,173751,1,8,3:2:0:0:
162,8,173883,2,0,L|203:5,1,36.1250006890297,8|0,1:2|0:0,0:0:0:0:
320,122,174146,5,14,1:2:0:0:
235,128,174409,1,2,3:2:0:0:
368,193,174672,1,10,1:2:0:0:
452,187,174935,1,2,3:2:0:0:
282,198,175198,2,0,L|287:285,1,85,10|0,1:2|3:2,0:0:0:0:
406,117,175725,2,0,L|401:30,1,85,10|0,1:2|3:2,0:0:0:0:
235,128,176251,6,0,L|322:123,1,85,10|0,1:2|3:2,0:0:0:0:
160,92,176777,1,10,1:2:0:0:
166,176,177041,1,2,3:2:0:0:
6,144,177304,2,0,L|91:140,1,85,10|0,1:2|3:2,0:0:0:0:
325,207,177830,2,0,L|240:211,1,85,10|0,1:2|3:2,0:0:0:0:
96,223,178356,5,10,1:2:0:0:
12,229,178620,1,2,3:2:0:0:
18,313,178883,1,10,1:2:0:0:
102,307,179146,1,2,3:2:0:0:
186,301,179409,2,0,L|181:216,1,85,10|0,1:2|3:2,0:0:0:0:
271,294,179935,53,10,1:2:0:0:
355,288,180198,1,2,3:2:0:0:
265,210,180462,1,10,1:2:0:0:
349,204,180725,1,2,3:2:0:0:
259,126,180988,1,10,1:2:0:0:
343,120,181251,1,2,3:2:0:0:
174,133,181514,6,0,L|178:217,1,85,10|0,1:2|3:2,0:0:0:0:
434,197,182041,2,0,L|429:112,1,85,10|0,1:2|3:2,0:0:0:0:
438,281,182567,5,14,1:2:0:0:
349,204,182830,1,2,3:2:0:0:
272,293,183093,1,10,1:2:0:0:
183,216,183356,1,2,3:2:0:0:
21,309,183619,2,0,L|105:304,1,85,10|0,1:2|3:2,0:0:0:0:
94,138,184146,2,0,L|10:143,1,85,10|0,1:2|3:2,0:0:0:0:
261,128,184672,54,0,L|345:123,1,85,10|0,1:2|3:2,0:0:0:0:
511,110,185198,1,10,1:2:0:0:
422,33,185462,1,2,3:2:0:0:
434,199,185725,2,0,L|439:283,1,85,10|0,1:2|3:2,0:0:0:0:
273,295,186251,2,0,L|268:211,1,85,10|0,1:2|3:2,0:0:0:0:
141,102,186777,5,10,1:2:0:0:
24,111,187041,1,2,3:2:0:0:
33,228,187304,1,10,1:2:0:0:
150,219,187567,1,2,3:2:0:0:
159,336,187830,2,0,L|96:280,1,85,10|0,1:2|3:2,0:0:0:0:
203,157,188356,5,10,1:2:0:0:
267,214,188619,1,2,3:2:0:0:
221,75,188883,1,10,1:2:0:0:
140,101,189146,1,2,3:2:0:0:
284,131,189409,1,10,1:2:0:0:
302,48,189672,1,2,3:2:0:0:
140,101,189935,2,0,L|202:156,1,85,10|0,1:2|3:2,0:0:0:0:
365,106,190462,5,10,1:2:0:0:
333,77,190593,1,8,3:2:0:0:
302,48,190725,2,0,B|253:5|253:5|260:30,1,85,8|2,1:2|2:2,0:0:0:0:
0,96,199672,6,0,P|57:71|131:83,1,127.5,2|0,2:2|0:0,0:0:0:0:
193,124,200198,1,2,2:2:0:0:
223,200,200330,1,2,2:2:0:0:
219,273,200462,1,2,2:2:0:0:
197,317,200593,1,2,2:2:0:0:
172,342,200725,1,2,2:2:0:0:
149,354,200856,1,2,2:2:0:0:
132,356,200988,6,0,P|81:355|30:330,1,95.6250036478044,6|0,2:2|0:0,0:0:0:0:
223,200,201514,6,0,P|275:201|323:224,1,106.25,6|8,3:2|1:2,0:0:0:0:
434,380,201908,1,0,0:0:0:0:
428,373,202040,2,0,P|407:340|399:306,1,53.125,0|0,3:2|3:2,0:0:0:0:
451,207,202303,1,10,1:2:0:0:
392,254,202435,1,2,2:2:0:0:
323,224,202566,6,0,P|297:177|294:125,1,106.25,2|8,3:2|1:2,0:0:0:0:
131,7,202961,1,0,0:0:0:0:
138,13,203092,2,0,P|163:59|166:111,1,106.25,2|8,3:2|1:2,0:0:0:0:
6,229,203619,6,0,P|52:203|104:200,1,106.25,6|8,3:2|1:2,0:0:0:0:
154,363,204014,2,0,P|109:335|79:291,1,106.25,2|0,2:2|3:2,0:0:0:0:
194,221,204408,2,0,P|185:246|172:269,1,53.125,10|0,1:2|0:0,0:0:0:0:
310,373,204671,6,0,P|292:353|271:269,1,106.25,2|8,3:2|1:2,0:0:0:0:
381,129,205066,1,0,0:0:0:0:
372,129,205198,2,0,P|324:150|290:191,1,106.25,2|8,3:2|1:2,0:0:0:0:
485,186,205724,6,0,B|474:171|470:153|473:136|473:136|473:136|473:136|476:117|471:99|461:86,2,106.25,6|8|0,3:2|1:2|3:2,0:0:0:0:
402,39,206514,1,10,1:2:0:0:
386,32,206645,1,2,2:2:0:0:
369,29,206777,6,0,P|339:28|316:34,1,53.125,2|0,3:2|0:0,0:0:0:0:
251,80,207040,2,0,P|235:105|228:128,1,53.125,10|0,1:2|0:0,0:0:0:0:
223,209,207303,2,0,P|215:234|200:256,1,53.125,2|0,3:2|3:2,0:0:0:0:
135,302,207566,2,0,P|109:308|82:306,1,53.125,10|0,1:2|0:0,0:0:0:0:
208,340,207829,6,0,B|225:332|243:331|260:335|260:335|278:338|296:336|312:330,2,106.25,6|8|0,3:2|1:2|3:2,0:0:0:0:
370,280,208619,5,10,1:2:0:0:
369,204,208750,1,2,2:2:0:0:
368,128,208882,2,0,L|366:69,1,53.125,6|0,3:2|0:0,0:0:0:0:
242,0,209145,2,0,L|240:59,1,53.125,8|0,1:2|0:0,0:0:0:0:
46,111,209408,5,14,1:2:0:0:
143,82,209540,1,8,3:2:0:0:
119,180,209671,1,10,1:2:0:0:
216,151,209803,1,8,3:2:0:0:
192,249,209935,6,0,P|163:272|96:280,1,106.25,6|8,3:2|1:2,0:0:0:0:
26,154,210329,1,0,0:0:0:0:
31,160,210461,2,0,P|64:174|97:174,1,53.125,0|0,3:2|3:2,0:0:0:0:
234,128,210724,1,10,1:2:0:0:
168,82,210856,1,2,2:2:0:0:
89,82,210987,6,0,P|54:68|16:10,1,106.25,2|8,3:2|1:2,0:0:0:0:
168,82,211382,1,0,0:0:0:0:
171,73,211514,2,0,P|200:50|269:45,1,106.25,2|8,3:2|1:2,0:0:0:0:
134,157,212040,6,0,P|139:193|108:255,1,106.25,6|8,3:2|1:2,0:0:0:0:
0,362,212435,2,0,P|29:339|98:335,1,106.25,2|0,2:2|3:2,0:0:0:0:
197,351,212829,2,0,P|181:330|172:306,1,53.125,10|0,1:2|0:0,0:0:0:0:
280,193,213092,6,0,P|264:214|257:298,1,106.25,2|8,3:2|1:2,0:0:0:0:
350,152,213487,1,0,0:0:0:0:
359,149,213619,2,0,P|411:148|457:173,1,106.25,2|8,3:2|1:2,0:0:0:0:
393,333,214145,6,0,B|399:316|398:297|391:282|391:282|391:281|391:281|384:264|384:246|390:230,2,106.25,6|8|0,3:2|1:2|3:2,0:0:0:0:
457,173,214935,1,10,1:2:0:0:
423,98,215066,1,2,2:2:0:0:
342,78,215198,6,0,P|315:79|288:86,1,53.125,2|0,3:2|0:0,0:0:0:0:
153,122,215461,2,0,P|180:121|207:114,1,53.125,10|0,1:2|0:0,0:0:0:0:
341,68,215724,2,0,P|314:68|289:76,1,53.125,2|0,3:2|3:2,0:0:0:0:
153,131,215987,2,0,P|180:129|206:124,1,53.125,10|0,1:2|0:0,0:0:0:0:
53,64,216250,6,0,B|62:80|64:98|60:115|60:115|60:116|60:116|55:134|58:152|67:167,2,106.25,6|8|0,3:2|1:2|3:2,0:0:0:0:
138,212,217040,5,10,1:2:0:0:
162,238,217171,1,2,2:2:0:0:
169,272,217303,2,0,P|166:309|157:328,1,53.125,6|0,3:2|0:0,0:0:0:0:
53,384,217566,2,0,P|56:347|65:328,1,53.125,10|0,1:2|0:0,0:0:0:0:
236,384,217829,5,14,1:2:0:0:
295,291,217961,1,8,3:2:0:0:
354,384,218092,1,10,1:2:0:0:
413,291,218224,1,8,3:2:0:0:
472,384,218356,6,0,B|506:344|506:344|513:290,1,106.25,6|8,3:2|1:2,0:0:0:0:
495,106,218750,1,0,0:0:0:0:
496,114,218882,2,0,L|502:170,1,53.125,0|0,3:2|3:2,0:0:0:0:
413,291,219145,1,10,1:2:0:0:
457,229,219277,1,2,2:2:0:0:
394,184,219408,6,0,L|280:197,1,106.25,2|8,3:2|1:2,0:0:0:0:
90,219,219803,1,0,0:0:0:0:
99,218,219935,2,0,L|204:205,1,106.25,2|8,3:2|1:2,0:0:0:0:
278,18,220461,6,0,L|173:31,1,106.25,6|8,3:2|1:2,0:0:0:0:
204,204,220856,2,0,L|245:106,1,106.25,2|0,2:2|3:2,0:0:0:0:
110,88,221250,2,0,L|142:131,1,53.125,10|0,1:2|0:0,0:0:0:0:
27,272,221514,6,0,L|69:174,1,106.25,2|8,3:2|1:2,0:0:0:0:
248,96,221908,1,0,0:0:0:0:
245,105,222040,2,0,L|202:202,1,106.25,2|8,3:2|1:2,0:0:0:0:
279,367,222566,6,0,B|298:324|298:324|304:322|304:322|325:274,2,106.25,6|8|0,3:2|1:2|3:2,0:0:0:0:
388,200,223356,1,10,1:2:0:0:
378,187,223487,1,2,2:2:0:0:
369,174,223619,6,0,L|338:130,1,53.125,2|0,3:2|0:0,0:0:0:0:
289,60,223882,2,0,L|245:90,1,53.125,10|0,1:2|0:0,0:0:0:0:
175,140,224145,2,0,L|205:183,1,53.125,2|0,3:2|3:2,0:0:0:0:
255,254,224408,2,0,L|298:223,1,53.125,10|0,1:2|0:0,0:0:0:0:
451,122,224671,6,0,B|408:153|408:153|402:151|402:151|364:179,2,106.25,6|8|0,3:2|1:2|3:2,0:0:0:0:
298,223,225461,5,10,1:2:0:0:
232,267,225592,1,2,2:2:0:0:
160,231,225724,2,0,L|111:209,1,53.125,6|0,3:2|0:0,0:0:0:0:
53,94,225987,2,0,L|101:115,1,53.125,8|0,1:2|0:0,0:0:0:0:
35,264,226250,5,14,1:2:0:0:
111,209,226382,1,8,3:2:0:0:
121,302,226514,1,10,1:2:0:0:
197,247,226645,1,8,3:2:0:0:
206,340,226777,6,0,B|256:320|256:320|287:269,1,106.25,6|8,3:2|1:2,0:0:0:0:
240,98,227171,1,0,0:0:0:0:
245,105,227303,2,0,L|279:157,1,53.125,0|0,3:2|3:2,0:0:0:0:
283,275,227566,1,10,1:2:0:0:
318,211,227698,1,2,2:2:0:0:
352,146,227829,6,0,L|458:151,1,106.25,2|8,3:2|1:2,0:0:0:0:
436,342,228224,1,0,0:0:0:0:
426,341,228356,2,0,L|319:336,1,106.25,2|8,3:2|1:2,0:0:0:0:
135,208,228882,6,0,L|241:212,1,106.25,6|8,3:2|1:2,0:0:0:0:
244,37,229277,2,0,L|187:126,1,106.25,2|0,2:2|3:2,0:0:0:0:
312,169,229671,2,0,L|288:122,1,53.125,10|0,1:2|0:0,0:0:0:0:
138,31,229935,6,0,L|186:125,1,106.25,2|8,3:2|1:2,0:0:0:0:
288,318,230329,1,0,0:0:0:0:
284,309,230461,2,0,L|236:215,1,106.25,2|8,3:2|1:2,0:0:0:0:
85,142,230987,6,0,B|107:186|107:186|116:190|116:190|137:232,2,106.25,6|8|0,3:2|1:2|3:2,0:0:0:0:
175,296,231777,1,10,1:2:0:0:
139,361,231908,1,2,2:2:0:0:
65,363,232040,6,0,L|9:361,1,53.125,2|0,3:2|0:0,0:0:0:0:
9,240,232303,2,0,L|65:242,1,53.125,10|0,1:2|0:0,0:0:0:0:
65,352,232566,2,0,L|12:351,1,53.125,2|0,3:2|3:2,0:0:0:0:
8,250,232829,2,0,L|62:252,1,53.125,10|0,1:2|0:0,0:0:0:0:
212,308,233092,6,0,B|214:260|214:260|218:255|218:255|220:204,2,106.25,6|8|0,3:2|1:2|3:2,0:0:0:0:
226,107,233882,5,10,1:2:0:0:
171,101,234014,1,2,2:2:0:0:
117,95,234145,2,0,L|63:104,1,53.125,6|0,3:2|0:0,0:0:0:0:
0,0,234408,2,0,L|54:9,1,53.125,10|0,1:2|0:0,0:0:0:0:
226,107,234671,5,14,1:2:0:0:
227,215,234803,1,8,3:2:0:0:
321,161,234935,1,10,1:2:0:0:
322,271,235066,1,8,3:2:0:0:
415,216,235198,6,0,L|413:107,2,106.25,6|8|0,3:2|1:2|3:2,0:0:0:0:
415,227,235856,1,0,3:2:0:0:
350,329,235987,2,0,L|350:265,1,53.125,8|0,1:2|0:0,0:0:0:0:
245,140,236250,6,0,B|286:162|286:162|288:169|288:169|337:196,1,106.25,2|8,3:2|1:2,0:0:0:0:
221,319,236645,2,0,B|220:267|220:267|225:262|225:262|224:214,1,106.25,2|0,2:2|3:2,0:0:0:0:
342,272,237040,2,0,B|344:272|297:300,1,53.125,10|0,1:2|0:0,0:0:0:0:
412,232,237303,5,6,3:2:0:0:
412,232,237566,1,8,1:2:0:0:
412,232,237829,6,0,B|413:231|366:259,1,53.125,2|8,3:2|1:2,0:0:0:0:
222,342,238092,2,0,B|223:342|176:314,1,53.125,0|8,2:2|1:2,0:0:0:0:
0,222,238356,5,6,3:2:0:0:
0,222,238619,1,8,1:2:0:0:
116,214,238882,5,10,3:2:0:0:
100,106,239014,1,8,1:2:0:0:
107,215,239145,1,10,3:2:0:0:
109,105,239277,1,8,1:2:0:0:
219,208,239408,6,0,P|273:220|327:207,2,106.25,6|8|0,3:2|1:2|3:2,0:0:0:0:
212,204,240066,1,0,3:2:0:0:
217,320,240198,2,0,P|246:314|268:304,1,53.125,8|0,1:2|0:2,0:0:0:0:
404,162,240461,6,0,P|455:151|506:163,1,106.25,2|8,3:2|1:2,0:0:0:0:
350,250,240856,2,0,P|314:210|299:160,1,106.25,2|0,2:2|3:2,0:0:0:0:
453,252,241250,2,0,P|447:278|432:305,1,53.125,10|0,1:2|0:0,0:0:0:0:
253,344,241514,5,6,3:2:0:0:
253,344,241777,1,8,1:2:0:0:
253,344,242040,6,0,L|266:288,1,53.125,2|8,3:2|1:2,0:0:0:0:
299,160,242303,2,0,L|286:104,1,53.125,0|8,2:2|1:2,0:0:0:0:
153,0,242566,5,6,3:2:0:0:
153,0,242829,1,8,1:2:0:0:
185,87,243092,5,10,3:2:0:0:
91,80,243224,1,8,1:2:0:0:
184,96,243356,1,8,3:2:0:0:
92,71,243487,1,8,1:2:0:0:
31,148,243619,6,0,P|34:194|78:249,2,106.25,6|8|0,3:2|1:2|3:2,0:0:0:0:
34,140,244277,1,0,3:2:0:0:
84,28,244408,2,0,P|91:53|91:80,1,53.125,8|0,1:2|0:2,0:0:0:0:
152,275,244671,6,0,B|188:279|218:268|237:250|237:250|227:252|216:252|206:249,1,106.25,2|8,3:2|1:2,0:0:0:0:
188,105,245066,2,0,B|166:134|161:165|167:191|167:191|170:181|175:171|183:164,1,106.25,2|0,2:2|3:2,0:0:0:0:
282,176,245461,2,0,B|277:166|252:159|252:159|258:166|264:176|260:171,1,53.125,10|0,1:2|0:0,0:0:0:0:
253,348,245724,5,6,3:2:0:0:
253,348,245987,1,8,1:2:0:0:
253,348,246250,6,0,L|302:327,1,53.125,2|8,3:2|1:2,0:0:0:0:
464,266,246514,2,0,L|415:287,1,53.125,0|8,2:2|1:2,0:0:0:0:
260,188,246777,5,6,3:2:0:0:
260,188,247040,1,8,1:2:0:0:
371,202,247303,5,10,3:2:0:0:
376,94,247435,1,8,1:2:0:0:
362,201,247566,1,8,3:2:0:0:
385,95,247698,1,8,1:2:0:0:
475,217,247829,54,0,L|461:304,2,85,6|8|0,3:2|1:2|3:2,0:0:0:0:
476,209,248486,1,0,3:2:0:0:
460,308,248618,1,8,1:2:0:0:
243,297,248881,54,0,L|229:210,2,85,2|8|0,3:2|1:2|3:2,0:0:0:0:
244,305,249538,1,0,3:2:0:0:
228,206,249670,1,8,1:2:0:0:
352,293,249934,54,0,L|338:380,2,85,6|8|0,3:2|1:2|3:2,0:0:0:0:
353,285,250591,1,0,3:2:0:0:
337,384,250723,1,8,1:2:0:0:
148,376,250986,54,0,L|134:289,2,85,2|8|0,3:2|1:2|3:2,0:0:0:0:
149,384,251643,1,0,3:2:0:0:
133,285,251775,1,8,1:2:0:0:
27,177,252039,6,0,B|68:165|68:165|110:174,2,85,6|8|0,3:2|1:2|3:2,0:0:0:0:
20,181,252697,1,0,3:2:0:0:
119,177,252829,1,8,1:2:0:0:
135,9,253092,6,0,B|143:50|143:50|172:81,2,85,2|8|0,3:2|1:2|3:2,0:0:0:0:
133,0,253750,1,0,3:2:0:0:
179,88,253882,1,8,1:2:0:0:
340,81,254144,6,0,B|369:50|369:50|377:9,2,85,6|8|0,3:2|1:2|3:2,0:0:0:0:
333,88,254802,1,0,3:2:0:0:
379,0,254934,1,8,1:2:0:0:
389,192,255197,6,0,B|431:184,1,42.5,6|0,3:2|0:0,0:0:0:0:
512,117,255460,2,0,B|470:109,1,42.5,8|0,1:2|0:0,0:0:0:0:
389,192,255723,5,12,1:2:0:0:
491,234,255855,1,8,3:2:0:0:
389,276,255986,1,8,1:2:0:0:
491,318,256118,1,8,3:2:0:0:
389,360,256250,54,0,L|337:356,1,42.5,6|0,3:2|0:0,0:0:0:0:
261,285,256513,2,0,L|313:281,1,42.5,8|0,1:2|0:0,0:0:0:0:
224,360,256776,2,0,L|172:356,1,42.5,0|0,3:2|3:2,0:0:0:0:
261,285,257039,1,8,1:2:0:0:
98,348,257302,6,0,L|102:296,1,42.5,2|0,3:2|0:0,0:0:0:0:
25,215,257565,2,0,L|29:267,1,42.5,8|0,1:2|0:0,0:0:0:0:
113,179,257829,2,0,L|117:127,1,42.5,0|0,3:2|3:2,0:0:0:0:
25,215,258092,1,8,1:2:0:0:
5,68,258355,6,0,L|57:72,1,42.5,6|0,3:2|0:0,0:0:0:0:
145,0,258618,2,0,L|93:4,1,42.5,8|0,1:2|0:0,0:0:0:0:
192,82,258881,2,0,L|244:86,1,42.5,0|0,3:2|3:2,0:0:0:0:
145,0,259144,1,8,1:2:0:0:
319,67,259407,54,0,L|315:119,1,42.5,2|0,3:2|0:0,0:0:0:0:
393,205,259671,2,0,L|389:153,1,42.5,8|0,1:2|0:0,0:0:0:0:
307,245,259934,2,0,L|303:297,1,42.5,0|0,3:2|3:2,0:0:0:0:
393,205,260197,1,8,1:2:0:0:
341,368,260460,6,0,L|299:365,1,42.5,6|0,3:2|0:0,0:0:0:0:
412,303,260723,2,0,L|454:299,1,42.5,8|0,1:2|0:0,0:0:0:0:
351,224,260986,2,0,L|309:221,1,42.5,0|0,3:2|3:2,0:0:0:0:
411,302,261250,1,8,1:2:0:0:
417,122,261513,6,0,L|413:174,1,42.5,2|0,3:2|0:0,0:0:0:0:
330,60,261776,2,0,L|326:8,1,42.5,8|0,1:2|0:0,0:0:0:0:
245,111,262039,2,0,L|241:163,1,42.5,0|0,3:2|3:2,0:0:0:0:
330,60,262302,1,8,1:2:0:0:
154,21,262565,54,0,L|112:25,1,42.5,6|0,3:2|0:0,0:0:0:0:
202,107,262829,2,0,L|245:111,1,42.5,8|0,1:2|0:0,0:0:0:0:
149,188,263092,2,0,L|107:192,1,42.5,0|0,3:2|3:2,0:0:0:0:
202,107,263355,1,8,1:2:0:0:
207,271,263618,6,0,L|203:313,1,42.5,6|0,3:2|0:0,0:0:0:0:
110,384,263881,2,0,L|106:341,1,42.5,8|0,1:2|0:0,0:0:0:0:
0,278,264144,5,12,1:2:0:0:
97,240,264276,1,8,3:2:0:0:
0,202,264407,1,8,1:2:0:0:
97,164,264539,1,8,3:2:0:0:
0,126,264671,6,0,P|10:101|38:76,1,46.7500014266968,6|0,3:2|0:0,0:0:0:0:
115,23,264934,2,0,P|125:48|153:73,1,46.7500014266968,8|0,1:2|0:0,0:0:0:0:
258,92,265197,1,0,3:2:0:0:
258,92,265329,1,0,3:2:0:0:
205,0,265460,1,8,1:2:0:0:
168,207,265723,6,0,P|190:203|213:207,1,46.7500014266968,2|0,3:2|0:0,0:0:0:0:
303,283,265986,2,0,P|280:279|257:283,1,46.7500014266968,8|0,1:2|0:0,0:0:0:0:
207,359,266250,1,0,3:2:0:0:
207,359,266381,1,0,3:2:0:0:
139,295,266513,1,8,1:2:0:0:
384,307,266776,6,0,P|387:284|384:261,1,46.7500014266968,6|0,3:2|0:0,0:0:0:0:
448,154,267039,2,0,P|451:177|448:200,1,46.7500014266968,8|0,1:2|0:0,0:0:0:0:
289,229,267302,1,0,3:2:0:0:
289,229,267434,1,0,3:2:0:0:
357,167,267565,1,8,1:2:0:0:
360,379,267829,6,0,P|386:384|408:381,1,46.7500014266968,2|0,3:2|0:0,0:0:0:0:
512,323,268092,2,0,P|486:328|464:325,1,46.7500014266968,10|0,1:2|0:0,0:0:0:0:
357,269,268355,2,0,P|383:264|405:267,1,46.7500014266968,2|0,3:2|3:2,0:0:0:0:
512,216,268618,2,0,P|486:211|464:214,1,46.7500014266968,10|0,1:2|0:0,0:0:0:0:
356,140,268881,38,0,P|382:145|450:109,1,93.5000028533936,6|8,3:2|1:2,0:0:0:0:
265,127,269407,1,0,3:2:0:0:
249,138,269539,1,0,3:2:0:0:
299,209,269671,1,8,1:2:0:0:
185,15,269934,6,0,P|211:10|279:46,1,93.5000028533936,2|8,3:2|1:2,0:0:0:0:
97,54,270460,1,0,3:2:0:0:
89,37,270592,1,0,3:2:0:0:
55,144,270723,1,8,1:2:0:0:
223,193,270986,6,0,P|214:167|149:127,1,93.5000028533936,6|8,3:2|1:2,0:0:0:0:
323,106,271513,2,0,P|299:105|278:114,1,46.7500014266968,2|0,3:2|3:2,0:0:0:0:
144,212,271776,2,0,P|122:220|99:220,1,46.7500014266968,10|0,1:2|0:0,0:0:0:0:
0,127,272039,2,0,P|26:132|94:95,1,93.5000028533936,6|8,3:2|1:2,0:0:0:0:
0,278,272565,53,14,1:2:0:0:
54,367,272697,1,8,3:2:0:0:
105,276,272829,1,8,1:2:0:0:
159,365,272960,1,8,3:2:0:0:
210,274,273092,6,0,P|234:266|255:266,1,46.7500014266968,6|0,3:2|0:0,0:0:0:0:
363,335,273355,2,0,P|339:343|318:343,1,46.7500014266968,8|0,1:2|0:0,0:0:0:0:
308,190,273618,1,0,3:2:0:0:
308,190,273750,1,0,3:2:0:0:
255,266,273881,1,8,1:2:0:0:
398,262,274144,6,0,P|390:238|390:217,1,46.7500014266968,2|0,3:2|0:0,0:0:0:0:
300,144,274407,2,0,P|308:168|308:189,1,46.7500014266968,8|0,1:2|0:0,0:0:0:0:
473,186,274671,1,0,3:2:0:0:
473,186,274802,1,0,3:2:0:0:
498,288,274934,1,8,1:2:0:0:
376,98,275197,54,0,P|399:97|421:90,1,46.7500014266968,6|0,3:2|0:0,0:0:0:0:
284,26,275460,2,0,P|260:26|238:33,1,46.7500014266968,8|0,1:2|0:0,0:0:0:0:
189,134,275723,1,0,3:2:0:0:
189,134,275855,1,0,3:2:0:0:
279,132,275986,1,8,1:2:0:0:
82,29,276250,38,0,P|105:29|127:36,1,46.7500014266968,2|0,3:2|0:0,0:0:0:0:
234,141,276513,2,0,P|211:141|189:134,1,46.7500014266968,10|0,1:2|0:0,0:0:0:0:
45,175,276776,6,0,P|56:154|74:139,1,46.7500014266968,2|0,3:2|3:2,0:0:0:0:
217,98,277039,2,0,P|206:119|188:134,1,46.7500014266968,10|0,1:2|0:0,0:0:0:0:
198,287,277302,22,0,P|176:280|105:307,2,93.5000028533936,6|8|0,3:2|1:2|3:2,0:0:0:0:
208,294,277960,1,0,3:2:0:0:
105,310,278092,1,8,1:2:0:0:
358,359,278355,6,0,P|316:379|271:370,1,93.5000028533936,2|8,3:2|1:2,0:0:0:0:
413,289,278881,1,0,3:2:0:0:
427,298,279013,1,0,3:2:0:0:
447,384,279144,1,8,1:2:0:0:
279,250,279407,6,0,P|313:254|341:249,1,46.7500014266968,6|0,3:2|0:0,0:0:0:0:
426,179,279671,2,0,P|392:183|364:178,1,46.7500014266968,8|0,1:2|0:0,0:0:0:0:
283,103,279934,2,0,P|317:107|345:102,1,46.7500014266968,0|0,3:2|3:2,0:0:0:0:
209,177,280197,1,8,1:2:0:0:
436,36,280460,54,0,P|402:32|374:37,1,46.7500014266968,6|0,3:2|0:0,0:0:0:0:
283,103,280723,2,0,P|249:107|221:102,1,46.7500014266968,8|0,1:2|0:0,0:0:0:0:
102,34,280986,5,12,1:2:0:0:
133,136,281118,1,8,3:2:0:0:
204,2,281250,1,8,1:2:0:0:
236,105,281381,1,8,3:2:0:0:
