osu file format v14

[General]
AudioFilename: audio.mp3
AudioLeadIn: 0
PreviewTime: 100660
Countdown: 0
SampleSet: Soft
StackLeniency: 0.4
Mode: 0
LetterboxInBreaks: 0
WidescreenStoryboard: 0

[Editor]
Bookmarks: 13753,281381
DistanceSpacing: 1.6
BeatDivisor: 8
GridSize: 8
TimelineZoom: 1.4

[Metadata]
Title:Kanojo Kaku Katariki
TitleUnicode:彼女かく語りき
Artist:At the Garret x Kekkan Orgel
ArtistUnicode:At the Garret×欠陥オルゴール
Creator:Heratikus
Version:Eloquence
Source:
Tags:classical folk orchestral japanese female vocals vocalist gekijou no kemono 劇場の化物 kekkan orugooru 兎角Arle arlequin
BeatmapID:3046931
BeatmapSetID:1485927

[Difficulty]
HPDrainRate:5
CircleSize:4.8
OverallDifficulty:8.5
ApproachRate:9
SliderMultiplier:2
SliderTickRate:1

[Events]
//Background and Video events
0,0,"kanojokakukatariki.jpg",0,0
//Break Periods
//Storyboard Layer 0 (Background)
//Storyboard Layer 1 (Fail)
//Storyboard Layer 2 (Pass)
//Storyboard Layer 3 (Foreground)
//Storyboard Layer 4 (Overlay)
//Storyboard Sound Samples

[TimingPoints]
5726,526.315789473684,4,2,1,50,1,0
13753,-200,4,2,1,50,0,0
14082,-200,4,2,1,5,0,0
14148,-100,4,2,1,50,0,0
30726,-133.333333333333,4,2,1,50,0,0
30924,-133.333333333333,4,2,1,5,0,0
30990,-80,4,2,1,70,0,0
31976,-80,4,2,1,5,0,0
32042,-80,4,2,1,70,0,0
33029,-80,4,2,1,5,0,0
33095,-80,4,2,1,70,0,0
34345,-80,4,2,1,5,0,0
34411,-80,4,2,1,70,0,0
36450,-80,4,2,1,5,0,0
36516,-80,4,2,1,70,0,0
36976,-80,4,2,1,5,0,0
37042,-80,4,2,1,70,0,0
37503,-80,4,2,1,5,0,0
37569,-80,4,2,1,70,0,0
37766,-80,4,2,1,5,0,0
37832,-80,4,2,1,70,0,0
39608,-80,4,2,1,5,0,0
39674,-80,4,2,1,70,0,0
39871,-80,4,2,1,5,0,0
39937,-80,4,2,1,70,0,0
40661,-80,4,2,1,5,0,0
40726,-80,4,2,1,70,0,0
41187,-80,4,2,1,5,0,0
41253,-80,4,2,1,70,0,0
42766,-80,4,2,1,5,0,0
42832,-80,4,2,1,70,0,0
43292,-80,4,2,1,5,0,0
43358,-80,4,2,1,70,0,0
52042,526.315789473684,4,2,2,50,1,0
52042,-117.647058823529,4,2,2,50,0,0
85726,-111.111111111111,4,2,2,60,0,0
100726,-100,4,2,1,70,0,0
101120,-100,4,2,1,5,0,0
101252,-100,4,2,1,70,0,0
102041,-133.333333333333,4,2,1,60,0,0
102436,-133.333333333333,4,2,1,5,0,0
102568,-80,4,2,1,80,0,1
102765,-80,4,2,1,5,0,1
102831,-80,4,2,1,80,0,1
103028,-80,4,2,1,5,0,1
103094,-80,4,2,1,80,0,1
103818,-80,4,2,1,5,0,1
103884,-80,4,2,1,80,0,1
104344,-80,4,2,1,5,0,1
104410,-80,4,2,1,80,0,1
105923,-80,4,2,1,5,0,1
105989,-80,4,2,1,80,0,1
106449,-80,4,2,1,5,0,1
106515,-80,4,2,1,80,0,1
106976,-80,4,2,1,5,0,1
107041,-80,4,2,1,80,0,1
107239,-80,4,2,1,5,0,1
107305,-80,4,2,1,80,0,1
109081,-80,4,2,1,5,0,1
109147,-80,4,2,1,80,0,1
109344,-80,4,2,1,5,0,1
109410,-80,4,2,1,80,0,1
111186,-80,4,2,1,5,0,1
111252,-80,4,2,1,80,0,1
111449,-80,4,2,1,5,0,1
111515,-80,4,2,1,80,0,1
112239,-80,4,2,1,5,0,1
112305,-80,4,2,1,80,0,1
112765,-80,4,2,1,5,0,1
112831,-80,4,2,1,80,0,1
115397,-80,4,2,1,5,0,1
115463,-80,4,2,1,80,0,1
115660,-80,4,2,1,5,0,1
115726,-80,4,2,1,80,0,1
119410,-80,4,2,1,80,0,0
121515,-80,4,2,1,80,0,1
123620,526.315789473684,4,2,1,45,1,0
123620,-133.333333333333,4,2,1,45,0,0
132041,-142.857142857143,4,2,1,45,0,0
134146,-153.846153846154,4,2,1,45,0,0
136251,-142.857142857143,4,2,1,45,0,0
138356,-133.333333333333,4,2,1,45,0,0
140462,-133.333333333333,4,2,1,50,0,0
157304,-117.647058823529,4,2,2,60,0,0
174146,-100,4,2,1,50,0,0
190988,-166.666666666667,4,2,1,50,0,0
191646,-166.666666666667,4,2,1,5,0,0
191777,-166.666666666667,4,2,1,50,0,0
195856,-166.666666666667,4,2,1,5,0,0
195988,-166.666666666667,4,2,1,50,0,0
197962,-166.666666666667,4,2,1,5,0,0
198093,-166.666666666667,4,2,1,50,0,0
198356,-133.333333333333,4,2,1,50,0,0
199672,-100,4,2,1,70,0,0
200067,-100,4,2,1,5,0,0
200198,-100,4,2,1,70,0,0
200988,-133.333333333333,4,2,1,60,0,0
201383,-133.333333333333,4,2,1,5,0,0
201514,526.315789473684,4,2,1,80,1,1
201514,-80,4,2,1,80,0,1
201711,-80,4,2,1,5,0,1
201777,-80,4,2,1,80,0,1
201974,-80,4,2,1,5,0,1
202040,-80,4,2,1,80,0,1
202764,-80,4,2,1,5,0,1
202829,-80,4,2,1,80,0,1
203290,-80,4,2,1,5,0,1
203356,-80,4,2,1,80,0,1
204869,-80,4,2,1,5,0,1
204935,-80,4,2,1,80,0,1
205395,-80,4,2,1,5,0,1
205461,-80,4,2,1,80,0,1
205921,-80,4,2,1,5,0,1
205987,-80,4,2,1,80,0,1
206185,-80,4,2,1,5,0,1
206250,-80,4,2,1,80,0,1
208027,-80,4,2,1,5,0,1
208092,-80,4,2,1,80,0,1
208290,-80,4,2,1,5,0,1
208356,-80,4,2,1,80,0,1
210132,-80,4,2,1,5,0,1
210198,-80,4,2,1,80,0,1
210395,-80,4,2,1,5,0,1
210461,-80,4,2,1,80,0,1
211185,-80,4,2,1,5,0,1
211250,-80,4,2,1,80,0,1
211711,-80,4,2,1,5,0,1
211777,-80,4,2,1,80,0,1
214342,-80,4,2,1,5,0,1
214408,-80,4,2,1,80,0,1
214606,-80,4,2,1,5,0,1
214671,-80,4,2,1,80,0,1
218224,-80,4,2,1,80,0,0
218356,-80,4,2,1,80,0,1
218553,-80,4,2,1,5,0,1
218619,-80,4,2,1,80,0,1
218816,-80,4,2,1,5,0,1
218882,-80,4,2,1,80,0,1
219606,-80,4,2,1,5,0,1
219671,-80,4,2,1,80,0,1
220132,-80,4,2,1,5,0,1
220198,-80,4,2,1,80,0,1
221711,-80,4,2,1,5,0,1
221777,-80,4,2,1,80,0,1
222237,-80,4,2,1,5,0,1
222303,-80,4,2,1,80,0,1
222764,-80,4,2,1,5,0,1
222829,-80,4,2,1,80,0,1
223027,-80,4,2,1,5,0,1
223092,-80,4,2,1,80,0,1
224869,-80,4,2,1,5,0,1
224935,-80,4,2,1,80,0,1
225132,-80,4,2,1,5,0,1
225198,-80,4,2,1,80,0,1
226974,-80,4,2,1,5,0,1
227040,-80,4,2,1,80,0,1
227237,-80,4,2,1,5,0,1
227303,-80,4,2,1,80,0,1
228027,-80,4,2,1,5,0,1
228092,-80,4,2,1,80,0,1
228553,-80,4,2,1,5,0,1
228619,-80,4,2,1,80,0,1
231185,-80,4,2,1,5,0,1
231250,-80,4,2,1,80,0,1
231448,-80,4,2,1,5,0,1
231514,-80,4,2,1,80,0,1
235198,-80,4,2,1,80,0,0
237303,-80,4,2,1,80,0,1
239408,-80,4,2,1,80,0,0
241514,-80,4,2,1,80,0,1
243619,-80,4,2,1,80,0,0
245724,-80,4,2,1,80,0,1
247829,526.315789473684,4,2,1,60,1,0
247829,-100,4,2,1,60,0,0
264671,-80,4,2,1,65,0,0
267829,-100,4,2,1,65,0,0
268881,-80,4,2,1,65,0,0
271381,-80,4,2,1,5,0,0
271513,-100,4,2,1,65,0,0
272039,-80,4,2,1,65,0,0
272434,-80,4,2,1,5,0,0
272565,-80,4,2,1,65,0,0
276250,-90.9090909090909,4,2,1,65,0,0
276776,-100,4,2,1,65,0,0
277302,-80,4,2,1,65,0,0

[Colours]
Combo1 : 170,148,216
Combo2 : 221,210,170
Combo3 : 215,45,164
Combo4 : 215,182,68
Combo5 : 128,128,128
Combo6 : 62,102,164

[HitObjects]
443,384,13753,6,0,P|428:377|381:374,1,62.5,2|0,2:2|0:0,0:0:0:0:
361,382,14148,6,0,L|372:274,1,100,14|0,1:2|3:2,0:0:0:0:
445,139,14674,2,0,L|456:247,1,100,8|2,1:2|3:2,0:0:0:0:
371,282,15069,1,2,2:2:0:0:
288,237,15200,2,0,L|298:137,1,100,10|2,1:2|3:2,0:0:0:0:
196,284,15726,2,0,L|206:383,1,100,10|2,1:2|3:2,0:0:0:0:
0,360,16253,6,0,L|99:349,1,100,10|0,1:2|3:2,0:0:0:0:
250,257,16779,2,0,L|150:246,1,100,8|2,1:2|3:2,0:0:0:0:
89,176,17174,1,2,2:2:0:0:
150,105,17305,2,0,L|250:95,1,100,10|2,1:2|3:2,0:0:0:0:
457,180,17832,6,0,B|432:189|406:188|384:179|384:179|359:170|333:170|310:178,1,150,10|0,1:2|0:0,0:0:0:0:
342,367,18358,2,0,L|346:256,1,100,10|2,1:2|3:2,0:0:0:0:
422,98,18884,1,8,1:2:0:0:
463,272,19148,5,2,3:2:0:0:
424,348,19279,1,2,2:2:0:0:
342,367,19411,2,0,P|314:369|286:365,1,50,10|0,1:2|0:0,0:0:0:0:
187,252,19674,2,0,P|215:254|242:250,1,50,2|0,3:2|0:0,0:0:0:0:
214,384,19937,2,0,P|211:359|213:334,1,50,10|0,1:2|0:0,0:0:0:0:
321,227,20200,2,0,P|323:252|321:277,1,50,2|0,3:2|0:0,0:0:0:0:
211,176,20463,6,0,P|213:151|210:126,1,50,10|0,1:2|0:0,0:0:0:0:
302,95,20726,2,0,P|299:119|302:144,1,50,2|0,3:2|0:0,0:0:0:0:
160,127,20990,2,0,P|184:129|209:126,1,50,10|0,1:2|0:0,0:0:0:0:
351,144,21253,2,0,P|326:141|301:144,1,50,2|0,3:2|0:0,0:0:0:0:
218,236,21516,54,0,B|201:255|192:278|192:278|192:278|192:278|184:254|168:235,1,100,10|0,1:2|3:2,0:0:0:0:
80,190,21911,1,2,2:2:0:0:
84,290,22042,2,0,P|73:312|14:369,1,100,10|0,1:2|3:2,0:0:0:0:
39,99,22569,38,0,L|43:0,1,100,14|0,1:2|3:2,0:0:0:0:
137,136,23095,2,0,L|141:235,1,100,8|2,1:2|3:2,0:0:0:0:
220,300,23490,1,2,2:2:0:0:
300,238,23621,2,0,L|304:139,1,100,10|2,1:2|3:2,0:0:0:0:
399,0,24147,2,0,L|403:99,1,100,10|2,1:2|3:2,0:0:0:0:
221,56,24674,6,0,L|320:52,1,100,10|0,1:2|3:2,0:0:0:0:
451,156,25200,2,0,L|352:152,1,100,8|2,1:2|3:2,0:0:0:0:
289,230,25595,1,2,2:2:0:0:
350,309,25726,2,0,L|449:305,1,100,10|2,1:2|3:2,0:0:0:0:
289,384,26253,2,0,L|190:380,1,100,10|2,1:2|3:2,0:0:0:0:
245,197,26779,22,0,L|241:296,1,100,10|0,1:2|3:2,0:0:0:0:
93,370,27305,2,0,L|89:271,1,100,8|0,1:2|3:2,0:0:0:0:
86,165,27700,1,2,2:2:0:0:
147,80,27832,2,0,L|198:75,1,50,10|0,1:2|0:0,0:0:0:0:
268,179,28095,2,0,L|217:174,1,50,2|0,3:2|0:0,0:0:0:0:
289,67,28358,2,0,L|340:62,1,50,10|0,1:2|0:0,0:0:0:0:
404,191,28621,2,0,L|353:186,1,50,2|0,3:2|0:0,0:0:0:0:
440,51,28884,6,0,B|480:79|480:79|495:135,1,100,10|0,1:2|3:2,0:0:0:0:
318,196,29411,2,0,B|322:146|322:146|363:105,1,100,8|2,1:2|3:2,0:0:0:0:
493,128,29805,1,2,2:2:0:0:
505,229,29937,2,0,B|460:250|460:250|404:235,1,100,10|0,1:2|3:2,0:0:0:0:
318,196,30463,5,8,1:2:0:0:
420,157,30595,1,8,3:2:0:0:
505,229,30726,2,0,P|509:250|503:285,1,56.2500021457673,8|0,1:2|0:0,0:0:0:0:
444,342,30990,6,0,B|413:352|413:352|372:349,1,62.5,6|0,3:2|0:0,0:0:0:0:
262,319,31253,2,0,B|232:317|232:317|201:327,1,62.5,8|0,1:2|0:0,0:0:0:0:
79,384,31516,1,2,3:2:0:0:
118,324,31647,1,0,3:2:0:0:
90,257,31779,2,0,L|51:168,1,93.75,8|0,1:2|0:0,0:0:0:0:
26,83,32042,6,0,B|45:76|45:76|105:89,1,62.5,2|0,3:2|0:0,0:0:0:0:
206,124,32305,2,0,B|225:131|225:131|285:118,1,62.5,8|0,1:2|0:0,0:0:0:0:
389,51,32569,1,2,3:2:0:0:
351,121,32700,1,0,3:2:0:0:
393,189,32832,2,0,L|454:289,1,93.75,8|0,1:2|0:0,0:0:0:0:
425,365,33095,6,0,B|384:377|384:377|297:348,1,125,6|8,3:2|1:2,0:0:0:0:
100,299,33490,2,0,B|141:287|141:287|228:316,1,125,2|0,2:2|3:2,0:0:0:0:
0,384,33884,2,0,L|12:322,1,62.5,10|0,1:2|0:0,0:0:0:0:
25,134,34147,6,0,L|19:165|84:135,1,93.75,2|0,3:2|0:0,0:0:0:0:
159,104,34411,2,0,L|217:79,1,62.5,8|0,1:2|0:0,0:0:0:0:
79,143,34674,1,2,3:2:0:0:
79,143,34805,1,0,3:2:0:0:
139,255,34937,2,0,L|145:192,1,62.5,8|0,1:2|0:0,0:0:0:0:
300,47,35200,6,0,L|307:118,1,62.5,6|0,3:2|0:0,0:0:0:0:
321,255,35463,2,0,L|314:193,1,62.5,10|0,1:2|0:0,0:0:0:0:
463,146,35726,2,0,L|456:217,1,62.5,2|0,3:2|3:2,0:0:0:0:
442,354,35990,2,0,L|449:292,1,62.5,10|0,1:2|0:0,0:0:0:0:
295,225,36253,6,0,L|307:254|314:192,1,93.75,2|0,3:2|0:0,0:0:0:0:
325,117,36516,2,0,L|332:55,1,62.5,8|0,1:2|0:0,0:0:0:0:
481,178,36779,2,0,L|469:207|462:145,1,93.75,2|0,3:2|0:0,0:0:0:0:
451,70,37042,2,0,L|444:8,1,62.5,8|0,1:2|0:0,0:0:0:0:
264,11,37305,6,0,B|253:104,1,93.75,6|0,3:2|0:0,0:0:0:0:
180,151,37569,2,0,B|191:244,1,93.75,8|0,1:2|0:0,0:0:0:0:
232,310,37832,2,0,B|223:380,1,62.5,0|0,3:2|3:2,0:0:0:0:
80,269,38095,5,10,1:2:0:0:
21,147,38226,1,2,2:2:0:0:
156,157,38358,2,0,B|178:176|178:176|187:209,1,62.5,6|0,3:2|0:0,0:0:0:0:
157,367,38621,2,0,B|178:348|178:348|187:315,1,62.5,8|0,1:2|0:0,0:0:0:0:
261,155,38884,5,10,3:2:0:0:
262,372,39016,1,8,3:2:0:0:
250,155,39147,1,8,1:2:0:0:
273,372,39279,1,8,3:2:0:0:
393,258,39411,6,0,B|300:249,1,93.75,6|0,3:2|0:0,0:0:0:0:
223,282,39674,2,0,B|130:291,1,93.75,8|0,1:2|0:0,0:0:0:0:
72,232,39937,2,0,B|3:225,1,62.5,0|0,3:2|3:2,0:0:0:0:
1,87,40200,1,10,1:2:0:0:
86,11,40332,1,2,2:2:0:0:
162,97,40463,6,0,L|258:87,1,93.75,2|0,3:2|0:0,0:0:0:0:
332,84,40726,2,0,L|306:142,1,62.5,8|0,1:2|0:0,0:0:0:0:
162,185,40990,2,0,L|258:195,1,93.75,2|0,3:2|0:0,0:0:0:0:
332,198,41253,2,0,L|306:139,1,62.5,8|0,1:2|0:0,0:0:0:0:
479,174,41516,6,0,B|485:208|485:208|451:298,1,125,6|8,3:2|1:2,0:0:0:0:
300,384,41911,2,0,B|306:350|306:350|272:260,1,125,2|0,2:2|3:2,0:0:0:0:
125,207,42305,2,0,L|103:265,1,62.5,10|0,1:2|0:0,0:0:0:0:
76,109,42569,6,0,L|167:92,1,93.75,2|0,3:2|0:0,0:0:0:0:
261,75,42832,2,0,L|323:65,1,62.5,8|0,1:2|0:0,0:0:0:0:
507,118,43095,2,0,L|416:101,1,93.75,2|0,3:2|0:0,0:0:0:0:
322,84,43358,2,0,L|260:74,1,62.5,8|0,1:2|0:0,0:0:0:0:
83,81,43621,6,0,B|74:99|73:121|83:141|83:141|92:159|93:181|84:201,2,125,6|8|0,3:2|1:2|3:2,0:0:0:0:
0,384,44411,1,10,1:2:0:0:
42,293,44542,1,2,2:2:0:0:
127,346,44674,6,0,P|161:355|196:346,1,62.5,2|0,3:2|0:0,0:0:0:0:
307,245,44937,2,0,P|273:236|238:245,1,62.5,10|0,1:2|0:0,0:0:0:0:
269,380,45200,2,0,P|277:350|273:319,1,62.5,2|0,3:2|3:2,0:0:0:0:
165,211,45463,2,0,P|156:240|160:271,1,62.5,10|0,1:2|0:0,0:0:0:0:
263,159,45726,6,0,B|274:140|275:118|268:99|268:99|268:99|268:99|259:78|262:55|272:38,2,125,6|8|0,3:2|1:2|3:2,0:0:0:0:
364,0,46516,1,10,1:2:0:0:
451,37,46647,1,2,2:2:0:0:
462,130,46779,6,0,P|449:167|430:184,1,62.5,6|0,3:2|0:0,0:0:0:0:
315,114,47042,2,0,P|353:106|377:114,1,62.5,10|0,1:2|0:0,0:0:0:0:
375,249,47305,2,0,P|349:219|344:194,1,62.5,6|0,3:2|0:0,0:0:0:0:
486,236,47569,1,10,1:2:0:0:
510,342,47700,1,8,3:2:0:0:
402,372,47832,6,0,B|384:376|384:376|334:367,1,62.5,6|0,3:2|0:0,0:0:0:0:
240,277,48095,2,0,B|222:273|222:273|178:280,1,62.5,8|0,1:2|0:0,0:0:0:0:
36,332,48358,1,0,3:2:0:0:
41,316,48490,1,0,3:2:0:0:
47,300,48621,2,0,L|69:240,1,62.5,8|0,1:2|0:0,0:0:0:0:
117,27,48884,6,0,B|157:11|157:11|252:33,1,125,2|8,3:2|1:2,0:0:0:0:
395,157,49279,2,0,B|355:173|355:173|260:151,1,125,2|0,2:2|3:2,0:0:0:0:
140,234,49674,2,0,L|200:248,1,62.5,10|0,1:2|0:0,0:0:0:0:
273,361,49937,5,6,3:2:0:0:
267,369,50200,1,8,1:2:0:0:
260,377,50463,5,2,3:2:0:0:
397,298,50595,1,8,1:2:0:0:
442,376,50726,5,0,2:2:0:0:
306,300,50858,1,8,3:2:0:0:
331,195,50990,5,6,3:2:0:0:
338,203,51253,1,8,1:2:0:0:
345,211,51516,5,10,3:2:0:0:
249,376,51647,1,8,1:2:0:0:
351,219,51779,1,8,3:2:0:0:
259,376,51911,1,8,1:2:0:0:
158,243,52042,54,0,P|176:202|210:173,2,85.0000016212464,6|0|8,1:2|3:2|1:2,0:0:0:0:
286,147,52831,1,2,3:2:0:0:
352,201,52963,1,10,1:2:0:0:
431,171,53094,2,0,P|440:150|441:131,2,42.5000008106232,2|8|0,3:2|1:2|3:2,0:0:0:0:
273,231,53620,1,14,1:2:0:0:
360,318,53884,2,0,P|349:300|343:280,1,42.5000008106232,2|8,3:2|1:2,0:0:0:0:
435,186,54147,6,0,P|440:228|422:265,1,85.0000016212464,6|0,1:2|3:2,0:0:0:0:
270,315,54542,2,0,P|244:311|221:295,2,42.5000008106232,2|8|0,2:2|1:2|0:0,0:0:0:0:
227,156,54936,1,2,3:2:0:0:
199,229,55068,1,10,1:2:0:0:
121,240,55199,2,0,P|95:236|72:220,2,42.5000008106232,2|8|0,3:2|1:2|3:2,0:0:0:0:
34,379,55726,2,0,P|26:337|34:296,1,85.0000016212464,14|0,1:2|3:2,0:0:0:0:
82,229,56120,1,8,1:2:0:0:
130,296,56252,6,0,P|137:338|130:380,2,85.0000016212464,6|0|8,1:2|3:2|1:2,0:0:0:0:
2,230,57042,1,2,3:2:0:0:
82,229,57173,1,10,1:2:0:0:
137,168,57305,2,0,P|142:151|144:126,2,42.5000008106232,2|8|2,3:2|1:2|3:2,0:0:0:0:
13,0,57831,2,0,P|-1:39|4:81,1,85.0000016212464,14|2,1:2|3:2,0:0:0:0:
62,140,58226,1,8,1:2:0:0:
141,119,58357,54,0,P|180:135|208:168,1,85.0000016212464,6|0,1:2|3:2,0:0:0:0:
225,336,58884,2,0,P|219:294|233:254,1,85.0000016212464,8|2,1:2|3:2,0:0:0:0:
341,186,59278,2,0,P|320:186|300:192,1,42.5000008106232,8|6,1:2|3:2,0:0:0:0:
419,237,59542,2,0,P|440:237|461:233,1,42.5000008106232,8|0,1:2|3:2,0:0:0:0:
495,367,59936,37,14,1:2:0:0:
419,237,60068,1,8,3:2:0:0:
321,353,60199,2,0,B|271:349,1,42.5000008106232,8|0,1:2|0:0,0:0:0:0:
185,339,60463,6,0,B|192:297|192:297|234:262,2,85.0000016212464,6|0|8,1:2|3:2|1:2,0:0:0:0:
304,265,61252,1,2,3:2:0:0:
263,200,61384,1,10,1:2:0:0:
187,204,61515,2,0,L|138:207,2,42.5000008106232,2|8|0,3:2|1:2|3:2,0:0:0:0:
304,133,62042,1,14,1:2:0:0:
359,24,62305,2,0,L|339:62,1,42.5000008106232,2|8,3:2|1:2,0:0:0:0:
346,198,62568,6,0,B|389:210|389:210|427:198,1,85.0000016212464,6|0,1:2|3:2,0:0:0:0:
474,31,62963,2,0,B|462:72,2,42.5000008106232,2|8|0,2:2|1:2|0:0,0:0:0:0:
386,120,63357,1,2,3:2:0:0:
427,197,63489,1,10,1:2:0:0:
400,281,63620,2,0,L|389:324,2,42.5000008106232,2|8|0,3:2|1:2|3:2,0:0:0:0:
345,43,64147,6,0,P|379:10|423:1,1,85.0000016212464,14|2,1:2|3:2,0:0:0:0:
501,8,64542,1,8,1:2:0:0:
466,87,64673,2,0,P|431:119|388:129,2,85.0000016212464,6|0|8,1:2|3:2|1:2,0:0:0:0:
314,118,65463,5,2,3:2:0:0:
253,73,65594,1,10,1:2:0:0:
182,102,65726,2,0,P|152:102|126:93,1,42.5000008106232,2|8,3:2|1:2,0:0:0:0:
11,157,65989,2,0,P|39:155|65:164,1,42.5000008106232,2|0,3:2|0:0,0:0:0:0:
68,44,66252,2,0,P|68:72|59:98,1,42.5000008106232,14|0,1:2|0:0,0:0:0:0:
124,215,66515,2,0,P|122:185|131:159,1,42.5000008106232,2|8,3:2|1:2,0:0:0:0:
189,46,66778,6,0,P|188:74|217:124,1,85.0000016212464,6|0,1:2|3:2,0:0:0:0:
387,162,67305,2,0,P|363:147|305:147,1,85.0000016212464,8|0,1:2|3:2,0:0:0:0:
243,250,67699,2,0,P|239:227|243:205,1,42.5000008106232,8|2,1:2|3:2,0:0:0:0:
301,320,67963,2,0,P|304:342|301:364,1,42.5000008106232,8|0,1:2|3:2,0:0:0:0:
98,384,68357,2,0,P|130:363|151:321,1,85.0000016212464,14|0,1:2|3:2,0:0:0:0:
149,241,68752,1,8,3:2:0:0:
80,283,68884,54,0,P|38:287|1:270,2,85.0000016212464,6|0|8,1:2|3:2|1:2,0:0:0:0:
0,183,69673,1,2,3:2:0:0:
70,133,69805,1,10,1:2:0:0:
148,167,69936,2,0,P|156:188|157:208,2,42.5000008106232,2|8|0,3:2|1:2|3:2,0:0:0:0:
62,50,70463,2,0,P|97:28|138:18,1,85.0000016212464,14|2,1:2|3:2,0:0:0:0:
219,35,70857,1,8,1:2:0:0:
299,52,70989,6,0,P|340:42|376:20,1,85.0000016212464,6|0,1:2|3:2,0:0:0:0:
484,67,71384,2,0,P|464:70|434:81,2,42.5000008106232,2|8|0,2:2|1:2|0:0,0:0:0:0:
457,217,71778,1,2,3:2:0:0:
410,151,71910,1,10,1:2:0:0:
330,159,72042,2,0,P|314:171|293:196,2,42.5000008106232,2|8|0,3:2|1:2|3:2,0:0:0:0:
300,355,72568,2,0,P|293:313|304:272,1,85.0000016212464,14|2,1:2|3:2,0:0:0:0:
377,225,72963,1,8,1:2:0:0:
449,272,73094,6,0,P|460:313|454:355,2,85.0000016212464,6|0|8,1:2|3:2|1:2,0:0:0:0:
370,379,73884,1,2,3:2:0:0:
294,342,74015,1,10,1:2:0:0:
213,368,74147,2,0,P|191:370|170:365,2,42.5000008106232,2|8|2,3:2|1:2|3:2,0:0:0:0:
9,384,74673,2,0,P|29:386|85:357,1,85.0000016212464,14|2,1:2|3:2,0:0:0:0:
132,290,75068,1,8,1:2:0:0:
84,222,75199,54,0,P|50:198|9:196,1,85.0000016212464,6|0,1:2|3:2,0:0:0:0:
84,31,75726,2,0,P|79:72|98:110,1,85.0000016212464,8|2,1:2|3:2,0:0:0:0:
214,158,76120,2,0,P|196:161|172:154,1,42.5000008106232,8|6,1:2|3:2,0:0:0:0:
294,123,76384,2,0,P|312:120|336:128,1,42.5000008106232,8|0,1:2|3:2,0:0:0:0:
214,158,76778,5,14,1:2:0:0:
155,57,76910,1,8,3:2:0:0:
258,0,77042,2,0,P|276:-3|300:5,1,42.5000008106232,8|0,1:2|0:0,0:0:0:0:
408,0,77305,6,0,P|404:41|376:72,2,85.0000016212464,6|0|8,1:2|3:2|1:2,0:0:0:0:
297,86,78094,1,2,3:2:0:0:
348,147,78226,1,10,1:2:0:0:
426,133,78357,2,0,P|446:134|472:150,2,42.5000008106232,2|8|0,3:2|1:2|3:2,0:0:0:0:
320,221,78884,2,0,P|300:222|274:238,1,42.5000008106232,14|0,1:2|0:0,0:0:0:0:
227,146,79147,2,0,P|247:147|273:163,1,42.5000008106232,2|8,3:2|1:2,0:0:0:0:
328,300,79410,54,0,P|327:320|291:371,1,85.0000016212464,6|0,1:2|3:2,0:0:0:0:
175,264,79805,2,0,P|194:265|220:277,2,42.5000008106232,2|8|0,2:2|1:2|0:0,0:0:0:0:
177,344,80199,2,0,P|168:363|167:384,1,42.5000008106232,2|8,3:2|1:2,0:0:0:0:
98,217,80463,2,0,P|97:238|88:257,2,42.5000008106232,2|8|0,3:2|1:2|3:2,0:0:0:0:
0,384,80989,2,0,P|21:380|44:382,1,42.5000008106232,14|0,1:2|0:0,0:0:0:0:
150,339,81252,2,0,P|129:335|106:337,1,42.5000008106232,2|8,3:2|1:2,0:0:0:0:
6,268,81515,6,0,P|27:272|88:256,2,85.0000016212464,6|0|8,1:2|3:2|1:2,0:0:0:0:
134,185,82305,1,2,3:2:0:0:
107,103,82436,1,10,1:2:0:0:
164,40,82568,6,0,P|185:37|206:40,1,42.5000008106232,2|8,3:2|1:2,0:0:0:0:
321,112,82831,2,0,P|298:114|277:110,1,42.5000008106232,2|0,3:2|0:0,0:0:0:0:
278,0,83094,2,0,P|274:18|279:46,1,42.5000008106232,14|0,1:2|0:0,0:0:0:0:
209,156,83357,2,0,P|210:135|207:111,1,42.5000008106232,2|8,3:2|1:2,0:0:0:0:
59,7,83620,54,0,P|45:45|55:90,1,85.0000016212464,6|0,1:2|3:2,0:0:0:0:
209,156,84147,2,0,P|182:125|138:111,1,85.0000016212464,8|0,1:2|3:2,0:0:0:0:
45,198,84541,2,0,P|61:188|80:167,1,42.5000008106232,8|2,1:2|3:2,0:0:0:0:
174,244,84805,2,0,P|158:234|139:213,1,42.5000008106232,8|0,1:2|3:2,0:0:0:0:
224,379,85199,38,0,L|226:337,1,42.5000008106232,14|0,1:2|0:0,0:0:0:0:
281,245,85463,1,2,3:2:0:0:
298,236,85594,1,8,3:2:0:0:
315,228,85726,6,0,B|354:254|354:254|365:300,2,89.9999972534181,6|0|8,1:2|3:2|1:2,0:0:0:0:
270,376,86515,2,0,L|314:364,1,44.999998626709,2|8,3:2|1:2,0:0:0:0:
422,364,86778,2,0,L|466:376,2,44.999998626709,2|8|0,3:2|1:2|3:2,0:0:0:0:
483,281,87173,2,0,L|438:269,2,44.999998626709,2|12|0,2:2|1:2|0:0,0:0:0:0:
293,270,87568,2,0,L|248:282,1,44.999998626709,2|8,3:2|1:2,0:0:0:0:
221,185,87831,6,0,B|258:174|258:174|265:177|265:177|315:165,2,89.9999972534181,6|0|8,1:2|3:2|1:2,0:0:0:0:
382,151,88620,1,0,3:2:0:0:
404,78,88752,1,8,1:2:0:0:
352,22,88884,2,0,L|306:10,2,44.999998626709,2|8|0,3:2|1:2|3:2,0:0:0:0:
486,208,89410,2,0,B|487:163|487:163|455:132,1,89.9999972534181,14|0,1:2|3:2,0:0:0:0:
404,78,89805,1,8,1:2:0:0:
349,130,89936,54,0,B|317:161|317:161|317:206,2,89.9999972534181,6|0|8,1:2|3:2|1:2,0:0:0:0:
459,26,90726,1,2,3:2:0:0:
404,78,90857,1,10,1:2:0:0:
331,56,90989,2,0,L|281:40,1,44.999998626709,2|8,3:2|1:2,0:0:0:0:
161,125,91252,2,0,L|211:141,1,44.999998626709,2|0,3:2|0:0,0:0:0:0:
204,16,91515,2,0,L|213:66,1,44.999998626709,14|0,1:2|0:0,0:0:0:0:
288,165,91778,2,0,L|278:114,1,44.999998626709,2|8,3:2|1:2,0:0:0:0:
224,218,92041,6,0,L|189:246,1,44.999998626709,6|0,1:2|0:0,0:0:0:0:
38,261,92305,2,0,L|72:232,1,44.999998626709,2|0,3:2|0:0,0:0:0:0:
155,332,92568,2,0,L|126:298,1,44.999998626709,10|0,1:2|0:0,0:0:0:0:
107,147,92831,2,0,L|135:180,1,44.999998626709,2|8,3:2|1:2,0:0:0:0:
18,46,93094,2,0,L|47:80,2,44.999998626709,6|8|0,3:2|1:2|3:2,0:0:0:0:
220,49,93620,2,0,L|132:64,1,89.9999972534181,14|0,1:2|3:2,0:0:0:0:
48,81,94015,1,8,3:2:0:0:
20,162,94147,6,0,B|17:202|17:202|21:208|21:208|17:255,2,89.9999972534181,6|0|8,1:2|3:2|1:2,0:0:0:0:
71,310,94936,1,2,3:2:0:0:
151,315,95068,1,10,1:2:0:0:
212,262,95199,54,0,B|214:221|214:221|210:215|210:215|214:168,2,89.9999972534181,2|0|12,3:2|3:2|1:2,0:0:0:0:
274,120,95989,1,2,3:2:0:0:
354,125,96120,1,10,1:2:0:0:
406,184,96252,6,0,B|403:226|403:226|407:232|407:232|405:273,2,89.9999972534181,6|0|8,1:2|3:2|1:2,0:0:0:0:
358,384,97041,6,0,L|411:374,1,44.999998626709,2|8,3:2|1:2,0:0:0:0:
512,338,97305,2,0,L|459:328,1,44.999998626709,2|8,3:2|1:2,0:0:0:0:
360,281,97568,2,0,L|413:271,1,44.999998626709,2|0,3:2|0:0,0:0:0:0:
487,250,97831,2,0,L|468:208,1,44.999998626709,14|0,1:2|0:0,0:0:0:0:
378,198,98094,2,0,L|396:156,1,44.999998626709,2|8,3:2|1:2,0:0:0:0:
444,25,98357,54,0,L|426:66|375:76,1,89.9999972534181,6|0,1:2|3:2,0:0:0:0:
222,30,98884,2,0,L|315:14,1,89.9999972534181,8|0,1:2|3:2,0:0:0:0:
369,184,99278,2,0,L|339:149,1,44.999998626709,8|0,1:2|3:2,0:0:0:0:
197,136,99541,2,0,L|226:170,1,44.999998626709,8|0,1:2|3:2,0:0:0:0:
124,50,99936,2,0,L|81:57|62:100,1,89.9999972534181,12|0,1:2|3:2,0:0:0:0:
28,218,100331,1,8,1:2:0:0:
6,194,100463,1,4,2:2:0:0:
6,194,100726,6,0,B|29:209|55:209|78:199|78:199|102:187|128:191|149:204,1,150,2|0,2:2|0:0,0:0:0:0:
135,384,101252,5,2,2:2:0:0:
220,290,101384,1,2,2:2:0:0:
287,364,101515,1,2,2:2:0:0:
337,308,101647,1,2,2:2:0:0:
371,345,101778,1,2,2:2:0:0:
388,326,101910,1,2,2:2:0:0:
405,338,102041,6,0,B|421:350|442:351|458:343|458:343|477:336|496:338|511:348,1,112.500004291535,6|0,2:2|0:0,0:0:0:0:
428,214,102568,6,0,P|390:209|336:233,1,93.75,6|0,3:2|0:0,0:0:0:0:
295,302,102831,2,0,P|248:305|206:286,1,93.75,8|0,1:2|0:0,0:0:0:0:
151,229,103094,2,0,P|124:223|89:230,1,62.5,0|0,3:2|3:2,0:0:0:0:
23,384,103357,1,10,1:2:0:0:
123,306,103489,1,2,2:2:0:0:
2,262,103620,6,0,L|17:161,1,93.75,2|0,3:2|0:0,0:0:0:0:
95,124,103884,2,0,L|150:167,1,62.5,8|0,1:2|0:0,0:0:0:0:
286,262,104147,2,0,L|271:161,1,93.75,2|0,3:2|0:0,0:0:0:0:
193,124,104411,2,0,L|137:167,1,62.5,8|0,1:2|0:0,0:0:0:0:
354,379,104673,6,0,B|371:355|383:315|371:274|371:274|368:280|366:290|359:294,1,125,6|8,3:2|1:2,0:0:0:0:
148,239,105068,2,0,B|159:266|188:296|230:307|230:307|225:301|218:295|218:286,1,125,2|0,2:2|3:2,0:0:0:0:
324,136,105463,2,0,P|295:148|272:168,1,62.5,10|0,1:2|0:0,0:0:0:0:
117,340,105726,6,0,B|105:368|105:368|86:301,1,93.75,2|0,3:2|0:0,0:0:0:0:
60,216,105989,2,0,L|44:154,1,62.5,8|0,1:2|0:0,0:0:0:0:
195,205,106252,2,0,B|213:182|213:182|146:197,1,93.75,2|0,3:2|0:0,0:0:0:0:
60,215,106515,2,0,L|0:228,1,62.5,8|0,1:2|0:0,0:0:0:0:
233,367,106778,6,0,P|245:339|237:265,1,93.75,6|0,3:2|0:0,0:0:0:0:
195,205,107041,2,0,P|183:177|191:103,1,93.75,8|0,1:2|0:0,0:0:0:0:
247,59,107305,2,0,P|259:28|260:-14,1,62.5,0|0,3:2|3:2,0:0:0:0:
57,14,107568,1,10,1:2:0:0:
4,64,107699,1,2,2:2:0:0:
23,135,107831,6,0,P|30:168|31:201,1,62.5,2|0,3:2|0:0,0:0:0:0:
20,340,108094,2,0,P|27:310|30:279,1,62.5,10|0,1:2|0:0,0:0:0:0:
159,295,108357,2,0,P|164:325|176:355,1,62.5,2|0,3:2|3:2,0:0:0:0:
162,181,108620,2,0,P|164:149|172:119,1,62.5,10|0,1:2|0:0,0:0:0:0:
338,11,108884,6,0,P|370:37|389:89,1,93.75,6|0,3:2|0:0,0:0:0:0:
376,168,109147,2,0,P|344:194|325:246,1,93.75,8|0,1:2|0:0,0:0:0:0:
338,317,109410,2,0,P|370:343|386:377,1,62.5,0|0,3:2|3:2,0:0:0:0:
217,311,109673,5,10,1:2:0:0:
246,183,109805,1,2,2:2:0:0:
376,168,109936,2,0,P|398:192|405:224,1,62.5,6|0,3:2|0:0,0:0:0:0:
380,360,110199,2,0,P|402:336|409:304,1,62.5,8|0,1:2|0:0,0:0:0:0:
480,157,110463,5,14,1:2:0:0:
497,365,110594,1,8,3:2:0:0:
490,157,110726,1,10,1:2:0:0:
487,365,110857,1,8,3:2:0:0:
295,266,110989,6,0,P|251:266|205:298,1,93.75,6|0,3:2|0:0,0:0:0:0:
191,379,111252,2,0,P|213:340|208:285,1,93.75,8|0,1:2|0:0,0:0:0:0:
162,254,111515,2,0,P|182:279|216:293,1,62.5,0|0,3:2|3:2,0:0:0:0:
232,110,111778,1,10,1:2:0:0:
156,162,111910,1,2,2:2:0:0:
146,72,112041,6,0,L|233:110,1,93.75,2|0,3:2|0:0,0:0:0:0:
311,142,112305,2,0,L|372:115,1,62.5,8|0,1:2|0:0,0:0:0:0:
407,264,112568,2,0,L|320:226,1,93.75,2|0,3:2|0:0,0:0:0:0:
242,194,112832,2,0,L|181:221,1,62.5,8|0,1:2|0:0,0:0:0:0:
19,384,113094,6,0,B|1:352|7:311|35:284|35:284|32:293|32:302|35:312,1,125,6|8,3:2|1:2,0:0:0:0:
197,310,113489,2,0,B|178:342|139:357|102:347|102:347|111:345|119:340|126:333,1,125,2|0,2:2|3:2,0:0:0:0:
87,208,113884,2,0,P|109:229|122:258,1,62.5,10|0,1:2|0:0,0:0:0:0:
401,138,114147,6,0,B|339:142,1,62.5,2|0,3:2|0:0,0:0:0:0:
173,157,114410,1,8,1:2:0:0:
173,157,114541,1,0,2:2:0:0:
197,310,114673,2,0,B|212:249,1,62.5,2|0,3:2|3:2,0:0:0:0:
250,89,114936,1,8,1:2:0:0:
250,89,115068,1,0,0:0:0:0:
334,230,115199,6,0,P|381:244|432:227,1,93.75,6|0,3:2|0:0,0:0:0:0:
469,157,115463,2,0,P|433:190|422:243,1,93.75,8|0,1:2|0:0,0:0:0:0:
461,278,115726,2,0,P|446:251|422:232,1,62.5,0|0,3:2|3:2,0:0:0:0:
229,88,115989,1,10,1:2:0:0:
242,162,116120,1,2,2:2:0:0:
312,188,116252,6,0,P|334:210|344:240,1,62.5,2|0,3:2|0:0,0:0:0:0:
314,374,116515,2,0,P|335:351|345:322,1,62.5,10|0,1:2|0:0,0:0:0:0:
138,321,116778,2,0,P|149:351|170:374,1,62.5,2|0,3:2|0:0,0:0:0:0:
140,239,117041,2,0,P|150:209|172:188,1,62.5,10|0,1:2|0:0,0:0:0:0:
21,381,117305,6,0,P|28:350|47:326,1,62.5,6|0,3:2|0:0,0:0:0:0:
199,317,117568,2,0,P|168:325|138:321,1,62.5,8|0,1:2|0:0,0:0:0:0:
55,195,117831,2,0,P|77:216|89:245,1,62.5,0|0,3:2|3:2,0:0:0:0:
19,118,118094,5,10,1:2:0:0:
72,57,118226,1,2,2:2:0:0:
152,60,118357,2,0,P|183:60|216:47,1,62.5,6|0,3:2|0:0,0:0:0:0:
356,89,118620,2,0,P|325:89|292:102,1,62.5,10|0,1:2|0:0,0:0:0:0:
205,205,118884,5,14,1:2:0:0:
399,182,119015,1,8,3:2:0:0:
203,195,119147,1,10,1:2:0:0:
400,190,119278,1,8,3:2:0:0:
303,337,119410,6,0,P|307:305|294:272,1,62.5,6|0,3:2|0:0,0:0:0:0:
136,296,119673,2,0,P|161:315|196:320,1,62.5,8|0,1:2|0:0,0:0:0:0:
301,170,119936,1,0,3:2:0:0:
278,167,120068,1,0,3:2:0:0:
255,171,120199,2,0,P|225:183|203:211,1,62.5,8|0,1:2|0:0,0:0:0:0:
277,37,120463,6,0,B|306:32|343:44|370:68|370:68|359:62|348:61|337:63,1,125,2|8,3:2|1:2,0:0:0:0:
452,227,120857,2,0,B|433:204|425:166|432:130|432:130|432:143|437:153|444:162,1,125,2|0,2:2|3:2,0:0:0:0:
508,11,121252,2,0,P|479:23|456:45,1,62.5,10|0,1:2|0:0,0:0:0:0:
354,198,121515,5,6,3:2:0:0:
352,204,121778,1,8,1:2:0:0:
350,211,122041,5,2,3:2:0:0:
216,292,122173,1,8,1:2:0:0:
165,216,122305,5,0,2:2:0:0:
318,289,122436,1,8,1:2:0:0:
264,364,122568,5,6,3:2:0:0:
267,370,122831,1,8,1:2:0:0:
270,376,123094,5,10,3:2:0:0:
462,370,123226,1,8,1:2:0:0:
274,384,123357,1,8,3:2:0:0:
459,379,123489,1,8,1:2:0:0:
348,204,123620,70,0,L|351:241,3,37.5000014305115,6|0|0|0,2:2|0:0|0:0|0:0,0:0:0:0:
259,175,124146,2,0,L|262:137,3,37.5000014305115
168,203,124672,2,0,L|171:240,3,37.5000014305115
77,175,125198,2,0,L|80:137,3,37.5000014305115
151,45,125725,22,0,L|154:82,3,37.5000014305115,2|0|0|0,0:0|0:0|0:0|0:0,0:0:0:0:
263,138,126251,2,0,L|267:176,3,37.5000014305115
144,168,126777,2,0,L|181:164,3,37.5000014305115
236,56,127304,2,0,L|274:53,3,37.5000014305115
387,114,127830,54,0,L|349:110,3,37.5000014305115,2|0|0|0,2:2|0:0|0:0|0:0,0:0:0:0:
434,190,128356,2,0,L|471:186,3,37.5000014305115
385,261,128883,2,0,L|347:257,3,37.5000014305115
442,326,129409,2,0,L|479:322,3,37.5000014305115
313,338,129935,22,0,L|276:342,3,37.5000014305115,2|0|0|0,0:0|0:0|0:0|0:0,0:0:0:0:
201,251,130462,2,0,L|164:255,3,37.5000014305115
280,226,130988,2,0,L|284:264,3,37.5000014305115
192,329,131514,2,0,L|196:367,3,37.5000014305115
90,261,132041,54,0,L|87:297,3,34.9999989318848,2|0|0|0,2:2|0:0|0:0|0:0,0:0:0:0:
0,377,132567,2,0,L|3:341,3,34.9999989318848
85,254,133093,2,0,L|82:290,3,34.9999989318848
5,384,133620,2,0,L|8:348,3,34.9999989318848
82,288,134146,6,0,L|79:252,3,32.4999985122681,2|0|0|0,2:2|0:0|0:0|0:0,0:0:0:0:
166,193,134672,2,0,L|164:161,3,32.4999985122681
56,188,135198,2,0,L|88:185,3,32.4999985122681
157,263,135725,2,0,L|190:261,3,32.4999985122681
259,189,136251,70,0,L|293:191,3,34.9999989318848,2|0|0|0,2:2|0:0|0:0|0:0,0:0:0:0:
399,131,136777,2,0,L|364:128,3,34.9999989318848
254,194,137304,2,0,L|288:196,3,34.9999989318848
404,126,137830,2,0,L|369:123,3,34.9999989318848
290,50,138356,22,0,L|252:53,3,37.5000014305115,2|0|0|0,2:2|0:0|0:0|0:0,0:0:0:0:
123,0,138883,2,0,L|161:3,3,37.5000014305115
37,72,139409,2,0,L|0:75,3,37.5000014305115
126,137,139935,53,2,2:2:0:0:
135,136,140067,1,0,0:0:0:0:
144,135,140198,1,0,0:0:0:0:
154,134,140330,1,0,0:0:0:0:
164,133,140462,6,0,P|185:137|200:147,3,37.5000014305115,2|0|0|0,2:2|0:0|0:0|0:0,0:0:0:0:
240,256,140988,2,0,P|232:235|234:217,1,37.5000014305115,2|0,2:2|0:0,0:0:0:0:
308,128,141251,2,0,P|294:144|277:152,1,37.5000014305115,2|0,2:2|0:0,0:0:0:0:
198,145,141514,1,2,2:2:0:0:
189,148,141646,1,0,0:0:0:0:
181,154,141777,1,0,0:0:0:0:
175,160,141909,1,0,0:0:0:0:
169,168,142041,6,0,P|158:183|153:201,1,37.5000014305115,2|0,2:2|0:0,0:0:0:0:
174,306,142304,2,0,P|166:288|152:275,1,37.5000014305115,2|0,2:2|0:0,0:0:0:0:
51,241,142567,2,0,P|69:242|87:237,3,37.5000014305115,2|0|0|0,2:2|0:0|0:0|0:0,0:0:0:0:
0,319,143093,54,0,P|18:317|36:322,1,37.5000014305115,2|0,2:2|0:0,0:0:0:0:
123,384,143356,2,0,P|112:368|107:350,1,37.5000014305115,2|0,2:2|0:0,0:0:0:0:
96,274,143620,1,2,2:2:0:0:
97,264,143751,1,0,0:0:0:0:
101,256,143883,1,0,0:0:0:0:
105,248,144014,1,0,0:0:0:0:
111,241,144146,6,0,P|126:230|144:225,3,37.5000014305115,2|0|0|0,2:2|0:0|0:0|0:0,0:0:0:0:
263,254,144672,2,0,P|249:240|232:233,3,37.5000014305115,2|0|0|0,2:2|0:0|0:0|0:0,0:0:0:0:
294,337,145198,2,0,P|296:355|291:373,3,37.5000014305115,2|0|0|0,2:2|0:0|0:0|0:0,0:0:0:0:
379,384,145725,1,2,2:2:0:0:
377,374,145856,1,0,0:0:0:0:
376,365,145988,1,0,0:0:0:0:
378,356,146120,1,0,0:0:0:0:
381,347,146251,6,0,P|385:328|383:310,1,37.5000014305115,2|0,2:2|0:0,0:0:0:0:
350,208,146514,2,0,P|345:226|347:244,1,37.5000014305115,2|0,2:2|0:0,0:0:0:0:
407,155,146777,2,0,P|411:136|409:118,3,37.5000014305115,2|0|0|0,2:2|0:0|0:0|0:0,0:0:0:0:
325,34,147304,54,0,P|338:47|355:54,1,37.5000014305115,2|0,2:2|0:0,0:0:0:0:
470,23,147567,2,0,P|452:27|436:39,1,37.5000014305115,2|0,2:2|0:0,0:0:0:0:
409,118,147830,1,2,2:2:0:0:
325,34,147962,1,2,2:2:0:0:
257,101,148093,1,2,2:2:0:0:
206,50,148225,1,2,2:2:0:0:
172,83,148356,5,2,2:2:0:0:
163,86,148488,1,2,2:2:0:0:
153,87,148620,1,2,2:2:0:0:
144,87,148751,1,2,2:2:0:0:
135,86,148883,6,0,P|116:84|98:89,3,37.5000014305115,2|0|0|0,2:2|0:0|0:0|0:0,0:0:0:0:
33,178,149409,2,0,P|43:162|48:144,1,37.5000014305115,2|0,2:2|0:0,0:0:0:0:
4,43,149672,2,0,P|11:59|25:73,1,37.5000014305115,2|0,2:2|0:0,0:0:0:0:
98,89,149935,1,2,2:2:0:0:
105,94,150067,1,0,0:0:0:0:
111,102,150198,1,0,0:0:0:0:
115,110,150330,1,0,0:0:0:0:
119,119,150462,54,0,P|123:137|122:155,1,37.5000014305115,2|0,2:2|0:0,0:0:0:0:
186,243,150725,2,0,P|190:224|189:206,1,37.5000014305115,2|0,2:2|0:0,0:0:0:0:
258,117,150988,2,0,P|253:135|254:153,2,37.5000014305115,2|0|0,2:2|0:0|0:0,0:0:0:0:
328,70,151383,2,0,P|331:52|330:34,2,37.5000014305115,2|0|0,2:2|0:0|0:0,0:0:0:0:
393,124,151777,2,0,P|394:142|389:160,1,37.5000014305115,2|0,2:2|0:0,0:0:0:0:
200,68,152041,5,2,2:2:0:0:
205,60,152172,1,0,0:0:0:0:
213,54,152304,1,0,0:0:0:0:
221,50,152435,1,0,0:0:0:0:
230,46,152567,2,0,P|252:42|279:46,1,37.5000014305115,2|0,2:2|0:0,0:0:0:0:
372,105,152830,2,0,P|350:101|323:105,1,37.5000014305115,2|0,2:2|0:0,0:0:0:0:
255,174,153093,5,2,2:2:0:0:
261,172,153225,1,0,0:0:0:0:
267,171,153356,1,0,0:0:0:0:
273,170,153488,1,0,0:0:0:0:
279,169,153620,1,0,0:0:0:0:
285,170,153751,1,0,0:0:0:0:
292,171,153883,53,2,2:2:0:0:
321,193,154014,1,2,2:2:0:0:
335,226,154146,2,0,P|337:248|332:270,1,37.5000014305115,2|0,2:2|0:0,0:0:0:0:
239,312,154409,2,0,P|236:331|239:350,1,37.5000014305115,2|0,2:2|0:0,0:0:0:0:
354,334,154672,2,0,P|332:336|310:331,1,37.5000014305115,2|0,2:2|0:0,0:0:0:0:
257,242,154935,2,0,P|238:239|220:242,1,37.5000014305115,2|0,2:2|0:0,0:0:0:0:
139,286,155198,6,0,P|127:300|119:317,3,37.5000014305115,2|0|0|0,2:2|0:0|0:0|0:0,0:0:0:0:
34,384,155725,2,0,P|22:369|14:352,3,37.5000014305115,2|0|0|0,2:2|0:0|0:0|0:0,0:0:0:0:
97,207,156251,5,2,2:2:0:0:
187,274,156383,1,2,2:2:0:0:
259,219,156514,1,2,2:2:0:0:
313,259,156646,1,2,2:2:0:0:
349,232,156777,1,2,2:2:0:0:
366,246,156909,1,2,2:2:0:0:
410,240,157041,2,0,P|391:236|374:242,1,37.5000014305115,2|0,2:2|0:0,0:0:0:0:
483,375,157304,54,0,P|486:334|470:288,1,85.0000016212464,6|0,3:2|3:2,0:0:0:0:
367,229,157698,2,0,P|387:236|409:239,2,42.5000008106232,2|8|0,2:2|1:2|0:0,0:0:0:0:
512,179,158093,2,0,P|496:193|483:210,1,42.5000008106232,2|8,3:2|1:2,0:0:0:0:
405,144,158356,2,0,P|420:129|433:112,2,42.5000008106232,2|8|0,3:2|1:2|3:2,0:0:0:0:
512,0,158883,2,0,P|484:25|425:33,1,85.0000016212464,12|2,1:2|3:2,0:0:0:0:
359,23,159277,1,8,1:2:0:0:
279,10,159409,6,0,P|238:18|206:46,1,85.0000016212464,6|0,3:2|3:2,0:0:0:0:
205,165,159804,2,0,P|204:144|198:124,2,42.5000008106232,2|8|0,2:2|1:2|0:0,0:0:0:0:
93,64,160198,2,0,P|112:74|133:78,1,42.5000008106232,2|8,3:2|1:2,0:0:0:0:
76,185,160462,2,0,P|76:163|68:144,2,42.5000008106232,2|8|0,3:2|1:2|3:2,0:0:0:0:
30,12,160988,2,0,P|11:40|23:105,1,85.0000016212464,14|0,1:2|3:2,0:0:0:0:
69,145,161383,1,8,1:2:0:0:
124,199,161514,6,0,P|128:241|108:278,1,85.0000016212464,6|0,3:2|3:2,0:0:0:0:
254,384,162041,2,0,P|249:342|270:305,1,85.0000016212464,10|0,1:2|3:2,0:0:0:0:
394,302,162435,1,8,1:2:0:0:
412,371,162567,2,0,P|389:374|367:370,1,42.5000008106232,2|8,3:2|1:2,0:0:0:0:
270,305,162830,2,0,P|293:308|315:304,1,42.5000008106232,2|0,3:2|0:0,0:0:0:0:
417,233,163093,2,0,P|396:229|375:232,1,42.5000008106232,14|0,1:2|0:0,0:0:0:0:
262,148,163356,2,0,P|282:145|303:149,1,42.5000008106232,2|8,3:2|1:2,0:0:0:0:
474,120,163620,54,0,P|453:123|392:92,2,85.0000016212464,6|0|8,3:2|3:2|1:2,0:0:0:0:
254,56,164409,2,0,P|228:63|211:80,1,42.5000008106232,2|8,3:2|1:2,0:0:0:0:
156,187,164672,2,0,P|162:160|156:137,2,42.5000008106232,6|8|0,3:2|1:2|3:2,0:0:0:0:
38,0,165198,5,14,1:2:0:0:
104,87,165330,1,8,3:2:0:0:
216,72,165462,2,0,P|237:89|248:115,1,42.5000008106232,8|0,1:2|0:0,0:0:0:0:
206,268,165725,6,0,P|237:241|250:201,1,85.0000016212464,6|0,3:2|3:2,0:0:0:0:
49,295,166251,2,0,P|90:286|130:300,1,85.0000016212464,8|0,1:2|3:2,0:0:0:0:
197,348,166646,1,8,1:2:0:0:
289,354,166777,54,0,P|310:352|330:345,2,42.5000008106232,2|8|0,3:2|1:2|3:2,0:0:0:0:
377,279,167172,1,2,2:2:0:0:
464,355,167304,2,0,P|443:353|423:345,1,42.5000008106232,12|0,1:2|0:0,0:0:0:0:
379,201,167567,2,0,P|390:183|407:170,1,42.5000008106232,2|8,3:2|1:2,0:0:0:0:
512,126,167830,6,0,P|490:124|442:79,2,85.0000016212464,6|0|8,3:2|3:2|1:2,0:0:0:0:
441,1,168620,2,0,P|417:4|396:16,1,42.5000008106232,2|8,3:2|1:2,0:0:0:0:
323,114,168883,2,0,P|344:116|364:126,2,42.5000008106232,2|8|0,3:2|1:2|3:2,0:0:0:0:
174,3,169409,2,0,P|172:45|192:82,1,85.0000016212464,14|0,1:2|3:2,0:0:0:0:
249,136,169804,1,8,1:2:0:0:
231,212,169935,6,0,P|205:250|168:267,1,85.0000016212464,6|0,3:2|3:2,0:0:0:0:
0,206,170462,2,0,P|46:208|79:232,1,85.0000016212464,8|0,1:2|3:2,0:0:0:0:
89,372,170856,2,0,P|87:350|91:330,1,42.5000008106232,8|0,1:2|3:2,0:0:0:0:
173,224,171120,2,0,P|174:245|171:266,1,42.5000008106232,8|0,1:2|3:2,0:0:0:0:
167,38,171514,53,12,1:2:0:0:
101,160,171777,5,2,3:2:0:0:
169,118,171909,1,10,1:2:0:0:
238,155,172041,2,0,P|281:165|325:153,1,85.0000016212464,6|0,3:2|3:2,0:0:0:0:
405,14,172567,2,0,P|375:45|363:89,1,85.0000016212464,8|0,1:2|3:2,0:0:0:0:
432,188,172962,2,0,P|420:171|404:158,1,42.5000008106232,8|6,1:2|3:2,0:0:0:0:
292,124,173225,2,0,P|303:141|320:154,1,42.5000008106232,8|0,1:2|3:2,0:0:0:0:
502,137,173620,5,12,1:2:0:0:
361,238,173751,1,8,3:2:0:0:
482,258,173883,2,0,P|495:283|498:307,1,42.5000008106232,8|0,1:2|0:0,0:0:0:0:
401,384,174146,5,14,1:2:0:0:
430,205,174409,1,2,3:2:0:0:
261,270,174672,1,10,1:2:0:0:
415,294,174935,1,2,3:2:0:0:
184,303,175198,2,0,B|172:254|172:254|200:205,1,100,10|0,1:2|3:2,0:0:0:0:
492,261,175725,2,0,B|504:310|504:310|475:358,1,100,10|0,1:2|3:2,0:0:0:0:
298,191,176251,6,0,L|408:208,1,100,10|0,1:2|3:2,0:0:0:0:
422,35,176777,1,10,1:2:0:0:
458,128,177041,1,2,3:2:0:0:
298,191,177304,2,0,L|367:104,1,100,10|0,1:2|3:2,0:0:0:0:
495,221,177830,2,0,L|396:205,1,100,10|0,1:2|3:2,0:0:0:0:
199,175,178356,5,10,1:2:0:0:
262,98,178620,1,2,3:2:0:0:
101,159,178883,1,10,1:2:0:0:
136,252,179146,1,2,3:2:0:0:
235,269,179409,2,0,B|279:245|279:245|296:192,1,100,10|0,1:2|3:2,0:0:0:0:
72,328,179935,53,10,1:2:0:0:
136,252,180198,1,2,3:2:0:0:
4,142,180462,1,10,1:2:0:0:
37,235,180725,1,2,3:2:0:0:
200,177,180988,1,10,1:2:0:0:
102,159,181251,1,2,3:2:0:0:
215,369,181514,6,0,L|233:271,1,100,10|0,1:2|3:2,0:0:0:0:
283,3,182041,2,0,L|265:101,1,100,10|0,1:2|3:2,0:0:0:0:
396,213,182567,6,0,L|405:164,1,50,14|0,1:2|0:0,0:0:0:0:
420,79,182830,2,0,L|429:30,1,50,2|0,3:2|0:0,0:0:0:0:
405,163,183093,2,0,L|396:212,1,50,10|0,1:2|0:0,0:0:0:0:
381,297,183356,2,0,L|372:346,1,50,2|0,3:2|0:0,0:0:0:0:
201,362,183619,2,0,L|314:320,1,100,10|0,1:2|3:2,0:0:0:0:
316,117,184146,2,0,L|222:151,1,100,10|0,1:2|3:2,0:0:0:0:
381,297,184672,54,0,L|346:203,1,100,10|0,1:2|3:2,0:0:0:0:
136,182,185198,2,0,L|153:228,1,50,10|0,1:2|0:0,0:0:0:0:
183,315,185462,2,0,L|200:361,1,50,2|0,3:2|0:0,0:0:0:0:
0,338,185725,2,0,L|64:261,1,100,10|0,1:2|3:2,0:0:0:0:
200,105,186251,2,0,L|135:181,1,100,10|0,1:2|3:2,0:0:0:0:
52,78,186777,6,0,L|101:86,1,50,10|0,1:2|0:0,0:0:0:0:
200,105,187041,2,0,L|249:113,1,50,2|0,3:2|0:0,0:0:0:0:
397,140,187304,2,0,L|347:131,1,50,10|0,1:2|0:0,0:0:0:0:
249,113,187567,2,0,L|199:104,1,50,2|0,3:2|0:0,0:0:0:0:
2,69,187830,2,0,L|100:86,1,100,10|0,1:2|3:2,0:0:0:0:
347,131,188356,6,0,L|297:122,1,50,10|0,1:2|0:0,0:0:0:0:
181,202,188619,2,0,L|132:194,1,50,2|0,3:2|0:0,0:0:0:0:
208,55,188883,2,0,L|199:104,1,50,10|0,1:2|0:0,0:0:0:0:
279,220,189146,2,0,L|270:269,1,50,2|0,3:2|0:0,0:0:0:0:
389,383,189409,54,0,L|380:333,1,50,10|0,1:2|0:0,0:0:0:0:
473,224,189672,2,0,L|464:273,1,50,2|0,3:2|0:0,0:0:0:0:
352,182,189935,2,0,B|344:137|344:137|349:129|349:129|341:84,1,100,10|0,1:2|3:2,0:0:0:0:
512,0,190462,37,10,1:2:0:0:
453,127,190593,1,8,3:2:0:0:
341,84,190725,2,0,L|294:66,1,50,8|0,1:2|0:0,0:0:0:0:
223,0,190988,6,0,B|199:21|190:52|195:81|195:81|195:81|195:81|198:113|181:140,1,149.999995422363,2|0,2:2|0:0,0:0:0:0:
121,185,191777,2,0,P|99:190|76:189,1,29.9999990844727,2|2,2:2|2:2,0:0:0:0:
10,164,192041,2,0,B|20:183|20:204|14:222|14:222|7:242|9:263|18:280,1,119.999996337891,2|2,2:2|2:2,0:0:0:0:
83,383,193093,6,0,P|115:354|129:392,2,89.9999972534181,2|2|2,2:2|2:2|2:2,0:0:0:0:
208,384,194146,2,0,P|204:348|148:285,1,119.999996337891,2|2,2:2|2:2,0:0:0:0:
121,185,195198,54,0,B|148:202|179:206|207:197|207:197|235:188|263:192|286:205,1,149.999995422363,2|0,2:2|0:0,0:0:0:0:
328,238,195988,2,0,P|337:254|341:272,1,29.9999990844727,2|2,2:2|2:2,0:0:0:0:
313,345,196251,2,0,P|346:340|375:346,1,59.9999981689454,2|2,2:2|2:2,0:0:0:0:
484,272,196777,2,0,P|451:267|422:273,1,59.9999981689454,2|2,2:2|2:2,0:0:0:0:
311,202,197304,6,0,P|344:207|430:130,1,149.999995422363,2|0,2:2|0:0,0:0:0:0:
463,73,198093,2,0,P|441:65|417:65,1,29.9999990844727,2|2,2:2|2:2,0:0:0:0:
340,116,198356,6,0,B|321:80|325:40|345:9|345:9|323:42|286:59|249:58|249:58|281:58|309:74|327:98,1,300.000011444093,2|0,2:2|0:0,0:0:0:0:
182,16,199672,6,0,B|168:39|167:65|176:88|176:88|185:113|182:138|170:159,1,150,2|0,2:2|0:0,0:0:0:0:
21,346,200198,5,2,2:2:0:0:
108,263,200330,1,2,2:2:0:0:
177,329,200462,1,2,2:2:0:0:
229,279,200593,1,2,2:2:0:0:
263,312,200725,1,2,2:2:0:0:
280,295,200856,1,2,2:2:0:0:
286,323,200988,6,0,B|268:332|249:332|231:326|231:326|213:318|194:320|177:328,1,112.500004291535,6|0,2:2|0:0,0:0:0:0:
472,384,201514,6,0,P|472:332|448:289,1,93.75,6|0,3:2|0:0,0:0:0:0:
379,247,201777,2,0,P|378:195|403:152,1,93.75,8|0,1:2|0:0,0:0:0:0:
457,111,202040,2,0,P|459:77|450:41,1,62.5,0|0,3:2|3:2,0:0:0:0:
240,0,202303,1,10,1:2:0:0:
315,94,202435,1,2,2:2:0:0:
222,170,202566,6,0,L|116:188,1,93.75,2|0,3:2|0:0,0:0:0:0:
61,251,202829,2,0,L|0:241,1,62.5,8|0,1:2|0:0,0:0:0:0:
166,271,203092,2,0,L|272:289,1,93.75,2|0,3:2|0:0,0:0:0:0:
327,352,203355,2,0,L|388:342,1,62.5,8|0,1:2|0:0,0:0:0:0:
301,101,203619,6,0,B|318:125|326:168|299:203|299:203|300:196|300:189|297:181,1,125,6|8,3:2|1:2,0:0:0:0:
134,201,204014,2,0,B|146:174|179:145|223:151|223:151|216:154|210:157|205:164,1,125,2|0,2:2|3:2,0:0:0:0:
258,286,204408,2,0,P|233:268|217:242,1,62.5,10|0,1:2|2:2,0:0:0:0:
387,142,204671,6,0,B|397:122|397:122|393:206,1,93.75,2|0,3:2|0:0,0:0:0:0:
389,278,204935,2,0,L|337:312,1,62.5,8|0,1:2|0:0,0:0:0:0:
511,213,205198,2,0,B|522:193|522:193|451:239,1,93.75,2|0,3:2|0:0,0:0:0:0:
389,278,205461,2,0,L|386:340,1,62.5,8|0,1:2|0:0,0:0:0:0:
214,384,205724,6,0,P|205:339|219:295,1,93.75,6|0,3:2|0:0,0:0:0:0:
290,242,205987,2,0,P|298:197|284:153,1,93.75,8|0,1:2|0:0,0:0:0:0:
224,97,206250,2,0,P|216:64|222:24,1,62.5,0|0,3:2|3:2,0:0:0:0:
23,108,206514,1,10,1:2:0:0:
0,182,206645,1,2,2:2:0:0:
74,204,206777,6,0,P|94:228|104:258,1,62.5,2|0,3:2|0:0,0:0:0:0:
184,231,207040,2,0,P|189:261|182:291,1,62.5,10|0,1:2|0:0,0:0:0:0:
148,97,207303,2,0,P|140:127|146:157,1,62.5,2|0,3:2|3:2,0:0:0:0:
256,76,207566,2,0,P|234:98|223:127,1,62.5,10|0,1:2|0:0,0:0:0:0:
253,316,207829,6,0,P|253:269|280:232,1,93.75,6|0,3:2|0:0,0:0:0:0:
314,139,208092,2,0,P|354:163|374:205,1,93.75,8|0,1:2|0:0,0:0:0:0:
411,297,208356,2,0,P|381:304|351:300,1,62.5,0|0,3:2|3:2,0:0:0:0:
220,148,208619,5,10,1:2:0:0:
161,318,208750,1,2,2:2:0:0:
42,180,208882,2,0,P|78:177|110:191,1,62.5,6|0,3:2|0:0,0:0:0:0:
288,256,209145,2,0,P|252:259|220:245,1,62.5,8|0,1:2|0:0,0:0:0:0:
107,86,209408,5,14,1:2:0:0:
317,58,209540,1,8,3:2:0:0:
105,78,209671,1,10,1:2:0:0:
318,65,209803,1,8,3:2:0:0:
227,250,209935,6,0,P|198:288|150:301,1,93.75,6|0,3:2|0:0,0:0:0:0:
75,265,210198,2,0,P|122:270|158:305,1,93.75,8|0,1:2|0:0,0:0:0:0:
149,362,210461,2,0,P|145:331|154:301,1,62.5,0|0,3:2|3:2,0:0:0:0:
267,148,210724,1,10,1:2:0:0:
114,172,210856,1,2,2:2:0:0:
169,28,210987,6,0,L|270:44,1,93.75,2|0,3:2|0:0,0:0:0:0:
356,90,211250,2,0,L|417:80,1,62.5,8|0,1:2|0:0,0:0:0:0:
498,273,211514,2,0,L|397:257,1,93.75,2|0,3:2|0:0,0:0:0:0:
311,211,211777,2,0,L|250:221,1,62.5,8|0,1:2|0:0,0:0:0:0:
51,349,212040,6,0,B|79:346|116:316|125:281|125:281|119:286|113:289|106:291,1,125,6|8,3:2|1:2,0:0:0:0:
78,95,212435,2,0,B|65:121|72:168|99:193|99:193|97:186|97:179|99:172,1,125,2|0,2:2|3:2,0:0:0:0:
249,221,212829,2,0,P|219:213|188:215,1,62.5,10|0,1:2|0:0,0:0:0:0:
0,341,213092,6,0,B|35:289,1,62.5,2|0,3:2|0:0,0:0:0:0:
194,219,213355,1,8,1:2:0:0:
194,219,213486,1,0,0:0:0:0:
125,69,213619,2,0,B|151:125,1,62.5,2|0,3:2|3:3,0:0:0:0:
131,297,213883,1,8,1:2:0:0:
131,297,214014,1,0,0:0:0:0:
294,235,214145,6,0,P|342:247|378:278,1,93.75,6|0,3:2|0:0,0:0:0:0:
382,365,214408,2,0,P|369:317|376:270,1,93.75,8|0,1:2|0:0,0:0:0:0:
429,246,214671,2,0,P|404:264|375:274,1,62.5,0|0,3:2|3:2,0:0:0:0:
212,189,214935,1,10,1:2:0:0:
323,163,215066,1,2,2:2:0:0:
247,78,215198,6,0,P|215:68|182:73,1,62.5,2|0,3:2|0:0,0:0:0:0:
107,182,215461,2,0,P|98:152|79:126,1,62.5,10|0,1:2|0:0,0:0:0:0:
69,289,215724,2,0,P|99:298|130:295,1,62.5,2|0,3:2|3:2,0:0:0:0:
212,189,215987,2,0,P|222:218|241:244,1,62.5,10|0,1:2|0:0,0:0:0:0:
352,117,216250,6,0,P|370:140|379:171,1,62.5,6|0,3:2|0:0,0:0:0:0:
336,310,216514,2,0,P|347:280|368:257,1,62.5,8|0,1:2|0:0,0:0:0:0:
512,225,216777,2,0,P|480:228|450:221,1,62.5,0|0,3:2|3:2,0:0:0:0:
269,153,217040,5,10,1:2:0:0:
198,225,217171,1,2,2:2:0:0:
277,291,217303,2,0,P|313:308|339:309,1,62.5,6|0,3:2|0:0,0:0:0:0:
505,327,217566,2,0,P|465:335|440:328,1,62.5,10|0,1:2|0:0,0:0:0:0:
419,82,217829,5,14,1:2:0:0:
396,270,217961,1,8,3:2:0:0:
413,81,218092,1,10,1:2:0:0:
401,271,218224,1,8,3:2:0:0:
505,119,218356,6,0,B|472:86|472:86|422:82,1,93.75,6|0,3:2|0:0,0:0:0:0:
342,125,218619,2,0,B|309:158|309:158|259:162,1,93.75,8|0,1:2|0:0,0:0:0:0:
192,114,218882,2,0,B|142:64|142:64,1,62.5,0|0,3:2|3:2,0:0:0:0:
13,246,219145,1,10,1:2:0:0:
102,179,219277,1,2,2:2:0:0:
167,268,219408,6,0,P|176:322|157:375,1,93.75,2|0,3:2|0:0,0:0:0:0:
245,343,219671,2,0,P|249:310|244:276,1,62.5,8|0,1:2|0:0,0:0:0:0:
297,130,219935,2,0,P|288:184|307:237,1,93.75,2|0,3:2|0:0,0:0:0:0:
219,205,220198,2,0,P|214:172|219:138,1,62.5,8|0,1:2|0:0,0:0:0:0:
416,114,220461,6,0,B|464:151|464:151|475:209|475:209|466:205,1,125,6|8,3:2|1:2,0:0:0:0:
319,310,220856,2,0,B|328:250|328:250|372:213|372:213|373:222,1,125,2|0,2:2|3:2,0:0:0:0:
479,319,221250,2,0,B|420:297,1,62.5,10|0,1:2|0:0,0:0:0:0:
188,335,221514,6,0,B|181:332|173:333|166:336|166:336|176:350|199:360|241:354,1,93.75,2|0,3:2|0:0,0:0:0:0:
319,310,221777,2,0,P|331:281|333:250,1,62.5,8|0,1:2|0:0,0:0:0:0:
175,225,222040,2,0,B|168:228|160:227|153:223|153:223|163:210|186:200|228:206,1,93.75,2|0,3:2|0:0,0:0:0:0:
306,250,222303,2,0,P|318:278|320:309,1,62.5,8|0,1:2|0:0,0:0:0:0:
488,339,222566,6,0,B|441:351|441:351|397:338,1,93.75,6|0,3:2|0:0,0:0:0:0:
319,309,222829,2,0,B|273:297|273:297|228:310,1,93.75,8|0,1:2|0:0,0:0:0:0:
158,340,223092,2,0,B|128:347|128:347|97:338,1,62.5,0|0,3:2|3:2,0:0:0:0:
160,150,223356,1,10,1:2:0:0:
211,245,223487,1,2,2:2:0:0:
268,154,223619,6,0,B|321:117,1,62.5,2|0,3:2|0:0,0:0:0:0:
217,59,223882,2,0,B|245:0,1,62.5,10|0,1:2|0:0,0:0:0:0:
76,2,224145,2,0,B|103:59,1,62.5,2|0,3:2|3:2,0:0:0:0:
0,118,224408,2,0,B|52:154,1,62.5,10|0,1:2|0:0,0:0:0:0:
198,289,224671,6,0,B|210:244|210:244|191:201,1,93.75,6|0,3:2|0:0,0:0:0:0:
112,209,224935,2,0,B|131:251|131:251|118:296,1,93.75,8|0,1:2|0:0,0:0:0:0:
39,291,225198,2,0,B|48:259|48:259|36:231,1,62.5,0|0,3:2|3:2,0:0:0:0:
7,27,225461,5,10,1:2:0:0:
112,87,225593,1,2,2:2:0:0:
217,26,225724,2,0,B|253:35|253:35|272:68,1,62.5,6|0,3:2|0:0,0:0:0:0:
376,243,225987,2,0,B|340:234|340:234|320:200,1,62.5,8|0,1:2|0:0,0:0:0:0:
364,52,226250,5,14,1:2:0:0:
235,210,226382,1,8,3:2:0:0:
356,47,226514,1,10,1:2:0:0:
242,214,226645,1,8,3:2:0:0:
466,236,226777,6,0,B|438:227|438:227|375:243,1,93.75,6|0,3:2|0:0,0:0:0:0:
318,300,227040,2,0,B|290:309|290:309|227:293,1,93.75,8|0,1:2|0:0,0:0:0:0:
165,241,227303,2,0,B|137:232|137:232|77:246,1,62.5,0|0,3:2|3:2,0:0:0:0:
4,384,227566,1,10,1:2:0:0:
95,340,227698,1,2,2:2:0:0:
104,239,227829,6,0,P|113:184|144:144,1,93.75,2|0,3:2|0:0,0:0:0:0:
194,87,228092,2,0,P|218:126|221:165,1,62.5,8|0,1:2|0:0,0:0:0:0:
339,239,228356,2,0,P|330:184|299:144,1,93.75,2|0,3:2|0:0,0:0:0:0:
249,87,228619,2,0,P|224:126|221:165,1,62.5,8|0,1:2|0:0,0:0:0:0:
148,328,228882,6,0,B|180:283|180:283|168:228|168:228|154:246,1,125,6|8,3:2|1:2,0:0:0:0:
0,197,229277,2,0,B|23:248|23:248|76:265|76:265|67:244,1,125,2|0,2:2|3:2,0:0:0:0:
136,125,229671,2,0,B|90:166,1,62.5,10|0,1:2|0:0,0:0:0:0:
1,1,229935,6,0,P|24:26|32:62,1,62.5,2|0,3:2|0:0,0:0:0:0:
0,197,230198,1,8,1:2:0:0:
0,197,230329,1,0,2:2:0:0:
197,199,230461,2,0,P|171:222|136:230,1,62.5,2|0,3:2|3:2,0:0:0:0:
0,197,230724,1,8,1:2:0:0:
0,197,230855,1,0,2:2:0:0:
140,60,230987,6,0,B|186:43|186:43|238:54,1,93.75,6|0,3:2|0:0,0:0:0:0:
276,130,231250,2,0,B|322:147|322:147|374:136,1,93.75,8|0,1:2|0:0,0:0:0:0:
408,65,231514,2,0,B|442:52|442:52|467:57,1,62.5,0|0,3:2|3:2,0:0:0:0:
364,221,231777,1,10,1:2:0:0:
263,209,231908,1,2,2:2:0:0:
203,291,232040,6,0,L|232:366,1,62.5,2|0,3:2|0:0,0:0:0:0:
173,215,232303,2,0,L|143:139,1,62.5,10|0,1:2|0:0,0:0:0:0:
117,33,232566,2,0,L|94:91,1,62.5,2|0,3:2|3:2,0:0:0:0:
43,225,232829,2,0,L|65:166,1,62.5,10|0,1:2|0:0,0:0:0:0:
203,6,233092,6,0,B|234:0|234:0|266:7,1,62.5,6|0,3:2|0:0,0:0:0:0:
392,93,233356,2,0,B|361:87|361:87|329:94,1,62.5,8|0,1:2|0:0,0:0:0:0:
210,178,233619,2,0,B|241:172|241:172|273:179,1,62.5,0|0,3:2|3:2,0:0:0:0:
506,289,233882,5,10,1:2:0:0:
438,330,234014,1,2,2:2:0:0:
364,299,234145,2,0,B|340:276|340:276|328:245,1,62.5,6|0,3:2|0:0,0:0:0:0:
392,93,234408,2,0,B|362:104|362:104|340:127,1,62.5,10|0,1:2|0:0,0:0:0:0:
255,276,234671,5,14,1:2:0:0:
286,83,234803,1,8,3:2:0:0:
263,277,234935,1,10,1:2:0:0:
279,82,235066,1,8,3:2:0:0:
430,201,235198,6,0,L|423:264,1,62.5,6|0,3:2|0:0,0:0:0:0:
263,277,235461,2,0,L|320:249,1,62.5,8|0,1:2|0:0,0:0:0:0:
416,335,235724,1,0,3:2:0:0:
414,360,235856,1,0,3:2:0:0:
412,384,235987,2,0,L|359:346,1,62.5,8|0,1:2|0:0,0:0:0:0:
144,214,236250,6,0,B|153:163|153:163|205:143|205:143|202:166,1,125,2|8,3:2|1:2,0:0:0:0:
172,327,236645,2,0,B|123:344|123:344|80:309|80:309|101:300,1,125,2|0,2:2|3:2,0:0:0:0:
256,247,237040,2,0,L|303:287,1,62.5,10|0,1:2|0:0,0:0:0:0:
136,150,237303,5,6,3:2:0:0:
127,144,237566,1,8,1:2:0:0:
118,138,237829,5,2,3:2:0:0:
281,104,237961,1,8,1:2:0:0:
300,199,238092,5,0,2:2:0:0:
190,73,238224,1,8,1:2:0:0:
273,3,238356,5,6,3:2:0:0:
268,8,238619,1,8,1:2:0:0:
263,13,238882,5,10,3:2:0:0:
209,169,239014,1,8,1:2:0:0:
258,18,239145,1,8,3:2:0:0:
207,162,239277,1,8,1:2:0:0:
55,141,239408,6,0,L|117:138,1,62.5,6|0,3:2|0:0,0:0:0:0:
229,255,239671,2,0,L|166:252,1,62.5,8|0,1:2|0:0,0:0:0:0:
35,355,239935,1,0,3:2:0:0:
52,356,240066,1,0,3:2:0:0:
69,357,240198,2,0,L|131:360,1,62.5,8|0,1:2|0:0,0:0:0:0:
426,256,240461,6,0,B|429:262|430:270|430:270|446:232|432:192|409:167,1,125,2|8,3:2|1:2,0:0:0:0:
278,57,240856,2,0,B|271:56|264:53|264:53|289:86|330:94|364:86,1,125,2|0,2:2|3:2,0:0:0:0:
490,39,241250,2,0,P|468:60|455:89,1,62.5,10|0,1:2|0:0,0:0:0:0:
512,289,241514,5,6,3:2:0:0:
503,288,241777,1,8,1:2:0:0:
493,288,242040,5,2,3:2:0:0:
314,284,242171,1,8,1:2:0:0:
401,375,242303,5,0,2:2:0:0:
405,196,242435,1,8,1:2:0:0:
226,170,242566,5,6,3:2:0:0:
226,181,242829,1,8,1:2:0:0:
226,192,243092,5,10,3:2:0:0:
405,196,243224,1,8,1:2:0:0:
225,202,243356,1,8,3:2:0:0:
404,206,243487,1,8,1:2:0:0:
315,352,243619,6,0,P|320:318|314:283,1,62.5,6|0,3:2|0:0,0:0:0:0:
224,140,243882,2,0,P|229:173|223:208,1,62.5,8|0,1:2|0:0,0:0:0:0:
107,359,244145,1,0,3:2:0:0:
125,356,244277,1,0,3:2:0:0:
142,347,244408,2,0,P|146:313|141:278,1,62.5,8|0,1:2|0:0,0:0:0:0:
226,81,244671,6,0,B|257:68|290:73|315:91|315:91|296:90|277:94|261:103,1,125,2|8,3:2|1:2,0:0:0:0:
345,249,245066,2,0,B|318:228|306:197|309:166|309:166|317:183|330:198|346:207,1,125,2|0,2:2|3:2,0:0:0:0:
392,108,245461,2,0,B|395:102|389:120|379:136|379:136|395:130|402:120,1,62.5,10|0,1:2|0:0,0:0:0:0:
512,0,245724,5,6,3:2:0:0:
498,9,245987,1,8,1:2:0:0:
484,19,246250,5,2,3:2:0:0:
307,137,246382,1,8,1:2:0:0:
345,14,246514,5,0,2:2:0:0:
512,146,246645,1,8,1:2:0:0:
427,223,246777,5,6,3:2:0:0:
415,221,247040,1,8,1:2:0:0:
403,219,247303,5,10,3:2:0:0:
199,202,247435,1,8,1:2:0:0:
375,96,247566,1,8,3:2:0:0:
295,286,247698,1,8,1:2:0:0:
249,86,247829,54,0,B|180:79,1,50,6|0,3:2|0:0,0:0:0:0:
64,158,248092,2,0,B|133:151,1,50,8|0,1:2|0:0,0:0:0:0:
272,209,248355,1,0,3:2:0:0:
309,144,248486,1,0,3:2:0:0:
261,208,248618,2,0,B|192:201,1,50,8|0,1:2|0:0,0:0:0:0:
67,290,248881,6,0,B|136:283,1,50,2|0,3:2|0:0,0:0:0:0:
246,346,249144,2,0,B|183:339,1,50,8|0,1:2|0:0,0:0:0:0:
313,271,249407,1,0,3:2:0:0:
262,347,249539,1,0,3:2:0:0:
331,269,249671,2,0,B|400:262,1,50,8|0,1:2|0:0,0:0:0:0:
481,366,249934,6,0,B|474:297,1,50,6|0,3:2|0:0,0:0:0:0:
385,214,250197,2,0,B|379:277,1,50,8|0,1:2|0:0,0:0:0:0:
463,163,250460,1,0,3:2:0:0:
386,201,250592,1,0,3:2:0:0:
461,148,250723,2,0,B|454:85,1,50,8|0,1:2|0:0,0:0:0:0:
317,42,250986,54,0,B|374:67,1,50,2|0,3:2|0:0,0:0:0:0:
182,101,251250,2,0,B|227:80,1,50,8|0,1:2|0:0,0:0:0:0:
38,32,251513,1,0,3:2:0:0:
25,116,251644,1,0,3:2:0:0:
51,38,251776,2,0,B|108:63,1,50,8|0,1:2|0:0,0:0:0:0:
277,145,252039,6,0,B|219:170,1,50,6|0,3:2|0:0,0:0:0:0:
89,166,252302,2,0,B|139:202,1,50,8|0,1:2|0:0,0:0:0:0:
200,335,252565,1,0,3:2:0:0:
112,366,252697,1,0,3:2:0:0:
202,319,252829,2,0,B|208:256,1,50,8|0,1:2|0:0,0:0:0:0:
360,169,253092,6,0,B|354:231,1,50,2|0,3:2|0:0,0:0:0:0:
432,370,253355,2,0,B|382:333,1,50,8|0,1:2|0:0,0:0:0:0:
207,338,253618,1,0,3:2:0:0:
290,384,253750,1,0,3:2:0:0:
221,332,253881,2,0,B|279:306,1,50,8|0,1:2|0:0,0:0:0:0:
464,279,254144,54,0,B|407:253,1,50,6|0,3:2|0:0,0:0:0:0:
445,100,254407,2,0,B|451:162,1,50,8|0,1:2|0:0,0:0:0:0:
289,212,254671,1,0,3:2:0:0:
282,126,254802,1,0,3:2:0:0:
300,206,254934,2,0,B|351:169,1,50,8|0,1:2|0:0,0:0:0:0:
185,274,255197,6,0,B|192:336,1,50,6|0,3:2|0:0,0:0:0:0:
173,165,255460,2,0,B|167:102,1,50,8|0,1:2|0:0,0:0:0:0:
186,282,255723,5,12,1:2:0:0:
172,157,255855,1,8,3:2:0:0:
187,288,255986,1,8,1:2:0:0:
172,150,256118,1,8,3:2:0:0:
60,233,256250,54,0,B|-3:239,1,50,6|0,3:2|0:0,0:0:0:0:
122,145,256513,2,0,B|185:151,1,50,8|0,1:2|0:0,0:0:0:0:
76,47,256776,1,0,3:2:0:0:
76,47,256907,1,0,3:2:0:0:
14,135,257039,1,8,1:2:0:0:
183,57,257302,6,0,B|246:51,1,50,2|0,3:2|0:0,0:0:0:0:
372,109,257565,2,0,B|309:103,1,50,8|0,1:2|0:0,0:0:0:0:
155,198,257829,1,0,3:2:0:0:
155,198,257960,1,0,3:2:0:0:
254,179,258092,1,8,1:2:0:0:
268,335,258355,6,0,B|262:271,1,50,6|0,3:2|0:0,0:0:0:0:
364,183,258618,2,0,B|358:246,1,50,8|0,1:2|0:0,0:0:0:0:
382,369,258881,1,0,3:2:0:0:
382,369,259013,1,0,3:2:0:0:
465,307,259144,1,8,1:2:0:0:
449,126,259407,54,0,B|443:63,1,50,2|0,3:2|0:0,0:0:0:0:
311,11,259671,2,0,B|305:74,1,50,8|0,1:2|0:0,0:0:0:0:
219,169,259934,1,0,3:2:0:0:
219,169,260065,1,0,3:2:0:0:
168,86,260197,1,8,1:2:0:0:
15,12,260460,6,0,B|72:38,1,50,6|0,3:2|0:0,0:0:0:0:
209,57,260723,2,0,B|157:93,1,50,8|0,1:2|0:0,0:0:0:0:
80,248,260986,1,0,3:2:0:0:
80,248,261118,1,0,3:2:0:0:
68,151,261250,1,8,1:2:0:0:
211,257,261513,6,0,B|159:293,1,50,2|0,3:2|0:0,0:0:0:0:
304,265,261776,2,0,B|297:202,1,50,8|0,1:2|0:0,0:0:0:0:
250,341,262039,1,0,3:2:0:0:
250,341,262171,1,0,3:2:0:0:
342,349,262302,1,8,1:2:0:0:
158,333,262565,54,0,B|106:329,1,50,6|0,3:2|0:0,0:0:0:0:
0,242,262829,2,0,B|52:238,1,50,8|0,1:2|0:0,0:0:0:0:
226,122,263092,1,0,3:2:0:0:
226,122,263223,1,0,3:2:0:0:
108,147,263355,1,8,1:2:0:0:
345,97,263618,6,0,B|316:56,1,50,6|0,3:2|0:0,0:0:0:0:
439,221,263881,2,0,B|467:261,1,50,8|0,1:2|0:0,0:0:0:0:
339,89,264144,5,12,1:2:0:0:
445,229,264276,1,8,3:2:0:0:
333,82,264407,1,8,1:2:0:0:
450,236,264539,1,8,3:2:0:0:
477,45,264671,6,0,P|442:37|410:47,1,62.5,6|0,3:2|0:0,0:0:0:0:
361,166,264934,2,0,P|326:174|294:164,1,62.5,8|0,1:2|0:0,0:0:0:0:
295,0,265197,1,0,3:2:0:0:
202,13,265329,1,0,3:2:0:0:
176,103,265460,2,0,P|141:111|109:101,1,62.5,8|0,1:2|0:0,0:0:0:0:
0,0,265723,6,0,P|24:26|31:59,1,62.5,2|0,3:2|0:0,0:0:0:0:
176,103,265986,2,0,P|151:129|144:162,1,62.5,8|0,1:2|0:0,0:0:0:0:
0,181,266250,1,0,3:2:0:0:
78,202,266381,1,0,3:2:0:0:
92,282,266513,2,0,P|82:311|60:333,1,62.5,8|0,1:2|0:0,0:0:0:0:
144,153,266776,6,0,P|174:147|204:155,1,62.5,6|0,3:2|0:0,0:0:0:0:
241,289,267039,2,0,P|271:294|301:286,1,62.5,8|0,1:2|0:0,0:0:0:0:
322,151,267302,1,0,3:2:0:0:
416,162,267434,1,0,3:2:0:0:
436,253,267565,2,0,P|466:258|496:250,1,62.5,8|0,1:2|0:0,0:0:0:0:
353,384,267829,6,0,P|344:354|349:323,1,50,2|0,3:2|0:0,0:0:0:0:
429,204,268092,2,0,P|437:233|432:264,1,50,10|0,1:2|0:0,0:0:0:0:
313,269,268355,2,0,P|342:260|373:265,1,50,2|0,3:2|3:2,0:0:0:0:
469,319,268618,2,0,P|439:327|408:322,1,50,10|0,1:2|0:0,0:0:0:0:
309,181,268881,38,0,P|316:150|336:126,1,62.5,6|0,3:2|0:0,0:0:0:0:
480,162,269144,2,0,P|450:170|419:165,1,62.5,8|0,1:2|0:0,0:0:0:0:
235,110,269407,1,0,3:2:0:0:
285,31,269539,1,0,3:2:0:0:
379,24,269671,2,0,P|401:45|412:74,1,62.5,8|0,1:2|0:0,0:0:0:0:
309,181,269934,6,0,P|286:202|275:231,1,62.5,2|0,3:2|0:0,0:0:0:0:
280,371,270197,2,0,P|272:340|252:316,1,62.5,8|0,1:2|0:0,0:0:0:0:
77,384,270460,1,0,3:2:0:0:
68,303,270592,1,0,3:2:0:0:
129,250,270723,2,0,P|158:258|189:253,1,62.5,8|0,1:2|0:0,0:0:0:0:
334,239,270986,6,0,B|302:249|269:236|252:210|252:210|252:210|252:210|233:182|199:172|170:181,1,187.5,6|0,3:2|0:0,0:0:0:0:
166,296,271513,2,0,P|176:266|198:244,1,50,2|0,3:2|3:2,0:0:0:0:
317,169,271776,2,0,P|332:149|339:125,1,50,10|0,1:2|0:0,0:0:0:0:
170,181,272039,2,0,B|199:172|233:182|252:210|252:210|252:210|252:210|269:236|302:249|334:239,1,187.5,6|0,3:2|0:0,0:0:0:0:
188,252,272565,53,14,1:2:0:0:
317,169,272697,1,8,3:2:0:0:
182,256,272829,1,8,1:2:0:0:
323,165,272960,1,8,3:2:0:0:
169,91,273092,6,0,P|139:96|103:122,1,62.5,6|0,3:2|0:0,0:0:0:0:
0,208,273355,2,0,P|30:213|66:239,1,62.5,8|0,1:2|0:0,0:0:0:0:
179,369,273618,1,0,3:2:0:0:
111,305,273750,1,0,3:2:0:0:
57,384,273881,2,0,P|27:379|-9:353,1,62.5,8|0,1:2|0:0,0:0:0:0:
171,225,274144,6,0,P|200:230|237:256,1,62.5,2|0,3:2|0:0,0:0:0:0:
272,384,274407,2,0,P|301:379|338:353,1,62.5,8|0,1:2|0:0,0:0:0:0:
359,220,274671,1,0,3:2:0:0:
377,296,274802,1,0,3:2:0:0:
455,302,274934,2,0,P|484:297|521:271,1,62.5,8|0,1:2|0:0,0:0:0:0:
356,137,275197,54,0,P|326:142|290:168,1,62.5,6|0,3:2|0:0,0:0:0:0:
260,291,275460,2,0,P|230:286|194:260,1,62.5,8|0,1:2|0:0,0:0:0:0:
99,109,275723,1,0,3:2:0:0:
171,171,275855,1,0,3:2:0:0:
83,204,275986,2,0,P|53:199|17:173,1,62.5,8|0,1:2|0:0,0:0:0:0:
196,75,276250,38,0,P|229:81|252:97,1,55.0000016784668,2|0,3:2|0:0,0:0:0:0:
322,217,276513,2,0,P|319:179|304:145,1,55.0000016784668,8|0,1:2|0:0,0:0:0:0:
446,97,276776,2,0,P|444:122|435:146,1,50,2|0,3:2|3:2,0:0:0:0:
322,217,277039,2,0,P|347:213|370:203,1,50,8|0,1:2|0:0,0:0:0:0:
235,333,277302,38,0,P|234:302|245:273,1,62.5,6|0,3:2|0:0,0:0:0:0:
189,139,277565,2,0,P|216:154|236:177,1,62.5,8|0,1:2|0:0,0:0:0:0:
452,311,277829,1,0,3:2:0:0:
447,234,277960,1,0,3:2:0:0:
380,196,278092,2,0,P|353:211|322:217,1,62.5,8|0,1:2|0:0,0:0:0:0:
166,209,278355,6,0,P|138:193|118:170,1,62.5,2|0,3:2|0:0,0:0:0:0:
212,58,278618,2,0,P|212:89|202:118,1,62.5,8|0,1:2|0:0,0:0:0:0:
81,259,278881,1,0,3:2:0:0:
22,183,279013,1,0,3:2:0:0:
59,94,279144,2,0,P|85:78|116:72,1,62.5,8|0,1:2|0:0,0:0:0:0:
296,108,279407,6,0,P|326:102|353:86,1,62.5,6|0,3:2|0:0,0:0:0:0:
461,0,279671,2,0,P|450:29|451:60,1,62.5,8|0,1:2|0:0,0:0:0:0:
386,256,279934,1,0,3:2:0:0:
481,300,280065,1,0,3:2:0:0:
472,196,280197,2,0,P|451:172|424:157,1,62.5,8|0,1:2|0:0,0:0:0:0:
178,94,280460,54,0,P|193:119|198:149,1,62.5,6|0,3:2|0:0,0:0:0:0:
212,325,280723,2,0,P|194:296|189:266,1,62.5,8|0,1:2|0:0,0:0:0:0:
316,184,280986,5,12,1:2:0:0:
219,330,281118,1,8,3:2:0:0:
73,234,281250,1,8,1:2:0:0:
170,88,281381,1,8,3:2:0:0:
