osu file format v14

[General]
AudioFilename: audio.mp3
AudioLeadIn: 0
PreviewTime: 57230
Countdown: 0
SampleSet: Soft
StackLeniency: 0.6
Mode: 0
LetterboxInBreaks: 0
WidescreenStoryboard: 1

[Editor]
Bookmarks: 2043,140043,156043,256043,265543
DistanceSpacing: 1.6
BeatDivisor: 8
GridSize: 32
TimelineZoom: 1.4

[Metadata]
Title:A rumor of Black Theater
TitleUnicode:A rumor of Black Theater
Artist:At the Garret x Kekkan Orgel
ArtistUnicode:At the Garret×欠陥オルゴール
Creator:Heratikus
Version:Insane
Source:
Tags:theatre japanese jp classical orchestral folk female vocals vocalist kekkan orugooru 兎角Arle arlequin invitations to
BeatmapID:2810337
BeatmapSetID:1341393

[Difficulty]
HPDrainRate:4.5
CircleSize:4.5
OverallDifficulty:7
ApproachRate:8.5
SliderMultiplier:1.8
SliderTickRate:1

[Events]
//Background and Video events
0,0,"rumor-ttk.jpg",0,0
//Break Periods
2,140243,155368
//Storyboard Layer 0 (Background)
//Storyboard Layer 1 (Fail)
//Storyboard Layer 2 (Pass)
//Storyboard Layer 3 (Foreground)
//Storyboard Layer 4 (Overlay)
//Storyboard Sound Samples

[TimingPoints]
2043,500,4,2,1,60,1,0
3793,-100,4,2,1,5,0,0
4043,-66.6666666666667,4,2,1,60,0,0
10043,-80,4,2,1,60,0,0
11293,-66.6666666666667,4,2,1,60,0,0
18043,-80,4,2,1,60,0,0
19043,-66.6666666666667,4,2,1,60,0,0
20043,-66.6666666666667,4,2,1,60,0,0
23793,-133.333333333333,4,2,1,40,0,0
32043,-111.111111111111,4,2,1,50,0,0
40043,-80,4,2,1,55,0,0
41043,-100,4,2,1,55,0,0
53543,-80,4,2,1,65,0,0
56043,-200,4,2,1,55,0,0
57293,-80,4,2,1,55,0,0
57543,-80,4,2,1,55,0,0
58043,-66.6666666666667,4,2,1,70,0,1
74043,-66.6666666666667,4,2,1,60,0,0
80043,-80,4,2,1,60,0,0
81293,-66.6666666666667,4,2,1,60,0,0
88043,-80,4,2,1,60,0,0
89043,-66.6666666666667,4,2,1,60,0,0
89543,-66.6666666666667,4,2,1,60,0,0
89793,-133.333333333333,4,2,1,40,0,0
98043,-111.111111111111,4,2,1,50,0,0
106043,-80,4,2,1,55,0,0
107043,-100,4,2,1,55,0,0
119543,-80,4,2,1,65,0,0
122043,-200,4,2,1,55,0,0
123293,-80,4,2,1,55,0,0
123543,-80,4,2,1,55,0,0
124043,-66.6666666666667,4,2,1,70,0,1
140043,-200,4,2,1,60,0,0
156043,-200,4,2,1,30,0,0
172043,-100,4,2,1,55,0,0
186043,-80,4,2,1,65,0,0
188043,-200,4,2,1,55,0,0
190043,-80,4,2,1,65,0,0
191043,-66.6666666666667,4,2,1,70,0,0
191543,-66.6666666666667,4,2,1,75,0,0
192043,-62.5,4,2,1,80,0,1
207793,-62.5,4,2,1,80,0,0
208043,-62.5,4,2,1,80,0,1
222043,-125,4,2,1,80,0,1
222418,-62.5,4,2,1,80,0,1
224043,-66.6666666666667,4,2,1,70,0,0
230043,-80,4,2,1,70,0,0
231293,-66.6666666666667,4,2,1,70,0,0
238043,-80,4,2,1,70,0,0
239293,-66.6666666666667,4,2,1,70,0,0
246043,-80,4,2,1,70,0,0
247293,-66.6666666666667,4,2,1,70,0,0
254043,-80,4,2,1,70,0,0
255293,-66.6666666666667,4,2,1,70,0,0
256043,-1000,4,2,1,70,0,0
265543,-1000,4,2,2,5,0,0

[Colours]
Combo1 : 26,116,242
Combo2 : 128,128,255
Combo3 : 230,219,26
Combo4 : 188,121,255
Combo5 : 164,164,164

[HitObjects]
256,192,2043,12,0,3793,0:0:0:0:
0,345,4043,5,6,1:2:0:0:
178,271,4293,2,0,L|111:268,1,67.5000025749208,8|0,2:2|0:0,0:0:0:0:
36,276,4543,5,2,1:2:0:0:
214,350,4793,2,0,L|147:353,1,67.5000025749208,8|0,2:2|0:0,0:0:0:0:
77,339,5043,5,2,1:2:0:0:
255,265,5293,1,8,2:2:0:0:
255,265,5418,1,8,2:2:0:0:
325,234,5543,6,0,P|362:229|393:234,1,67.5000025749208,2|0,1:2|0:0,0:0:0:0:
512,376,5793,2,0,P|474:380|443:375,1,67.5000025749208,10|0,2:2|0:0,0:0:0:0:
378,347,6043,5,6,1:2:0:0:
485,192,6293,2,0,L|482:267,1,67.5000025749208,8|0,2:2|0:0,0:0:0:0:
448,323,6543,5,2,1:2:0:0:
341,168,6793,2,0,L|344:243,1,67.5000025749208,8|0,2:2|0:0,0:0:0:0:
379,298,7043,5,2,1:2:0:0:
460,129,7293,1,8,2:2:0:0:
460,129,7418,1,8,2:2:0:0:
468,58,7543,5,6,1:2:0:0:
401,20,7668,1,2,2:2:0:0:
338,55,7793,1,10,2:2:0:0:
336,127,7918,1,2,2:2:0:0:
399,92,8043,5,6,1:2:0:0:
223,22,8293,2,0,L|290:26,1,67.5000025749208,8|0,2:2|0:0,0:0:0:0:
364,29,8543,5,2,1:2:0:0:
188,99,8793,2,0,L|255:95,1,67.5000025749208,8|0,2:2|0:0,0:0:0:0:
331,87,9043,5,2,1:2:0:0:
155,17,9293,1,8,2:2:0:0:
155,17,9418,1,8,2:2:0:0:
92,61,9543,6,0,P|74:102|70:142,1,67.5000025749208,2|0,1:2|0:0,0:0:0:0:
85,286,9793,2,0,P|102:244|106:204,1,67.5000025749208,10|0,2:2|0:0,0:0:0:0:
213,230,10043,6,0,L|180:346,1,112.5,6|8,1:2|2:2,0:0:0:0:
182,338,10418,1,8,2:2:0:0:
182,338,10543,6,0,L|298:307,1,112.5,2|8,1:2|2:2,0:0:0:0:
290,308,10918,1,8,2:2:0:0:
290,308,11043,1,2,1:2:0:0:
366,139,11293,6,0,P|378:177|379:220,1,67.5000025749208,14|0,2:2|0:0,0:0:0:0:
391,384,11543,2,0,P|378:345|377:302,1,67.5000025749208,6|0,2:2|0:0,0:0:0:0:
506,319,12043,5,6,1:2:0:0:
324,374,12293,2,0,L|393:384,1,67.5000025749208,8|0,2:2|0:0,0:0:0:0:
432,321,12543,5,2,1:2:0:0:
250,266,12793,2,0,L|319:256,1,67.5000025749208,8|0,2:2|0:0,0:0:0:0:
353,320,13043,5,2,1:2:0:0:
171,375,13293,1,8,2:2:0:0:
171,375,13418,1,8,2:2:0:0:
110,325,13543,6,0,P|104:287|107:252,1,67.5000025749208,2|0,1:2|0:0,0:0:0:0:
142,93,13793,2,0,P|148:131|145:166,1,67.5000025749208,10|0,2:2|0:0,0:0:0:0:
35,170,14043,5,6,1:2:0:0:
209,94,14293,2,0,L|140:92,1,67.5000025749208,8|0,2:2|0:0,0:0:0:0:
115,163,14543,5,2,1:2:0:0:
289,239,14793,2,0,L|220:241,1,67.5000025749208,8|0,2:2|0:0,0:0:0:0:
199,169,15043,5,2,1:2:0:0:
373,93,15293,1,8,2:2:0:0:
373,93,15418,1,8,2:2:0:0:
334,36,15543,5,6,1:2:0:0:
263,40,15668,1,2,2:2:0:0:
233,104,15793,1,10,2:2:0:0:
271,163,15918,1,2,2:2:0:0:
304,98,16043,5,6,1:2:0:0:
125,20,16293,2,0,L|199:28,1,67.5000025749208,8|0,2:2|0:0,0:0:0:0:
263,40,16543,5,2,1:2:0:0:
84,118,16793,2,0,L|158:110,1,67.5000025749208,8|0,2:2|0:0,0:0:0:0:
223,100,17043,5,2,1:2:0:0:
44,22,17293,1,8,2:2:0:0:
44,22,17418,1,8,2:2:0:0:
8,87,17543,6,0,P|1:122|13:164,1,67.5000025749208,2|0,1:2|0:0,0:0:0:0:
132,279,17793,2,0,P|139:244|127:202,1,67.5000025749208,10|0,2:2|0:0,0:0:0:0:
10,258,18043,6,0,L|10:384,1,112.5,6|8,1:2|2:2,0:0:0:0:
10,370,18418,1,8,2:2:0:0:
10,370,18543,6,0,L|119:307,1,112.5,2|8,1:2|2:2,0:0:0:0:
107,313,18918,1,8,2:2:0:0:
107,313,19043,1,2,1:2:0:0:
37,138,19293,6,0,P|74:153|106:183,1,67.5000025749208,14|0,2:2|0:0,0:0:0:0:
220,282,19543,2,0,P|182:266|150:236,1,67.5000025749208,6|0,2:2|0:0,0:0:0:0:
256,158,20043,5,6,2:2:0:0:
256,192,20168,12,4,21543,1:3:0:0:
256,226,21918,5,2,2:2:0:0:
256,226,22043,1,6,2:2:0:0:
256,192,22168,12,4,23543,1:3:0:0:
1,22,23793,5,10,2:2:0:0:
1,22,24043,2,0,P|47:12|105:21,1,101.250003862381,6|2,1:2|2:2,0:0:0:0:
179,71,24543,2,0,P|228:78|278:68,1,101.250003862381,2|2,1:2|2:2,0:0:0:0:
348,2,25043,2,0,P|367:0|391:4,1,33.7500012874604,2|0,1:2|0:0,0:0:0:0:
404,89,25293,2,0,P|385:87|361:91,1,33.7500012874604,10|8,2:2|2:2,0:0:0:0:
351,173,25543,2,0,P|370:175|394:171,1,33.7500012874604,2|0,1:1|0:0,0:0:0:0:
469,151,25793,1,10,2:2:0:0:
479,174,25918,1,2,2:2:0:0:
483,199,26043,6,0,P|481:236|465:270,2,67.5000025749208,6|10|0,1:2|2:2|1:2,0:0:0:0:
460,281,26668,2,0,P|451:298|448:315,2,33.7500012874604,2|10|2,2:2|2:2|2:2,0:0:0:0:
452,382,27043,1,2,1:2:0:0:
375,266,27293,1,10,2:2:0:0:
356,378,27543,2,0,L|364:333,1,33.7500012874604,4|0,1:2|2:2,0:0:0:0:
296,294,27793,2,0,L|288:339,1,33.7500012874604,10|0,2:2|2:2,0:0:0:0:
222,370,28043,6,0,P|177:382|118:366,1,101.250003862381,6|2,1:2|2:2,0:0:0:0:
103,277,28543,2,0,P|54:264|6:276,1,101.250003862381,2|2,1:2|2:2,0:0:0:0:
18,363,29043,2,0,P|40:358|55:348,1,33.7500012874604,2|0,1:2|0:0,0:0:0:0:
103,277,29293,2,0,P|115:257|118:240,1,33.7500012874604,10|8,2:2|2:2,0:0:0:0:
93,156,29543,1,2,1:1:0:0:
208,223,29793,1,10,2:2:0:0:
184,132,30043,6,0,P|189:87|222:34,1,101.250003862381,6|2,1:2|2:2,0:0:0:0:
120,55,30543,2,0,P|155:81|185:136,1,101.250003862381,2|2,1:2|2:2,0:0:0:0:
226,33,31043,5,2,1:2:0:0:
109,53,31293,1,10,2:2:0:0:
185,145,31543,1,6,2:2:0:0:
269,0,32043,6,0,P|280:50|266:119,1,121.499996292114,6|2,1:2|2:2,0:0:0:0:
175,171,32543,2,0,P|161:229|172:289,1,121.499996292114,2|2,1:2|2:2,0:0:0:0:
240,359,33043,2,0,P|265:368|293:371,1,40.4999987640381,2|0,1:2|0:0,0:0:0:0:
332,286,33293,2,0,P|305:281|279:270,1,40.4999987640381,10|8,2:2|2:2,0:0:0:0:
347,194,33543,2,0,P|373:198|399:209,1,40.4999987640381,2|0,1:1|0:0,0:0:0:0:
465,259,33793,1,10,2:2:0:0:
483,235,33918,1,2,2:2:0:0:
486,205,34043,6,0,P|477:171|443:137,2,80.9999975280763,6|10|0,1:2|2:2|1:2,0:0:0:0:
368,116,34668,2,0,P|345:95|336:77,2,40.4999987640381,2|10|2,2:2|2:2|2:2,0:0:0:0:
337,13,35043,1,2,1:2:0:0:
442,116,35293,1,10,2:2:0:0:
317,113,35543,1,4,1:2:0:0:
295,93,35668,1,0,2:2:0:0:
278,68,35793,1,10,2:2:0:0:
266,39,35918,1,0,2:2:0:0:
262,10,36043,6,0,P|210:23|158:66,1,121.499996292114,6|2,1:2|2:2,0:0:0:0:
134,162,36543,2,0,P|88:201|30:217,1,121.499996292114,2|2,1:2|2:2,0:0:0:0:
26,122,37043,2,0,P|44:118|64:100,1,40.4999987640381,2|0,1:2|0:0,0:0:0:0:
105,17,37293,2,0,P|120:4|140:-1,1,40.4999987640381,10|8,2:2|2:2,0:0:0:0:
239,21,37543,1,2,1:1:0:0:
241,154,37793,1,10,2:2:0:0:
311,86,38043,6,0,P|372:75|431:89,1,121.499996292114,6|2,1:2|2:2,0:0:0:0:
372,192,38543,2,0,P|331:145|314:87,1,121.499996292114,2|2,1:2|2:2,0:0:0:0:
429,88,39043,5,2,1:2:0:0:
372,192,39293,1,10,2:2:0:0:
310,86,39543,1,6,2:2:0:0:
249,357,40043,6,0,B|269:322|268:282|250:250|250:250|230:214|232:174|250:142,1,225,6|2,2:2|2:3,0:0:0:0:
250,141,40793,5,2,2:2:0:0:
249,152,40918,1,2,2:2:0:0:
244,157,41043,2,0,P|177:170|110:151,1,135,2|2,2:2|2:2,0:0:0:0:
50,107,41543,2,0,P|37:63|39:19,1,90,8|2,1:2|2:2,0:0:0:0:
113,152,42043,6,0,P|126:219|107:286,1,135,6|2,1:2|2:2,0:0:0:0:
33,319,42543,2,0,P|61:354|105:367,2,90,2|8|0,1:2|2:2|1:2,0:0:0:0:
187,310,43293,1,10,2:2:0:0:
187,310,43418,1,8,2:2:0:0:
187,310,43543,2,0,P|229:323|256:358,1,90,2|10,1:2|2:2,0:0:0:0:
322,265,44043,6,0,P|279:251|252:216,2,90,6|8|0,1:2|2:2|1:2,0:0:0:0:
334,98,44793,1,10,2:2:0:0:
334,98,44918,1,2,2:2:0:0:
334,98,45043,2,0,P|343:141|326:182,1,90,6|10,1:2|2:2,0:0:0:0:
184,172,45543,2,0,P|217:142|260:135,1,90,2|10,1:2|2:2,0:0:0:0:
415,175,46043,6,0,B|442:192|454:222|451:251|451:251|451:252|451:252|446:284|462:313|487:328,2,180,6|2|2,1:2|1:2|1:2,0:0:0:0:
387,322,47293,1,8,2:2:0:0:
387,322,47418,1,8,2:2:0:0:
387,322,47543,1,2,1:2:0:0:
326,195,47793,1,10,2:2:0:0:
302,330,48043,6,0,P|262:349|205:333,2,90,6|8|2,1:2|2:2|1:2,0:0:0:0:
199,201,48793,1,10,2:2:0:0:
199,201,48918,1,2,2:2:0:0:
199,201,49043,2,0,P|235:226|250:283,2,90,6|8|0,1:2|2:2|1:2,0:0:0:0:
139,355,49793,1,10,2:2:0:0:
139,355,49918,1,2,2:2:0:0:
139,355,50043,6,0,P|137:326|146:301,1,45,6|0,1:2|2:2,0:0:0:0:
234,239,50293,1,8,2:2:0:0:
173,88,50543,6,0,P|175:117|166:142,1,45,2|0,1:2|2:2,0:0:0:0:
78,204,50793,1,8,2:2:0:0:
50,373,51043,6,0,P|36:331|0:306,1,90,2|10,1:2|2:2,0:0:0:0:
0,305,51418,1,8,2:2:0:0:
0,305,51543,2,0,P|36:280|50:238,1,90,2|10,1:2|2:2,0:0:0:0:
2,96,52043,6,0,P|38:120|52:162,1,90,6|8,1:2|2:2,0:0:0:0:
90,80,52418,1,2,2:2:0:0:
84,85,52543,2,0,P|44:104|1:95,1,90,2|8,1:2|2:2,0:0:0:0:
53,168,52918,1,2,2:2:0:0:
51,160,53043,2,0,P|53:115|82:82,1,90,6|8,1:2|2:2,0:0:0:0:
153,61,53418,1,8,2:2:0:0:
196,123,53543,2,0,P|193:179|157:220,1,112.5,2|8,1:2|2:2,0:0:0:0:
207,350,54043,6,0,P|237:358|273:349,1,56.25,6|0,1:2|0:0,0:0:0:0:
327,319,54293,1,8,2:2:0:0:
327,319,54418,1,8,2:2:0:0:
377,262,54543,6,0,P|385:232|376:196,1,56.25,6|0,1:2|0:0,0:0:0:0:
346,142,54793,1,8,2:2:0:0:
346,142,54918,1,8,2:2:0:0:
280,177,55043,6,0,P|252:180|226:173,1,56.25,6|0,1:2|0:0,0:0:0:0:
168,126,55293,1,8,2:2:0:0:
168,126,55418,1,8,2:2:0:0:
156,200,55543,6,0,P|145:225|125:245,1,56.25,6|0,1:2|0:0,0:0:0:0:
55,271,55793,1,8,2:2:0:0:
55,271,55918,1,8,2:2:0:0:
55,271,56043,1,4,2:2:0:0:
217,356,56293,5,0,2:2:0:0:
239,352,56418,1,0,2:2:0:0:
262,348,56543,2,0,L|316:358,1,45,2|0,2:2|0:0,0:0:0:0:
386,372,56918,1,0,2:2:0:0:
386,372,57043,1,2,2:2:0:0:
347,238,57293,6,0,P|369:259|378:297,1,56.25,2|0,2:2|0:0,0:0:0:0:
266,224,57543,2,0,P|273:194|301:167,1,56.25,14|0,1:2|0:0,0:0:0:0:
295,302,57793,2,0,P|265:310|228:299,1,56.25,2|0,2:2|0:0,0:0:0:0:
230,150,58043,6,0,P|265:139|305:152,1,67.5000025749208,6|0,1:2|0:0,0:0:0:0:
360,194,58293,1,8,2:2:0:0:
159,158,58543,6,0,P|192:164|223:154,1,67.5000025749208,2|0,1:2|0:0,0:0:0:0:
287,93,58793,1,8,2:2:0:0:
308,77,58918,1,0,2:2:0:0:
329,61,59043,6,0,P|360:50|393:56,1,67.5000025749208,2|0,1:2|0:0,0:0:0:0:
459,101,59293,1,8,2:2:0:0:
428,70,59418,1,8,2:2:0:0:
391,48,59543,6,0,B|372:38|347:39|327:53|327:53|327:53|327:53|309:65|285:68|263:58,1,135.000005149842,2|8,1:2|2:2,0:0:0:0:
373,136,60043,5,6,1:2:0:0:
373,136,60168,1,2,2:2:0:0:
373,136,60293,2,0,P|390:197|372:268,1,135.000005149842,10|0,2:2|1:2,0:0:0:0:
244,340,60793,6,0,P|276:336|322:309,1,67.5000025749208,10|0,2:2|0:0,0:0:0:0:
196,271,61043,1,2,1:2:0:0:
186,281,61168,1,2,2:2:0:0:
176,291,61293,2,0,P|162:321|163:374,2,67.5000025749208,10|8|0,2:2|2:2|1:2,0:0:0:0:
30,197,61793,5,10,2:2:0:0:
0,384,62043,2,0,P|34:354|54:268,1,135.000005149842,6|8,1:2|2:2,0:0:0:0:
30,197,62418,1,2,2:2:0:0:
30,197,62543,1,2,1:2:0:0:
176,316,62793,5,10,2:2:0:0:
176,316,62918,1,2,2:2:0:0:
176,316,63043,2,0,P|142:286|123:246,1,67.5000025749208,2|0,1:2|0:0,0:0:0:0:
191,172,63293,6,0,P|199:216|225:252,1,67.5000025749208,10|8,2:2|2:2,0:0:0:0:
343,195,63543,2,0,P|300:180|255:184,1,67.5000025749208,2|0,1:2|0:0,0:0:0:0:
247,315,63793,2,0,P|281:285|299:245,1,67.5000025749208,10|0,2:2|0:0,0:0:0:0:
331,107,64043,6,0,P|324:62|301:24,1,67.5000025749208,6|0,1:2|0:0,0:0:0:0:
393,0,64293,1,8,2:2:0:0:
393,0,64418,1,8,2:2:0:0:
393,0,64543,2,0,P|416:66|420:132,1,135.000005149842,2|8,1:2|2:2,0:0:0:0:
420,130,64918,1,2,2:2:0:0:
416,224,65043,6,0,P|371:226|337:216,1,67.5000025749208,6|0,1:2|0:0,0:0:0:0:
230,127,65293,2,0,P|275:125|309:135,1,67.5000025749208,10|0,2:2|0:0,0:0:0:0:
293,299,65543,6,0,P|259:292|226:295,1,67.5000025749208,6|0,1:2|0:0,0:0:0:0:
102,206,65793,2,0,P|135:212|168:209,1,67.5000025749208,10|0,2:2|0:0,0:0:0:0:
141,66,66043,6,0,P|144:99|138:132,1,67.5000025749208,6|0,1:2|0:0,0:0:0:0:
90,203,66293,1,8,2:2:0:0:
134,0,66543,6,0,P|127:33|131:66,1,67.5000025749208,2|0,1:2|0:0,0:0:0:0:
186,140,66793,1,8,2:2:0:0:
205,159,66918,1,0,2:2:0:0:
223,178,67043,6,0,P|226:211|220:244,1,67.5000025749208,2|0,1:2|0:0,0:0:0:0:
173,315,67293,1,8,2:2:0:0:
208,284,67418,1,8,2:2:0:0:
228,242,67543,6,0,B|235:220|236:197|231:176|231:176|231:175|231:175|225:152|226:129|233:108,1,135.000005149842,2|8,1:2|2:2,0:0:0:0:
372,143,68043,6,0,P|335:148|302:141,1,67.5000025749208,6|2,1:2|2:2,0:0:0:0:
200,29,68293,2,0,B|223:22|246:23|266:30|266:30|289:37|312:36|332:30,1,135.000005149842,10|0,2:2|1:2,0:0:0:0:
140,94,68793,1,10,2:2:0:0:
119,301,69043,6,0,P|148:263|152:222,1,67.5000025749208,2|0,1:2|0:0,0:0:0:0:
162,175,69293,1,8,2:2:0:0:
162,175,69418,1,8,2:2:0:0:
162,175,69543,1,0,1:2:0:0:
40,324,69793,5,10,2:2:0:0:
251,299,70043,2,0,B|229:307|206:307|185:300|185:300|185:300|185:300|162:293|139:294|119:301,1,135.000005149842,6|8,1:2|2:2,0:0:0:0:
118,301,70418,1,2,2:2:0:0:
40,324,70543,2,0,P|37:287|55:246,1,67.5000025749208,2|0,1:2|0:0,0:0:0:0:
132,150,70793,1,10,2:2:0:0:
132,150,70918,1,2,2:2:0:0:
132,150,71043,2,0,P|134:186|116:227,1,67.5000025749208,2|0,1:2|0:0,0:0:0:0:
215,144,71293,6,0,P|207:111|188:83,1,67.5000025749208,10|8,2:2|2:2,0:0:0:0:
317,31,71543,2,0,P|292:53|278:83,1,67.5000025749208,2|0,1:2|0:0,0:0:0:0:
169,0,71793,2,0,P|200:10|234:7,1,67.5000025749208,10|0,2:2|0:0,0:0:0:0:
396,0,72043,6,0,P|420:22|434:52,1,67.5000025749208,6|0,1:2|0:0,0:0:0:0:
450,132,72293,1,8,2:2:0:0:
450,132,72418,1,8,2:2:0:0:
450,132,72543,2,0,P|442:164|398:197,1,67.5000025749208,2|0,1:2|0:0,0:0:0:0:
358,226,72793,1,8,2:2:0:0:
358,226,72918,1,8,2:2:0:0:
420,287,73043,6,0,P|438:316|446:361,1,67.5000025749208,6|0,1:2|0:0,0:0:0:0:
344,305,73293,1,10,2:2:0:0:
358,226,73418,1,2,2:2:0:0:
283,256,73543,2,0,P|248:257|205:241,1,67.5000025749208,6|0,1:2|0:0,0:0:0:0:
337,145,73793,2,0,P|371:143|414:159,1,67.5000025749208,10|0,2:2|0:0,0:0:0:0:
262,175,74043,5,6,1:2:0:0:
98,80,74293,2,0,L|177:88,1,67.5000025749208,8|0,2:2|0:0,0:0:0:0:
236,107,74543,5,2,1:2:0:0:
72,202,74793,2,0,L|151:194,1,67.5000025749208,8|0,2:2|0:0,0:0:0:0:
206,173,75043,5,2,1:2:0:0:
42,78,75293,1,8,2:2:0:0:
42,78,75418,1,8,2:2:0:0:
65,150,75543,6,0,P|72:192|65:232,1,67.5000025749208,2|0,1:2|0:0,0:0:0:0:
10,377,75793,2,0,P|3:335|10:295,1,67.5000025749208,10|0,2:2|0:0,0:0:0:0:
90,301,76043,5,6,1:2:0:0:
275,349,76293,2,0,L|204:361,1,67.5000025749208,8|0,2:2|0:0,0:0:0:0:
167,301,76543,5,2,1:2:0:0:
350,253,76793,2,0,L|279:241,1,67.5000025749208,8|0,2:2|0:0,0:0:0:0:
240,298,77043,5,2,1:2:0:0:
423,346,77293,1,8,2:2:0:0:
423,346,77418,1,8,2:2:0:0:
482,301,77543,5,6,1:2:0:0:
473,228,77668,1,2,2:2:0:0:
404,200,77793,1,10,2:2:0:0:
395,127,77918,1,2,2:2:0:0:
464,155,78043,5,6,1:2:0:0:
282,223,78293,2,0,L|358:248,1,67.5000025749208,8|0,2:2|0:0,0:0:0:0:
404,200,78543,5,2,1:2:0:0:
222,132,78793,2,0,L|298:107,1,67.5000025749208,8|0,2:2|0:0,0:0:0:0:
350,149,79043,5,2,1:2:0:0:
168,217,79293,1,8,2:2:0:0:
168,217,79418,1,8,2:2:0:0:
95,239,79543,6,0,P|90:205|101:173,1,67.5000025749208,2|0,1:2|0:0,0:0:0:0:
176,23,79793,2,0,P|180:56|169:88,1,67.5000025749208,10|0,2:2|0:0,0:0:0:0:
42,114,80043,6,0,L|62:4,1,112.5,6|8,1:2|2:2,0:0:0:0:
62,3,80418,1,8,2:2:0:0:
62,3,80543,6,0,L|148:75,1,112.5,2|8,1:2|2:2,0:0:0:0:
148,75,80918,1,8,2:2:0:0:
148,75,81043,1,2,1:2:0:0:
0,188,81293,6,0,P|35:196|71:191,1,67.5000025749208,14|0,2:2|0:0,0:0:0:0:
242,158,81543,2,0,P|207:150|171:155,1,67.5000025749208,6|0,2:2|0:0,0:0:0:0:
212,384,82043,5,6,1:2:0:0:
310,223,82293,2,0,L|318:294,1,67.5000025749208,8|0,2:2|0:0,0:0:0:0:
275,346,82543,5,2,1:2:0:0:
177,185,82793,2,0,L|169:256,1,67.5000025749208,8|0,2:2|0:0,0:0:0:0:
212,310,83043,5,2,1:2:0:0:
310,149,83293,1,8,2:2:0:0:
310,149,83418,1,8,2:2:0:0:
261,88,83543,6,0,P|291:73|328:73,1,67.5000025749208,2|0,1:2|0:0,0:0:0:0:
482,133,83793,2,0,P|452:148|415:148,1,67.5000025749208,10|0,2:2|0:0,0:0:0:0:
434,79,84043,5,6,1:2:0:0:
259,5,84293,2,0,L|332:1,1,67.5000025749208,8|0,2:2|0:0,0:0:0:0:
360,69,84543,5,2,1:2:0:0:
185,143,84793,2,0,L|258:146,1,67.5000025749208,8|0,2:2|0:0,0:0:0:0:
287,83,85043,5,2,1:2:0:0:
112,9,85293,1,8,2:2:0:0:
112,9,85418,1,8,2:2:0:0:
46,44,85543,5,6,1:2:0:0:
45,119,85668,1,2,2:2:0:0:
110,158,85793,1,10,2:2:0:0:
109,233,85918,1,2,2:2:0:0:
44,194,86043,5,6,1:2:0:0:
168,346,86293,2,0,L|166:275,1,67.5000025749208,8|0,2:2|0:0,0:0:0:0:
109,233,86543,5,2,1:2:0:0:
233,81,86793,2,0,L|231:152,1,67.5000025749208,8|0,2:2|0:0,0:0:0:0:
180,202,87043,5,2,1:2:0:0:
304,344,87293,1,8,2:2:0:0:
304,344,87418,1,8,2:2:0:0:
267,276,87543,6,0,P|262:243|269:202,1,67.5000025749208,2|0,1:2|0:0,0:0:0:0:
321,50,87793,2,0,P|326:83|319:124,1,67.5000025749208,10|0,2:2|0:0,0:0:0:0:
450,141,88043,6,0,L|450:26,1,112.5,6|8,1:2|2:2,0:0:0:0:
450,28,88418,1,8,2:2:0:0:
450,28,88543,6,0,L|350:85,1,112.5,2|8,1:2|2:2,0:0:0:0:
352,83,88918,1,8,2:2:0:0:
352,83,89043,1,2,1:2:0:0:
510,204,89293,6,0,P|472:210|433:201,1,67.5000025749208,14|0,2:2|0:0,0:0:0:0:
277,169,89543,2,0,P|315:163|354:172,1,67.5000025749208,6|0,2:2|0:0,0:0:0:0:
370,250,89793,5,10,2:2:0:0:
370,250,90043,2,0,P|332:260|267:248,1,101.250003862381,6|2,1:2|2:2,0:0:0:0:
192,202,90543,2,0,P|142:191|93:202,1,101.250003862381,2|2,1:2|2:2,0:0:0:0:
38,278,91043,2,0,P|34:305|38:320,1,33.7500012874604,2|0,1:2|0:0,0:0:0:0:
125,336,91293,2,0,P|129:309|125:294,1,33.7500012874604,10|8,2:2|2:2,0:0:0:0:
217,276,91543,2,0,P|221:303|217:318,1,33.7500012874604,2|0,1:1|0:0,0:0:0:0:
197,379,91793,1,10,2:2:0:0:
221,384,91918,1,2,2:2:0:0:
245,377,92043,6,0,P|283:362|317:369,2,67.5000025749208,6|10|0,1:2|2:2|1:2,0:0:0:0:
332,376,92668,2,0,P|353:380|376:377,2,33.7500012874604,2|10|2,2:2|2:2|2:2,0:0:0:0:
429,345,93043,1,2,1:2:0:0:
304,274,93293,1,10,2:2:0:0:
415,256,93543,2,0,L|371:263,1,33.7500012874604,4|0,1:2|2:2,0:0:0:0:
322,366,93793,2,0,L|366:359,1,33.7500012874604,10|0,2:2|2:2,0:0:0:0:
497,290,94043,6,0,P|501:246|478:192,1,101.250003862381,6|2,1:2|2:2,0:0:0:0:
401,139,94543,2,0,P|379:93|383:43,1,101.250003862381,2|2,1:2|2:2,0:0:0:0:
512,0,95043,2,0,P|502:20|486:32,1,33.7500012874604,2|0,1:2|0:0,0:0:0:0:
383,43,95293,2,0,P|360:44|342:36,1,33.7500012874604,10|8,2:2|2:2,0:0:0:0:
278,0,95543,1,2,1:1:0:0:
310,103,95793,1,10,2:2:0:0:
236,71,96043,6,0,P|182:76|138:107,1,101.250003862381,6|2,1:2|2:2,0:0:0:0:
217,166,96543,2,0,P|238:116|233:62,1,101.250003862381,2|2,1:2|2:2,0:0:0:0:
133,100,97043,5,2,1:2:0:0:
221,177,97293,1,10,2:2:0:0:
243,61,97543,1,6,2:2:0:0:
48,0,98043,6,0,P|30:51|44:119,1,121.499996292114,6|2,1:2|2:2,0:0:0:0:
133,187,98543,2,0,P|145:245|127:302,1,121.499996292114,2|2,1:2|2:2,0:0:0:0:
45,378,99043,2,0,P|32:360|26:329,1,40.4999987640381,2|0,1:2|0:0,0:0:0:0:
129,263,99293,2,0,P|131:285|120:314,1,40.4999987640381,10|8,2:2|2:2,0:0:0:0:
25,234,99543,2,0,P|31:214|43:198,1,40.4999987640381,2|0,1:1|0:0,0:0:0:0:
121,136,99793,1,10,2:2:0:0:
138,111,99918,1,2,2:2:0:0:
138,80,100043,6,0,P|124:49|69:28,2,80.9999975280763,6|10|0,1:2|2:2|1:2,0:0:0:0:
9,91,100668,2,0,P|25:104|44:112,2,40.4999987640381,2|10|2,2:2|2:2|2:2,0:0:0:0:
0,11,101043,1,2,1:2:0:0:
139,24,101293,1,10,2:2:0:0:
105,156,101543,1,4,1:2:0:0:
127,135,101668,1,0,2:2:0:0:
152,118,101793,1,10,2:2:0:0:
180,106,101918,1,0,2:2:0:0:
211,101,102043,6,0,P|263:121|316:170,1,121.499996292114,6|2,1:2|2:2,0:0:0:0:
343,274,102543,2,0,P|387:313|443:336,1,121.499996292114,2|2,1:2|2:2,0:0:0:0:
457,245,103043,2,0,P|438:237|423:224,1,40.4999987640381,2|0,1:2|0:0,0:0:0:0:
351,124,103293,2,0,P|370:132|385:145,1,40.4999987640381,10|8,2:2|2:2,0:0:0:0:
271,164,103543,1,2,1:1:0:0:
307,46,103793,1,10,2:2:0:0:
229,84,104043,6,0,P|169:79|121:42,1,121.499996292114,6|2,1:2|2:2,0:0:0:0:
142,161,104543,2,0,P|177:112|233:88,1,121.499996292114,2|2,1:2|2:2,0:0:0:0:
121,42,105043,5,2,1:2:0:0:
142,161,105293,1,10,2:2:0:0:
229,84,105543,1,6,2:2:0:0:
256,382,106043,6,0,B|292:352|312:311|295:266|261:245|220:250|204:290|218:313|258:299,1,225,6|2,2:2|2:3,0:0:0:0:
256,299,106793,5,2,2:2:0:0:
259,293,106918,1,2,2:2:0:0:
259,285,107043,2,0,L|259:147,1,135,2|2,2:2|2:2,0:0:0:0:
200,102,107543,2,0,P|152:91|111:93,1,90,8|2,1:2|2:2,0:0:0:0:
259,150,108043,6,0,P|322:161|398:144,1,135,6|2,1:2|2:2,0:0:0:0:
434,74,108543,2,0,P|460:98|476:153,2,90,2|8|0,1:2|2:2|1:2,0:0:0:0:
425,213,109293,1,10,2:2:0:0:
425,213,109418,1,8,2:2:0:0:
425,213,109543,2,0,P|436:257|467:289,1,90,2|10,1:2|2:2,0:0:0:0:
359,347,110043,6,0,P|347:304|316:272,2,90,6|8|0,1:2|2:2|1:2,0:0:0:0:
186,346,110793,1,10,2:2:0:0:
186,346,110918,1,2,2:2:0:0:
186,346,111043,2,0,P|228:358|272:348,1,90,6|10,1:2|2:2,0:0:0:0:
274,196,111543,2,0,P|242:228|230:270,1,90,2|10,1:2|2:2,0:0:0:0:
93,191,112043,6,0,B|120:175|135:147|136:118|136:118|136:116|136:116|137:85|154:58|179:43,2,180,6|2|2,1:2|1:2|1:2,0:0:0:0:
235,127,113293,1,8,2:2:0:0:
235,127,113418,1,8,2:2:0:0:
235,127,113543,1,2,1:2:0:0:
52,113,113793,1,10,2:2:0:0:
211,22,114043,6,0,P|255:19|301:46,2,90,6|8|2,1:2|2:2|1:2,0:0:0:0:
51,26,114793,1,10,2:2:0:0:
51,26,114918,1,2,2:2:0:0:
51,26,115043,6,0,P|90:47|134:44,2,90,6|8|0,1:2|2:2|1:2,0:0:0:0:
191,141,115793,1,10,2:2:0:0:
191,141,115918,1,2,2:2:0:0:
191,141,116043,6,0,P|195:118|193:96,1,45,6|0,1:2|2:2,0:0:0:0:
118,206,116293,1,8,2:2:0:0:
186,313,116543,6,0,P|182:336|184:358,1,45,2|0,1:2|2:2,0:0:0:0:
259,248,116793,1,8,2:2:0:0:
372,148,117043,6,0,P|350:109|314:84,1,90,2|10,1:2|2:2,0:0:0:0:
314,84,117418,1,8,2:2:0:0:
314,83,117543,2,0,P|358:83|398:63,1,90,2|10,1:2|2:2,0:0:0:0:
430,213,118043,6,0,P|391:232|346:232,1,90,6|8,1:2|2:2,0:0:0:0:
408,301,118418,1,2,2:2:0:0:
405,295,118543,2,0,P|407:251|430:213,1,90,2|8,1:2|2:2,0:0:0:0:
340,230,118918,1,2,2:2:0:0:
346,232,119043,2,0,P|383:257|404:296,1,90,6|8,1:2|2:2,0:0:0:0:
410,377,119418,1,8,2:2:0:0:
329,372,119543,2,0,P|282:342|255:293,1,112.5,2|8,1:2|2:2,0:0:0:0:
259,128,120043,6,0,P|259:170|246:200,1,56.25,6|0,1:2|0:0,0:0:0:0:
196,237,120293,1,8,2:2:0:0:
196,237,120418,1,8,2:2:0:0:
115,221,120543,6,0,P|79:201|59:174,1,56.25,6|0,1:2|0:0,0:0:0:0:
52,112,120793,1,8,2:2:0:0:
52,112,120918,1,8,2:2:0:0:
107,49,121043,6,0,P|143:28|175:25,1,56.25,6|0,1:2|0:0,0:0:0:0:
232,50,121293,1,8,2:2:0:0:
232,50,121418,1,8,2:2:0:0:
307,76,121543,6,0,P|333:67|357:51,1,56.25,6|0,1:2|0:0,0:0:0:0:
428,0,121793,1,8,2:2:0:0:
428,0,121918,1,8,2:2:0:0:
428,0,122043,1,4,2:2:0:0:
457,112,122293,5,0,2:2:0:0:
435,106,122418,1,0,2:2:0:0:
414,100,122543,2,0,L|364:114,1,45,2|0,2:2|0:0,0:0:0:0:
295,129,122918,1,0,2:2:0:0:
295,129,123043,1,2,2:2:0:0:
350,241,123293,6,0,P|353:205|343:179,1,56.25,2|0,2:2|0:0,0:0:0:0:
291,295,123543,2,0,P|320:317|348:321,1,56.25,14|0,1:2|0:0,0:0:0:0:
274,216,123793,2,0,P|240:232|222:254,1,56.25,2|0,2:2|0:0,0:0:0:0:
135,124,124043,6,0,P|174:106|196:80,1,67.5000025749208,6|0,1:2|0:0,0:0:0:0:
222,15,124293,1,8,2:2:0:0:
73,160,124543,6,0,P|97:136|129:124,1,67.5000025749208,2|0,1:2|0:0,0:0:0:0:
213,143,124793,1,8,2:2:0:0:
238,152,124918,1,0,2:2:0:0:
263,161,125043,6,0,P|294:150|318:126,1,67.5000025749208,2|0,1:2|0:0,0:0:0:0:
354,53,125293,1,8,2:2:0:0:
344,94,125418,1,8,2:2:0:0:
323,132,125543,6,0,B|310:152|290:164|268:167|268:167|268:167|268:167|244:171|224:184|212:203,1,135.000005149842,2|8,1:2|2:2,0:0:0:0:
250,81,126043,1,6,1:2:0:0:
250,81,126168,1,2,2:2:0:0:
250,81,126293,2,0,P|292:49|375:70,1,135.000005149842,10|0,2:2|1:2,0:0:0:0:
368,200,126793,6,0,P|389:175|398:142,1,67.5000025749208,10|0,2:2|0:0,0:0:0:0:
282,194,127043,1,2,1:2:0:0:
281,207,127168,1,2,2:2:0:0:
282,220,127293,2,0,P|293:252|317:276,2,67.5000025749208,10|8|0,2:2|2:2|1:2,0:0:0:0:
439,295,127793,5,10,2:2:0:0:
256,356,128043,2,0,P|314:373|397:348,1,135.000005149842,6|8,1:2|2:2,0:0:0:0:
439,295,128418,1,2,2:2:0:0:
439,295,128543,1,2,1:2:0:0:
294,168,128793,5,10,2:2:0:0:
294,168,128918,1,2,2:2:0:0:
294,168,129043,2,0,P|306:208|302:234,1,67.5000025749208,2|0,1:2|0:0,0:0:0:0:
197,268,129293,6,0,P|216:241|222:208,1,67.5000025749208,10|8,2:2|2:2,0:0:0:0:
99,153,129543,2,0,P|113:184|138:205,1,67.5000025749208,2|0,1:2|0:0,0:0:0:0:
248,125,129793,2,0,P|214:122|183:134,1,67.5000025749208,10|0,2:2|0:0,0:0:0:0:
64,237,130043,6,0,P|32:249|0:246,1,67.5000025749208,6|0,1:2|0:0,0:0:0:0:
29,161,130293,1,8,2:2:0:0:
29,161,130418,1,8,2:2:0:0:
29,161,130543,2,0,P|48:134|25:36,1,135.000005149842,2|8,1:2|2:2,0:0:0:0:
30,41,130918,1,2,2:2:0:0:
124,28,131043,6,0,P|139:63|142:101,1,67.5000025749208,6|0,1:2|0:0,0:0:0:0:
134,236,131293,2,0,P|119:201|116:163,1,67.5000025749208,10|0,2:2|0:0,0:0:0:0:
280,130,131543,6,0,P|284:164|298:194,1,67.5000025749208,6|0,1:2|0:0,0:0:0:0:
286,339,131793,2,0,P|281:306|267:276,1,67.5000025749208,10|0,2:2|0:0,0:0:0:0:
143,343,132043,6,0,P|173:330|206:325,1,67.5000025749208,6|0,1:2|0:0,0:0:0:0:
286,339,132293,1,8,2:2:0:0:
72,366,132543,6,0,P|105:362|135:348,1,67.5000025749208,2|0,1:2|0:0,0:0:0:0:
195,282,132793,1,8,2:2:0:0:
209,259,132918,1,0,2:2:0:0:
223,236,133043,6,0,P|253:223|286:218,1,67.5000025749208,2|0,1:2|0:0,0:0:0:0:
366,238,133293,1,8,2:2:0:0:
327,218,133418,1,8,2:2:0:0:
284,211,133543,6,0,B|261:211|239:218|221:229|221:229|220:230|220:230|200:242|178:248|156:249,1,135.000005149842,2|8,1:2|2:2,0:0:0:0:
168,106,134043,6,0,P|161:141|174:191,1,67.5000025749208,6|2,1:2|2:2,0:0:0:0:
316,178,134293,2,0,B|325:156|325:133|318:112|318:112|311:89|312:66|320:46,1,135.000005149842,10|0,2:2|1:2,0:0:0:0:
238,229,134793,1,10,2:2:0:0:
221,31,135043,6,0,P|188:16|148:15,1,67.5000025749208,2|0,1:2|0:0,0:0:0:0:
80,32,135293,1,8,2:2:0:0:
80,32,135418,1,8,2:2:0:0:
80,32,135543,1,0,1:2:0:0:
257,108,135793,5,10,2:2:0:0:
460,75,136043,2,0,B|437:82|414:81|394:74|394:74|372:65|348:65|328:72,1,135.000005149842,6|8,1:2|2:2,0:0:0:0:
327,72,136418,1,2,2:2:0:0:
257,108,136543,2,0,P|285:139|313:151,1,67.5000025749208,2|0,1:2|0:0,0:0:0:0:
435,205,136793,1,10,2:2:0:0:
435,205,136918,1,2,2:2:0:0:
435,205,137043,2,0,P|407:174|379:162,1,67.5000025749208,2|0,1:2|0:0,0:0:0:0:
295,229,137293,6,0,P|328:228|359:240,1,67.5000025749208,10|8,2:2|2:2,0:0:0:0:
260,352,137543,2,0,P|242:324|236:291,1,67.5000025749208,2|0,1:2|0:0,0:0:0:0:
384,321,137793,2,0,P|368:351|342:372,1,67.5000025749208,10|0,2:2|0:0,0:0:0:0:
175,375,138043,6,0,P|169:342|151:314,1,67.5000025749208,6|0,1:2|0:0,0:0:0:0:
78,266,138293,1,8,2:2:0:0:
78,266,138418,1,8,2:2:0:0:
78,266,138543,2,0,P|46:255|13:256,1,67.5000025749208,2|0,1:2|0:0,0:0:0:0:
36,331,138793,1,8,2:2:0:0:
36,331,138918,1,8,2:2:0:0:
99,372,139043,6,0,P|130:384|163:383,1,67.5000025749208,6|0,1:2|0:0,0:0:0:0:
149,235,139293,1,10,2:2:0:0:
142,310,139418,1,2,2:2:0:0:
210,279,139543,2,0,P|243:278|274:290,1,67.5000025749208,6|0,1:2|0:0,0:0:0:0:
81,266,139793,2,0,P|47:268|16:256,1,67.5000025749208,10|0,2:2|0:0,0:0:0:0:
149,235,140043,1,6,2:2:0:0:
0,4,156043,6,0,P|26:7|48:5,1,45,0|0,2:2|0:0,0:0:0:0:
89,8,156543,2,0,P|63:5|41:7,1,45,2|0,2:2|0:0,0:0:0:0:
65,78,157043,1,0,2:2:0:0:
106,79,157293,1,0,2:2:0:0:
144,63,157543,2,0,P|159:41|168:21,1,45,2|0,2:2|0:0,0:0:0:0:
243,60,158043,6,0,P|233:80|220:98,1,45,2|0,2:2|0:0,0:0:0:0:
197,136,158543,2,0,P|206:115|219:97,1,45,2|0,2:2|0:0,0:0:0:0:
275,152,159043,1,2,2:2:0:0:
258,190,159293,1,0,2:2:0:0:
221,211,159543,1,0,2:2:0:0:
179,216,159793,1,0,2:2:0:0:
208,283,160043,6,0,P|235:283|257:274,2,45,0|0|2,2:2|2:2|2:2,0:0:0:0:
314,232,161043,1,0,2:2:0:0:
420,283,161543,6,0,P|393:283|371:274,1,45,2|0,2:2|2:2,0:0:0:0:
372,187,162043,2,0,P|387:203|406:214,1,45,2|0,2:2|0:0,0:0:0:0:
450,219,162543,2,0,P|427:220|406:213,1,45,2|0,2:2|0:0,0:0:0:0:
450,219,163043,5,0,2:2:0:0:
457,177,163293,1,0,2:2:0:0:
441,137,163543,1,2,2:2:0:0:
408,109,163793,1,0,2:2:0:0:
366,102,164043,2,0,P|340:110|320:126,1,45,0|0,2:2|0:0,0:0:0:0:
265,88,164543,6,0,P|271:61|267:36,1,45,0|0,2:2|2:2,0:0:0:0:
274,0,165043,2,0,P|267:26|271:51,1,45,2|0,2:2|2:2,0:0:0:0:
298,122,165543,2,0,P|299:144|293:166,1,45,2|0,2:2|0:0,0:0:0:0:
182,157,166043,6,0,P|180:134|186:112,1,45,2|0,2:2|0:0,0:0:0:0:
79,104,166543,2,0,P|80:126|74:148,1,45,0|0,2:2|2:2,0:0:0:0:
66,34,167043,2,0,B|81:30|97:32|110:38|110:38|124:44|139:45|153:41,2,90,2|2|2,2:2|2:2|2:2,0:0:0:0:
153,40,168543,6,0,P|200:33|243:41,1,90,2|0,2:2|0:0,0:0:0:0:
312,62,169293,2,0,P|334:66|357:64,2,45,2|2|0,2:2|2:2|2:2,0:0:0:0:
311,144,170043,6,0,B|326:140|342:142|355:147|355:147|370:152|385:152|399:149,1,90,2|0,2:2|2:2,0:0:0:0:
479,252,171043,2,0,B|464:248|448:250|435:255|435:255|420:260|405:260|391:257,1,90,2|0,2:2|2:2,0:0:0:0:
512,384,172043,6,0,P|491:354|477:295,2,90,6|8|0,1:2|2:2|1:2,0:0:0:0:
508,234,172793,1,10,2:2:0:0:
508,234,172918,1,2,2:2:0:0:
508,234,173043,1,2,1:2:0:0:
419,363,173293,5,8,2:2:0:0:
419,363,173418,1,8,2:2:0:0:
419,363,173543,2,0,P|376:350|331:352,1,90,2|8,1:2|2:2,0:0:0:0:
209,384,174043,6,0,P|241:353|261:313,1,90,6|8,1:2|2:2,0:0:0:0:
227,232,174543,2,0,P|237:275|261:313,1,90,2|8,1:2|2:2,0:0:0:0:
123,269,175043,1,2,1:2:0:0:
178,139,175293,1,8,2:2:0:0:
178,139,175418,1,8,2:2:0:0:
178,139,175543,2,0,P|220:125|265:126,1,90,2|10,1:2|2:2,0:0:0:0:
85,120,176043,5,6,1:2:0:0:
64,129,176168,1,2,2:2:0:0:
43,135,176293,2,0,P|51:102|27:45,1,90,10|0,2:2|1:2,0:0:0:0:
51,220,176793,6,0,P|83:211|105:193,1,45,10|2,2:2|2:2,0:0:0:0:
172,139,177043,1,6,1:2:0:0:
121,284,177293,1,10,2:2:0:0:
121,284,177418,1,8,2:2:0:0:
121,284,177543,2,0,P|111:335|122:381,1,90,2|10,1:2|2:2,0:0:0:0:
274,376,178043,6,0,B|287:347|287:316|277:288|277:288|265:258|267:227|279:200,2,180,6|2|2,1:2|1:2|1:2,0:0:0:0:
370,254,179293,1,8,2:2:0:0:
370,254,179418,1,8,2:2:0:0:
370,254,179543,2,0,P|390:207|376:158,1,90,2|10,1:2|2:2,0:0:0:0:
355,8,180043,6,0,P|335:55|349:104,2,90,6|8|0,1:2|2:2|1:2,0:0:0:0:
497,30,180793,1,10,2:2:0:0:
497,30,180918,1,2,2:2:0:0:
497,30,181043,2,0,P|462:57|417:60,1,90,6|10,1:2|2:2,0:0:0:0:
410,59,181418,1,8,2:2:0:0:
417,60,181543,2,0,P|458:76|483:113,1,90,2|10,1:2|2:2,0:0:0:0:
492,206,182043,5,6,1:2:0:0:
492,206,182168,1,2,2:2:0:0:
492,206,182293,2,0,P|466:242|425:259,1,90,10|0,2:2|1:2,0:0:0:0:
283,317,182793,2,0,P|308:280|349:263,1,90,10|2,2:2|1:2,0:0:0:0:
440,348,183293,1,8,2:2:0:0:
440,348,183418,1,8,2:2:0:0:
440,348,183543,2,0,P|403:331|351:337,1,90,2|10,1:2|2:2,0:0:0:0:
232,374,184043,6,0,P|187:379|146:361,2,90,6|8|0,1:2|2:2|1:2,0:0:0:0:
169,219,184793,1,2,2:2:0:0:
169,219,184918,1,2,2:2:0:0:
169,219,185043,2,0,P|195:255|200:299,1,90,6|8,1:2|2:2,0:0:0:0:
146,361,185418,1,8,2:2:0:0:
63,364,185543,2,0,P|36:327|31:283,1,90,2|10,1:2|2:2,0:0:0:0:
123,145,186043,6,0,P|98:150|61:143,1,56.25,6|0,1:2|0:0,0:0:0:0:
1,114,186293,1,8,2:2:0:0:
1,114,186418,1,8,2:2:0:0:
66,73,186543,6,0,P|90:67|127:74,1,56.25,4|0,1:2|0:0,0:0:0:0:
195,109,186793,1,8,2:2:0:0:
195,109,186918,1,8,2:2:0:0:
266,143,187043,6,0,P|293:147|321:141,1,56.25,6|0,1:2|0:0,0:0:0:0:
381,90,187293,1,8,2:2:0:0:
381,90,187418,1,8,2:2:0:0:
321,141,187543,6,0,P|303:162|294:189,1,56.25,4|0,1:2|0:0,0:0:0:0:
307,276,187793,1,8,2:2:0:0:
307,276,187918,1,8,2:2:0:0:
307,276,188043,1,6,2:2:0:0:
432,290,188293,5,0,2:2:0:0:
425,268,188418,1,0,2:2:0:0:
420,247,188543,2,0,L|435:196,1,45,2|0,2:2|0:0,0:0:0:0:
458,131,188918,1,0,2:2:0:0:
458,131,189043,1,2,2:2:0:0:
438,49,189293,1,2,2:2:0:0:
379,147,189543,1,2,2:2:0:0:
359,65,189793,1,2,2:2:0:0:
317,205,190043,6,0,P|293:227|260:237,1,56.25,6|0,1:2|0:0,0:0:0:0:
201,260,190293,1,8,2:2:0:0:
201,260,190418,1,8,2:2:0:0:
201,260,190543,6,0,P|175:270|155:290,1,56.25,2|0,1:2|0:0,0:0:0:0:
124,366,190793,1,8,2:2:0:0:
124,366,190918,1,8,2:2:0:0:
80,297,191043,6,0,P|73:269|85:220,1,67.5000025749208,6|0,1:2|0:0,0:0:0:0:
119,140,191293,6,0,P|91:146|42:134,1,67.5000025749208,10|0,2:2|0:0,0:0:0:0:
162,77,191543,2,0,P|181:97|195:145,1,67.5000025749208,2|0,1:2|0:0,0:0:0:0:
86,72,191793,2,0,P|93:45|128:8,1,67.5000025749208,10|0,2:2|0:0,0:0:0:0:
244,83,192043,6,0,P|236:109|196:151,1,72,6|0,1:2|0:0,0:0:0:0:
133,183,192293,1,8,2:2:0:0:
281,16,192543,6,0,P|256:42|245:76,1,72,2|0,1:2|0:0,0:0:0:0:
256,168,192793,1,8,2:2:0:0:
273,192,192918,1,0,2:2:0:0:
288,217,193043,6,0,P|276:250|252:277,1,72,2|0,1:2|0:0,0:0:0:0:
172,308,193293,1,8,2:2:0:0:
217,300,193418,1,8,2:2:0:0:
258,283,193543,6,0,B|278:268|290:246|294:223|294:223|294:223|294:223|297:197|310:176|329:162,1,144,2|8,1:2|2:2,0:0:0:0:
197,209,194043,5,6,1:2:0:0:
197,209,194168,1,2,2:2:0:0:
197,209,194293,2,0,P|150:226|58:210,1,144,10|0,2:2|1:2,0:0:0:0:
89,70,194793,6,0,P|112:61|158:69,1,72,10|0,2:2|0:0,0:0:0:0:
240,132,195043,1,2,1:2:0:0:
240,132,195168,1,2,2:2:0:0:
240,132,195293,2,0,P|274:140|308:131,2,72,10|8|0,2:2|2:2|1:2,0:0:0:0:
384,45,195793,5,10,2:2:0:0:
451,243,196043,2,0,P|412:204|381:117,1,144,6|8,1:2|2:2,0:0:0:0:
384,45,196418,1,2,2:2:0:0:
384,45,196543,1,2,1:2:0:0:
326,213,196793,5,10,2:2:0:0:
326,213,196918,1,2,2:2:0:0:
326,213,197043,2,0,P|321:253|331:291,1,72,2|0,1:2|0:0,0:0:0:0:
262,341,197293,6,0,P|243:305|240:265,1,72,10|8,2:2|2:2,0:0:0:0:
105,318,197543,2,0,P|145:320|180:336,1,72,2|0,1:2|0:0,0:0:0:0:
203,194,197793,2,0,P|181:227|149:250,1,72,10|0,2:2|0:0,0:0:0:0:
189,108,198043,5,6,1:2:0:0:
72,243,198293,1,8,2:2:0:0:
72,243,198418,1,8,2:2:0:0:
72,243,198543,2,0,P|32:192|13:111,1,144,2|8,1:2|2:2,0:0:0:0:
13,116,198918,1,2,2:2:0:0:
59,31,199043,6,0,P|94:22|137:31,1,72,6|0,1:2|0:0,0:0:0:0:
138,196,199293,2,0,P|103:205|60:196,1,72,10|0,2:2|0:0,0:0:0:0:
222,111,199543,6,0,P|257:116|291:107,1,72,6|0,1:2|0:0,0:0:0:0:
304,274,199793,2,0,P|268:268|234:277,1,72,10|0,2:2|0:0,0:0:0:0:
384,231,200043,6,0,P|386:199|376:160,1,72,6|0,1:2|0:0,0:0:0:0:
325,90,200293,1,8,2:2:0:0:
389,307,200543,6,0,P|378:272|381:236,1,72,2|0,1:2|0:0,0:0:0:0:
427,159,200793,1,8,2:2:0:0:
443,136,200918,1,0,2:2:0:0:
461,114,201043,6,0,P|463:78|453:43,1,72,2|0,1:2|0:0,0:0:0:0:
379,0,201293,1,8,2:2:0:0:
422,18,201418,1,8,2:2:0:0:
460,44,201543,6,0,B|471:67|473:92|468:114|468:114|461:139|465:163|475:184,1,144,2|8,1:2|2:2,0:0:0:0:
374,88,202043,5,6,1:2:0:0:
374,88,202168,1,2,2:2:0:0:
374,88,202293,2,0,B|350:78|325:79|304:87|304:87|280:96|255:95|233:86,1,144,10|0,2:2|1:2,0:0:0:0:
394,231,202793,1,10,2:2:0:0:
240,382,203043,6,0,P|254:340|253:305,1,72,2|0,1:2|0:0,0:0:0:0:
241,234,203293,1,8,2:2:0:0:
241,234,203418,1,8,2:2:0:0:
241,234,203543,1,0,1:2:0:0:
92,381,203793,5,10,2:2:0:0:
67,167,204043,2,0,B|71:192|68:216|59:237|59:237|59:238|59:238|48:263|47:290|53:315,1,144,6|8,1:2|2:2,0:0:0:0:
51,308,204418,1,2,2:2:0:0:
92,381,204543,2,0,P|123:352|134:307,1,72,2|0,1:2|0:0,0:0:0:0:
142,188,204793,1,10,2:2:0:0:
142,188,204918,1,2,2:2:0:0:
142,188,205043,2,0,P|151:229|185:261,1,72,2|0,1:2|0:0,0:0:0:0:
293,214,205293,6,0,P|257:209|228:188,1,72,10|8,2:2|2:2,0:0:0:0:
360,169,205543,2,0,P|373:202|370:237,1,72,2|0,1:2|0:0,0:0:0:0:
288,134,205793,2,0,P|309:105|342:90,1,72,10|0,2:2|0:0,0:0:0:0:
483,39,206043,6,0,P|461:67|428:82,1,72,6|0,1:2|0:0,0:0:0:0:
342,90,206293,1,8,2:2:0:0:
342,90,206418,1,8,2:2:0:0:
342,90,206543,6,0,P|306:85|277:64,1,72,2|0,1:2|0:0,0:0:0:0:
337,14,206793,1,8,2:2:0:0:
337,14,206918,1,8,2:2:0:0:
259,35,207043,5,6,1:2:0:0:
239,114,207168,1,2,2:2:0:0:
297,170,207293,1,10,2:2:0:0:
374,147,207418,1,2,2:2:0:0:
393,69,207543,6,0,P|353:68|318:88,1,72,6|0,1:2|0:0,0:0:0:0:
220,193,207793,2,0,P|219:233|239:268,1,72,10|0,2:2|0:0,0:0:0:0:
54,124,208043,6,0,P|63:160|50:207,1,72,6|0,1:2|0:0,0:0:0:0:
4,263,208293,1,8,2:2:0:0:
49,49,208543,6,0,P|42:84|51:118,1,72,2|0,1:2|0:0,0:0:0:0:
112,188,208793,1,8,2:2:0:0:
134,207,208918,1,0,2:2:0:0:
154,228,209043,6,0,P|162:262|156:297,1,72,2|0,1:2|0:0,0:0:0:0:
111,372,209293,1,8,2:2:0:0:
140,336,209418,1,8,2:2:0:0:
162,296,209543,6,0,B|171:273|170:248|160:227|160:227|160:226|160:226|148:203|148:178|157:156,1,144,2|8,1:2|2:2,0:0:0:0:
38,297,210043,1,6,1:2:0:0:
38,297,210168,1,2,2:2:0:0:
38,297,210293,2,0,B|29:274|30:249|40:228|40:228|40:227|40:227|52:204|52:179|43:157,1,144,10|0,2:2|1:2,0:0:0:0:
97,353,210793,6,0,P|134:363|180:351,1,72,10|0,2:2|0:0,0:0:0:0:
243,306,211043,1,2,1:2:0:0:
243,306,211168,1,2,2:2:0:0:
243,306,211293,2,0,P|278:300|312:310,2,72,10|8|0,2:2|2:2|1:2,0:0:0:0:
409,384,211793,5,10,2:2:0:0:
445,181,212043,2,0,P|463:248|453:323,1,144,6|8,1:2|2:2,0:0:0:0:
409,384,212418,1,2,2:2:0:0:
409,384,212543,1,2,1:2:0:0:
363,183,212793,5,10,2:2:0:0:
363,183,212918,1,2,2:2:0:0:
363,183,213043,2,0,P|370:142|398:112,1,72,2|0,1:2|0:0,0:0:0:0:
289,82,213293,6,0,P|282:123|254:153,1,72,10|8,2:2|2:2,0:0:0:0:
130,94,213543,2,0,P|169:79|208:88,1,72,2|0,1:2|0:0,0:0:0:0:
220,226,213793,2,0,P|187:199|176:160,1,72,10|0,2:2|0:0,0:0:0:0:
305,244,214043,5,6,1:2:0:0:
126,246,214293,1,8,2:2:0:0:
126,246,214418,1,8,2:2:0:0:
126,246,214543,2,0,P|151:290|236:323,1,144,2|8,1:2|2:2,0:0:0:0:
234,323,214918,1,2,2:2:0:0:
144,384,215043,6,0,P|154:346|149:310,1,72,6|0,1:2|0:0,0:0:0:0:
36,202,215293,2,0,P|26:240|31:276,1,72,10|0,2:2|0:0,0:0:0:0:
210,247,215543,6,0,P|206:211|216:176,1,72,6|0,1:2|0:0,0:0:0:0:
121,60,215793,2,0,P|124:95|114:130,1,72,10|0,2:2|0:0,0:0:0:0:
290,132,216043,6,0,P|299:97|295:61,1,72,6|0,1:2|0:0,0:0:0:0:
235,0,216293,1,8,2:2:0:0:
284,209,216543,6,0,P|279:173|289:138,1,72,2|0,1:2|0:0,0:0:0:0:
371,102,216793,1,8,2:2:0:0:
400,103,216918,1,0,2:2:0:0:
429,106,217043,6,0,P|438:71|434:35,1,72,2|0,1:2|0:0,0:0:0:0:
356,0,217293,1,8,2:2:0:0:
400,13,217418,1,8,2:2:0:0:
440,36,217543,6,0,B|447:60|445:85|435:106|435:106|423:129|422:154|429:176,1,144,2|8,1:2|2:2,0:0:0:0:
335,68,218043,5,6,1:2:0:0:
335,68,218168,1,2,2:2:0:0:
335,68,218293,2,0,B|312:80|287:79|266:69|266:69|242:58|217:59|196:70,1,144,10|0,2:2|1:2,0:0:0:0:
345,209,218793,1,10,2:2:0:0:
178,322,219043,6,0,P|212:329|247:321,1,72,2|0,1:2|0:0,0:0:0:0:
319,285,219293,1,8,2:2:0:0:
319,285,219418,1,8,2:2:0:0:
319,285,219543,1,0,1:2:0:0:
231,131,219793,5,10,2:2:0:0:
440,86,220043,2,0,B|417:97|391:96|370:86|370:86|347:75|322:76|300:86,1,144,6|8,1:2|2:2,0:0:0:0:
300,85,220418,1,2,2:2:0:0:
231,131,220543,2,0,P|258:157|294:168,1,72,2|0,1:2|0:0,0:0:0:0:
433,212,220793,1,10,2:2:0:0:
433,212,220918,1,2,2:2:0:0:
433,212,221043,2,0,P|406:186|370:175,1,72,2|0,1:2|0:0,0:0:0:0:
294,259,221293,6,0,P|330:249|367:258,1,72,10|8,2:2|2:2,0:0:0:0:
368,384,221543,2,0,P|341:356|330:321,1,72,2|0,1:2|0:0,0:0:0:0:
440,258,221793,2,0,P|429:294|403:321,1,72,10|0,2:2|0:0,0:0:0:0:
256,323,222043,6,0,P|242:347|267:330,1,72,6|8,1:2|2:2,0:0:0:0:
224,252,222418,1,8,2:2:0:0:
224,252,222543,6,0,P|185:273|166:305,1,72,2|0,1:2|0:0,0:0:0:0:
164,376,222793,1,8,2:2:0:0:
164,376,222918,1,8,2:2:0:0:
82,384,223043,5,6,1:2:0:0:
32,317,223168,1,2,2:2:0:0:
64,241,223293,1,10,2:2:0:0:
145,230,223418,1,2,2:2:0:0:
195,294,223543,2,0,P|159:310|120:308,1,72,6|0,1:2|0:0,0:0:0:0:
95,166,223793,2,0,P|131:150|170:152,1,72,10|0,2:2|0:0,0:0:0:0:
263,254,224043,5,6,1:2:0:0:
420,149,224293,2,0,L|355:165,1,67.5000025749208,8|0,2:2|0:0,0:0:0:0:
283,180,224543,5,2,1:2:0:0:
440,285,224793,2,0,L|375:269,1,67.5000025749208,8|0,2:2|0:0,0:0:0:0:
304,252,225043,5,2,1:2:0:0:
461,147,225293,1,8,2:2:0:0:
461,147,225418,1,8,2:2:0:0:
465,64,225543,6,0,P|431:56|390:62,1,67.5000025749208,2|0,1:2|0:0,0:0:0:0:
250,141,225793,2,0,P|284:149|325:143,1,67.5000025749208,10|0,2:2|0:0,0:0:0:0:
313,71,226043,5,6,1:2:0:0:
244,247,226293,2,0,L|247:166,1,67.5000025749208,8|0,2:2|0:0,0:0:0:0:
252,108,226543,5,2,1:2:0:0:
321,284,226793,2,0,L|318:203,1,67.5000025749208,8|0,2:2|0:0,0:0:0:0:
316,145,227043,5,2,1:2:0:0:
247,321,227293,1,8,2:2:0:0:
247,321,227418,1,8,2:2:0:0:
178,346,227543,5,6,1:2:0:0:
121,298,227668,1,2,2:2:0:0:
133,225,227793,1,10,2:2:0:0:
202,200,227918,1,2,2:2:0:0:
190,273,228043,5,6,1:2:0:0:
125,94,228293,2,0,L|105:166,1,67.5000025749208,8|0,2:2|0:0,0:0:0:0:
133,225,228543,5,2,1:2:0:0:
198,46,228793,2,0,L|218:118,1,67.5000025749208,8|0,2:2|0:0,0:0:0:0:
192,179,229043,5,2,1:2:0:0:
127,1,229293,1,8,2:2:0:0:
127,1,229418,1,8,2:2:0:0:
58,49,229543,6,0,P|39:84|38:121,1,67.5000025749208,2|0,1:2|0:0,0:0:0:0:
49,279,229793,2,0,P|68:244|69:207,1,67.5000025749208,10|0,2:2|0:0,0:0:0:0:
209,237,230043,6,0,L|176:353,1,112.5,6|8,1:2|2:2,0:0:0:0:
178,345,230418,1,8,2:2:0:0:
178,345,230543,6,0,L|294:315,1,112.5,2|8,1:2|2:2,0:0:0:0:
286,316,230918,1,8,2:2:0:0:
286,316,231043,1,2,1:2:0:0:
348,146,231293,6,0,P|338:179|344:221,1,67.5000025749208,14|0,2:2|0:0,0:0:0:0:
366,367,231543,2,0,P|376:334|370:292,1,67.5000025749208,6|0,2:2|0:0,0:0:0:0:
180,301,232043,5,6,1:2:0:0:
288,146,232293,2,0,L|286:221,1,67.5000025749208,8|0,2:2|0:0,0:0:0:0:
250,275,232543,5,2,1:2:0:0:
142,120,232793,2,0,L|144:195,1,67.5000025749208,8|0,2:2|0:0,0:0:0:0:
184,248,233043,5,2,1:2:0:0:
292,93,233293,1,8,2:2:0:0:
292,93,233418,1,8,2:2:0:0:
350,35,233543,6,0,P|371:75|369:109,1,67.5000025749208,2|0,1:2|0:0,0:0:0:0:
364,266,233793,2,0,P|343:226|345:192,1,67.5000025749208,10|0,2:2|0:0,0:0:0:0:
410,162,234043,5,6,1:2:0:0:
253,268,234293,2,0,L|331:275,1,67.5000025749208,8|0,2:2|0:0,0:0:0:0:
389,239,234543,5,2,1:2:0:0:
232,133,234793,2,0,L|310:126,1,67.5000025749208,8|0,2:2|0:0,0:0:0:0:
368,161,235043,5,2,1:2:0:0:
211,266,235293,1,8,2:2:0:0:
211,266,235418,1,8,2:2:0:0:
256,325,235543,5,6,1:2:0:0:
330,316,235668,1,2,2:2:0:0:
359,248,235793,1,10,2:2:0:0:
314,189,235918,1,2,2:2:0:0:
285,257,236043,5,6,1:2:0:0:
465,326,236293,2,0,L|397:342,1,67.5000025749208,8|0,2:2|0:0,0:0:0:0:
330,316,236543,5,2,1:2:0:0:
510,247,236793,2,0,L|442:231,1,67.5000025749208,8|0,2:2|0:0,0:0:0:0:
370,248,237043,5,2,1:2:0:0:
506,378,237293,1,8,2:2:0:0:
506,378,237418,1,8,2:2:0:0:
436,335,237543,6,0,P|398:326|365:335,1,67.5000025749208,2|0,1:2|0:0,0:0:0:0:
205,373,237793,2,0,P|243:382|276:373,1,67.5000025749208,10|0,2:2|0:0,0:0:0:0:
290,244,238043,6,0,L|172:249,1,112.5,6|8,1:2|2:2,0:0:0:0:
177,248,238418,1,8,2:2:0:0:
177,248,238543,6,0,L|231:143,1,112.5,2|8,1:2|2:2,0:0:0:0:
228,147,238918,1,8,2:2:0:0:
228,147,239043,1,2,1:2:0:0:
50,104,239293,6,0,P|87:116|127:107,1,67.5000025749208,14|0,2:2|0:0,0:0:0:0:
277,80,239543,2,0,P|240:68|200:77,1,67.5000025749208,6|0,2:2|0:0,0:0:0:0:
81,195,240043,5,6,1:2:0:0:
231,311,240293,2,0,L|156:301,1,67.5000025749208,8|0,2:2|0:0,0:0:0:0:
205,234,240543,5,2,1:2:0:0:
392,209,240793,2,0,L|331:254,1,67.5000025749208,8|0,2:2|0:0,0:0:0:0:
319,173,241043,5,2,1:2:0:0:
435,23,241293,1,8,2:2:0:0:
435,23,241418,1,8,2:2:0:0:
404,98,241543,6,0,P|364:100|329:88,1,67.5000025749208,2|0,1:2|0:0,0:0:0:0:
193,5,241793,2,0,P|233:2|267:15,1,67.5000025749208,10|0,2:2|0:0,0:0:0:0:
256,91,242043,5,6,1:2:0:0:
62,94,242293,2,0,L|127:61,1,67.5000025749208,8|0,2:2|0:0,0:0:0:0:
180,113,242543,5,2,1:2:0:0:
44,252,242793,2,0,L|66:182,1,67.5000025749208,8|0,2:2|0:0,0:0:0:0:
141,181,243043,5,2,1:2:0:0:
144,375,243293,1,8,2:2:0:0:
144,375,243418,1,8,2:2:0:0:
129,298,243543,1,6,1:2:0:0:
188,248,243668,1,2,2:2:0:0:
260,274,243793,1,10,2:2:0:0:
273,350,243918,1,2,2:2:0:0:
201,324,244043,5,6,1:2:0:0:
394,288,244293,2,0,L|341:343,1,67.5000025749208,8|0,2:2|0:0,0:0:0:0:
317,263,244543,5,2,1:2:0:0:
382,77,244793,2,0,L|403:150,1,67.5000025749208,8|0,2:2|0:0,0:0:0:0:
321,134,245043,5,2,1:2:0:0:
182,4,245293,1,8,2:2:0:0:
182,4,245418,1,8,2:2:0:0:
239,57,245543,2,0,P|265:62|312:57,1,67.5000025749208,2|0,1:2|0:0,0:0:0:0:
473,8,245793,2,0,P|446:2|400:8,1,67.5000025749208,10|0,2:2|0:0,0:0:0:0:
388,129,246043,6,0,L|519:133,1,112.5,6|8,1:2|2:2,0:0:0:0:
500,132,246418,1,8,2:2:0:0:
500,132,246543,6,0,L|431:243,1,112.5,2|8,1:2|2:2,0:0:0:0:
440,227,246918,1,8,2:2:0:0:
440,227,247043,1,2,1:2:0:0:
258,267,247293,6,0,P|295:260|332:270,1,67.5000025749208,14|0,2:2|0:0,0:0:0:0:
483,311,247543,2,0,P|446:318|409:308,1,67.5000025749208,6|0,2:2|0:0,0:0:0:0:
449,132,248043,5,6,1:2:0:0:
335,283,248293,2,0,L|402:248,1,67.5000025749208,8|0,2:2|0:0,0:0:0:0:
382,175,248543,5,2,1:2:0:0:
194,201,248793,2,0,L|266:223,1,67.5000025749208,8|0,2:2|0:0,0:0:0:0:
305,160,249043,5,2,1:2:0:0:
153,45,249293,1,8,2:2:0:0:
153,45,249418,1,8,2:2:0:0:
106,103,249543,2,0,P|97:142|104:175,1,67.5000025749208,2|0,1:2|0:0,0:0:0:0:
138,333,249793,2,0,P|147:294|140:261,1,67.5000025749208,10|0,2:2|0:0,0:0:0:0:
72,238,250043,5,6,1:2:0:0:
233,338,250293,2,0,L|149:334,1,67.5000025749208,8|0,2:2|0:0,0:0:0:0:
142,267,250543,5,2,1:2:0:0:
326,223,250793,2,0,L|263:279,1,67.5000025749208,8|0,2:2|0:0,0:0:0:0:
213,226,251043,5,2,1:2:0:0:
311,64,251293,1,8,2:2:0:0:
311,64,251418,1,8,2:2:0:0:
365,110,251543,1,6,1:2:0:0:
349,182,251668,1,2,2:2:0:0:
280,204,251793,1,10,2:2:0:0:
225,157,251918,1,2,2:2:0:0:
296,132,252043,5,6,1:2:0:0:
202,294,252293,2,0,L|214:219,1,67.5000025749208,8|0,2:2|0:0,0:0:0:0:
280,204,252543,5,2,1:2:0:0:
372,365,252793,2,0,L|313:317,1,67.5000025749208,8|0,2:2|0:0,0:0:0:0:
333,253,253043,5,2,1:2:0:0:
512,256,253293,1,8,2:2:0:0:
512,256,253418,1,8,2:2:0:0:
437,235,253543,2,0,P|430:202|435:164,1,67.5000025749208,2|0,1:2|0:0,0:0:0:0:
501,29,253793,2,0,P|508:62|503:100,1,67.5000025749208,10|0,2:2|0:0,0:0:0:0:
362,126,254043,6,0,L|362:9,1,112.5,6|8,1:2|2:2,0:0:0:0:
362,13,254418,1,8,2:2:0:0:
362,13,254543,6,0,L|260:71,1,112.5,2|8,1:2|2:2,0:0:0:0:
264,68,254918,1,8,2:2:0:0:
264,68,255043,1,2,1:2:0:0:
80,83,255293,6,0,P|119:74|153:86,1,67.5000025749208,14|0,2:2|0:0,0:0:0:0:
306,143,255543,2,0,P|267:152|233:140,1,67.5000025749208,6|0,2:2|0:0,0:0:0:0:
409,70,256043,5,6,2:2:0:0:
