osu file format v14

[General]
AudioFilename: audio.mp3
AudioLeadIn: 0
PreviewTime: 165973
Countdown: 0
SampleSet: Soft
StackLeniency: 0.4
Mode: 0
LetterboxInBreaks: 0
WidescreenStoryboard: 1

[Editor]
DistanceSpacing: 1.7
BeatDivisor: 6
GridSize: 8
TimelineZoom: 1.9

[Metadata]
Title:Sousei no Kansokusha
TitleUnicode:創世の観測者
Artist:At the Garret
ArtistUnicode:At the Garret
Creator:Heratikus
Version:Hard
Source:
Tags:japanese classical orchestral female vocals vocalist 屋根裏美術館 East Wing yaneura bijutsukan
BeatmapID:4044533
BeatmapSetID:1913294

[Difficulty]
HPDrainRate:4
CircleSize:5
OverallDifficulty:6
ApproachRate:6
SliderMultiplier:1.3
SliderTickRate:1

[Events]
//Background and Video events
0,0,"snksbg2-resize.jpg",0,0
//Break Periods
2,20705,24955
2,190515,205455
//Storyboard Layer 0 (Background)
//Storyboard Layer 1 (Fail)
//Storyboard Layer 2 (Pass)
//Storyboard Layer 3 (Foreground)
//Storyboard Layer 4 (Overlay)
//Storyboard Sound Samples

[TimingPoints]
505,500,4,2,1,35,1,0
2505,500,4,2,1,35,1,0
26005,-100,4,2,1,25,0,0
26505,-111.111111111111,4,2,1,30,0,0
42505,-111.111111111111,4,2,1,35,0,0
58005,-111.111111111111,4,2,1,40,0,0
58505,-100,4,2,1,45,0,0
76505,500,4,2,1,50,1,1
76505,-90.9090909090909,4,2,1,50,0,1
97505,-90.9090909090909,4,2,1,50,0,0
98505,-100,4,2,1,50,0,0
116505,-111.111111111111,4,2,1,30,0,0
132505,-111.111111111111,4,2,1,35,0,0
148505,-100,4,2,1,45,0,0
166505,500,4,2,1,50,1,0
166505,-90.9090909090909,4,2,1,50,0,1
187505,-100,4,2,1,50,0,0
206505,-111.111111111111,4,2,1,30,0,0
222505,-111.111111111111,4,2,1,35,0,0
248505,-111.111111111111,4,2,1,40,0,0
249505,-111.111111111111,4,2,1,45,0,0
250505,-111.111111111111,4,2,1,40,0,0
254505,-100,4,2,1,40,0,0
268505,-100,4,2,1,45,0,0
270505,-100,4,2,1,40,0,0
272005,-100,4,2,1,45,0,0
272505,500,4,2,1,50,1,1
272505,-90.9090909090909,4,2,1,50,0,1
288005,-83.3333333333333,4,2,1,50,0,1
288338,-83.3333333333333,4,2,1,50,0,0
288505,-90.9090909090909,4,2,1,50,0,1
309505,-90.9090909090909,4,2,1,50,0,0
312505,-100,4,2,1,50,0,0

[Colours]
Combo1 : 114,201,172
Combo2 : 154,81,244
Combo3 : 86,158,186
Combo4 : 214,78,200

[HitObjects]
258,384,2005,6,0,P|238:381|216:366,2,43.3333333333333
325,370,2505,1,14,1:2:0:0:
510,346,3505,2,0,P|451:371|390:355,1,130,14|2,1:2|1:2,0:0:0:0:
292,171,4505,1,14,1:2:0:0:
32,273,5505,6,0,P|39:209|84:164,1,130,14|2,1:2|1:2,0:0:0:0:
292,171,6505,1,14,1:2:0:0:
403,0,7005,6,0,P|427:-5|447:0,2,43.3333333333333,2|0|0,2:0|0:0|0:0,0:0:0:0:
361,55,7505,2,0,P|318:67|273:55,1,86.6666666666667,14|0,1:2|0:0,0:0:0:0:
230,7,8005,2,0,P|187:-5|142:7,1,86.6666666666667,2|2,1:2|1:2,1:2:0:0:
93,49,8505,1,14,1:2:0:0:
93,49,9005,6,0,P|69:44|49:49,2,43.3333333333333,2|0|0,2:0|0:0|0:0,0:0:0:0:
143,96,9505,2,0,P|158:158|137:226,1,130,14|2,1:2|1:2,0:0:0:0:
0,374,10505,1,14,1:2:0:0:
421,341,11505,6,0,P|359:354|305:321,1,130,14|2,1:2|1:2,0:0:0:0:
256,118,12505,1,14,1:2:0:0:
90,341,13505,6,0,P|152:354|206:321,1,130,14|2,1:2|1:2,0:0:0:0:
256,118,14505,1,14,1:2:0:0:
450,192,15005,6,0,L|494:187,2,43.3333333333333,2|0|0,2:0|0:0|0:0,0:0:0:0:
403,243,15505,2,0,L|315:233,1,86.6666666666667,14|0,1:2|0:0,0:0:0:0:
261,191,16005,2,0,L|173:201,1,86.6666666666667,2|2,1:2|1:2,1:2:0:0:
103,218,16505,1,14,1:2:0:0:
103,218,17005,6,0,L|59:213,2,43.3333333333333,2|0|0,2:0|0:0|0:0,0:0:0:0:
174,200,17505,2,0,P|214:161|203:90,2,130,14|2|6,1:2|1:2|0:0,0:0:0:0:
256,192,18588,12,2,20505,0:0:0:0:
94,191,26005,5,2,0:0:0:0:
94,191,26505,2,0,B|114:172|146:173|164:192|164:192|184:212|215:212|234:193,1,156,2|2,0:0|0:0,0:0:0:0:
284,144,27338,1,2,0:0:0:0:
284,144,27505,2,0,L|277:89|280:84|273:29,1,117,2|2,0:0|0:0,0:0:0:0:
297,214,28505,2,0,P|353:235|404:205,2,117,2|2|2,0:0|0:0|0:0,0:0:0:0:
256,384,30338,5,2,0:0:0:0:
256,384,30505,2,0,B|271:342|271:342|239:231,1,156,2|2,0:0|0:0,0:0:0:0:
221,170,31338,1,2,0:0:0:0:
221,170,31505,2,0,P|165:149|114:179,2,117,2|2|2,0:0|0:0|0:0,0:0:0:0:
87,245,34005,5,2,0:0:0:0:
87,245,34505,2,0,L|92:170|96:165|101:90,1,156,2|2,0:0|0:0,0:0:0:0:
107,28,35338,1,2,0:0:0:0:
107,28,35505,2,0,P|163:6|215:32,1,117,2|2,0:0|0:0,0:0:0:0:
293,197,36505,6,0,B|319:187|319:187|407:210,1,117,2|2,0:0|0:0,0:0:0:0:
219,234,37505,2,0,B|193:244|193:244|105:221,1,117,2|2,0:0|0:0,0:0:0:0:
0,66,38505,2,0,P|27:146|22:259,1,195,2|2,0:0|0:0,0:0:0:0:
0,314,39505,1,2,0:0:0:0:
0,314,40338,5,2,0:0:0:0:
0,314,40505,2,0,P|36:277|103:280,1,117,2|2,0:0|0:0,0:0:0:0:
264,365,41505,2,0,P|213:351|183:291,1,117,2|2,0:0|0:0,0:0:0:0:
176,111,42505,6,0,P|189:161|152:217,1,117,2|0,0:0|0:0,0:0:0:0:
94,230,43171,1,2,0:0:0:0:
94,230,43338,1,2,0:0:0:0:
94,230,43505,2,0,P|62:277|74:333,1,117,2|2,0:0|0:0,0:0:0:0:
271,365,44505,2,0,P|216:353|155:365,2,117,2|2|2,0:0|0:0|0:0,0:0:0:0:
481,191,46338,5,2,0:0:0:0:
481,191,46505,2,0,P|427:213|369:192,1,117,2|0,0:0|0:0,0:0:0:0:
347,133,47171,1,2,0:0:0:0:
347,133,47338,1,2,0:0:0:0:
347,133,47505,2,0,P|292:115|239:137,2,117,2|2|2,0:0|0:0|0:0,0:0:0:0:
101,0,50005,5,2,0:0:0:0:
101,0,50505,2,0,L|104:53|98:62|101:115,1,117,2|0,0:0|0:0,0:0:0:0:
107,184,51171,1,2,0:0:0:0:
107,184,51338,1,2,0:0:0:0:
107,184,51505,2,0,P|146:206|212:179,1,117,2|2,0:0|0:0,0:0:0:0:
293,1,52505,6,0,L|302:121,1,117,2|2,0:0|0:0,0:0:0:0:
402,289,53505,2,0,L|411:169,1,117,2|2,0:0|0:0,0:0:0:0:
510,0,54505,5,2,0:0:0:0:
402,55,55171,1,2,0:0:0:0:
402,55,55338,1,2,0:0:0:0:
402,55,55505,2,0,L|411:175,1,117,2|2,0:0|0:0,0:0:0:0:
446,353,56505,6,0,P|479:362|522:341,2,78.0000000000001,2|2|2,0:0|0:0|0:0,0:0:0:0:
397,307,57338,1,2,0:0:0:0:
397,307,57505,2,0,L|398:260,2,39,2|0|0,0:0|0:0|0:0,0:0:0:0:
349,353,58005,1,2,0:0:0:0:
129,375,58505,6,0,B|115:338|115:338|144:206,1,173.333333333333,6|2,1:2|0:0,0:0:0:0:
210,175,59338,1,2,0:0:0:0:
276,143,59505,2,0,B|255:50,1,86.6666666666667,2|0,1:2|1:0,0:0:0:0:
202,8,60005,2,0,P|159:-5|114:11,1,86.6666666666667,6|0,1:2|0:0,1:2:0:0:
77,66,60505,2,0,B|65:94|65:94|88:192,2,130,6|2|2,1:2|1:2|1:2,0:0:0:0:
114,283,62005,2,0,P|157:296|202:280,1,86.6666666666667,6|0,1:2|0:0,1:2:0:0:
240,225,62505,6,0,L|250:163|247:159|257:97,1,130,6|2,1:2|1:2,0:0:0:0:
320,58,63171,1,2,2:2:0:0:
320,58,63338,1,2,2:2:0:0:
380,100,63505,2,0,L|393:185,1,86.6666666666667,2|0,1:2|1:0,0:0:0:0:
411,256,64004,2,0,P|445:273|494:257,1,86.6666666666667,6|0,1:2|0:0,1:2:0:0:
510,189,64504,2,0,L|517:126|521:123|528:61,2,130,6|2|6,1:2|1:2|1:2,0:0:0:0:
374,365,66005,2,0,P|340:382|291:366,1,86.6666666666667,6|0,1:2|0:0,1:2:0:0:
255,307,66505,5,6,1:2:0:0:
305,91,67005,1,2,1:2:0:0:
93,156,67505,2,0,P|80:198|93:238,1,86.6666666666667,6|0,1:2|2:0,0:0:0:0:
140,293,68005,2,0,L|133:337,2,43.3333333333333,2|2|2,1:2|1:2|1:2,0:0:0:0:
201,252,68505,2,0,B|234:238|234:238|328:261,1,130,6|2,1:2|1:2,0:0:0:0:
509,384,69505,1,6,1:2:0:0:
325,260,70005,2,0,P|315:220|325:175,1,86.6666666666667,2|0,1:2|1:2,1:2:0:0:
364,114,70505,6,0,B|336:101|336:101|273:114,1,86.6666666666667,6|0,1:2|1:2,0:2:0:0:
219,152,71005,2,0,B|204:194,2,43.3333333333333,2|2|2,1:2|1:2|1:2,0:0:0:0:
212,78,71505,1,6,1:2:0:0:
59,237,72005,2,0,B|44:195,2,43.3333333333333,2|2|2,1:2|1:2|1:2,0:0:0:0:
83,306,72505,6,0,P|109:312|129:307,1,43.3333333333333,6|0,1:2|0:0,0:0:0:0:
170,250,72838,1,0,2:0:0:0:
170,250,73005,2,0,P|196:244|216:249,1,43.3333333333333,2|0,1:2|0:2,0:0:0:0:
257,306,73338,1,0,0:2:0:0:
257,306,73505,2,0,P|283:312|303:307,1,43.3333333333333,6|0,1:2|0:0,0:0:0:0:
344,250,73838,1,0,2:0:0:0:
344,250,74005,2,0,P|370:244|390:249,2,43.3333333333333,2|0|0,1:2|0:2|0:2,0:0:0:0:
292,197,74505,6,0,P|226:189|176:224,2,130,6|2|6,1:2|1:2|1:2,0:0:0:0:
466,332,76005,2,0,L|475:375,2,43.3333333333333,2|2|2,1:2|1:2|1:2,0:0:0:0:
403,292,76505,6,0,B|391:263|391:263|406:149,1,143,14|2,1:2|1:2,0:0:0:0:
508,27,77338,1,2,1:2:0:0:
508,27,77505,2,0,P|479:49|416:56,1,95.3333333333333,10|0,1:2|2:0,0:0:0:0:
348,22,78005,2,0,B|314:13|314:13|246:28,1,95.3333333333333,6|0,1:2|0:0,1:2:0:0:
195,80,78505,6,0,P|186:125|196:181,1,95.3333333333333,14|0,1:2|2:0,0:0:0:0:
259,235,79005,1,2,1:2:0:0:
259,235,79171,1,2,1:2:0:0:
259,235,79338,1,2,1:2:0:0:
318,290,79505,1,10,1:2:0:0:
159,118,80005,5,6,1:2:0:0:
159,118,80171,1,2,1:2:0:0:
159,118,80338,1,2,1:2:0:0:
177,40,80505,1,14,1:2:0:0:
116,280,81005,5,2,1:2:0:0:
116,280,81171,1,2,1:2:0:0:
116,280,81338,1,2,1:2:0:0:
39,303,81505,2,0,B|32:272|32:272|52:210,1,95.3333333333333,10|2,1:2|1:2,0:0:0:0:
133,206,82005,2,0,B|140:175|140:175|119:113,1,95.3333333333333,6|2,1:2|1:2,1:2:0:0:
48,74,82505,6,0,P|97:35|173:52,1,143,14|2,1:2|1:2,0:0:0:0:
242,99,83171,1,2,1:2:0:0:
242,99,83338,1,2,1:2:0:0:
307,146,83505,2,0,B|323:161|323:161|329:237,1,95.3333333333333,14|0,1:2|2:0,0:0:0:0:
293,307,84005,2,0,B|249:337,2,47.6666666666667,6|2|2,1:2|1:2|1:2,0:0:0:0:
374,303,84505,6,0,P|441:328|512:297,1,143,14|2,1:2|1:2,0:0:0:0:
446,152,85338,1,2,1:2:0:0:
446,152,85505,2,0,B|424:142|424:142|354:162,1,95.3333333333333,10|0,1:2|2:0,0:0:0:0:
278,188,86005,2,0,P|232:185|196:150,1,95.3333333333333,6|0,1:2|0:0,1:2:0:0:
195,71,86505,6,0,B|208:51|208:51|279:32,1,95.3333333333333,14|0,1:2|2:0,0:0:0:0:
362,19,87005,1,2,1:2:0:0:
362,19,87171,1,2,1:2:0:0:
362,19,87338,1,2,1:2:0:0:
434,56,87505,1,10,1:2:0:0:
420,304,88005,5,6,1:2:0:0:
420,304,88171,1,2,1:2:0:0:
420,304,88338,1,2,1:2:0:0:
352,348,88505,1,14,1:2:0:0:
144,211,89005,5,2,1:2:0:0:
144,211,89171,1,2,1:2:0:0:
144,211,89338,1,2,1:2:0:0:
140,130,89505,2,0,P|149:111|216:91,1,95.3333333333333,10|2,1:2|1:2,0:0:0:0:
286,136,90005,2,0,P|265:137|214:89,1,95.3333333333333,6|2,1:2|1:2,1:2:0:0:
217,5,90505,6,0,P|228:22|212:90,1,95.3333333333333,14|0,1:2|2:0,0:0:0:0:
140,130,91005,1,2,1:2:0:0:
140,130,91171,1,2,1:2:0:0:
140,130,91338,1,2,1:2:0:0:
64,161,91505,2,0,B|49:191|49:191|73:301,1,143,14|6,1:2|1:2,0:0:0:0:
305,368,92505,6,0,P|319:326|303:278,1,95.3333362426759,14|0,1:2|2:0,0:0:0:0:
237,232,93005,2,0,L|187:238,2,47.6666681213379,0|0|0,1:2|1:2|1:2,0:0:0:0:
228,151,93505,2,0,P|202:86|233:24,1,143,10|6,1:2|1:2,0:0:0:0:
374,112,94338,1,2,1:2:0:0:
374,112,94505,6,0,B|388:140|388:140|377:209,1,95.3333362426759,14|0,1:2|2:0,0:0:0:0:
359,282,95005,2,0,L|395:322,2,47.6666681213379,0|0|0,1:2|1:2|1:2,0:0:0:0:
278,292,95505,2,0,B|250:306|250:306|135:288,1,143.000004364014,10|6,1:2|1:2,0:0:0:0:
233,63,96505,6,0,P|217:106|231:152,1,95.3333362426759,14|0,1:2|0:0,0:0:0:0:
298,196,97005,2,0,P|321:191|348:200,2,47.6666681213379,0|0|0,1:2|1:2|1:2,0:2:0:0:
263,269,97505,1,14,2:2:0:0:
503,235,98005,1,2,2:0:0:0:
460,83,98338,1,2,2:0:0:0:
460,83,98505,6,0,L|431:78|363:101|334:96,2,130,6|2|2,2:0|2:0|2:0,0:0:0:0:
71,54,100505,5,14,1:2:0:0:
173,165,100838,1,2,1:2:0:0:
173,165,101005,2,0,L|177:119,2,43.3333333333333,2|0|0,1:2|1:2|1:2,0:0:0:0:
114,210,101505,1,10,1:2:0:0:
13,317,101838,1,2,1:2:0:0:
13,317,102005,2,0,B|36:306|36:306|96:315,1,86.6666666666667,2|0,1:2|0:0,1:2:0:0:
169,326,102505,5,10,1:2:0:0:
310,379,102838,1,2,1:2:0:0:
310,379,103005,2,0,L|261:384,2,43.3333333333333,2|0|0,1:2|1:2|1:2,0:0:0:0:
365,330,103505,1,10,1:2:0:0:
474,230,103838,1,2,1:2:0:0:
474,230,104005,2,0,B|486:208|486:208|483:147,1,86.6666666666667,2|0,1:2|0:0,1:2:0:0:
480,73,104505,5,10,1:2:0:0:
383,184,104838,1,2,1:2:0:0:
383,184,105005,2,0,B|380:232,2,43.3333333333333,2|0|0,1:2|1:2|1:2,0:0:0:0:
332,129,105505,1,10,1:2:0:0:
322,278,105838,1,2,1:2:0:0:
322,278,106005,2,0,P|275:291|235:275,1,86.6666666666667,2|0,1:2|0:0,1:2:0:0:
190,224,106505,5,10,1:2:0:0:
285,112,106838,1,2,1:2:0:0:
285,112,107005,2,0,L|281:159,2,43.3333333333333,2|0|0,1:2|1:2|1:2,0:0:0:0:
235,57,107505,1,10,1:2:0:0:
90,52,107838,1,2,1:2:0:0:
90,52,108005,2,0,P|70:89|80:131,1,86.6666666666667,2|0,1:2|0:0,1:2:0:0:
133,181,108505,6,0,L|171:183|177:188|216:190,1,86.6666666666667,14|2,1:2|1:2,0:0:0:0:
283,156,109005,2,0,L|308:116,2,43.3333333333333,2|0|0,1:2|1:2|1:2,0:0:0:0:
283,229,109505,1,10,1:2:0:0:
383,342,109838,1,2,1:2:0:0:
383,342,110005,2,0,B|410:352|410:352|467:344,1,86.6666666666667,2|0,1:2|0:0,1:2:0:0:
512,286,110505,5,10,1:2:0:0:
417,178,110838,1,2,1:2:0:0:
417,178,111005,2,0,L|413:223,2,43.3333333333333,2|0|0,1:2|1:2|1:2,0:0:0:0:
486,154,111505,1,10,1:2:0:0:
346,201,111838,1,2,1:2:0:0:
346,201,112005,2,0,P|327:202|276:164,1,86.6666666666667,2|0,1:2|0:0,1:2:0:0:
282,89,112505,5,10,1:2:0:0:
160,169,112838,1,2,1:2:0:0:
160,169,113005,2,0,L|164:214,2,43.3333333333333,2|0|0,1:2|1:2|1:2,0:0:0:0:
104,120,113505,1,10,1:2:0:0:
119,269,113838,1,2,1:2:0:0:
119,269,114005,2,0,B|140:284|140:284|200:279,1,86.6666666666667,2|0,1:2|0:0,1:2:0:0:
273,271,114505,5,10,1:2:0:0:
155,357,114838,1,2,1:2:0:0:
155,357,115005,2,0,B|202:352,2,43.3333333333333,2|0|0,1:2|1:2|1:2,0:0:0:0:
81,364,115505,1,10,1:2:0:0:
60,221,115838,1,2,1:2:0:0:
60,221,116005,2,0,L|54:182|58:175|52:136,1,86.6666666666667,2|0,1:2|0:0,1:2:0:0:
84,76,116505,6,0,P|122:59|159:70,2,78.0000000000001,6|2|2,1:2|1:2|1:2,0:0:0:0:
52,136,117338,1,2,1:2:0:0:
52,136,117505,2,0,P|62:175|49:219,1,78.0000000000001,2|2,1:2|1:2,0:0:0:0:
7,259,118005,2,0,P|-3:298|10:342,1,78.0000000000001,2|0,1:2|0:0,1:2:0:0:
59,374,118505,6,0,L|144:370,1,78.0000000000001,2|0,1:2|1:2,0:0:0:0:
177,317,119005,2,0,L|262:321,1,78.0000000000001,2|0,1:2|1:2,0:0:0:0:
309,358,119505,1,2,1:2:0:0:
438,328,119838,1,0,1:2:0:0:
438,328,120005,2,0,B|445:306|445:306|431:237,1,78.0000000000001,0|2,1:2|1:2,1:2:0:0:
387,205,120505,6,0,P|351:218|312:205,2,78.0000000000001,2|2|2,1:2|1:2|1:2,0:0:0:0:
408,141,121338,1,2,1:2:0:0:
408,141,121505,2,0,L|397:61,1,78.0000000000001,2|0,1:2|1:2,0:0:0:0:
342,25,122005,2,0,B|318:19|318:19|257:38,1,78.0000000000001,2|0,1:2|0:0,1:2:0:0:
227,88,122505,6,0,P|190:76|154:89,2,78.0000000000001,2|2|2,1:2|1:2|1:2,0:0:0:0:
260,145,123338,1,0,1:2:0:0:
260,145,123505,1,2,1:2:0:0:
229,276,123838,1,0,1:2:0:0:
229,276,124005,2,0,B|205:282|205:282|144:263,1,78.0000000000001,2|0,1:2|0:0,1:2:0:0:
118,209,124505,6,0,P|132:172|116:134,2,77.999997619629,2|2|2,1:2|1:2|1:2,0:0:0:0:
60,238,125338,1,2,1:2:0:0:
60,238,125505,2,0,P|46:275|62:313,1,77.999997619629,2|0,1:2|1:2,0:0:0:0:
117,341,126005,2,0,L|201:333,1,77.999997619629,2|0,1:2|0:0,1:2:0:0:
252,300,126505,6,0,B|263:281|263:281|254:217,1,77.999997619629,2|0,1:2|1:2,0:0:0:0:
210,176,127005,2,0,B|168:159,2,38.9999988098145,2|0|0,1:2|0:2|1:2,0:0:0:0:
276,163,127505,2,0,B|291:147|291:147|355:138,1,77.999997619629,2|0,1:2|1:2,0:0:0:0:
411,151,128005,2,0,P|427:171|417:228,1,77.999997619629,2|0,1:2|0:0,1:2:0:0:
363,250,128505,6,0,P|326:239|283:255,2,77.999997619629,2|2|0,1:2|1:2|1:2,0:0:0:0:
400,310,129338,1,2,1:2:0:0:
400,310,129505,2,0,P|436:321|473:310,1,77.999997619629,2|0,1:2|1:2,0:0:0:0:
500,249,130005,1,0,1:2:0:0:
490,116,130338,1,2,1:2:0:0:
490,116,130505,6,0,P|458:80|416:72,1,77.999997619629,2|0,1:2|1:2,0:0:0:0:
386,21,131005,2,0,P|339:30|311:62,1,77.999997619629,2|0,1:2|1:2,0:0:0:0:
252,63,131505,2,0,P|237:108|250:148,1,77.999997619629,2|0,1:2|1:2,0:0:0:0:
296,179,132005,2,0,P|318:176|343:183,2,38.9999988098145,2|2|2,1:2|1:2|1:2,1:2:0:0:
253,230,132505,6,0,B|226:240|226:240|164:222,1,77.999997619629,6|2,1:2|1:2,0:0:0:0:
53,198,133171,1,2,1:2:0:0:
53,198,133338,1,2,1:2:0:0:
108,161,133505,2,0,P|123:116|109:75,1,77.999997619629,2|2,1:2|1:2,0:0:0:0:
76,34,134005,2,0,B|99:19|99:19|160:26,1,77.999997619629,2|0,1:2|0:0,1:2:0:0:
184,80,134505,6,0,P|221:93|266:78,1,77.999997619629,2|0,1:2|1:2,0:0:0:0:
303,35,135005,2,0,P|340:22|385:37,1,77.999997619629,2|0,1:2|1:2,0:0:0:0:
420,80,135505,1,2,1:2:0:0:
454,207,135838,1,0,1:2:0:0:
454,207,136005,2,0,B|430:198|430:198|371:208,1,77.999997619629,0|2,1:2|1:2,1:2:0:0:
318,236,136505,6,0,P|305:275|327:321,1,77.999997619629,2|2,1:2|1:2,0:0:0:0:
430,384,137171,1,2,1:2:0:0:
430,384,137338,1,2,1:2:0:0:
483,345,137505,2,0,B|489:332|489:332|471:261,1,77.999997619629,2|0,1:2|1:2,0:0:0:0:
454,207,138005,2,0,P|462:169|492:144,1,77.999997619629,2|0,1:2|0:0,1:2:0:0:
489,78,138505,6,0,B|469:71|469:71|403:83,1,77.999997619629,2|2,1:2|1:2,0:0:0:0:
286,110,139171,1,2,1:2:0:0:
286,110,139338,1,0,1:2:0:0:
286,110,139505,1,2,1:2:0:0:
159,139,139838,1,0,1:2:0:0:
159,139,140005,2,0,P|119:131|91:89,1,77.999997619629,2|0,1:2|0:0,1:2:0:0:
101,37,140505,6,0,B|117:24|117:24|182:20,1,77.999997619629,2|2,1:2|1:2,0:0:0:0:
309,16,141171,1,2,1:2:0:0:
309,16,141338,1,2,1:2:0:0:
368,44,141505,2,0,P|380:76|365:117,1,77.999997619629,2|0,1:2|1:2,0:0:0:0:
307,146,142005,2,0,P|294:177|309:218,1,77.999997619629,2|0,1:2|0:0,1:2:0:0:
364,253,142505,6,0,L|402:250,2,38.9999988098145,2|0|0,1:2|0:0|1:2,0:0:0:0:
328,309,143005,2,0,L|290:306,2,38.9999988098145,2|0|0,1:2|0:2|1:2,0:0:0:0:
375,354,143505,1,2,1:2:0:0:
245,362,143838,1,0,1:2:0:0:
245,362,144005,2,0,P|219:332|217:288,1,77.999997619629,2|0,1:2|0:0,1:2:0:0:
259,245,144505,6,0,B|268:227|268:227|253:166,1,77.999997619629,2|2,1:2|1:2,0:0:0:0:
227,44,145171,1,2,1:2:0:0:
227,44,145338,1,2,1:2:0:0:
164,21,145505,2,0,P|127:21|95:51,1,77.999997619629,2|0,1:2|1:2,0:0:0:0:
31,57,146005,2,0,P|12:89|23:131,1,77.999997619629,2|0,1:2|0:0,1:2:0:0:
79,159,146505,6,0,B|101:149|101:149|156:159,2,77.999997619629,2|2|2,1:2|1:2|1:2,0:0:0:0:
45,216,147338,1,2,1:2:0:0:
11,273,147505,2,0,B|-32:268,2,38.9999988098145,2|0|0,1:2|0:0|1:2,0:0:0:0:
42,331,148005,2,0,P|78:350|126:338,1,77.999997619629,2|0,1:2|0:0,1:2:0:0:
164,291,148505,6,0,P|216:261|278:292,1,130,6|2,1:2|1:2,0:0:0:0:
310,358,149171,1,2,2:2:0:0:
310,358,149338,1,2,2:2:0:0:
380,379,149505,2,0,B|408:383|408:383|467:352,1,86.6666666666667,2|0,1:2|1:0,0:0:0:0:
496,292,150005,2,0,P|504:262|489:203,1,86.6666666666667,6|0,1:2|0:0,1:2:0:0:
427,172,150505,6,0,P|373:197|300:173,1,130,6|2,1:2|1:2,0:0:0:0:
178,0,151505,1,2,1:2:0:0:
10,144,152005,2,0,B|2:168|2:168|20:235,1,86.6666666666667,6|0,1:2|0:0,1:2:0:0:
65,283,152505,6,0,P|121:310|188:285,1,130,6|2,1:2|1:2,0:0:0:0:
224,230,153171,1,2,2:2:0:0:
224,230,153338,1,2,2:2:0:0:
265,169,153505,2,0,P|325:148|359:158,1,86.6666666666667,2|0,1:2|1:0,0:0:0:0:
413,184,154005,2,0,B|422:160|422:160|410:101,1,86.6666666666667,6|0,1:2|0:0,1:2:0:0:
355,50,154505,6,0,B|333:41|310:47|295:63|295:63|279:79|255:83|235:75,1,130,6|2,1:2|1:2,0:0:0:0:
26,1,155505,1,6,1:2:0:0:
44,221,156005,2,0,B|68:230|68:230|143:211,1,86.6666666666667,6|0,1:2|0:0,1:2:0:0:
198,195,156505,5,6,1:2:0:0:
411,138,157005,1,2,1:2:0:0:
353,351,157505,2,0,B|329:360|329:360|253:341,1,86.6666666666667,6|0,1:2|2:0,0:0:0:0:
221,288,158005,2,0,P|226:268|220:244,2,43.3333333333333,2|2|2,1:2|1:2|1:2,0:0:0:0:
162,332,158505,6,0,P|101:339|40:299,1,130,6|2,1:2|1:2,0:0:0:0:
0,88,159505,1,6,1:2:0:0:
215,38,160005,2,0,B|226:62|226:62|212:134,1,86.6666666666667,2|0,1:2|1:2,1:2:0:0:
200,193,160505,6,0,P|203:220|258:257,1,86.6666666666667,6|0,1:2|2:0,0:0:0:0:
318,240,161005,2,0,L|346:207,2,43.3333333333333,2|2|2,1:2|1:2|1:2,0:0:0:0:
297,311,161505,2,0,P|295:353|265:382,1,86.6666666666667,6|0,1:2|2:0,0:0:0:0:
198,384,162005,1,2,1:2:0:0:
198,384,162171,1,2,1:2:0:0:
198,384,162338,1,2,1:2:0:0:
148,328,162505,6,0,L|154:280,1,43.3333333333333,6|0,1:2|0:0,0:0:0:0:
219,251,162838,1,0,2:0:0:0:
219,251,163005,2,0,L|213:203,1,43.3333333333333,2|0,1:2|0:2,0:0:0:0:
170,147,163338,1,0,0:2:0:0:
170,147,163505,2,0,L|176:99,1,43.3333333333333,6|0,1:2|0:0,0:0:0:0:
189,34,163838,1,0,2:0:0:0:
189,34,164005,2,0,P|212:39|236:33,2,43.3333333333333,2|0|0,1:2|0:2|0:2,0:0:0:0:
118,10,164505,6,0,P|55:11|3:69,2,130,6|2|6,1:2|1:2|1:2,0:0:0:0:
281,172,166005,1,2,1:2:0:0:
281,172,166171,1,2,1:2:0:0:
281,172,166338,1,2,1:2:0:0:
342,224,166505,6,0,L|410:226|414:221|482:223,1,143.000004364014,14|2,1:2|1:2,0:0:0:0:
353,124,167338,1,2,1:2:0:0:
353,124,167505,2,0,P|347:87|384:41,1,95.3333362426759,10|0,1:2|2:0,0:0:0:0:
460,30,168005,2,0,B|484:41|484:41|507:114,1,95.3333362426759,6|0,1:2|0:0,1:2:0:0:
490,186,168505,6,0,P|460:209|402:200,1,95.3333362426759,14|0,1:2|2:0,0:0:0:0:
365,143,169005,1,2,1:2:0:0:
365,143,169171,1,2,1:2:0:0:
365,143,169338,1,2,1:2:0:0:
327,71,169505,1,10,1:2:0:0:
115,187,170005,5,6,1:2:0:0:
115,187,170171,1,2,1:2:0:0:
115,187,170338,1,2,1:2:0:0:
154,259,170505,2,0,B|173:276|200:277|220:264|220:264|242:250|269:253|286:269,1,143.000004364014,14|2,1:2|1:2,0:0:0:0:
340,329,171171,1,2,1:2:0:0:
340,329,171338,1,2,1:2:0:0:
418,312,171505,6,0,P|431:267|407:211,1,95.3333362426759,10|2,1:2|1:2,0:0:0:0:
344,184,172005,2,0,P|331:139|355:83,1,95.3333362426759,6|2,1:2|1:2,1:2:0:0:
394,29,172505,6,0,B|372:14|372:14|285:23,1,95.3333362426759,14|0,1:2|2:0,0:0:0:0:
229,36,173005,1,2,1:2:0:0:
229,36,173171,1,2,1:2:0:0:
229,36,173338,1,2,1:2:0:0:
175,96,173505,2,0,P|162:141|186:197,1,95.3333362426759,14|0,1:2|2:0,0:0:0:0:
255,205,174005,2,0,P|281:197|304:202,2,47.6666681213379,6|2|2,1:2|1:2|1:2,0:0:0:0:
241,285,174505,6,0,P|244:339|157:364,1,143.000004364014,14|2,1:2|1:2,0:0:0:0:
33,294,175338,1,2,1:2:0:0:
33,294,175505,2,0,B|23:264|23:264|40:193,1,95.3333362426759,10|0,1:2|2:0,0:0:0:0:
112,170,176005,2,0,P|153:186|204:168,1,95.3333362426759,6|0,1:2|0:0,1:2:0:0:
255,111,176505,6,0,B|265:81|265:81|248:10,1,95.3333362426759,14|0,1:2|2:0,0:0:0:0:
189,71,177005,1,2,1:2:0:0:
189,71,177171,1,2,1:2:0:0:
189,71,177338,1,2,1:2:0:0:
114,43,177505,1,10,1:2:0:0:
350,127,178005,5,6,1:2:0:0:
350,127,178171,1,2,1:2:0:0:
350,127,178338,1,2,1:2:0:0:
425,155,178505,1,14,1:2:0:0:
214,270,179005,5,2,1:2:0:0:
214,270,179171,1,2,1:2:0:0:
214,270,179338,1,2,1:2:0:0:
186,345,179505,2,0,B|166:350|166:350|95:325,1,95.3333362426759,10|2,1:2|1:2,0:0:0:0:
15,337,180005,2,0,B|10:317|10:317|35:246,1,95.3333362426759,6|2,1:2|1:2,1:2:0:0:
109,214,180505,6,0,P|126:175|106:126,1,95.3333362426759,14|0,1:2|2:0,0:0:0:0:
43,94,181005,1,2,1:2:0:0:
43,94,181171,1,2,1:2:0:0:
43,94,181338,1,2,1:2:0:0:
95,31,181505,2,0,L|163:35|165:37|167:39|235:43,1,143.000004364014,14|6,1:2|1:2,0:0:0:0:
478,70,182505,6,0,P|501:113|492:159,1,95.3333362426759,14|0,1:2|2:0,0:0:0:0:
437,216,183005,2,0,L|449:273,2,47.6666681213379,0|0|0,1:2|1:2|1:2,0:0:0:0:
358,193,183505,2,0,L|290:197|286:201|207:206,1,143.000004364014,10|6,1:2|1:2,0:0:0:0:
198,370,184338,1,2,1:2:0:0:
198,370,184505,6,0,P|208:315|181:283,1,95.3333362426759,14|0,1:2|2:0,0:0:0:0:
108,260,185005,2,0,P|87:269|55:266,2,47.6666681213379,0|0|0,1:2|1:2|1:2,0:0:0:0:
134,183,185505,2,0,P|135:106|186:58,1,143.000004364014,10|6,1:2|1:2,0:0:0:0:
419,29,186505,6,0,B|441:45|441:45|455:129,1,95.3333362426759,14|0,1:2|0:2,0:0:0:0:
407,180,187005,2,0,L|354:187,2,47.6666681213379,0|0|0,1:2|1:2|1:2,0:2:0:0:
470,217,187505,1,14,2:2:0:0:
306,365,188005,2,0,P|263:379|218:357,1,86.6666666666667,2|2,2:0|2:0,0:0:0:0:
178,308,188505,6,0,L|170:282|186:247|201:213|194:187,2,130,6|2|2,2:0|2:0|2:0,0:0:0:0:
256,66,206505,5,2,0:0:0:0:
382,192,208505,5,2,0:0:0:0:
130,192,210505,5,2,0:0:0:0:
256,318,212505,5,2,0:0:0:0:
130,192,213505,6,0,L|119:230,2,38.9999988098145,2|0|0,0:0|0:0|0:0,0:0:0:0:
88,140,214005,2,0,L|50:129,2,38.9999988098145,2|0|0,0:0|0:0|0:0,0:0:0:0:
151,119,214505,5,2,0:0:0:0:
183,297,216505,5,2,0:0:0:0:
361,265,218505,5,2,0:0:0:0:
329,87,220505,5,2,0:0:0:0:
175,258,221505,2,0,L|184:307,2,38.9999988098145,2|0|0,0:0|0:0|0:0,0:0:0:0:
127,211,222005,2,0,L|136:162,2,38.9999988098145,2|0|0,0:0|0:0|0:0,0:0:0:0:
73,249,222505,6,0,P|18:242|-5:180,1,116.999996429443,6|0,1:2|1:2,0:0:0:0:
9,128,223171,1,2,1:2:0:0:
9,128,223338,1,2,1:2:0:0:
58,83,223505,2,0,B|84:73|84:73|132:87,1,77.999997619629,2|0,1:2|1:2,0:0:0:0:
176,136,224005,2,0,B|202:146|202:146|250:132,1,77.999997619629,6|0,1:2|0:0,1:2:0:0:
293,81,224505,6,0,P|334:62|409:87,2,116.999996429443,6|0|2,1:2|1:2|1:2,0:0:0:0:
188,250,226005,2,0,B|183:271|183:271|198:331,1,77.999997619629,6|0,1:2|0:0,1:2:0:0:
252,361,226505,6,0,L|307:356|310:358|313:360|368:355,1,116.999996429443,6|0,1:2|1:2,0:0:0:0:
436,354,227171,1,2,1:2:0:0:
436,354,227338,1,2,1:2:0:0:
481,305,227505,2,0,P|489:267|475:229,1,77.999997619629,2|0,1:2|1:2,0:0:0:0:
420,195,228005,2,0,P|412:157|426:119,1,77.999997619629,6|0,1:2|0:0,1:2:0:0:
472,74,228505,6,0,B|444:54|444:54|353:63,2,116.999996429443,6|0|2,1:2|1:2|1:2,0:0:0:0:
470,273,230005,2,0,B|458:281|458:281|377:273,1,77.999997619629,6|0,1:2|0:0,1:2:0:0:
343,232,230505,6,0,P|325:270|338:312,1,77.999997619629,6|0,1:2|2:2,0:0:0:0:
379,351,231005,2,0,B|419:347,2,38.9999988098145,2|2|2,1:2|1:2|1:2,0:0:0:0:
314,365,231505,1,6,1:2:0:0:
115,356,232005,2,0,B|138:364|138:364|199:348,1,77.999997619629,2|0,1:2|0:0,1:2:0:0:
241,308,232505,6,0,P|250:286|238:232,1,77.999997619629,6|0,1:2|1:2,0:0:0:0:
266,173,233005,2,0,P|251:154|198:137,1,77.999997619629,2|0,1:2|1:2,0:0:0:0:
161,83,233505,2,0,P|137:86|96:123,1,77.999997619629,6|0,1:2|1:2,0:0:0:0:
38,151,234005,2,0,P|13:147|-7:155,2,38.9999988098145,2|0|0,1:2|1:2|1:2,1:2:0:0:
82,200,234505,6,0,P|92:239|80:286,1,77.999997619629,6|0,1:2|2:2,0:0:0:0:
37,321,235005,2,0,P|18:316|0:321,2,38.9999988098145,2|2|2,1:2|1:2|1:2,0:0:0:0:
80,370,235505,2,0,B|98:378|98:378|168:366,1,77.999997619629,2|0,1:2|2:2,0:0:0:0:
209,329,236005,2,0,P|227:333|246:328,2,38.9999988098145,4|0|0,1:2|1:2|1:2,0:0:0:0:
163,280,236505,6,0,B|156:254|156:254|171:197,2,77.999997619629,6|2|2,1:2|1:2|1:2,0:0:0:0:
284,328,237505,2,0,P|265:323|246:328,2,38.9999988098145,6|0|0,1:2|0:0|1:2,0:0:0:0:
334,285,238005,2,0,P|352:289|371:284,2,38.9999988098145,6|0|0,1:2|1:2|1:2,1:2:0:0:
289,235,238505,5,6,1:2:0:0:
255,56,239171,1,2,1:2:0:0:
255,56,239338,1,2,1:2:0:0:
301,102,239505,2,0,P|336:116|377:105,1,77.999997619629,2|0,1:2|1:2,0:0:0:0:
410,51,240005,2,0,P|445:37|486:48,1,77.999997619629,6|0,1:2|0:0,1:2:0:0:
511,106,240505,6,0,L|509:160|503:166|501:220,2,116.999996429443,6|0|2,1:2|1:2|1:2,0:0:0:0:
497,304,242005,2,0,P|459:313|423:299,1,77.999997619629,6|0,1:2|0:0,1:2:0:0:
389,242,242505,6,0,B|368:233|368:233|263:253,1,116.999996429443,6|0,1:2|1:2,0:0:0:0:
231,300,243171,1,2,1:2:0:0:
231,300,243338,1,2,1:2:0:0:
177,261,243505,2,0,P|166:217|180:177,1,77.999997619629,2|0,1:2|1:2,0:0:0:0:
219,137,244005,2,0,P|230:93|216:53,1,77.999997619629,6|0,1:2|0:0,1:2:0:0:
169,20,244505,6,0,L|141:12|86:34|58:26,2,116.999996429443,6|0|2,1:2|1:2|1:2,0:0:0:0:
341,120,246005,2,0,B|323:114|323:114|253:139,1,77.999997619629,6|0,1:2|0:0,1:2:0:0:
222,183,246505,6,0,P|239:217|227:267,1,77.999997619629,6|0,1:2|2:2,0:0:0:0:
172,281,247005,2,0,P|150:274|131:277,2,38.9999988098145,2|2|2,1:2|1:2|1:2,0:0:0:0:
225,320,247505,2,0,B|241:330|241:330|304:320,1,77.999997619629,6|0,1:2|2:2,0:0:0:0:
364,309,248005,1,2,1:2:0:0:
175,371,248505,6,0,P|155:339|161:286,1,77.999997619629,6|0,1:2|1:2,0:0:0:0:
116,245,249005,2,0,P|133:211|182:190,1,77.999997619629,2|0,1:2|1:2,0:0:0:0:
195,130,249505,2,0,P|232:128|275:160,1,77.999997619629,6|0,1:2|1:2,0:0:0:0:
325,179,250005,2,0,P|345:175|369:184,2,38.9999988098145,2|0|0,1:2|1:2|1:2,0:0:0:0:
295,238,250505,6,0,B|288:259|288:259|302:321,1,77.999997619629,6|0,1:2|2:2,0:0:0:0:
355,351,251005,2,0,P|373:346|392:350,2,38.9999988098145,2|2|2,1:2|1:2|1:2,0:0:0:0:
295,381,251505,2,0,P|255:370|214:381,1,77.999997619629,2|0,1:2|2:2,0:0:0:0:
163,343,252005,2,0,P|123:354|82:343,1,77.999997619629,6|0,1:2|0:0,1:2:0:0:
42,298,252505,6,0,B|35:271|35:271|53:175,2,116.999996429443,6|0|6,1:2|1:2|1:2,0:0:0:0:
68,100,254005,2,0,P|107:87|147:103,1,77.999997619629,2|0,1:2|0:0,1:2:0:0:
193,150,254505,6,0,B|216:160|216:160|291:148,1,86.6666666666667,6|0,1:2|2:2,0:0:0:0:
328,97,255005,2,0,P|323:73|330:52,2,43.3333333333333,2|2|2,1:2|1:2|1:2,0:0:0:0:
392,132,255505,2,0,P|406:169|391:222,1,86.6666666666667,2|0,1:2|2:2,0:0:0:0:
430,279,256005,2,0,P|404:309|351:323,1,86.6666666666667,6|0,1:2|0:0,1:2:0:0:
301,279,256505,6,0,B|278:269|278:269|203:281,1,86.6666666666667,6|0,1:2|2:2,0:0:0:0:
166,332,257005,2,0,P|171:356|164:377,2,43.3333333333333,2|2|2,1:2|1:2|1:2,0:0:0:0:
96,305,257505,1,2,1:2:0:0:
318,359,258005,5,6,1:2:0:0:
318,359,258171,1,2,1:2:0:0:
318,359,258338,1,2,1:2:0:0:
371,308,258505,1,6,1:2:0:0:
510,136,259005,6,0,P|466:148|424:133,1,86.6666666666667,2|2,1:2|1:2,0:0:0:0:
376,82,259505,2,0,P|332:70|290:85,1,86.6666666666667,6|2,1:2|1:2,0:0:0:0:
234,125,260005,2,0,P|190:137|148:122,1,86.6666666666667,2|2,1:2|1:2,1:2:0:0:
102,70,260505,6,0,L|108:26,2,43.3333333333333,6|0|0,1:2|0:0|1:2,0:0:0:0:
55,127,261005,2,0,L|61:171,2,43.3333333333333,2|0|0,1:2|0:2|1:2,0:0:0:0:
5,72,261505,1,6,1:2:0:0:
1,292,262005,2,0,B|28:281|28:281|95:300,1,86.6666666666667,4|0,1:2|0:0,1:2:0:0:
128,355,262505,6,0,L|186:337|189:328|248:311,1,130,6|2,1:2|1:2,0:0:0:0:
459,252,263505,1,6,1:2:0:0:
329,73,264005,2,0,B|341:90|341:90|332:169,1,86.6666666666667,2|0,1:2|0:0,1:2:0:0:
284,210,264505,6,0,P|239:222|201:207,1,86.6666666666667,6|0,1:2|2:2,0:0:0:0:
167,153,265005,1,2,1:2:0:0:
167,153,265171,1,2,1:2:0:0:
167,153,265338,1,2,1:2:0:0:
96,175,265505,2,0,B|85:202|85:202|107:308,1,130,2|6,1:2|1:2,0:0:0:0:
322,343,266505,6,0,B|311:316|311:316|326:244,1,86.6666666666667,6|0,1:2|2:2,0:0:0:0:
342,193,267005,1,2,1:2:0:0:
342,193,267171,1,2,1:2:0:0:
342,193,267338,1,2,1:2:0:0:
355,120,267505,2,0,P|326:91|277:83,1,86.6666666666667,2|0,1:2|2:2,0:0:0:0:
232,27,268005,2,0,P|192:37|160:76,1,86.6666666666667,6|0,1:2|0:0,1:2:0:0:
204,142,268505,5,6,1:2:0:0:
204,142,268671,1,0,0:0:0:0:
204,142,268838,1,0,2:2:0:0:
155,197,269005,5,2,1:2:0:0:
155,197,269171,1,0,0:2:0:0:
155,197,269338,1,0,0:2:0:0:
210,245,269505,6,0,P|231:240|255:246,2,43.3333333333333,2|0|0,1:2|0:0|2:2,0:0:0:0:
161,300,270005,2,0,P|140:295|116:301,2,43.3333333333333,2|0|0,1:2|0:2|0:2,0:0:0:0:
212,353,270505,6,0,P|275:368|332:332,2,130,2|2|2,1:2|1:2|1:2,0:0:0:0:
42,224,272005,1,2,1:2:0:0:
42,224,272171,1,2,1:2:0:0:
42,224,272338,1,2,1:2:0:0:
79,151,272505,6,0,B|111:139|111:139|216:170,1,143.000004364014,14|2,1:2|1:2,0:0:0:0:
370,219,273338,1,2,1:2:0:0:
370,219,273505,2,0,P|386:170|369:126,1,95.3333362426759,10|0,1:2|2:0,0:0:0:0:
315,71,274005,2,0,B|336:52|336:52|419:48,1,95.3333362426759,6|0,1:2|0:0,1:2:0:0:
479,75,274505,6,0,P|495:124|478:168,1,95.3333362426759,14|0,1:2|2:0,0:0:0:0:
413,202,275005,1,2,1:2:0:0:
413,202,275171,1,2,1:2:0:0:
413,202,275338,1,2,1:2:0:0:
336,174,275505,1,10,1:2:0:0:
145,38,276005,5,6,1:2:0:0:
145,38,276171,1,2,1:2:0:0:
145,38,276338,1,2,1:2:0:0:
159,119,276505,1,14,1:2:0:0:
137,353,277005,5,2,1:2:0:0:
137,353,277171,1,2,1:2:0:0:
137,353,277338,1,2,1:2:0:0:
199,300,277505,2,0,P|213:263|194:205,1,95.3333362426759,10|2,1:2|1:2,0:0:0:0:
131,164,278005,2,0,P|117:127|136:69,1,95.3333362426759,6|2,1:2|1:2,1:2:0:0:
201,33,278505,6,0,B|227:22|227:22|300:38,1,95.3333362426759,14|0,1:2|2:0,0:0:0:0:
377,63,279005,1,2,1:2:0:0:
377,63,279171,1,2,1:2:0:0:
377,63,279338,1,2,1:2:0:0:
448,101,279505,2,0,P|458:154|449:196,1,95.3333362426759,14|0,1:2|2:0,0:0:0:0:
378,225,280005,1,6,1:2:0:0:
378,225,280171,1,2,1:2:0:0:
378,225,280338,1,2,1:2:0:0:
301,249,280505,6,0,L|235:237|229:230|163:218,1,143.000004364014,14|2,1:2|1:2,0:0:0:0:
83,81,281338,1,2,1:2:0:0:
83,81,281505,2,0,P|102:122|89:171,1,95.3333362426759,10|0,1:2|2:0,0:0:0:0:
15,196,282005,2,0,P|-4:237|8:286,1,95.3333362426759,6|0,1:2|0:0,1:2:0:0:
70,333,282505,6,0,B|95:343|95:343|165:332,1,95.3333362426759,14|0,1:2|2:0,0:0:0:0:
248,323,283005,1,2,1:2:0:0:
248,323,283171,1,2,1:2:0:0:
248,323,283338,1,2,1:2:0:0:
327,304,283505,1,10,1:2:0:0:
127,180,284005,5,6,1:2:0:0:
127,180,284171,1,2,1:2:0:0:
127,180,284338,1,2,1:2:0:0:
146,259,284505,1,14,1:2:0:0:
270,59,285005,5,2,1:2:0:0:
270,59,285171,1,2,1:2:0:0:
270,59,285338,1,2,1:2:0:0:
191,78,285505,2,0,P|184:118|218:166,1,95.3333362426759,10|2,1:2|1:2,0:0:0:0:
273,215,286005,2,0,B|296:204|296:204|365:216,1,95.3333362426759,6|2,1:2|1:2,1:2:0:0:
418,155,286505,6,0,P|432:116|414:66,1,95.3333362426759,14|0,1:2|2:0,0:0:0:0:
346,41,287005,1,2,1:2:0:0:
346,41,287171,1,2,1:2:0:0:
346,41,287338,1,2,1:2:0:0:
268,15,287505,1,14,1:2:0:0:
3,36,288005,6,0,B|-5:53|-5:53|77:24,1,103.999996826172,6|0,1:2|0:0,1:2:0:0:
151,1,288505,6,0,B|164:22|163:48|151:68|151:68|136:89|136:116|150:135,1,143.000004364014,14|2,1:2|1:2,0:0:0:0:
307,189,289338,1,2,1:2:0:0:
307,189,289505,2,0,B|282:176|282:176|210:189,1,95.3333362426759,10|0,1:2|2:0,0:0:0:0:
149,235,290005,2,0,P|138:280|154:331,1,95.3333362426759,6|0,1:2|0:0,1:2:0:0:
217,373,290505,6,0,B|242:386|242:386|314:373,1,95.3333362426759,14|0,1:2|2:0,0:0:0:0:
394,364,291005,1,2,1:2:0:0:
394,364,291171,1,2,1:2:0:0:
394,364,291338,1,2,1:2:0:0:
472,342,291505,1,10,1:2:0:0:
473,105,292005,5,6,1:2:0:0:
473,105,292171,1,2,1:2:0:0:
473,105,292338,1,2,1:2:0:0:
395,83,292505,1,14,1:2:0:0:
166,152,293005,5,2,1:2:0:0:
166,152,293171,1,2,1:2:0:0:
166,152,293338,1,2,1:2:0:0:
164,233,293505,2,0,P|188:253|260:249,1,95.3333362426759,10|2,1:2|1:2,0:0:0:0:
326,281,294005,2,0,P|355:270|387:205,1,95.3333362426759,6|2,1:2|1:2,1:2:0:0:
356,142,294505,6,0,B|331:152|331:152|258:138,1,95.3333362426759,14|0,1:2|2:0,0:0:0:0:
211,89,295005,1,2,1:2:0:0:
211,89,295171,1,2,1:2:0:0:
211,89,295338,1,2,1:2:0:0:
151,34,295505,2,0,P|109:20|55:40,1,95.3333362426759,14|0,1:2|2:0,0:0:0:0:
13,101,296005,1,6,1:2:0:0:
13,101,296171,1,2,1:2:0:0:
13,101,296338,1,2,1:2:0:0:
73,156,296505,6,0,L|91:171|137:166|138:166|185:162|203:177,1,143.000004364014,14|2,1:2|1:2,0:0:0:0:
256,335,297338,1,2,1:2:0:0:
256,335,297505,2,0,P|240:301|251:241,1,95.3333362426759,10|0,1:2|2:0,0:0:0:0:
302,184,298005,2,0,B|329:178|329:178|407:196,1,95.3333362426759,6|0,1:2|0:0,1:2:0:0:
469,161,298505,6,0,P|478:115|461:71,1,95.3333362426759,14|0,1:2|2:0,0:0:0:0:
391,29,299005,1,2,1:2:0:0:
391,29,299171,1,2,1:2:0:0:
391,29,299338,1,2,1:2:0:0:
312,51,299505,1,10,1:2:0:0:
319,300,300005,5,6,1:2:0:0:
319,300,300171,1,2,1:2:0:0:
319,300,300338,1,2,1:2:0:0:
398,322,300505,1,14,1:2:0:0:
174,248,301005,5,2,1:2:0:0:
174,248,301171,1,2,1:2:0:0:
174,248,301338,1,2,1:2:0:0:
95,270,301505,2,0,B|85:241|85:241|101:166,1,95.3333362426759,10|2,1:2|1:2,0:0:0:0:
172,144,302005,2,0,B|182:115|182:115|166:40,1,95.3333362426759,6|2,1:2|1:2,1:2:0:0:
99,8,302505,6,0,P|60:7|10:49,1,95.3333362426759,14|0,1:2|2:0,0:0:0:0:
9,125,303005,1,2,1:2:0:0:
9,125,303171,1,2,1:2:0:0:
9,125,303338,1,2,1:2:0:0:
0,205,303505,2,0,L|69:210|71:212|140:217,1,143.000004364014,14|6,1:2|1:2,0:0:0:0:
334,365,304505,6,0,P|318:326|335:275,1,95.3333362426759,14|0,1:2|2:0,0:0:0:0:
409,249,305005,2,0,P|432:258|459:256,2,47.6666681213379,0|0|0,1:2|1:2|1:2,0:0:0:0:
396,168,305505,2,0,P|415:100|390:34,1,143.000004364014,10|6,1:2|1:2,0:0:0:0:
232,57,306338,1,2,1:2:0:0:
232,57,306505,6,0,B|219:92|219:92|231:150,1,95.3333362426759,14|0,1:2|2:0,0:0:0:0:
284,209,307005,2,0,L|332:225,2,47.6666681213379,0|0|0,1:2|1:2|1:2,0:0:0:0:
206,233,307505,2,0,B|171:246|171:246|49:219,1,143.000004364014,10|6,1:2|1:2,0:0:0:0:
237,48,308505,6,0,P|278:34|329:61,1,95.3333362426759,14|0,1:2|0:2,0:0:0:0:
342,133,309005,2,0,P|339:169|348:185,2,47.6666681213379,0|0|0,1:2|1:2|1:2,0:2:0:0:
402,78,309505,1,14,2:2:0:0:
163,126,310005,1,2,2:0:0:0:
197,287,310338,1,2,2:0:0:0:
197,287,310505,6,0,L|227:299|302:276|332:288,2,143.000004364014,6|2|2,2:0|2:0|2:0,0:0:0:0:
0,0,312505,5,14,1:2:0:0:
