osu file format v14

[General]
AudioFilename: audio.mp3
AudioLeadIn: 0
PreviewTime: 165973
Countdown: 0
SampleSet: Soft
StackLeniency: 0.3
Mode: 0
LetterboxInBreaks: 0
WidescreenStoryboard: 0

[Editor]
DistanceSpacing: 1.6
BeatDivisor: 12
GridSize: 8
TimelineZoom: 1.9

[Metadata]
Title:Sousei no Kansokusha
TitleUnicode:創世の観測者
Artist:At the Garret
ArtistUnicode:At the Garret
Creator:Heratikus
Version:Genesis
Source:
Tags:japanese classical orchestral female vocals vocalist 屋根裏美術館 East Wing yaneura bijutsukan
BeatmapID:3946845
BeatmapSetID:1913294

[Difficulty]
HPDrainRate:5
CircleSize:7
OverallDifficulty:9
ApproachRate:8
SliderMultiplier:1.5
SliderTickRate:1

[Events]
//Background and Video events
0,0,"snksbg2-resize.jpg",0,0
//Break Periods
2,20726,25255
2,190515,205515
//Storyboard Layer 0 (Background)
//Storyboard Layer 1 (Fail)
//Storyboard Layer 2 (Pass)
//Storyboard Layer 3 (Foreground)
//Storyboard Layer 4 (Overlay)
//Storyboard Sound Samples

[TimingPoints]
505,500,4,2,1,35,1,0
2505,500,4,2,1,35,1,0
4046,-100,4,2,1,15,0,0
4505,-100,4,2,1,35,0,0
6046,-100,4,2,1,15,0,0
6505,-100,4,2,1,35,0,0
8046,-100,4,2,1,15,0,0
8338,-100,4,2,1,35,0,0
10046,-100,4,2,1,15,0,0
10505,-100,4,2,1,35,0,0
12046,-100,4,2,1,15,0,0
12505,-100,4,2,1,35,0,0
14046,-100,4,2,1,15,0,0
14505,-100,4,2,1,35,0,0
16046,-100,4,2,1,15,0,0
16338,-100,4,2,1,35,0,0
18046,-100,4,2,1,15,0,0
18505,-133.333333333333,4,2,1,35,0,0
26005,-200,4,2,1,25,0,0
26505,-133.333333333333,4,2,1,30,0,0
36505,-111.111111111111,4,2,1,30,0,0
37505,-125,4,2,1,30,0,0
38505,-133.333333333333,4,2,1,30,0,0
42505,-133.333333333333,4,2,1,35,0,0
58005,-200,4,2,1,40,0,0
58421,-200,4,2,1,5,0,0
58505,-111.111111111111,4,2,1,45,0,0
60046,-111.111111111111,4,2,1,20,0,0
60505,-111.111111111111,4,2,1,45,0,0
62046,-111.111111111111,4,2,1,20,0,0
62505,-111.111111111111,4,2,1,45,0,0
64046,-111.111111111111,4,2,1,20,0,0
64505,-111.111111111111,4,2,1,45,0,0
66046,-111.111111111111,4,2,1,20,0,0
66505,-111.111111111111,4,2,1,45,0,0
70046,-111.111111111111,4,2,1,20,0,0
70505,-111.111111111111,4,2,1,45,0,0
76505,500,4,2,1,50,1,1
76505,-90.9090909090909,4,2,1,50,0,1
78046,-90.9090909090909,4,2,1,25,0,1
78505,-90.9090909090909,4,2,1,50,0,1
82046,-90.9090909090909,4,2,1,25,0,1
82338,-90.9090909090909,4,2,1,50,0,1
86046,-90.9090909090909,4,2,1,25,0,1
86505,-90.9090909090909,4,2,1,50,0,1
90046,-90.9090909090909,4,2,1,25,0,1
90338,-90.9090909090909,4,2,1,50,0,1
92046,-90.9090909090909,4,2,1,25,0,1
92505,-90.9090909090909,4,2,1,50,0,1
94046,-90.9090909090909,4,2,1,25,0,1
94338,-90.9090909090909,4,2,1,50,0,1
96046,-90.9090909090909,4,2,1,25,0,1
96505,-90.9090909090909,4,2,1,50,0,1
97505,-100,4,2,1,50,0,0
102046,-100,4,2,1,25,0,0
102505,-100,4,2,1,50,0,0
104046,-100,4,2,1,25,0,0
104505,-100,4,2,1,50,0,0
106046,-100,4,2,1,25,0,0
106505,-100,4,2,1,50,0,0
108046,-100,4,2,1,25,0,0
108505,-100,4,2,1,50,0,0
110046,-100,4,2,1,25,0,0
110505,-100,4,2,1,50,0,0
112046,-100,4,2,1,25,0,0
112505,-100,4,2,1,50,0,0
114046,-100,4,2,1,25,0,0
114505,-100,4,2,1,50,0,0
116046,-100,4,2,1,25,0,0
116505,-133.333333333333,4,2,1,30,0,0
118046,-133.333333333333,4,2,1,15,0,0
118505,-133.333333333333,4,2,1,30,0,0
120046,-133.333333333333,4,2,1,15,0,0
120338,-133.333333333333,4,2,1,30,0,0
122046,-133.333333333333,4,2,1,15,0,0
122505,-133.333333333333,4,2,1,30,0,0
124046,-133.333333333333,4,2,1,15,0,0
124505,-133.333333333333,4,2,1,30,0,0
126046,-133.333333333333,4,2,1,15,0,0
126505,-133.333333333333,4,2,1,30,0,0
128046,-133.333333333333,4,2,1,15,0,0
128505,-133.333333333333,4,2,1,30,0,0
130046,-133.333333333333,4,2,1,15,0,0
130338,-133.333333333333,4,2,1,30,0,0
132505,-125,4,2,1,35,0,0
134046,-125,4,2,1,15,0,0
134505,-125,4,2,1,35,0,0
136046,-125,4,2,1,15,0,0
136338,-125,4,2,1,35,0,0
138046,-125,4,2,1,15,0,0
138505,-125,4,2,1,35,0,0
140046,-125,4,2,1,15,0,0
140505,-125,4,2,1,35,0,0
142046,-125,4,2,1,15,0,0
142505,-125,4,2,1,35,0,0
144046,-125,4,2,1,15,0,0
144505,-125,4,2,1,35,0,0
146046,-125,4,2,1,15,0,0
146505,-125,4,2,1,35,0,0
148046,-125,4,2,1,15,0,0
148505,-111.111111111111,4,2,1,45,0,0
150046,-111.111111111111,4,2,1,20,0,0
150505,-111.111111111111,4,2,1,45,0,0
152046,-111.111111111111,4,2,1,20,0,0
152505,-111.111111111111,4,2,1,45,0,0
154046,-111.111111111111,4,2,1,20,0,0
154505,-111.111111111111,4,2,1,45,0,0
156046,-111.111111111111,4,2,1,20,0,0
156505,-111.111111111111,4,2,1,45,0,0
160046,-111.111111111111,4,2,1,20,0,0
160505,-111.111111111111,4,2,1,45,0,0
166505,500,4,2,1,50,1,1
166505,-90.9090909090909,4,2,1,50,0,1
168046,-90.9090909090909,4,2,1,25,0,1
168505,-90.9090909090909,4,2,1,50,0,1
172046,-90.9090909090909,4,2,1,25,0,1
172338,-90.9090909090909,4,2,1,50,0,1
176046,-90.9090909090909,4,2,1,25,0,1
176505,-90.9090909090909,4,2,1,50,0,1
180046,-90.9090909090909,4,2,1,25,0,1
180338,-90.9090909090909,4,2,1,50,0,1
182046,-90.9090909090909,4,2,1,25,0,1
182505,-90.9090909090909,4,2,1,50,0,1
184046,-90.9090909090909,4,2,1,25,0,1
184338,-90.9090909090909,4,2,1,50,0,1
186046,-90.9090909090909,4,2,1,25,0,1
186505,-90.9090909090909,4,2,1,50,0,1
187505,-100,4,2,1,50,0,0
206505,-142.857142857143,4,2,1,30,0,0
208505,-153.846153846154,4,2,1,30,0,0
210505,-166.666666666667,4,2,1,30,0,0
212505,-200,4,2,1,30,0,0
214505,-166.666666666667,4,2,1,30,0,0
216505,-200,4,2,1,30,0,0
218505,-166.666666666667,4,2,1,30,0,0
220505,-142.857142857143,4,2,1,30,0,0
222005,-166.666666666667,4,2,1,30,0,0
222505,-133.333333333333,4,2,1,35,0,0
224046,-133.333333333333,4,2,1,15,0,0
224505,-133.333333333333,4,2,1,35,0,0
226046,-133.333333333333,4,2,1,15,0,0
226505,-133.333333333333,4,2,1,35,0,0
228046,-133.333333333333,4,2,1,15,0,0
228505,-133.333333333333,4,2,1,35,0,0
230046,-133.333333333333,4,2,1,15,0,0
230505,-133.333333333333,4,2,1,35,0,0
232046,-133.333333333333,4,2,1,15,0,0
232505,-133.333333333333,4,2,1,35,0,0
240046,-133.333333333333,4,2,1,15,0,0
240505,-133.333333333333,4,2,1,35,0,0
242046,-133.333333333333,4,2,1,15,0,0
242505,-133.333333333333,4,2,1,35,0,0
244046,-133.333333333333,4,2,1,15,0,0
244505,-133.333333333333,4,2,1,35,0,0
246046,-133.333333333333,4,2,1,15,0,0
246505,-133.333333333333,4,2,1,35,0,0
248046,-133.333333333333,4,2,1,15,0,0
248505,-125,4,2,1,40,0,0
249505,-111.111111111111,4,2,1,45,0,0
250505,-125,4,2,1,40,0,0
252046,-125,4,2,1,20,0,0
252505,-125,4,2,1,40,0,0
254005,-117.647058823529,4,2,1,40,0,0
254046,-117.647058823529,4,2,1,20,0,0
254505,-111.111111111111,4,2,1,40,0,0
256046,-111.111111111111,4,2,1,20,0,0
256505,-111.111111111111,4,2,1,40,0,0
260046,-111.111111111111,4,2,1,20,0,0
260338,-111.111111111111,4,2,1,40,0,0
262046,-111.111111111111,4,2,1,20,0,0
262505,-100,4,2,1,45,0,0
264046,-100,4,2,1,20,0,0
264505,-100,4,2,1,45,0,0
266505,-90.9090909090909,4,2,1,45,0,0
268046,-90.9090909090909,4,2,1,20,0,0
268505,-83.3333333333333,4,2,1,45,0,0
270505,-100,4,2,1,40,0,0
272005,-90.9090909090909,4,2,1,45,0,0
272505,500,4,2,1,50,1,1
272505,-83.3333333333333,4,2,1,50,0,1
274046,-83.3333333333333,4,2,1,25,0,1
274505,-83.3333333333333,4,2,1,50,0,1
278046,-83.3333333333333,4,2,1,25,0,1
278338,-83.3333333333333,4,2,1,50,0,1
282046,-83.3333333333333,4,2,1,25,0,1
282505,-83.3333333333333,4,2,1,50,0,1
286046,-83.3333333333333,4,2,1,25,0,1
286338,-83.3333333333333,4,2,1,50,0,1
288005,-66.6666666666667,4,2,1,50,0,1
288046,-66.6666666666667,4,2,1,25,0,1
288421,-83.3333333333333,4,2,1,25,0,0
288505,-83.3333333333333,4,2,1,50,0,1
290046,-83.3333333333333,4,2,1,25,0,1
290505,-83.3333333333333,4,2,1,50,0,1
294046,-83.3333333333333,4,2,1,25,0,1
294338,-83.3333333333333,4,2,1,50,0,1
298046,-83.3333333333333,4,2,1,25,0,1
298505,-83.3333333333333,4,2,1,50,0,1
302046,-83.3333333333333,4,2,1,25,0,1
302338,-83.3333333333333,4,2,1,50,0,1
304046,-83.3333333333333,4,2,1,25,0,1
304505,-83.3333333333333,4,2,1,50,0,1
306046,-83.3333333333333,4,2,1,25,0,1
306338,-83.3333333333333,4,2,1,50,0,1
308046,-83.3333333333333,4,2,1,25,0,1
308505,-83.3333333333333,4,2,1,50,0,1
309505,-100,4,2,1,50,0,0
311505,-1000,4,2,1,50,0,0
312421,-1000,4,2,1,5,0,0
312505,-83.3333333333333,4,2,1,50,0,0

[Colours]
Combo1 : 114,201,172
Combo2 : 154,81,244
Combo3 : 86,158,186
Combo4 : 214,78,200

[HitObjects]
256,384,2005,5,0,0:0:0:0:
280,323,2171,1,0,0:0:0:0:
231,258,2338,1,0,0:0:0:0:
281,182,2505,5,14,1:2:0:0:
224,81,3505,1,14,1:2:0:0:
306,1,4005,2,0,L|294:0,10,12.5,2|0|0|0|0|0|0|0|0|0|0,1:2|1:2|1:2|1:2|1:2|1:2|1:2|1:2|1:2|1:2|1:2,1:2:0:0:
363,7,4505,5,14,1:2:0:0:
224,81,5505,1,14,1:2:0:0:
72,154,6005,2,0,L|86:155,10,12.5,2|0|0|0|0|0|0|0|0|0|0,1:2|1:2|1:2|1:2|1:2|1:2|1:2|1:2|1:2|1:2|1:2,1:2:0:0:
19,149,6505,5,14,1:2:0:0:
124,101,7005,1,2,2:0:0:0:
85,155,7171,1,0,0:0:0:0:
112,215,7338,1,0,0:0:0:0:
73,268,7505,2,0,P|74:293|87:316,1,50,14|0,1:2|0:0,0:0:0:0:
144,340,7838,1,0,0:0:0:0:
91,378,8005,2,0,L|71:378,6,12.5,2|0|0|0|0|0|0,1:2|1:2|1:2|1:2|1:2|1:2|1:2,1:2:0:0:
144,340,8338,1,2,1:2:0:0:
196,301,8505,5,14,1:2:0:0:
373,376,9005,1,2,2:0:0:0:
314,351,9172,1,0,0:0:0:0:
255,326,9338,1,0,0:0:0:0:
196,301,9505,1,14,1:2:0:0:
359,177,10005,2,0,L|342:190,10,12.5,2|0|0|0|0|0|0|0|0|0|0,1:2|1:2|1:2|1:2|1:2|1:2|1:2|1:2|1:2|1:2|1:2,1:2:0:0:
399,147,10505,5,14,1:2:0:0:
373,376,11505,1,14,1:2:0:0:
174,232,12005,2,0,L|185:240,10,12.5,2|0|0|0|0|0|0|0|0|0|0,1:2|1:2|1:2|1:2|1:2|1:2|1:2|1:2|1:2|1:2|1:2,1:2:0:0:
130,202,12505,5,14,1:2:0:0:
397,145,13505,1,14,1:2:0:0:
150,58,14005,2,0,L|138:61,10,12.5,2|0|0|0|0|0|0|0|0|0|0,1:2|1:2|1:2|1:2|1:2|1:2|1:2|1:2|1:2|1:2|1:2,1:2:0:0:
201,48,14505,5,14,1:2:0:0:
333,18,15005,1,2,2:0:0:0:
348,84,15171,1,0,0:0:0:0:
282,99,15338,1,0,0:0:0:0:
297,165,15505,2,0,P|316:181|345:186,1,50,14|0,1:2|0:0,0:0:0:0:
402,158,15838,1,0,0:0:0:0:
457,197,16005,2,0,L|461:214,6,12.5,2|0|0|0|0|0|0,1:2|1:2|1:2|1:2|1:2|1:2|1:2,1:2:0:0:
402,158,16338,1,2,1:2:0:0:
407,90,16505,5,14,1:2:0:0:
397,226,17005,1,2,2:0:0:0:
402,158,17172,1,0,0:0:0:0:
341,188,17338,1,0,0:0:0:0:
458,196,17505,1,14,1:2:0:0:
412,22,18005,2,0,L|414:3,10,12.5,2|0|0|0|0|0|0|0|0|0|0,1:2|1:2|1:2|1:2|1:2|1:2|1:2|1:2|1:2|1:2|1:2,1:2:0:0:
407,90,18505,6,0,B|414:84|428:80|449:85|456:107|453:132|436:147|410:155|385:149|360:137|347:119|337:91|337:57|337:57|343:90|338:120|328:140|305:156|282:166|255:163|235:151|228:127|231:104|251:95|266:97|274:102,1,450.000017166138,6|2,0:0|0:0,0:0:0:0:
347,173,26005,6,0,L|353:224,1,50,2|0,0:0|0:0,0:0:0:0:
354,276,26505,2,0,B|342:292|318:293|304:280|304:280|290:265|266:267|253:282,1,112.500004291535,2|0,0:0|0:0,0:0:0:0:
234,339,27171,1,2,0:0:0:0:
234,339,27338,1,2,0:0:0:0:
191,295,27505,2,0,P|159:288|115:307,1,75.000002861023,2|0,0:0|0:0,0:0:0:0:
78,244,28005,2,0,P|107:266|119:301,1,75.000002861023,2|0,0:0|0:0,0:0:0:0:
88,370,28505,2,0,L|119:301,1,75.000002861023,2|0,0:0|0:0,0:0:0:0:
175,252,29005,2,0,B|163:246|150:248|140:256|140:256|139:243|131:232|119:227,1,75.000002861023,2|0,0:0|0:0,0:0:0:0:
165,199,29505,1,2,0:0:0:0:
268,369,30338,5,2,0:0:0:0:
268,369,30505,2,0,L|323:365|324:363|379:359,1,112.500004291535,2|0,0:0|0:0,0:0:0:0:
440,355,31171,1,2,0:0:0:0:
440,355,31338,1,2,0:0:0:0:
405,303,31505,2,0,P|398:265|420:231,1,75.000002861023,2|0,0:0|0:0,0:0:0:0:
428,167,32004,2,0,P|434:204|412:238,1,75.000002861023,2|0,0:0|0:0,0:0:0:0:
347,255,32505,1,2,0:0:0:0:
486,215,34005,6,0,L|499:134,1,75.000002861023,2|0,0:0|0:0,0:0:0:0:
451,73,34505,2,0,B|458:68|472:67|481:80|478:97|464:108|442:111|421:110|398:86,1,112.500004291535,2|0,0:0|0:0,0:0:0:0:
363,57,35171,1,2,0:0:0:0:
411,39,35338,1,2,0:0:0:0:
354,107,35505,2,0,P|319:120|286:105,1,75.000002861023,2|0,0:0|0:0,0:0:0:0:
225,63,36005,2,0,P|230:86|222:140,1,75.000002861023,2|0,0:0|0:0,0:0:0:0:
107,186,36505,6,0,P|117:181|194:190,1,89.999997253418,2|0,0:0|0:0,0:0:0:0:
307,246,37005,2,0,P|297:241|220:250,1,89.999997253418,2|0,0:0|0:0,0:0:0:0:
176,374,37505,2,0,L|164:294,1,80,2|0,0:0|0:0,0:0:0:0:
106,185,38005,2,0,L|95:265,1,80,2|0,0:0|0:0,0:0:0:0:
108,340,38505,6,0,B|93:318|67:314|42:314|15:326|2:357|26:389|48:384|50:371|46:364,1,150.000005722046,2|0,0:0|0:0,0:0:0:0:
17,279,39338,1,2,0:0:0:0:
46,192,39505,2,0,B|50:187|48:174|26:169|2:201|15:232|42:244|67:244|93:240|108:218,1,150.000005722046,2|0,0:0|0:0,0:0:0:0:
99,152,40338,1,2,0:0:0:0:
59,99,40505,6,0,L|64:57,2,37.5000014305115,2|0|0,0:0|0:0|0:0,0:0:0:0:
6,139,41005,2,0,L|-35:133,2,37.5000014305115,2|0|0,0:0|0:0|0:0,0:0:0:0:
46,192,41505,2,0,P|59:207|80:214,1,37.5000014305115,2|0,0:0|0:0,0:0:0:0:
139,206,41838,1,0,0:0:0:0:
198,133,42005,2,0,P|177:137|161:151,1,37.5000014305115,2|0,0:0|0:0,0:0:0:0:
139,206,42338,1,0,0:0:0:0:
177,258,42505,6,0,P|179:276|173:294,1,37.5000014305115,2|0,0:0|0:0,0:0:0:0:
211,342,42838,2,0,P|195:352|177:356,1,37.5000014305115,2|0,0:0|0:0,0:0:0:0:
120,329,43171,1,2,0:0:0:0:
120,329,43338,1,2,0:0:0:0:
31,316,43505,6,0,P|45:305|64:301,1,37.5000014305115,2|0,0:0|0:0,0:0:0:0:
120,329,43838,1,0,0:0:0:0:
121,230,44005,2,0,P|121:248|116:266,1,37.5000014305115,2|0,0:0|0:0,0:0:0:0:
64,301,44338,1,0,0:0:0:0:
30,250,44505,6,0,L|27:206,2,37.5000014305115,2|0|0,0:0|0:0|0:0,0:0:0:0:
2,306,45005,2,0,L|-1:350,2,37.5000014305115,2|0|0,0:0|0:0|0:0,0:0:0:0:
64,301,45505,5,2,0:0:0:0:
82,299,45671,1,0,0:0:0:0:
101,298,45838,1,0,0:0:0:0:
163,348,46005,5,2,0:0:0:0:
145,347,46171,1,0,0:0:0:0:
182,349,46338,1,2,0:0:0:0:
223,305,46505,6,0,L|220:261,1,37.5000014305115,2|0,0:0|0:0,0:0:0:0:
166,237,46838,2,0,L|163:193,1,37.5000014305115,2|0,0:0|0:0,0:0:0:0:
212,160,47171,1,2,0:0:0:0:
212,160,47338,1,2,0:0:0:0:
263,189,47505,2,0,P|283:193|304:183,1,37.5000014305115,2|0,0:0|0:0,0:0:0:0:
334,144,47838,1,0,0:0:0:0:
331,61,48005,2,0,P|317:76|315:99,1,37.5000014305115,2|0,0:0|0:0,0:0:0:0:
334,144,48338,1,0,0:0:0:0:
389,153,48505,6,0,P|403:166|409:184,1,37.5000014305115,2|0,0:0|0:0,0:0:0:0:
466,198,48838,2,0,P|462:216|449:229,1,37.5000014305115,2|0,0:0|0:0,0:0:0:0:
465,286,49171,2,0,P|447:291|429:287,1,37.5000014305115,2|0,0:0|0:0,0:0:0:0:
351,246,49505,5,2,0:0:0:0:
369,243,49672,1,0,0:0:0:0:
388,240,49838,1,0,0:0:0:0:
337,280,50005,5,2,0:0:0:0:
351,246,50172,1,0,0:0:0:0:
328,217,50338,1,0,0:0:0:0:
277,256,50505,6,0,P|260:259|238:252,1,37.5000014305115,2|0,0:0|0:0,0:0:0:0:
197,291,50838,2,0,P|185:277|180:255,1,37.5000014305115,2|0,0:0|0:0,0:0:0:0:
205,203,51171,1,2,0:0:0:0:
230,149,51338,1,2,0:0:0:0:
254,94,51505,2,0,L|296:92,2,37.5000014305115,2|0|0,0:0|0:0|0:0,0:0:0:0:
219,46,52005,2,0,L|177:44,2,37.5000014305115,2|0|0,0:0|0:0|0:0,0:0:0:0:
271,19,52505,6,0,P|293:13|312:17,1,37.5000014305115,2|0,0:0|0:0,0:0:0:0:
352,64,52838,1,0,0:0:0:0:
419,0,53005,2,0,P|396:-1|378:8,1,37.5000014305115,2|0,0:0|0:0,0:0:0:0:
352,64,53338,1,0,0:0:0:0:
396,112,53505,6,0,P|414:113|432:108,1,37.5000014305115,2|0,0:0|0:0,0:0:0:0:
352,64,53838,1,0,0:0:0:0:
320,122,54005,2,0,P|302:128|283:127,1,37.5000014305115,2|0,0:0|0:0,0:0:0:0:
352,64,54338,1,0,0:0:0:0:
364,170,54505,6,0,L|369:211,1,37.5000014305115,2|0,0:0|0:0,0:0:0:0:
376,272,54838,2,0,L|381:313,1,37.5000014305115,2|0,0:0|0:0,0:0:0:0:
388,374,55171,1,2,0:0:0:0:
388,374,55338,1,2,0:0:0:0:
328,349,55505,2,0,P|312:353|294:369,2,37.5000014305115,2|0|0,0:0|0:0|0:0,0:0:0:0:
288,274,56005,2,0,P|299:285|322:293,2,37.5000014305115,2|0|0,0:0|0:0|0:0,0:0:0:0:
243,346,56505,6,0,P|247:330|242:306,1,37.5000014305115,2|0,0:0|0:0,0:0:0:0:
288,274,56838,2,0,P|276:262|253:254,1,37.5000014305115,2|0,0:0|0:0,0:0:0:0:
203,271,57171,1,2,0:0:0:0:
190,325,57338,1,2,0:0:0:0:
164,233,57505,5,2,0:0:0:0:
151,287,57671,1,0,0:0:0:0:
190,325,57838,1,0,0:0:0:0:
97,301,58005,6,0,P|68:303|41:321,1,62.5,2|0,0:0|0:0,0:0:0:0:
31,339,58505,6,0,L|28:296|24:293|21:250,1,89.999997253418,6|0,1:2|2:0,0:0:0:0:
35,194,59005,1,2,1:2:0:0:
44,178,59088,1,2,0:0:0:0:
58,165,59171,1,2,0:0:0:0:
75,157,59255,1,2,0:0:0:0:
93,154,59338,1,2,0:0:0:0:
112,156,59421,1,2,0:0:0:0:
129,164,59505,6,0,P|108:151|98:128,1,44.999998626709,2|0,1:2|0:0,0:0:0:0:
103,72,59838,1,0,1:0:0:0:
198,169,60005,2,0,L|187:170,10,11.2499996566773,6|0|0|0|0|0|0|0|0|0|0,1:2|1:2|1:2|1:2|1:2|1:2|1:2|1:2|1:2|1:2|1:2,1:2:0:0:
231,221,60505,6,0,P|257:185|253:142,1,89.999997253418,6|0,1:2|2:0,0:0:0:0:
185,82,61005,1,2,1:2:0:0:
202,88,61088,1,2,0:0:0:0:
221,88,61171,1,2,0:0:0:0:
239,83,61255,1,2,0:0:0:0:
254,73,61338,1,2,0:0:0:0:
266,58,61421,1,2,0:0:0:0:
272,41,61505,6,0,L|285:85,1,44.999998626709,2|0,1:2|0:0,0:0:0:0:
336,114,61838,1,0,1:0:0:0:
426,156,62005,2,0,L|421:175,10,11.2499996566773,6|0|0|0|0|0|0|0|0|0|0,1:2|1:2|1:2|1:2|1:2|1:2|1:2|1:2|1:2|1:2|1:2,1:2:0:0:
478,127,62505,6,0,L|453:38,1,89.999997253418,6|0,1:2|2:0,0:0:0:0:
389,8,63005,1,2,1:2:0:0:
371,2,63088,1,2,2:2:0:0:
352,0,63171,1,2,2:2:0:0:
333,2,63254,1,2,2:2:0:0:
316,8,63338,1,2,2:2:0:0:
300,17,63421,1,2,2:2:0:0:
286,30,63505,6,0,P|277:55|284:77,1,44.999998626709,2|0,1:2|0:0,0:0:0:0:
332,110,63838,1,0,1:0:0:0:
276,190,64004,2,0,L|261:188,10,11.2499996566773,6|0|0|0|0|0|0|0|0|0|0,1:2|1:2|1:2|1:2|1:2|1:2|1:2|1:2|1:2|1:2|1:2,1:2:0:0:
324,219,64504,6,0,B|334:232|334:248|327:261|327:261|327:261|327:261|318:275|319:292|329:303,1,89.999997253418,6|0,1:2|2:0,0:0:0:0:
394,378,65004,1,2,1:2:0:0:
379,366,65088,1,2,2:2:0:0:
362,359,65171,1,2,2:2:0:0:
343,356,65255,1,2,2:2:0:0:
325,359,65338,1,2,2:2:0:0:
308,366,65421,1,2,2:2:0:0:
293,378,65505,6,0,P|270:388|248:383,1,44.999998626709,6|0,1:2|0:0,0:0:0:0:
201,359,65838,1,0,1:0:0:0:
151,334,66005,2,0,L|150:319,10,11.2499996566773,6|0|0|0|0|0|0|0|0|0|0,1:2|1:2|1:2|1:2|1:2|1:2|1:2|1:2|1:2|1:2|1:2,1:2:0:0:
105,365,66505,6,0,P|62:381|17:357,1,89.999997253418,6|0,1:2|2:0,0:0:0:0:
0,268,67005,1,2,1:2:0:0:
0,249,67088,1,2,2:2:0:0:
0,230,67171,1,2,2:2:0:0:
0,211,67255,1,2,2:2:0:0:
0,193,67338,1,2,2:2:0:0:
0,174,67421,1,2,2:2:0:0:
0,155,67505,6,0,P|43:171|88:147,1,89.999997253418,6|0,1:2|2:0,0:0:0:0:
149,93,68005,2,0,L|171:99,1,22.4999993133545,2|0,1:2|0:2,0:0:0:0:
87,133,68171,2,0,L|81:154,1,22.4999993133545,2|0,1:2|0:2,0:0:0:0:
47,69,68338,2,0,L|25:64,1,22.4999993133545,2|0,1:2|0:2,0:0:0:0:
110,30,68505,6,0,P|153:14|198:38,1,89.999997253418,6|0,1:2|2:0,0:0:0:0:
209,144,69005,5,2,1:2:0:0:
221,152,69088,1,2,2:2:0:0:
234,158,69171,1,2,2:2:0:0:
249,160,69255,1,2,2:2:0:0:
264,158,69338,1,2,2:2:0:0:
278,153,69421,1,2,2:2:0:0:
290,144,69505,5,6,1:2:0:0:
308,125,69588,1,2,0:2:0:0:
333,121,69671,1,2,0:2:0:0:
356,132,69755,1,2,0:2:0:0:
369,154,69838,1,2,2:2:0:0:
367,180,69921,1,2,0:2:0:0:
350,199,70005,6,0,L|333:205,10,11.2499996566773,2|0|0|0|0|0|0|0|0|0|0,1:2|1:2|1:2|1:2|1:2|1:2|1:2|1:2|1:2|1:2|1:2,1:2:0:0:
318,249,70505,6,0,B|332:292|332:292|378:304,1,89.999997253418,6|0,1:2|1:2,0:2:0:0:
484,296,71005,2,0,L|479:318,1,22.4999993133545,2|0,1:2|0:2,0:0:0:0:
435,375,71171,2,0,L|429:353,1,22.4999993133545,2|0,1:2|0:2,0:0:0:0:
375,303,71338,2,0,L|370:325,1,22.4999993133545,2|0,1:2|0:2,0:0:0:0:
317,359,71505,6,0,P|275:345|259:304,1,89.999997253418,6|0,1:2|1:2,0:2:0:0:
298,219,72005,2,0,L|320:215,1,22.4999993133545,2|0,1:2|0:2,0:0:0:0:
243,170,72171,2,0,L|220:166,1,22.4999993133545,2|0,1:2|0:2,0:0:0:0:
288,107,72338,2,0,L|310:103,1,22.4999993133545,2|0,1:2|0:2,0:0:0:0:
247,49,72505,5,6,1:2:0:0:
189,82,72671,1,0,0:0:0:0:
131,48,72838,1,0,2:0:0:0:
78,84,73005,5,2,1:2:0:0:
130,54,73171,1,0,0:2:0:0:
183,85,73338,1,0,0:2:0:0:
187,141,73505,5,6,1:2:0:0:
234,168,73671,1,0,0:0:0:0:
280,141,73838,1,0,2:0:0:0:
323,171,74005,5,2,1:2:0:0:
280,147,74172,1,0,0:2:0:0:
238,171,74338,1,0,0:2:0:0:
237,220,74505,5,6,1:2:0:0:
246,221,74588,1,2,0:0:0:0:
253,227,74671,1,2,0:0:0:0:
257,235,74755,1,2,0:0:0:0:
257,245,74838,1,2,2:2:0:0:
253,253,74921,1,2,0:0:0:0:
246,259,75005,1,2,1:2:0:0:
229,259,75088,1,2,0:0:0:0:
214,252,75171,1,2,0:2:0:0:
202,240,75255,1,2,0:0:0:0:
197,224,75338,1,2,0:2:0:0:
197,207,75421,1,2,0:0:0:0:
205,192,75505,1,6,1:2:0:0:
224,179,75588,1,2,0:0:0:0:
247,178,75671,1,2,0:0:0:0:
269,185,75755,1,2,0:0:0:0:
288,200,75838,1,2,2:2:0:0:
297,222,75921,1,2,0:0:0:0:
300,245,76005,6,0,P|297:261|289:273,1,22.4999993133545,2|0,1:2|0:0,0:0:0:0:
239,310,76171,2,0,P|249:306|260:304,1,22.4999993133545,2|0,1:2|0:0,0:0:0:0:
327,329,76338,2,0,P|318:323|312:314,1,22.4999993133545,2|0,1:2|0:0,0:0:0:0:
348,230,76505,6,0,L|400:227|404:230|456:227,1,110.000003356934,14|0,1:2|2:0,0:0:0:0:
484,155,77005,2,0,P|477:135|445:112,1,55.0000016784668,2|0,1:2|0:2,0:0:0:0:
457,227,77338,1,2,1:2:0:0:
452,115,77505,2,0,L|400:112|396:115|344:112,1,110.000003356934,10|0,1:2|2:0,0:0:0:0:
268,142,78005,2,0,L|253:163,10,13.7500004196167,6|0|0|0|0|0|0|0|0|0|0,1:2|1:2|1:2|1:2|1:2|1:2|1:2|1:2|1:2|1:2|1:2,1:2:0:0:
278,60,78505,6,0,B|262:47|241:50|228:63|228:63|214:77|192:78|177:66,1,110.000003356934,14|0,1:2|2:0,0:0:0:0:
127,10,79005,1,2,1:2:0:0:
152,138,79171,1,2,1:2:0:0:
251,52,79338,1,2,1:2:0:0:
103,82,79505,1,10,1:2:0:0:
177,67,79671,1,0,0:0:0:0:
177,67,79838,1,0,2:0:0:0:
28,96,80005,6,0,L|31:130,1,27.5000008392334,6|0,1:2|2:2,1:2:0:0:
90,169,80171,2,0,L|87:203,1,27.5000008392334,2|0,1:2|2:2,0:0:0:0:
43,246,80338,2,0,L|46:280,1,27.5000008392334,2|0,1:2|2:2,0:0:0:0:
72,346,80505,5,14,1:2:0:0:
73,332,80671,1,0,0:0:0:0:
75,319,80838,1,0,2:0:0:0:
0,384,81005,5,2,1:2:0:0:
72,346,81171,1,2,1:2:0:0:
144,308,81338,1,2,1:2:0:0:
212,351,81505,6,0,P|240:356|264:344,1,55.0000016784668,10|0,1:2|0:0,0:0:0:0:
319,286,81838,1,2,1:2:0:0:
219,258,82005,2,0,L|223:278,6,13.7500004196167,6|0|0|0|0|0|0,1:2|1:2|1:2|1:2|1:2|1:2|1:2,1:2:0:0:
276,238,82338,2,0,L|282:208,1,27.5000008392334,2|0,1:2|0:2,0:0:0:0:
250,157,82505,6,0,P|193:148|148:180,1,110.000003356934,14|0,1:2|2:0,0:0:0:0:
143,250,83005,1,2,1:2:0:0:
90,132,83171,1,2,1:2:0:0:
15,238,83338,1,2,1:2:0:0:
151,175,83505,2,0,P|161:118|131:72,1,110.000003356934,14|0,1:2|2:0,0:0:0:0:
65,33,84005,6,0,L|92:29,1,27.5000008392334,6|0,1:2|0:2,1:2:0:0:
163,79,84171,2,0,L|136:76,1,27.5000008392334,2|0,1:2|0:2,0:0:0:0:
213,28,84338,2,0,L|240:24,1,27.5000008392334,2|0,1:2|0:2,0:0:0:0:
335,12,84505,6,0,P|311:61|317:115,1,110.000003356934,14|0,1:2|2:0,0:0:0:0:
389,156,85005,2,0,L|436:126,1,55.0000016784668,2|0,1:2|0:2,0:0:0:0:
317,115,85338,1,2,1:2:0:0:
390,239,85505,2,0,L|417:286|416:295|445:342,1,110.000003356934,10|0,1:2|2:0,0:0:0:0:
512,384,86005,2,0,L|528:382,10,13.7500004196167,6|0|0|0|0|0|0|0|0|0|0,1:2|1:2|1:2|1:2|1:2|1:2|1:2|1:2|1:2|1:2|1:2,1:2:0:0:
440,334,86505,6,0,B|427:319|427:298|438:283|438:283|449:267|448:245|436:231,1,110.000003356934,14|0,1:2|2:0,0:0:0:0:
356,213,87005,1,2,1:2:0:0:
478,161,87171,1,2,1:2:0:0:
349,132,87338,1,2,1:2:0:0:
437,232,87505,1,10,1:2:0:0:
412,170,87671,1,0,0:0:0:0:
412,170,87838,1,0,2:0:0:0:
452,102,88005,6,0,L|425:100,1,27.5000008392334,6|0,1:2|0:2,1:2:0:0:
380,46,88171,2,0,L|352:48,1,27.5000008392334,2|0,1:2|0:2,0:0:0:0:
301,89,88338,2,0,L|270:86,1,27.5000008392334,2|0,1:2|0:2,0:0:0:0:
242,20,88505,5,14,1:2:0:0:
228,19,88672,1,0,0:0:0:0:
215,18,88838,1,0,2:0:0:0:
164,71,89005,5,2,1:2:0:0:
224,124,89171,1,2,1:2:0:0:
290,84,89338,1,2,1:2:0:0:
356,131,89505,2,0,P|387:133|413:115,1,55.0000016784668,10|0,1:2|0:0,0:0:0:0:
452,54,89838,1,2,1:2:0:0:
474,166,90005,2,0,L|470:144,6,13.7500004196167,6|0|0|0|0|0|0,1:2|1:2|1:2|1:2|1:2|1:2|1:2,1:2:0:0:
417,191,90338,2,0,L|409:230,1,27.5000008392334,2|0,1:2|0:2,0:0:0:0:
430,276,90505,6,0,B|413:286|392:282|380:269|380:269|366:254|344:252|329:262,1,110.000003356934,14|0,1:2|2:0,0:0:0:0:
297,329,91005,1,2,1:2:0:0:
261,229,91171,1,2,1:2:0:0:
225,129,91338,1,2,1:2:0:0:
189,29,91505,2,0,P|132:13|83:35,1,110.000003356934,14|0,1:2|2:0,0:0:0:0:
42,111,92005,2,0,L|38:86,10,13.7500004196167,6|0|0|0|0|0|0|0|0|0|0,1:2|1:2|1:2|1:2|1:2|1:2|1:2|1:2|1:2|1:2|1:2,1:2:0:0:
87,172,92505,6,0,B|102:185|123:185|138:175|138:175|154:163|175:165|189:177,1,110.000003356934,14|0,1:2|2:0,0:0:0:0:
211,237,93005,1,0,1:2:0:0:
234,298,93171,1,0,1:2:0:0:
257,359,93338,1,0,1:2:0:0:
173,321,93505,2,0,L|122:340|111:338|60:358,1,110.000003356934,10|0,1:2|2:0,0:0:0:0:
13,378,94005,2,0,L|0:374,6,13.7500004196167,6|0|0|0|0|0|0,1:2|1:2|1:2|1:2|1:2|1:2|1:2,1:2:0:0:
70,354,94338,2,0,P|75:340|74:324,1,27.5000008392334,2|0,1:2|0:2,0:0:0:0:
25,258,94505,6,0,B|24:263|14:271|-4:265|-7:251|2:233|24:220|49:222|69:233|79:245,1,110.000003356934,14|0,1:2|2:0,0:0:0:0:
122,280,95005,1,0,1:2:0:0:
173,321,95171,1,0,1:2:0:0:
224,362,95338,1,0,1:2:0:0:
214,270,95505,2,0,B|231:260|251:265|264:279|264:279|276:293|298:295|314:286,1,110.000003356934,10|0,1:2|2:0,0:0:0:0:
357,225,96005,2,0,L|361:243,10,13.7500004196167,6|0|0|0|0|0|0|0|0|0|0,1:2|1:2|1:2|1:2|1:2|1:2|1:2|1:2|1:2|1:2|1:2,1:2:0:0:
340,143,96505,6,0,B|339:138|329:130|311:136|308:150|317:168|339:181|364:179|384:168|394:156,1,110.000003356934,14|0,1:2|2:0,0:0:0:0:
423,118,97005,1,0,1:2:0:0:
460,74,97171,1,0,1:2:0:0:
497,30,97338,1,0,1:2:0:0:
416,36,97505,6,0,L|351:41|345:45|280:50|292:55,1,150,14|2,2:2|2:0,0:0:0:0:
220,11,98338,1,2,2:0:0:0:
220,11,98505,2,0,P|207:58|232:100,1,100,6|0,2:0|0:0,0:0:0:0:
145,58,99005,5,2,2:0:0:0:
156,60,99089,1,2,2:0:0:0:
170,58,99171,1,2,2:0:0:0:
185,53,99255,1,2,2:0:0:0:
201,43,99338,1,2,2:0:0:0:
212,28,99421,1,2,2:0:0:0:
220,11,99505,1,2,2:0:0:0:
0,0,100505,5,14,1:2:0:0:
0,0,100838,1,2,1:2:0:0:
5,69,101005,1,2,1:2:0:0:
10,138,101171,1,0,1:2:0:0:
15,207,101338,1,0,1:2:0:0:
135,198,101505,5,10,1:2:0:0:
135,198,101838,1,2,1:2:0:0:
76,237,102005,2,0,L|75:219,10,12.5,2|0|0|0|0|0|0|0|0|0|0,1:2|1:2|1:2|1:2|1:2|1:2|1:2|1:2|1:2|1:2|1:2,1:2:0:0:
81,293,102505,5,10,1:2:0:0:
81,293,102838,1,2,1:2:0:0:
139,334,103005,1,2,1:2:0:0:
209,321,103171,1,0,1:2:0:0:
250,263,103338,1,0,1:2:0:0:
267,362,103505,5,10,1:2:0:0:
267,362,103838,1,2,1:2:0:0:
308,303,104005,2,0,L|289:306,10,12.5,2|0|0|0|0|0|0|0|0|0|0,1:2|1:2|1:2|1:2|1:2|1:2|1:2|1:2|1:2|1:2|1:2,1:2:0:0:
357,294,104505,5,10,1:2:0:0:
357,294,104838,1,2,1:2:0:0:
370,232,105005,1,2,1:2:0:0:
430,211,105172,1,0,1:2:0:0:
478,253,105338,1,0,1:2:0:0:
405,336,105505,5,10,1:2:0:0:
405,336,105838,1,2,1:2:0:0:
465,315,106005,2,0,L|476:325,10,12.5,2|0|0|0|0|0|0|0|0|0|0,1:2|1:2|1:2|1:2|1:2|1:2|1:2|1:2|1:2|1:2|1:2,1:2:0:0:
417,272,106505,5,10,1:2:0:0:
417,272,106838,1,2,1:2:0:0:
430,211,107005,1,2,1:2:0:0:
443,150,107171,1,0,1:2:0:0:
456,89,107338,1,0,1:2:0:0:
504,163,107505,5,10,1:2:0:0:
504,163,107838,1,2,1:2:0:0:
438,173,108005,2,0,L|434:188,10,12.5,2|0|0|0|0|0|0|0|0|0|0,1:2|1:2|1:2|1:2|1:2|1:2|1:2|1:2|1:2|1:2|1:2,1:2:0:0:
382,137,108505,6,0,L|336:127|332:122|286:112,1,100,14|2,1:2|1:2,0:0:0:0:
265,47,109005,1,2,1:2:0:0:
220,98,109171,1,0,1:2:0:0:
241,163,109338,1,0,1:2:0:0:
152,84,109505,5,10,1:2:0:0:
152,84,109838,1,2,1:2:0:0:
107,135,110005,2,0,L|112:151,10,12.5,2|0|0|0|0|0|0|0|0|0|0,1:2|1:2|1:2|1:2|1:2|1:2|1:2|1:2|1:2|1:2|1:2,1:2:0:0:
40,121,110505,5,10,1:2:0:0:
40,121,110838,1,2,1:2:0:0:
85,70,111005,1,2,1:2:0:0:
152,84,111171,1,0,1:2:0:0:
196,32,111338,1,0,1:2:0:0:
175,148,111505,5,10,1:2:0:0:
175,148,111838,1,2,1:2:0:0:
231,98,112005,2,0,L|219:96,10,12.5,2|0|0|0|0|0|0|0|0|0|0,1:2|1:2|1:2|1:2|1:2|1:2|1:2|1:2|1:2|1:2|1:2,1:2:0:0:
287,109,112505,5,10,1:2:0:0:
287,109,112838,1,2,1:2:0:0:
332,155,113005,1,2,1:2:0:0:
348,221,113171,1,0,1:2:0:0:
330,287,113338,1,0,1:2:0:0:
251,363,113505,5,10,1:2:0:0:
251,363,113838,1,2,1:2:0:0:
197,324,114005,2,0,L|215:321,10,12.5,2|0|0|0|0|0|0|0|0|0|0,1:2|1:2|1:2|1:2|1:2|1:2|1:2|1:2|1:2|1:2|1:2,1:2:0:0:
146,333,114505,5,10,1:2:0:0:
146,333,114838,1,2,1:2:0:0:
101,287,115005,1,2,1:2:0:0:
85,221,115171,1,0,1:2:0:0:
103,155,115338,1,0,1:2:0:0:
213,121,115505,5,10,1:2:0:0:
213,121,115838,1,2,1:2:0:0:
158,159,116005,2,0,L|171:159,10,12.5,2|0|0|0|0|0|0|0|0|0|0,1:2|1:2|1:2|1:2|1:2|1:2|1:2|1:2|1:2|1:2|1:2,1:2:0:0:
103,155,116505,6,0,P|91:139|88:119,1,37.5000014305115,6|0,1:2|0:0,0:0:0:0:
38,109,116838,2,0,P|45:90|61:78,1,37.5000014305115,2|0,1:2|0:2,0:0:0:0:
110,76,117171,1,2,1:2:0:0:
110,76,117338,1,2,1:2:0:0:
156,98,117505,2,0,L|159:140,2,37.5000014305115,2|0|2,1:2|0:0|1:2,0:0:0:0:
196,68,118005,2,0,L|196:57,10,9.37500035762788,2|0|0|0|0|0|0|0|0|0|0,1:2|1:2|1:2|1:2|1:2|1:2|1:2|1:2|1:2|1:2|1:2,1:2:0:0:
235,101,118505,6,0,P|249:108|276:105,1,37.5000014305115,2|0,1:2|0:0,0:0:0:0:
317,72,118838,1,0,1:2:0:0:
372,95,119005,2,0,P|381:110|383:129,1,37.5000014305115,2|0,1:2|0:2,0:0:0:0:
355,180,119338,1,0,1:2:0:0:
296,180,119505,2,0,P|281:191|273:208,2,37.5000014305115,2|0|0,1:2|0:0|1:2,0:0:0:0:
363,184,120005,2,0,L|355:180,6,9.37500035762788,0|0|0|0|0|0|0,1:2|1:2|1:2|1:2|1:2|1:2|1:2,1:2:0:0:
382,193,120338,2,0,L|398:201,1,18.7500007152558,2|0,1:2|0:2,0:0:0:0:
447,221,120505,6,0,P|454:244|450:259,1,37.5000014305115,2|0,1:2|0:0,0:0:0:0:
404,286,120838,2,0,P|397:309|401:324,1,37.5000014305115,2|0,1:2|0:2,0:0:0:0:
447,360,121171,1,2,1:2:0:0:
447,360,121338,1,2,1:2:0:0:
396,384,121505,2,0,L|355:379,1,37.5000014305115,2|0,1:2|0:0,0:0:0:0:
321,333,121838,1,0,1:2:0:0:
273,380,122005,2,0,L|283:379,10,9.37500035762788,2|0|0|0|0|0|0|0|0|0|0,1:2|1:2|1:2|1:2|1:2|1:2|1:2|1:2|1:2|1:2|1:2,1:2:0:0:
223,364,122505,6,0,P|215:348|217:326,1,37.5000014305115,2|0,1:2|0:0,0:0:0:0:
172,300,122838,2,0,P|181:286|201:276,1,37.5000014305115,2|0,1:2|0:2,0:0:0:0:
201,223,123171,2,0,P|217:224|236:237,1,37.5000014305115,2|0,1:2|0:2,0:0:0:0:
252,285,123505,1,2,1:2:0:0:
266,291,123671,1,0,0:0:0:0:
280,289,123838,1,0,1:2:0:0:
323,248,124005,2,0,L|325:261,10,9.37500035762788,2|0|0|0|0|0|0|0|0|0|0,1:2|1:2|1:2|1:2|1:2|1:2|1:2|1:2|1:2|1:2|1:2,1:2:0:0:
283,213,124505,6,0,L|289:171,1,37.5000014305115,2|0,1:2|0:0,0:0:0:0:
301,102,124838,2,0,L|307:60,1,37.5000014305115,2|0,1:2|0:2,0:0:0:0:
365,21,125171,1,2,1:2:0:0:
365,21,125338,1,2,1:2:0:0:
408,80,125505,2,0,P|421:85|446:81,1,37.5000014305115,2|0,1:2|0:0,0:0:0:0:
491,26,125838,1,0,1:2:0:0:
505,87,126005,2,0,L|501:70,10,9.37500035762788,2|0|0|0|0|0|0|0|0|0|0,1:2|1:2|1:2|1:2|1:2|1:2|1:2|1:2|1:2|1:2|1:2,1:2:0:0:
475,129,126505,6,0,P|462:134|437:130,1,37.5000014305115,2|0,1:2|0:0,0:0:0:0:
408,80,126838,1,0,1:2:0:0:
331,50,127005,2,0,P|333:63|350:82,1,37.5000014305115,2|0,1:2|0:2,0:0:0:0:
408,80,127338,1,0,1:2:0:0:
378,132,127505,2,0,L|357:168,1,37.5000014305115,2|0,1:2|0:0,0:0:0:0:
329,216,127838,1,0,1:2:0:0:
380,246,128005,2,0,L|389:243,10,9.37500035762788,2|0|0|0|0|0|0|0|0|0|0,1:2|1:2|1:2|1:2|1:2|1:2|1:2|1:2|1:2|1:2|1:2,1:2:0:0:
350,298,128504,6,0,P|356:317|352:337,1,37.5000014305115,2|0,1:2|0:0,0:0:0:0:
297,319,128838,2,0,P|284:331|267:339,2,37.5000014305115,2|0|0,1:2|1:2|1:2,0:0:0:0:
251,285,129338,1,2,1:2:0:0:
233,229,129504,6,0,P|216:236|203:250,1,37.5000014305115,2|0,1:2|0:0,0:0:0:0:
197,309,129838,1,0,1:2:0:0:
145,285,130004,2,0,L|152:269,6,9.37500035762788,0|0|0|0|0|0|0,1:2|1:2|1:2|1:2|1:2|1:2|1:2,1:2:0:0:
124,287,130338,2,0,L|99:289,1,18.7500007152558,2|0,1:2|0:2,0:0:0:0:
57,311,130504,6,0,P|51:293|56:269,1,37.5000014305115,2|0,1:2|0:0,0:0:0:0:
95,237,130838,1,0,1:2:0:0:
135,199,131004,2,0,P|141:181|139:162,1,37.5000014305115,2|0,1:2|0:2,0:0:0:0:
98,125,131338,1,0,1:2:0:0:
56,87,131505,6,0,P|50:69|55:45,1,37.5000014305115,2|0,1:2|0:0,0:0:0:0:
94,13,131839,1,0,1:2:0:0:
165,38,132005,6,0,L|148:31,1,18.7500007152558,2|0,1:2|0:2,1:2:0:0:
179,54,132171,2,0,L|181:72,1,18.7500007152558,2|0,1:2|0:2,0:0:0:0:
186,34,132338,2,0,L|200:22,1,18.7500007152558,2|0,1:2|0:2,0:0:0:0:
256,5,132505,6,0,P|271:6|296:25,1,40,6|0,1:2|0:0,0:0:0:0:
294,74,132838,2,0,P|309:73|334:54,1,40,2|0,1:2|0:2,0:0:0:0:
344,6,133171,1,2,1:2:0:0:
344,6,133338,1,2,1:2:0:0:
382,46,133505,2,0,P|395:52|426:48,1,40,2|0,1:2|0:0,0:0:0:0:
466,26,133838,1,2,1:2:0:0:
512,64,134005,2,0,L|511:54,10,10,2|0|0|0|0|0|0|0|0|0|0,1:2|1:2|1:2|1:2|1:2|1:2|1:2|1:2|1:2|1:2|1:2,1:2:0:0:
474,103,134505,6,0,P|455:108|439:127,1,40,2|0,1:2|0:0,0:0:0:0:
432,173,134838,1,0,1:2:0:0:
471,206,135005,2,0,P|477:225|472:245,1,40,2|0,1:2|0:2,0:0:0:0:
433,279,135338,1,0,1:2:0:0:
443,330,135505,1,2,1:2:0:0:
445,339,135671,1,0,0:0:0:0:
447,349,135838,1,0,1:2:0:0:
491,299,136005,2,0,L|482:296,6,10,0|0|0|0|0|0|0,1:2|1:2|1:2|1:2|1:2|1:2|1:2,1:2:0:0:
511,306,136338,2,0,L|514:325,1,20,2|0,1:2|0:2,0:0:0:0:
499,374,136505,6,0,P|477:378|457:371,1,40,2|0,1:2|0:0,0:0:0:0:
434,325,136838,2,0,P|415:320|396:325,1,40,2|0,1:2|0:2,0:0:0:0:
365,370,137171,1,2,1:2:0:0:
365,370,137338,1,2,1:2:0:0:
308,359,137505,2,0,L|300:318,1,40,2|0,1:2|0:0,0:0:0:0:
290,267,137838,1,0,1:2:0:0:
350,288,138005,2,0,L|341:285,10,10,2|0|0|0|0|0|0|0|0|0|0,1:2|1:2|1:2|1:2|1:2|1:2|1:2|1:2|1:2|1:2|1:2,1:2:0:0:
399,269,138505,6,0,P|404:247|399:227,1,40,2|0,1:2|0:0,0:0:0:0:
353,201,138838,2,0,P|348:179|353:159,1,40,2|0,1:2|0:2,0:0:0:0:
398,133,139171,2,0,P|403:111|398:91,1,40,2|0,1:2|0:2,0:0:0:0:
360,32,139505,1,2,1:2:0:0:
359,42,139672,1,0,0:0:0:0:
358,52,139838,1,0,1:2:0:0:
411,0,140005,2,0,L|409:-15,10,10,2|0|0|0|0|0|0|0|0|0|0,1:2|1:2|1:2|1:2|1:2|1:2|1:2|1:2|1:2|1:2|1:2,1:2:0:0:
462,25,140505,6,0,P|478:37|482:56,1,40,2|0,1:2|0:0,0:0:0:0:
512,103,140838,2,0,P|509:123|495:136,1,40,2|0,1:2|0:2,0:0:0:0:
438,144,141171,1,2,1:2:0:0:
380,152,141338,1,2,1:2:0:0:
322,159,141505,2,0,P|308:173|306:193,1,40,2|0,1:2|0:0,0:0:0:0:
334,244,141838,1,0,1:2:0:0:
303,295,142005,2,0,L|311:308,10,10,2|0|0|0|0|0|0|0|0|0|0,1:2|1:2|1:2|1:2|1:2|1:2|1:2|1:2|1:2|1:2|1:2,1:2:0:0:
243,293,142505,6,0,P|221:283|209:267,1,40,2|0,1:2|0:0,0:0:0:0:
204,214,142838,1,0,1:2:0:0:
154,287,143005,2,0,P|151:262|159:244,1,40,2|0,1:2|0:2,0:0:0:0:
204,214,143338,1,0,1:2:0:0:
292,220,143505,2,0,P|272:234|252:236,1,40,2|0,1:2|0:0,0:0:0:0:
204,214,143838,1,0,1:2:0:0:
250,170,144005,2,0,L|250:179,10,10,2|0|0|0|0|0|0|0|0|0|0,1:2|1:2|1:2|1:2|1:2|1:2|1:2|1:2|1:2|1:2|1:2,1:2:0:0:
214,129,144505,6,0,L|165:133,1,40,2|0,1:2|0:0,0:0:0:0:
132,174,144838,2,0,L|83:169,1,40,2|0,1:2|0:2,0:0:0:0:
44,146,145171,1,2,1:2:0:0:
44,146,145338,1,2,1:2:0:0:
0,183,145505,2,0,P|-5:202|1:224,1,40,2|0,1:2|0:0,0:0:0:0:
37,258,145838,1,0,1:2:0:0:
73,303,146005,2,0,L|74:294,10,10,2|0|0|0|0|0|0|0|0|0|0,1:2|1:2|1:2|1:2|1:2|1:2|1:2|1:2|1:2|1:2|1:2,1:2:0:0:
40,344,146505,6,0,L|43:383,1,40,2|0,1:2|0:0,0:0:0:0:
100,384,146838,2,0,L|103:344,1,40,2|0,1:2|0:2,0:0:0:0:
143,311,147171,1,2,1:2:0:0:
192,329,147338,1,2,1:2:0:0:
94,292,147505,5,2,1:2:0:0:
143,311,147671,1,0,0:0:0:0:
184,278,147838,1,0,1:2:0:0:
127,208,148005,6,0,L|129:221,10,10,2|0|0|0|0|0|0|0|0|0|0,1:2|1:2|1:2|1:2|1:2|1:2|1:2|1:2|1:2|1:2|1:2,1:2:0:0:
164,158,148505,6,0,B|163:162|156:165|146:162|144:150|149:138|164:131|188:134|207:145|213:156,1,89.999997253418,6|0,1:2|2:0,0:0:0:0:
254,195,149005,1,2,1:2:0:0:
269,204,149088,1,2,2:2:0:0:
287,210,149171,1,2,2:2:0:0:
306,211,149255,1,2,2:2:0:0:
324,208,149338,1,2,2:2:0:0:
341,201,149421,1,2,2:2:0:0:
356,190,149505,6,0,P|366:166|364:145,1,44.999998626709,2|0,1:2|0:0,0:0:0:0:
298,112,149838,1,0,1:0:0:0:
289,30,150005,2,0,L|296:40,10,11.2499996566773,6|0|0|0|0|0|0|0|0|0|0,1:2|1:2|1:2|1:2|1:2|1:2|1:2|1:2|1:2|1:2|1:2,1:2:0:0:
205,20,150505,6,0,B|201:19|198:12|203:3|216:1|227:7|232:20|229:42|218:63|207:69,1,89.999997253418,6|0,1:2|2:0,0:0:0:0:
109,104,151005,1,2,1:2:0:0:
89,101,151088,1,2,2:2:0:0:
72,97,151171,1,2,2:2:0:0:
56,86,151255,1,2,2:2:0:0:
43,73,151338,1,2,2:2:0:0:
34,57,151421,1,2,2:2:0:0:
30,38,151505,6,0,L|16:81,1,44.999998626709,2|0,1:2|0:0,0:0:0:0:
0,138,151838,1,0,1:0:0:0:
21,210,152005,2,0,L|13:203,10,11.2499996566773,6|0|0|0|0|0|0|0|0|0|0,1:2|1:2|1:2|1:2|1:2|1:2|1:2|1:2|1:2|1:2|1:2,1:2:0:0:
70,241,152505,6,0,B|84:248|100:245|111:235|111:235|123:224|141:223|153:230,1,89.999997253418,6|0,1:2|2:0,0:0:0:0:
187,290,153005,1,2,1:2:0:0:
187,308,153088,1,2,2:2:0:0:
182,326,153171,1,2,2:2:0:0:
170,341,153255,1,2,2:2:0:0:
155,351,153338,1,2,2:2:0:0:
136,354,153421,1,2,2:2:0:0:
118,352,153505,6,0,P|98:341|85:317,1,44.999998626709,2|0,1:2|0:0,0:0:0:0:
90,267,153838,1,0,1:0:0:0:
187,290,154005,2,0,L|171:300,10,11.2499996566773,6|0|0|0|0|0|0|0|0|0|0,1:2|1:2|1:2|1:2|1:2|1:2|1:2|1:2|1:2|1:2|1:2,1:2:0:0:
230,255,154505,6,0,P|244:213|229:171,1,89.999997253418,6|0,1:2|2:0,0:0:0:0:
156,100,155005,1,2,1:2:0:0:
172,109,155088,1,2,2:2:0:0:
190,113,155171,1,2,2:2:0:0:
209,112,155255,1,2,2:2:0:0:
226,106,155338,1,2,2:2:0:0:
242,96,155421,1,2,2:2:0:0:
253,81,155505,6,0,P|271:70|300:71,1,44.999998626709,6|0,1:2|0:0,0:0:0:0:
331,119,155838,1,0,1:0:0:0:
368,169,156005,2,0,L|381:172,10,11.2499996566773,6|0|0|0|0|0|0|0|0|0|0,1:2|1:2|1:2|1:2|1:2|1:2|1:2|1:2|1:2|1:2|1:2,1:2:0:0:
331,219,156505,6,0,L|289:225|286:228|244:235,1,89.999997253418,6|0,1:2|2:0,0:0:0:0:
333,360,157005,1,2,1:2:0:0:
347,372,157088,1,2,2:2:0:0:
363,380,157171,1,2,2:2:0:0:
382,384,157255,1,2,2:2:0:0:
400,383,157338,1,2,2:2:0:0:
418,377,157421,1,2,2:2:0:0:
434,368,157505,2,0,B|444:356|444:339|436:326|436:326|427:312|429:295|438:283,1,89.999997253418,6|0,1:2|2:0,0:0:0:0:
512,243,158005,6,0,L|489:239,1,22.4999993133545,2|0,1:2|0:2,1:2:0:0:
447,186,158171,2,0,L|424:189,1,22.4999993133545,2|0,1:2|0:2,0:0:0:0:
381,237,158338,2,0,L|358:233,1,22.4999993133545,2|0,1:2|0:2,0:0:0:0:
291,219,158505,6,0,P|265:205|252:146,1,89.999997253418,6|0,1:2|2:0,0:0:0:0:
338,100,159005,5,2,1:2:0:0:
351,105,159088,1,2,2:2:0:0:
363,114,159171,1,2,2:2:0:0:
372,126,159255,1,2,2:2:0:0:
378,140,159338,1,2,2:2:0:0:
379,155,159421,1,2,2:2:0:0:
378,175,159505,5,6,1:2:0:0:
379,148,159588,1,2,0:2:0:0:
389,124,159671,1,2,0:2:0:0:
407,105,159755,1,2,0:2:0:0:
429,91,159838,1,2,2:2:0:0:
455,86,159921,1,2,0:2:0:0:
481,88,160005,6,0,L|493:94,10,11.2499996566773,2|0|0|0|0|0|0|0|0|0|0,1:2|1:2|1:2|1:2|1:2|1:2|1:2|1:2|1:2|1:2|1:2,1:2:0:0:
427,64,160505,6,0,B|404:55|404:55|337:65,1,89.999997253418,6|0,1:2|2:0,0:0:0:0:
267,77,161005,2,0,L|264:99,1,22.4999993133545,2|0,1:2|0:2,0:0:0:0:
214,137,161171,2,0,L|216:159,1,22.4999993133545,2|0,1:2|0:2,0:0:0:0:
255,204,161338,2,0,L|252:233,1,22.4999993133545,2|0,1:2|0:2,0:0:0:0:
224,288,161505,6,0,P|198:298|137:277,1,89.999997253418,6|0,1:2|2:0,0:0:0:0:
128,197,162005,2,0,L|126:220,1,22.4999993133545,2|0,1:2|0:2,0:0:0:0:
78,130,162171,2,0,L|81:153,1,22.4999993133545,2|0,1:2|0:2,0:0:0:0:
140,73,162338,2,0,L|138:96,1,22.4999993133545,2|0,1:2|0:2,0:0:0:0:
70,32,162505,5,6,1:2:0:0:
25,85,162671,1,0,0:0:0:0:
78,130,162838,1,0,2:0:0:0:
118,82,163005,5,2,1:2:0:0:
166,123,163172,1,0,0:2:0:0:
126,171,163338,1,0,0:2:0:0:
84,135,163505,5,6,1:2:0:0:
47,177,163671,1,0,0:0:0:0:
90,213,163838,1,0,2:0:0:0:
122,176,164005,5,2,1:2:0:0:
159,207,164172,1,0,0:2:0:0:
128,245,164338,1,0,0:2:0:0:
90,213,164505,5,6,1:2:0:0:
84,220,164588,1,2,0:0:0:0:
80,229,164671,1,2,0:0:0:0:
78,238,164755,1,2,0:0:0:0:
77,247,164838,1,2,2:2:0:0:
79,256,164921,1,2,0:0:0:0:
82,265,165005,1,2,1:2:0:0:
92,280,165088,1,2,0:0:0:0:
107,291,165171,1,2,0:2:0:0:
125,295,165255,1,2,0:0:0:0:
144,292,165338,1,2,0:2:0:0:
159,282,165421,1,2,0:0:0:0:
171,268,165505,1,6,1:2:0:0:
176,246,165588,1,2,0:0:0:0:
172,224,165671,1,2,0:0:0:0:
159,206,165755,1,2,0:0:0:0:
139,196,165838,1,2,2:2:0:0:
116,196,165921,1,2,0:0:0:0:
96,206,166005,6,0,P|84:209|68:207,1,22.4999993133545,2|0,1:2|0:0,0:0:0:0:
9,154,166171,2,0,P|6:141|8:125,1,22.4999993133545,2|0,1:2|0:0,0:0:0:0:
61,67,166338,2,0,P|73:64|89:66,1,22.4999993133545,2|0,1:2|0:0,0:0:0:0:
150,129,166505,6,0,P|148:76|188:39,1,110.000003356934,14|0,1:2|2:0,0:0:0:0:
315,39,167005,2,0,L|261:30,1,55.0000016784668,2|0,1:2|0:2,0:0:0:0:
385,51,167338,1,2,1:2:0:0:
377,195,167505,2,0,P|338:159|339:106,1,110.000003356934,10|0,1:2|2:0,0:0:0:0:
455,62,168005,2,0,L|470:64,10,13.7500004196167,6|0|0|0|0|0|0|0|0|0|0,1:2|1:2|1:2|1:2|1:2|1:2|1:2|1:2|1:2|1:2|1:2,1:2:0:0:
385,51,168505,6,0,L|333:41|330:37|278:27,1,110.000003356934,14|0,1:2|2:0,0:0:0:0:
200,11,169005,1,2,1:2:0:0:
80,79,169171,1,2,1:2:0:0:
200,150,169338,1,2,1:2:0:0:
160,80,169505,1,10,1:2:0:0:
120,150,169671,1,0,0:0:0:0:
120,150,169838,1,0,2:0:0:0:
82,247,170005,6,0,L|80:220,1,27.5000008392334,6|0,1:2|0:2,1:2:0:0:
26,182,170171,2,0,L|28:154,1,27.5000008392334,2|0,1:2|0:2,0:0:0:0:
68,101,170338,2,0,L|65:73,1,27.5000008392334,2|0,1:2|0:2,0:0:0:0:
59,4,170505,6,0,P|34:-10|7:-10,2,55.0000016784668,14|0|0,1:2|0:0|2:0,0:0:0:0:
66,74,171005,1,2,1:2:0:0:
107,131,171171,1,2,1:2:0:0:
171,159,171338,1,2,1:2:0:0:
245,201,171505,6,0,P|235:177|238:150,1,55.0000016784668,10|0,1:2|0:0,0:0:0:0:
295,108,171838,1,2,1:2:0:0:
249,25,172005,2,0,L|241:12,6,13.7500004196167,6|0|0|0|0|0|0,1:2|1:2|1:2|1:2|1:2|1:2|1:2,1:2:0:0:
296,52,172338,2,0,P|313:56|331:50,1,27.5000008392334,2|0,1:2|0:2,0:0:0:0:
394,22,172505,6,0,B|377:35|377:35|370:132,1,110.000003356934,14|0,1:2|2:0,0:0:0:0:
419,214,173005,1,2,1:2:0:0:
459,76,173171,1,2,1:2:0:0:
504,165,173338,1,2,1:2:0:0:
371,123,173505,2,0,L|322:108|318:101|269:86,1,110.000003356934,14|0,1:2|2:0,0:0:0:0:
434,141,174005,6,0,P|439:154|437:169,1,27.5000008392334,6|0,1:2|0:2,1:2:0:0:
511,222,174171,2,0,P|498:226|485:224,1,27.5000008392334,2|0,1:2|0:2,0:0:0:0:
430,298,174338,2,0,P|425:285|427:270,1,27.5000008392334,2|0,1:2|0:2,0:0:0:0:
380,215,174505,6,0,B|365:203|344:203|329:214|329:214|329:214|329:214|312:226|291:224|277:213,1,110.000003356934,14|0,1:2|2:0,0:0:0:0:
238,119,175005,2,0,L|238:174,1,55.0000016784668,2|0,1:2|0:2,0:0:0:0:
277,78,175338,1,2,1:2:0:0:
198,214,175505,2,0,P|150:239|101:216,1,110.000003356934,10|0,1:2|2:0,0:0:0:0:
77,142,176005,2,0,L|74:155,10,13.7500004196167,6|0|0|0|0|0|0|0|0|0|0,1:2|1:2|1:2|1:2|1:2|1:2|1:2|1:2|1:2|1:2|1:2,1:2:0:0:
124,95,176505,6,0,B|141:84|162:88|174:102|174:102|188:116|208:118|224:109,1,110.000003356934,14|0,1:2|2:0,0:0:0:0:
270,42,177005,1,2,1:2:0:0:
274,174,177171,1,2,1:2:0:0:
348,66,177338,1,2,1:2:0:0:
350,147,177505,1,10,1:2:0:0:
293,107,177671,1,0,0:0:0:0:
293,107,177838,1,0,2:0:0:0:
277,201,178005,6,0,L|274:173,1,27.5000008392334,6|0,1:2|0:2,1:2:0:0:
223,123,178171,2,0,L|226:95,1,27.5000008392334,2|0,1:2|0:2,0:0:0:0:
258,44,178338,2,0,L|255:16,1,27.5000008392334,2|0,1:2|0:2,0:0:0:0:
323,0,178505,5,14,1:2:0:0:
336,1,178671,1,0,0:0:0:0:
350,2,178838,1,0,2:0:0:0:
421,10,179005,5,2,1:2:0:0:
457,92,179171,1,2,1:2:0:0:
493,174,179338,1,2,1:2:0:0:
439,245,179505,6,0,P|415:254|383:245,1,55.0000016784668,10|0,1:2|0:0,0:0:0:0:
329,179,179838,1,2,1:2:0:0:
257,108,180005,2,0,L|271:111,6,13.7500004196167,6|0|0|0|0|0|0,1:2|1:2|1:2|1:2|1:2|1:2|1:2,1:2:0:0:
208,141,180338,2,0,P|200:154|200:174,1,27.5000008392334,2|0,1:2|0:2,0:0:0:0:
268,229,180505,6,0,B|271:234|279:235|292:230|296:214|287:201|266:193|243:199|224:212|214:233,1,110.000003356934,14|0,1:2|2:0,0:0:0:0:
217,305,181005,1,2,1:2:0:0:
140,226,181171,1,2,1:2:0:0:
63,147,181338,1,2,1:2:0:0:
91,40,181505,2,0,B|110:32|129:37|142:51|142:51|156:64|175:67|192:61,1,110.000003356934,14|0,1:2|2:0,0:0:0:0:
255,2,182005,2,0,L|253:-13,10,13.7500004196167,6|0|0|0|0|0|0|0|0|0|0,1:2|1:2|1:2|1:2|1:2|1:2|1:2|1:2|1:2|1:2|1:2,1:2:0:0:
304,41,182505,6,0,B|322:50|322:50|411:40,1,110.000003356934,14|0,1:2|2:0,0:0:0:0:
479,32,183005,1,0,1:2:0:0:
452,94,183171,1,0,1:2:0:0:
425,156,183338,1,0,1:2:0:0:
489,254,183505,2,0,P|451:216|398:217,1,110.000003356934,10|0,1:2|2:0,0:0:0:0:
341,268,184005,2,0,L|343:255,6,13.7500004196167,6|0|0|0|0|0|0,1:2|1:2|1:2|1:2|1:2|1:2|1:2,1:2:0:0:
386,307,184338,2,0,L|389:334,1,27.5000008392334,2|0,1:2|0:2,0:0:0:0:
332,364,184505,6,0,P|277:382|230:361,1,110.000003356934,14|0,1:2|2:0,0:0:0:0:
211,299,185005,1,0,1:2:0:0:
191,236,185171,1,0,1:2:0:0:
171,173,185338,1,0,1:2:0:0:
128,256,185505,2,0,B|112:268|92:268|76:258|76:258|60:246|39:248|24:260,1,110.000003356934,10|0,1:2|2:0,0:0:0:0:
1,334,186005,2,0,L|0:320,10,13.7500004196167,6|0|0|0|0|0|0|0|0|0|0,1:2|1:2|1:2|1:2|1:2|1:2|1:2|1:2|1:2|1:2|1:2,1:2:0:0:
48,382,186505,6,0,L|100:379|104:374|156:371,1,110.000003356934,14|0,1:2|2:0,0:0:0:0:
225,367,187005,1,0,1:2:0:0:
295,363,187171,1,0,1:2:0:0:
365,359,187338,1,0,1:2:0:0:
289,242,187505,5,14,2:2:0:0:
289,242,188005,2,0,P|297:193|338:164,1,100,2|2,2:0|2:0,0:0:0:0:
425,166,188505,2,0,P|378:183|332:162,1,100,6|0,2:0|0:0,0:0:0:0:
291,85,189005,5,2,2:0:0:0:
302,90,189088,1,2,2:0:0:0:
314,98,189171,1,2,2:0:0:0:
324,110,189255,1,2,2:0:0:0:
333,126,189338,1,2,2:0:0:0:
337,144,189421,1,2,2:0:0:0:
334,164,189505,1,2,2:0:0:0:
137,145,206505,6,0,B|127:146|103:151|82:130|72:99|79:72|103:43|151:35|208:49|245:99|240:200|163:246,1,384.999988250733,2|0,0:0|0:0,0:0:0:0:
71,291,208505,6,0,B|69:297|60:304|37:298|31:274|44:250|71:243|91:252|102:275|102:275|124:320|180:342|251:307|251:223|202:194,1,357.49998363495,2|0,0:0|0:0,0:0:0:0:
164,247,210505,6,0,B|189:286|238:300|281:281|303:248|303:248|328:209|377:195|421:214|442:247,1,329.9999899292,2|0,0:0|0:0,0:0:0:0:
374,292,212505,6,0,B|366:272|366:272|385:171,1,125,2|0,0:0|0:0,0:0:0:0:
433,154,213505,5,2,0:0:0:0:
433,154,213671,1,0,0:0:0:0:
394,118,213838,1,0,0:0:0:0:
404,67,214005,5,2,0:0:0:0:
399,92,214171,1,0,0:0:0:0:
394,118,214337,1,0,0:0:0:0:
344,134,214505,6,0,B|280:141|226:89|228:26|228:26|259:69|252:126|217:162,1,329.999989929199,2|0,0:0|0:0,0:0:0:0:
135,195,216505,6,0,P|50:116|159:97,1,275,2|0,0:0|0:0,0:0:0:0:
110,137,218505,6,0,B|82:171|67:211|55:264|56:308|75:345|95:356|126:360|151:350|168:325|166:293|140:279,1,329.9999899292,2|0,0:0|0:0,0:0:0:0:
174,196,220505,2,0,B|200:180|234:187|253:209|253:209|274:232|307:236|333:220,1,174.999994659424,2|0,0:0|0:0,0:0:0:0:
415,182,221505,5,2,0:0:0:0:
408,274,221671,1,0,0:0:0:0:
385,226,221838,1,0,0:0:0:0:
457,273,222005,5,2,0:0:0:0:
484,233,222172,1,0,0:0:0:0:
464,190,222338,1,0,0:0:0:0:
411,269,222505,6,0,P|368:301|306:292,1,112.500004291535,6|0,1:2|1:2,0:0:0:0:
254,274,223171,1,2,1:2:0:0:
254,274,223338,1,2,1:2:0:0:
264,334,223505,2,0,P|259:354|248:368,1,37.5000014305115,2|0,1:2|0:0,0:0:0:0:
190,384,223838,1,0,1:2:0:0:
125,373,224005,2,0,L|136:375,10,9.37500035762788,6|0|0|0|0|0|0|0|0|0|0,1:2|1:2|1:2|1:2|1:2|1:2|1:2|1:2|1:2|1:2|1:2,1:2:0:0:
75,343,224505,6,0,P|62:306|75:267,1,75.000002861023,6|0,1:2|2:2,0:0:0:0:
121,245,225005,1,0,1:2:0:0:
139,245,225171,1,0,1:2:0:0:
158,246,225338,1,0,1:2:0:0:
204,275,225505,5,2,1:2:0:0:
204,275,225838,1,0,1:2:0:0:
206,212,226005,2,0,L|205:228,10,9.37500035762788,6|0|0|0|0|0|0|0|0|0|0,1:2|1:2|1:2|1:2|1:2|1:2|1:2|1:2|1:2|1:2|1:2,1:2:0:0:
169,169,226505,6,0,B|154:156|132:156|117:168|117:168|100:179|79:178|64:166,1,112.500004291535,6|0,1:2|1:2,0:0:0:0:
33,117,227171,1,2,1:2:0:0:
33,117,227338,1,2,1:2:0:0:
45,60,227505,2,0,L|55:22,1,37.5000014305115,2|0,1:2|0:0,0:0:0:0:
108,0,227838,1,0,1:2:0:0:
164,32,228005,2,0,L|155:34,10,9.37500035762788,6|0|0|0|0|0|0|0|0|0|0,1:2|1:2|1:2|1:2|1:2|1:2|1:2|1:2|1:2|1:2|1:2,1:2:0:0:
219,17,228505,6,0,P|245:22|276:62,1,75.000002861023,6|0,1:2|2:2,0:0:0:0:
282,115,229005,1,0,1:2:0:0:
271,130,229171,1,0,1:2:0:0:
262,146,229338,1,0,1:2:0:0:
269,204,229505,5,2,1:2:0:0:
269,204,229838,1,0,1:2:0:0:
205,182,230005,2,0,L|215:181,10,9.37500035762788,6|0|0|0|0|0|0|0|0|0|0,1:2|1:2|1:2|1:2|1:2|1:2|1:2|1:2|1:2|1:2|1:2,1:2:0:0:
164,221,230505,6,0,B|163:237|163:237|187:290,1,75.000002861023,6|0,1:2|2:2,0:0:0:0:
246,303,231005,1,2,1:2:0:0:
266,295,231171,1,2,1:2:0:0:
286,303,231338,1,2,1:2:0:0:
345,290,231505,2,0,B|363:286|363:286|424:301,1,75.000002861023,6|0,1:2|2:2,0:0:0:0:
453,341,232005,2,0,L|455:357,10,9.37500035762788,2|0|0|0|0|0|0|0|0|0|0,1:2|1:2|1:2|1:2|1:2|1:2|1:2|1:2|1:2|1:2|1:2,1:2:0:0:
474,290,232505,6,0,P|478:271|473:252,1,37.5000014305115,6|0,1:2|0:0,0:0:0:0:
429,221,232838,1,0,1:2:0:0:
424,131,233005,2,0,P|428:150|423:169,1,37.5000014305115,2|0,1:2|0:2,0:0:0:0:
379,200,233338,1,0,1:2:0:0:
297,234,233505,2,0,L|335:232,1,37.5000014305115,6|0,1:2|0:0,0:0:0:0:
379,200,233838,1,0,1:2:0:0:
317,174,234005,6,0,L|304:155,1,18.7500007152558,2|0,1:2|0:2,1:2:0:0:
288,101,234171,2,0,L|278:121,1,18.7500007152558,0|0,1:2|0:2,0:0:0:0:
240,163,234338,2,0,L|262:161,1,18.7500007152558,0|0,1:2|0:2,0:0:0:0:
363,152,234505,6,0,P|377:116|364:82,1,75.000002861023,6|0,1:2|2:2,0:0:0:0:
317,54,235005,1,2,1:2:0:0:
261,53,235171,1,2,1:2:0:0:
213,81,235338,1,2,1:2:0:0:
185,129,235505,2,0,P|161:149|118:147,1,75.000002861023,2|0,1:2|2:2,0:0:0:0:
77,84,236005,6,0,L|78:103,1,18.7500007152558,4|0,1:2|0:2,1:2:0:0:
32,53,236171,2,0,L|18:65,1,18.7500007152558,0|0,1:2|0:2,0:0:0:0:
47,4,236338,2,0,L|29:0,1,18.7500007152558,0|0,1:2|0:2,0:0:0:0:
100,1,236505,5,6,1:2:0:0:
116,50,236671,1,0,0:0:0:0:
106,1,236838,5,2,1:2:0:0:
122,50,237004,1,0,0:2:0:0:
112,1,237171,5,2,1:2:0:0:
128,50,237338,1,0,0:2:0:0:
163,12,237505,5,6,1:2:0:0:
128,50,237671,1,0,0:0:0:0:
143,99,237838,1,0,1:2:0:0:
199,106,238005,6,0,L|217:102,1,18.7500007152558,6|0,1:2|0:2,1:2:0:0:
237,98,238171,2,0,L|230:115,1,18.7500007152558,0|0,1:2|0:2,0:0:0:0:
224,134,238338,2,0,L|212:119,1,18.7500007152558,0|0,1:2|0:2,0:0:0:0:
178,61,238505,6,0,B|161:56|161:56|65:89,1,112.500004291535,6|0,1:2|1:2,0:0:0:0:
17,107,239171,1,2,1:2:0:0:
17,107,239338,1,2,1:2:0:0:
6,163,239505,2,0,P|9:181|27:199,1,37.5000014305115,2|0,1:2|0:0,0:0:0:0:
76,212,239838,1,0,1:2:0:0:
127,172,240005,2,0,L|117:171,10,9.37500035762788,6|0|0|0|0|0|0|0|0|0|0,1:2|1:2|1:2|1:2|1:2|1:2|1:2|1:2|1:2|1:2|1:2,1:2:0:0:
168,209,240505,6,0,P|181:238|172:281,1,75.000002861023,6|0,1:2|2:2,0:0:0:0:
129,315,241005,1,0,1:2:0:0:
110,317,241171,1,0,1:2:0:0:
91,319,241338,1,0,1:2:0:0:
53,361,241505,5,2,1:2:0:0:
53,361,241838,1,0,1:2:0:0:
11,312,242005,2,0,L|11:322,10,9.37500035762788,6|0|0|0|0|0|0|0|0|0|0,1:2|1:2|1:2|1:2|1:2|1:2|1:2|1:2|1:2|1:2|1:2,1:2:0:0:
55,278,242505,6,0,B|68:263|68:241|57:226|57:226|44:210|45:188|58:173,1,112.500004291535,6|0,1:2|1:2,0:0:0:0:
115,150,243171,1,2,1:2:0:0:
115,150,243338,1,2,1:2:0:0:
164,189,243505,2,0,P|181:195|201:189,1,37.5000014305115,2|0,1:2|0:0,0:0:0:0:
236,151,243838,1,0,1:2:0:0:
273,112,244005,2,0,L|271:103,10,9.37500035762788,6|0|0|0|0|0|0|0|0|0|0,1:2|1:2|1:2|1:2|1:2|1:2|1:2|1:2|1:2|1:2|1:2,1:2:0:0:
318,145,244505,6,0,P|337:171|328:215,1,75.000002861023,6|0,1:2|2:2,0:0:0:0:
288,253,245005,1,0,1:2:0:0:
292,271,245171,1,0,1:2:0:0:
296,289,245338,1,0,1:2:0:0:
271,339,245505,5,2,1:2:0:0:
271,339,245838,1,0,1:2:0:0:
337,335,246005,2,0,L|327:336,10,9.37500035762788,6|0|0|0|0|0|0|0|0|0|0,1:2|1:2|1:2|1:2|1:2|1:2|1:2|1:2|1:2|1:2|1:2,1:2:0:0:
393,328,246505,6,0,L|427:325|432:328|466:325,1,75.000002861023,6|0,1:2|2:2,0:0:0:0:
500,246,247005,1,2,1:2:0:0:
485,262,247171,1,2,1:2:0:0:
507,267,247338,1,2,1:2:0:0:
452,208,247505,2,0,P|439:173|452:138,1,75.000002861023,6|0,1:2|2:2,0:0:0:0:
512,118,248005,2,0,L|527:119,10,9.37500035762788,2|0|0|0|0|0|0|0|0|0|0,1:2|1:2|1:2|1:2|1:2|1:2|1:2|1:2|1:2|1:2|1:2,1:2:0:0:
469,66,248505,6,0,L|424:70,1,40,6|0,1:2|0:0,0:0:0:0:
383,118,248838,1,0,1:2:0:0:
297,66,249005,2,0,L|342:70,1,40,2|0,1:2|0:2,0:0:0:0:
383,118,249338,1,0,1:2:0:0:
473,166,249505,2,0,P|451:171|429:167,1,44.999998626709,6|0,1:2|0:0,0:0:0:0:
383,118,249838,1,0,1:2:0:0:
314,171,250005,6,0,P|325:171|336:167,1,22.4999993133545,2|0,1:2|0:2,1:2:0:0:
297,159,250171,2,0,P|290:149|281:142,1,22.4999993133545,0|0,1:2|0:2,0:0:0:0:
295,181,250338,2,0,P|289:191|288:202,1,22.4999993133545,0|0,1:2|0:2,0:0:0:0:
316,274,250505,6,0,P|277:253|241:263,1,80,6|0,1:2|2:2,0:0:0:0:
222,344,251005,1,2,1:2:0:0:
257,308,251171,1,2,1:2:0:0:
244,261,251337,1,2,1:2:0:0:
208,296,251505,2,0,P|169:303|136:283,1,80,2|0,1:2|2:2,0:0:0:0:
116,219,252005,2,0,L|117:236,10,10,6|0|0|0|0|0|0|0|0|0|0,1:2|1:2|1:2|1:2|1:2|1:2|1:2|1:2|1:2|1:2|1:2,1:2:0:0:
155,183,252505,6,0,B|162:168|162:168|152:102,1,80,6|0,1:2|2:2,0:0:0:0:
113,57,253005,1,0,1:2:0:0:
94,49,253171,1,0,1:2:0:0:
75,42,253338,1,0,1:2:0:0:
174,46,253505,5,6,1:2:0:0:
174,46,253838,1,0,1:2:0:0:
230,7,254005,2,0,L|220:6,10,10.6250002026558,2|0|0|0|0|0|0|0|0|0|0,1:2|1:2|1:2|1:2|1:2|1:2|1:2|1:2|1:2|1:2|1:2,1:2:0:0:
278,35,254505,6,0,B|292:43|308:43|321:35|321:35|334:25|350:26|363:34,1,89.999997253418,6|0,1:2|2:2,0:0:0:0:
381,133,255005,1,2,1:2:0:0:
400,78,255171,1,2,1:2:0:0:
362,188,255338,1,2,1:2:0:0:
436,152,255505,2,0,P|473:151|511:190,1,89.999997253418,2|0,1:2|2:2,0:0:0:0:
503,253,256005,2,0,L|506:241,10,11.2499996566773,6|0|0|0|0|0|0|0|0|0|0,1:2|1:2|1:2|1:2|1:2|1:2|1:2|1:2|1:2|1:2|1:2,1:2:0:0:
461,290,256505,6,0,B|442:299|442:299|374:288,1,89.999997253418,6|0,1:2|2:2,0:0:0:0:
267,277,257005,1,2,1:2:0:0:
316,312,257171,1,2,1:2:0:0:
324,252,257338,1,2,1:2:0:0:
261,340,257505,5,2,1:2:0:0:
259,350,257671,1,0,0:0:0:0:
258,361,257838,1,0,2:2:0:0:
211,303,258005,6,0,P|197:301|186:305,1,22.4999993133545,6|0,1:2|0:2,1:2:0:0:
147,341,258171,2,0,P|133:343|122:339,1,22.4999993133545,2|0,1:2|0:2,0:0:0:0:
83,307,258338,2,0,P|69:305|58:309,1,22.4999993133545,2|0,1:2|0:2,0:0:0:0:
17,362,258505,5,6,1:2:0:0:
16,351,258672,1,0,0:0:0:0:
15,340,258838,1,0,0:0:0:0:
7,284,259005,6,0,L|2:239,1,44.999998626709,2|0,1:2|0:2,0:0:0:0:
41,192,259338,1,2,1:2:0:0:
8,100,259505,2,0,L|2:144,1,44.999998626709,6|0,1:2|0:0,0:0:0:0:
41,192,259838,1,2,1:2:0:0:
130,199,260005,2,0,L|112:198,6,11.2499996566773,2|0|0|0|0|0|0,1:2|1:2|1:2|1:2|1:2|1:2|1:2,1:2:0:0:
149,195,260338,2,0,P|160:189|169:177,1,22.4999993133545,2|0,1:2|0:2,0:0:0:0:
167,129,260505,6,0,P|184:119|208:120,1,44.999998626709,6|0,1:2|0:0,0:0:0:0:
256,163,260838,1,0,1:2:0:0:
345,129,261005,2,0,P|328:119|304:120,1,44.999998626709,2|0,1:2|0:2,0:0:0:0:
256,163,261338,1,0,1:2:0:0:
256,77,261505,5,6,1:2:0:0:
256,58,261671,1,0,0:0:0:0:
256,42,261838,1,0,2:2:0:0:
256,174,262005,6,0,L|256:162,10,11.2499996566773,4|0|0|0|0|0|0|0|0|0|0,1:2|1:2|1:2|1:2|1:2|1:2|1:2|1:2|1:2|1:2|1:2,1:2:0:0:
269,226,262505,6,0,P|289:255|352:269,1,100,6|0,1:2|2:2,0:0:0:0:
446,200,263005,1,2,1:2:0:0:
425,214,263171,1,0,1:2:0:0:
405,228,263338,1,0,1:2:0:0:
510,321,263505,6,0,P|525:289|505:227,1,100,6|0,1:2|2:2,0:0:0:0:
405,228,264005,2,0,L|415:233,10,12.5,2|0|0|0|0|0|0|0|0|0|0,1:2|1:2|1:2|1:2|1:2|1:2|1:2|1:2|1:2|1:2|1:2,1:2:0:0:
352,197,264505,6,0,B|341:190|341:190|323:104,1,100,6|0,1:2|2:2,0:0:0:0:
371,31,265005,1,2,1:2:0:0:
310,44,265171,1,2,1:2:0:0:
249,57,265338,1,2,1:2:0:0:
148,47,265505,2,0,P|185:66|204:120,1,100,2|0,1:2|2:2,0:0:0:0:
140,171,266005,6,0,P|138:182|143:197,1,25,6|0,1:2|0:2,1:2:0:0:
200,233,266171,2,0,P|202:244|197:259,1,25,0|0,1:2|0:2,0:0:0:0:
157,307,266338,2,0,P|155:318|160:333,1,25,0|0,1:2|0:2,0:0:0:0:
215,372,266505,6,0,P|249:378|305:331,1,110.000003356934,6|0,1:2|2:2,0:0:0:0:
261,205,267005,1,2,1:2:0:0:
392,231,267171,1,2,1:2:0:0:
319,256,267338,1,2,1:2:0:0:
348,102,267505,6,0,P|384:62|438:64,1,110.000003356934,2|0,1:2|2:2,0:0:0:0:
491,128,268005,2,0,L|491:115,10,13.7500004196167,6|0|0|0|0|0|0|0|0|0|0,1:2|1:2|1:2|1:2|1:2|1:2|1:2|1:2|1:2|1:2|1:2,1:2:0:0:
463,187,268505,5,6,1:2:0:0:
386,183,268671,1,0,0:0:0:0:
352,116,268838,1,0,2:2:0:0:
385,51,269005,5,2,1:2:0:0:
348,109,269171,1,0,0:2:0:0:
280,105,269338,1,0,0:2:0:0:
245,50,269505,5,2,1:2:0:0:
273,104,269671,1,0,0:0:0:0:
239,156,269838,1,0,2:2:0:0:
179,158,270005,5,2,1:2:0:0:
233,160,270171,1,0,0:2:0:0:
259,209,270338,1,0,0:2:0:0:
229,256,270505,5,2,1:2:0:0:
225,246,270588,1,2,0:0:0:0:
217,240,270671,1,2,0:0:0:0:
207,238,270755,1,2,0:0:0:0:
197,241,270838,1,2,2:2:0:0:
190,249,270921,1,2,0:0:0:0:
189,259,271005,1,2,1:2:0:0:
193,274,271088,1,2,0:0:0:0:
204,287,271171,1,2,0:2:0:0:
218,295,271255,1,2,0:0:0:0:
235,295,271338,1,2,0:2:0:0:
250,289,271421,1,2,0:0:0:0:
262,278,271505,1,2,1:2:0:0:
278,259,271588,1,2,0:0:0:0:
301,251,271671,1,2,0:0:0:0:
326,256,271755,1,2,0:0:0:0:
345,272,271838,1,2,2:2:0:0:
353,295,271921,1,2,0:0:0:0:
349,320,272005,6,0,P|340:334|323:343,1,27.5000008392334,2|0,1:2|0:2,1:2:0:0:
262,278,272171,2,0,P|278:278|295:288,1,27.5000008392334,2|0,1:2|0:2,0:0:0:0:
270,375,272338,2,0,P|261:360|262:341,1,27.5000008392334,2|0,1:2|0:2,0:0:0:0:
189,259,272505,6,0,B|202:248|202:248|188:356,1,119.999996337891,14|0,1:2|2:0,0:0:0:0:
128,383,273005,2,0,P|98:383|75:364,1,59.9999981689454,2|0,1:2|0:2,0:0:0:0:
189,350,273338,1,2,1:2:0:0:
52,305,273505,2,0,L|45:248|48:243|42:187,1,119.999996337891,10|0,1:2|2:0,0:0:0:0:
10,114,274005,2,0,L|-4:111,10,14.9999995422363,6|0|0|0|0|0|0|0|0|0|0,1:2|1:2|1:2|1:2|1:2|1:2|1:2|1:2|1:2|1:2|1:2,1:2:0:0:
89,123,274505,6,0,P|137:108|161:43,1,119.999996337891,14|0,1:2|2:0,0:0:0:0:
91,54,275005,1,2,1:2:0:0:
191,146,275171,1,2,1:2:0:0:
291,238,275338,1,2,1:2:0:0:
161,277,275505,1,10,1:2:0:0:
214,219,275671,1,0,0:0:0:0:
214,219,275838,1,0,2:0:0:0:
232,324,276005,6,0,L|237:295,1,29.9999990844727,6|0,1:2|0:2,1:2:0:0:
294,252,276171,2,0,L|289:222,1,29.9999990844727,2|0,1:2|0:2,0:0:0:0:
257,166,276338,2,0,L|261:136,1,29.9999990844727,2|0,1:2|0:2,0:0:0:0:
298,66,276505,5,14,1:2:0:0:
283,68,276672,1,0,0:0:0:0:
269,70,276838,1,0,2:0:0:0:
356,58,277005,5,2,1:2:0:0:
409,127,277171,1,2,1:2:0:0:
462,196,277338,1,2,1:2:0:0:
428,276,277505,6,0,P|403:296|368:294,1,59.9999981689454,10|0,1:2|0:0,0:0:0:0:
306,253,277838,1,2,1:2:0:0:
221,211,278005,2,0,L|236:209,6,14.9999995422363,6|0|0|0|0|0|0,1:2|1:2|1:2|1:2|1:2|1:2|1:2,1:2:0:0:
169,224,278338,2,0,P|158:237|155:255,1,29.9999990844727,2|0,1:2|0:2,0:0:0:0:
189,316,278505,6,0,B|202:309|202:309|95:299,1,119.999996337891,14|0,1:2|2:0,0:0:0:0:
22,359,279005,1,2,1:2:0:0:
38,225,279171,1,2,1:2:0:0:
30,292,279338,1,2,1:2:0:0:
46,158,279505,2,0,B|73:146|73:146|164:166,1,119.999996337891,14|0,1:2|2:0,0:0:0:0:
183,260,280005,6,0,P|179:238|187:222,1,29.9999990844727,6|0,1:2|0:2,1:2:0:0:
243,152,280171,2,0,P|246:167|243:182,1,29.9999990844727,2|0,1:2|0:2,0:0:0:0:
184,101,280338,2,0,P|180:79|188:63,1,29.9999990844727,2|0,1:2|0:2,0:0:0:0:
228,11,280505,6,0,B|242:27|265:30|282:20|282:20|300:8|324:12|337:28,1,119.999996337891,14|0,1:2|0:0,0:0:0:0:
363,143,281005,2,0,L|365:84,1,59.9999981689454,2|0,1:2|0:2,0:0:0:0:
330,194,281338,1,2,1:2:0:0:
398,32,281505,2,0,P|456:16|508:53,1,119.999996337891,10|0,1:2|2:0,0:0:0:0:
508,131,282005,2,0,L|510:117,10,14.9999995422363,6|0|0|0|0|0|0|0|0|0|0,1:2|1:2|1:2|1:2|1:2|1:2|1:2|1:2|1:2|1:2|1:2,1:2:0:0:
495,196,282505,6,0,B|478:210|455:209|439:197|439:197|423:183|399:184|383:197,1,119.999996337891,14|0,1:2|2:0,0:0:0:0:
381,273,283005,1,2,1:2:0:0:
319,155,283171,1,2,1:2:0:0:
248,268,283338,1,2,1:2:0:0:
384,196,283504,1,10,1:2:0:0:
316,232,283671,1,0,0:0:0:0:
316,232,283838,1,0,2:0:0:0:
237,164,284005,6,0,P|240:178|249:190,1,29.9999990844727,6|0,1:2|0:2,1:2:0:0:
218,266,284171,2,0,P|232:269|247:267,1,29.9999990844727,2|0,1:2|0:2,0:0:0:0:
296,333,284338,2,0,P|306:322|312:308,1,29.9999990844727,2|0,1:2|0:2,0:0:0:0:
316,232,284505,5,14,1:2:0:0:
315,217,284671,1,0,0:0:0:0:
315,202,284838,1,0,2:0:0:0:
380,274,285005,5,2,1:2:0:0:
449,240,285171,1,2,1:2:0:0:
512,282,285338,1,2,1:2:0:0:
444,371,285505,2,0,P|453:343|443:316,1,59.9999981689454,10|0,1:2|0:0,0:0:0:0:
380,274,285838,1,2,1:2:0:0:
386,183,286005,2,0,L|384:198,6,14.9999995422363,6|0|0|0|0|0|0,1:2|1:2|1:2|1:2|1:2|1:2|1:2,1:2:0:0:
442,159,286338,2,0,L|438:128,1,29.9999990844727,2|0,1:2|0:2,0:0:0:0:
393,75,286505,6,0,B|376:67|376:67|273:80,1,119.999996337891,14|0,1:2|2:0,0:0:0:0:
202,90,287005,1,2,1:2:0:0:
128,100,287171,1,2,1:2:0:0:
276,80,287338,1,2,1:2:0:0:
351,70,287505,2,0,P|402:82|412:144,1,119.999996337891,14|0,1:2|2:0,0:0:0:0:
512,0,288005,6,0,L|527:-12,10,18.7500007152558,6|0|0|0|0|0|0|0|0|0|0,1:2|1:2|1:2|1:2|1:2|1:2|1:2|1:2|1:2|1:2|1:2,1:2:0:0:
451,43,288505,6,0,L|408:77|407:87|364:121,1,119.999996337891,14|0,1:2|2:0,0:0:0:0:
369,238,289005,2,0,P|345:221|336:193,1,59.9999981689454,2|0,1:2|0:2,0:0:0:0:
364,121,289338,1,2,1:2:0:0:
259,206,289505,2,0,P|220:215|156:165,1,119.999996337891,10|0,1:2|2:0,0:0:0:0:
183,83,290005,2,0,L|199:73,10,14.9999995422363,6|0|0|0|0|0|0|0|0|0|0,1:2|1:2|1:2|1:2|1:2|1:2|1:2|1:2|1:2|1:2|1:2,1:2:0:0:
126,114,290505,6,0,B|97:129|97:129|6:92,1,119.999996337891,14|0,1:2|2:0,0:0:0:0:
94,57,291005,1,2,1:2:0:0:
158,171,291171,1,2,1:2:0:0:
225,59,291338,1,2,1:2:0:0:
289,174,291504,1,10,1:2:0:0:
223,135,291671,1,0,0:0:0:0:
223,135,291838,1,0,2:0:0:0:
193,210,292005,6,0,L|223:212,1,29.9999990844727,6|0,1:2|0:2,1:2:0:0:
284,259,292171,2,0,L|314:256,1,29.9999990844727,2|0,1:2|0:2,0:0:0:0:
372,218,292338,2,0,L|402:220,1,29.9999990844727,2|0,1:2|0:2,0:0:0:0:
470,235,292505,5,14,1:2:0:0:
470,220,292672,1,0,0:0:0:0:
471,205,292838,1,0,2:0:0:0:
469,302,293005,5,2,1:2:0:0:
410,334,293171,1,2,1:2:0:0:
352,298,293338,1,2,1:2:0:0:
278,383,293505,2,0,P|294:359|292:329,1,59.9999981689454,10|0,1:2|0:0,0:0:0:0:
234,293,293838,1,2,1:2:0:0:
212,197,294005,2,0,L|209:182,6,14.9999995422363,6|0|0|0|0|0|0,1:2|1:2|1:2|1:2|1:2|1:2|1:2,1:2:0:0:
175,256,294338,2,0,P|160:265|140:263,1,29.9999990844727,2|0,1:2|0:2,0:0:0:0:
76,234,294505,6,0,B|62:218|60:196|68:178|68:178|77:158|72:136|59:121,1,119.999996337891,14|0,1:2|2:0,0:0:0:0:
0,159,295005,1,2,1:2:0:0:
135,196,295171,1,2,1:2:0:0:
234,97,295338,1,2,1:2:0:0:
99,59,295505,2,0,B|93:63|80:59|82:35|114:26|136:40|144:71|138:94|124:112,1,119.999996337891,14|0,1:2|2:0,0:0:0:0:
68,178,296005,6,0,P|65:198|70:218,1,29.9999990844727,6|0,1:2|0:2,1:2:0:0:
0,266,296171,2,0,P|20:269|40:264,1,29.9999990844727,2|0,1:2|0:2,0:0:0:0:
88,334,296338,2,0,P|91:314|86:294,1,29.9999990844727,2|0,1:2|0:2,0:0:0:0:
126,244,296505,6,0,L|142:240|217:282|234:277,1,119.999996337891,14|0,1:2|2:0,0:0:0:0:
270,174,297005,2,0,L|284:233,1,59.9999981689454,2|0,1:2|0:2,0:0:0:0:
299,298,297338,1,2,1:2:0:0:
450,287,297505,2,0,P|392:291|348:253,1,119.999996337891,10|0,1:2|2:0,0:0:0:0:
400,193,298005,2,0,L|396:207,10,14.9999995422363,6|0|0|0|0|0|0|0|0|0|0,1:2|1:2|1:2|1:2|1:2|1:2|1:2|1:2|1:2|1:2|1:2,1:2:0:0:
368,128,298505,6,0,B|346:116|346:116|248:129,1,119.999996337891,14|0,1:2|2:0,0:0:0:0:
172,141,299005,1,2,1:2:0:0:
92,153,299171,1,2,1:2:0:0:
203,66,299338,1,2,1:2:0:0:
223,205,299505,1,10,1:2:0:0:
143,217,299671,1,0,0:0:0:0:
143,217,299838,1,0,2:0:0:0:
167,111,300005,6,0,L|173:149,1,29.9999990844727,6|0,1:2|0:2,1:2:0:0:
227,175,300171,2,0,L|220:213,1,29.9999990844727,2|0,1:2|0:2,0:0:0:0:
191,259,300338,2,0,L|197:297,1,29.9999990844727,2|0,1:2|0:2,0:0:0:0:
237,348,300505,5,14,1:2:0:0:
250,354,300671,1,0,0:0:0:0:
264,360,300838,1,0,2:0:0:0:
167,355,301005,5,2,1:2:0:0:
97,362,301171,1,2,1:2:0:0:
42,317,301338,1,2,1:2:0:0:
35,247,301505,2,0,B|49:240|49:240|97:250,1,59.9999981689454,10|0,1:2|0:0,0:0:0:0:
158,264,301838,1,2,1:2:0:0:
73,169,302005,2,0,L|71:184,6,14.9999995422363,6|0|0|0|0|0|0,1:2|1:2|1:2|1:2|1:2|1:2|1:2,1:2:0:0:
139,158,302338,2,0,L|133:128,1,29.9999990844727,2|0,1:2|0:2,0:0:0:0:
72,93,302505,6,0,P|120:59|176:73,1,119.999996337891,14|0,1:2|2:0,0:0:0:0:
231,149,303005,1,2,1:2:0:0:
286,224,303171,1,2,1:2:0:0:
341,299,303338,1,2,1:2:0:0:
361,169,303505,2,0,B|384:159|384:159|476:183,1,119.999996337891,14|0,1:2|2:0,0:0:0:0:
498,262,304005,2,0,B|494:247,10,14.9999995422363,6|0|0|0|0|0|0|0|0|0|0,1:2|1:2|1:2|1:2|1:2|1:2|1:2|1:2|1:2|1:2|1:2,1:2:0:0:
467,319,304505,6,0,B|451:333|428:333|412:321|412:321|395:307|371:308|356:322,1,119.999996337891,14|0,1:2|2:0,0:0:0:0:
308,384,305005,1,0,1:2:0:0:
229,374,305171,1,0,1:2:0:0:
199,301,305338,1,0,1:2:0:0:
305,247,305505,2,0,P|262:246|219:176,1,119.999996337891,10|0,1:2|2:0,0:0:0:0:
267,124,306005,2,0,L|287:126,6,14.9999995422363,6|0|0|0|0|0|0,1:2|1:2|1:2|1:2|1:2|1:2|1:2,1:2:0:0:
211,82,306338,2,0,L|171:86,1,29.9999990844727,2|0,1:2|0:2,0:0:0:0:
121,115,306505,6,0,B|111:136|111:136|128:232,1,119.999996337891,14|0,1:2|2:0,0:0:0:0:
215,292,307005,1,0,1:2:0:0:
141,305,307171,1,0,1:2:0:0:
67,318,307338,1,0,1:2:0:0:
154,379,307505,2,0,B|173:387|173:387|274:369,1,119.999996337891,10|0,1:2|2:0,0:0:0:0:
303,281,308005,2,0,B|289:279,10,14.9999995422363,6|0|0|0|0|0|0|0|0|0|0,1:2|1:2|1:2|1:2|1:2|1:2|1:2|1:2|1:2|1:2|1:2,1:2:0:0:
330,341,308505,6,0,P|383:353|435:308,1,119.999996337891,14|0,1:2|2:0,0:0:0:0:
437,232,309005,1,0,1:2:0:0:
442,149,309171,1,0,1:2:0:0:
447,66,309338,1,0,1:2:0:0:
437,232,309505,6,0,B|433:267|385:282|355:245|366:209|390:198|390:198|386:203|384:210|385:216,1,150,14|2,2:2|2:0,0:0:0:0:
442,149,310338,1,2,2:0:0:0:
442,149,310505,2,0,P|452:169|508:145,1,100,6|0,2:0|0:0,0:0:0:0:
447,66,311005,5,2,2:0:0:0:
443,78,311088,1,2,2:0:0:0:
434,89,311171,1,2,2:0:0:0:
419,95,311255,1,2,2:0:0:0:
402,93,311338,1,2,2:0:0:0:
388,81,311421,1,2,2:0:0:0:
380,61,311505,6,0,L|382:34,1,27.5,2|0,2:0|0:0,0:0:0:0:
432,15,312505,5,14,1:2:0:0:
