osu file format v14

[General]
AudioFilename: audio.mp3
AudioLeadIn: 0
PreviewTime: -1
Countdown: 1
SampleSet: None
StackLeniency: 0.7
Mode: 0
LetterboxInBreaks: 0
WidescreenStoryboard: 1

[Editor]
DistanceSpacing: 1.7
BeatDivisor: 4
GridSize: 4
TimelineZoom: 3.499999

[Metadata]
Title:Dearest Drop
TitleUnicode:Dearest Drop
Artist:Asuza Tadokoro
ArtistUnicode:Asuza Tadokoro
Creator:ApoloDT
Version:Insane
Source:SukaSuka
Tags:Anime
BeatmapID:1364336
BeatmapSetID:643657

[Difficulty]
HPDrainRate:7
CircleSize:3.8
OverallDifficulty:6
ApproachRate:9
SliderMultiplier:1.8
SliderTickRate:1

[Events]
//Background and Video events
0,0,"waal.png",0,0
//Break Periods
2,29644,32034
//Storyboard Layer 0 (Background)
//Storyboard Layer 1 (Fail)
//Storyboard Layer 2 (Pass)
//Storyboard Layer 3 (Foreground)
//Storyboard Sound Samples

[TimingPoints]
7304,234.288037166086,4,2,1,30,1,0
7304,-100,4,2,1,30,0,0

[Colours]
Combo1 : 0,64,0
Combo2 : 0,255,64
Combo3 : 0,255,255
Combo4 : 255,0,0
Combo5 : 255,255,0
Combo6 : 0,0,128
Combo7 : 128,0,255
Combo8 : 255,0,128

[HitObjects]
148,104,7186,6,0,L|260:64,1,90
392,112,7421,2,0,L|432:196,1,90
284,264,7655,2,0,L|224:188,2,90
420,252,8006,1,0,0:0:0:0:
336,144,8124,2,0,P|328:80|360:48,1,90
452,140,8358,2,0,B|456:248|384:312|384:312,1,180
256,304,8709,1,0,0:0:0:0:
256,304,8768,1,0,0:0:0:0:
256,304,8826,1,0,0:0:0:0:
144,228,8944,6,0,B|152:160|180:104|180:104|224:104|240:128,1,180
348,56,9295,1,0,0:0:0:0:
348,192,9412,2,0,L|440:112,1,90
400,268,9646,2,0,L|304:256,1,90
256,132,9881,2,0,L|216:228,1,90
104,284,10115,1,0,0:0:0:0:
240,284,10232,1,0,0:0:0:0:
120,224,10349,5,0,0:0:0:0:
256,220,10466,1,0,0:0:0:0:
372,148,10584,2,0,L|372:244,1,90
428,116,10818,1,0,0:0:0:0:
304,64,10935,1,0,0:0:0:0:
388,168,11052,1,0,0:0:0:0:
260,124,11169,1,0,0:0:0:0:
344,228,11286,1,0,0:0:0:0:
220,176,11404,1,0,0:0:0:0:
220,312,11521,6,0,P|240:256|264:236,1,90
200,116,11755,2,0,L|140:124,3,45
208,76,11989,2,0,L|192:24,3,45
252,72,12224,2,0,P|332:112|272:152,1,180
388,244,12575,2,0,L|436:160,1,90
304,208,12809,1,0,0:0:0:0:
228,320,12926,1,0,0:0:0:0:
160,204,13044,2,0,L|100:136,1,90
212,64,13278,5,0,0:0:0:0:
324,136,13395,1,0,0:0:0:0:
236,240,13512,2,0,L|136:264,1,90
276,304,13746,1,0,0:0:0:0:
276,304,13805,1,0,0:0:0:0:
276,304,13864,1,0,0:0:0:0:
364,200,13981,6,0,L|428:272,1,90
444,136,14215,1,0,0:0:0:0:
336,56,14332,1,0,0:0:0:0:
208,104,14449,1,0,0:0:0:0:
208,104,14508,1,0,0:0:0:0:
208,104,14566,1,0,0:0:0:0:
104,192,14684,6,0,L|104:288,2,90
260,100,15386,2,0,L|348:160,1,90
412,264,15621,2,0,L|472:184,1,90
332,216,15855,2,0,L|240:268,1,90
300,132,16089,2,0,L|412:140,1,90
396,276,16324,1,0,0:0:0:0:
264,244,16441,2,0,L|208:148,2,90
132,268,16792,5,0,0:0:0:0:
132,268,16851,1,0,0:0:0:0:
132,268,16909,1,0,0:0:0:0:
196,152,17026,1,0,0:0:0:0:
352,156,17085,1,0,0:0:0:0:
352,156,17144,2,0,L|312:248,1,90
196,180,17378,6,0,L|248:80,2,90
260,296,17729,2,0,L|300:256,3,45
360,272,17964,2,0,L|408:280,3,45
400,212,18198,2,0,L|364:160,3,45
428,136,18432,2,0,P|412:44|344:56,1,180
228,120,18784,1,0,0:0:0:0:
228,120,18842,1,0,0:0:0:0:
228,120,18901,1,0,0:0:0:0:
124,204,19018,5,0,0:0:0:0:
124,204,19135,2,0,L|208:244,1,90
340,232,19369,1,0,0:0:0:0:
340,232,19428,1,0,0:0:0:0:
340,232,19486,1,0,0:0:0:0:
352,96,19604,6,0,L|220:84,2,90
44,164,20189,2,0,L|92:248,1,90
156,124,20424,2,0,P|156:72|136:32,1,90
248,120,20658,2,0,P|300:164|312:196,1,90
204,268,20892,5,0,0:0:0:0:
204,268,20951,1,0,0:0:0:0:
204,268,21009,1,0,0:0:0:0:
336,300,21126,2,0,P|396:244|396:216,1,90
372,108,21361,2,0,P|328:160|320:200,1,90
348,48,21595,1,0,0:0:0:0:
428,156,21712,2,0,L|416:252,1,90
292,296,21947,2,0,L|280:248,3,45
292,296,22181,1,0,0:0:0:0:
148,212,22649,6,0,P|176:136|268:100,1,180
288,232,23001,1,0,0:0:0:0:
288,232,23118,2,0,P|272:156|280:120,1,90
400,100,23352,2,0,P|436:144|464:160,2,90
264,84,23704,1,0,0:0:0:0:
264,84,23821,1,0,0:0:0:0:
144,148,23938,5,0,0:0:0:0:
104,276,24055,1,0,0:0:0:0:
232,236,24172,2,0,L|296:168,1,90
396,256,24407,1,0,0:0:0:0:
352,128,24524,1,0,0:0:0:0:
484,144,24641,2,0,L|488:252,1,90
380,316,24875,6,0,L|308:264,1,45
312,228,24992,2,0,L|324:172,1,45
268,140,25109,1,0,0:0:0:0:
140,96,25227,1,0,0:0:0:0:
140,96,25344,1,0,0:0:0:0:
96,224,25461,1,0,0:0:0:0:
96,224,25578,6,0,L|108:320,1,90
228,256,25812,5,0,0:0:0:0:
228,256,25871,1,0,0:0:0:0:
228,256,25929,1,0,0:0:0:0:
300,140,26047,5,0,0:0:0:0:
300,140,26164,2,0,L|180:184,1,90
256,160,26867,2,0,P|192:176|252:248,1,180
360,196,27218,1,0,0:0:0:0:
312,72,27335,2,0,L|192:80,1,90
156,196,27569,1,0,0:0:0:0:
284,244,27687,2,0,P|284:336|284:344,2,90
364,124,28038,6,0,P|424:208|408:296,1,180
280,272,28389,2,0,L|212:196,1,90
84,212,28624,2,0,L|128:112,1,90
248,88,28858,2,0,L|144:48,1,90
184,188,29092,1,0,0:0:0:0:
320,180,29209,1,0,0:0:0:0:
356,48,29327,2,0,L|432:96,1,90
200,148,32724,5,0,0:0:0:0:
280,272,32841,1,0,0:0:0:0:
380,192,32958,1,0,0:0:0:0:
432,308,33075,1,0,0:0:0:0:
284,192,33192,1,0,0:0:0:0:
272,48,33309,1,0,0:0:0:0:
176,224,33427,1,0,0:0:0:0:
140,88,33544,6,0,L|60:40,1,90
136,152,33778,1,0,0:0:0:0:
136,152,33895,2,0,L|240:172,1,90
312,104,34129,2,0,P|304:28|268:16,1,90
416,100,34364,1,0,0:0:0:0:
416,100,34422,1,0,0:0:0:0:
416,100,34481,1,0,0:0:0:0:
380,184,34598,5,0,0:0:0:0:
400,276,34715,1,0,0:0:0:0:
304,252,34832,1,0,0:0:0:0:
144,160,34949,2,0,P|192:108|192:64,1,90
136,284,35184,1,0,0:0:0:0:
272,128,35301,2,0,P|352:96|376:96,2,90
324,252,35769,6,0,L|420:272,1,90
356,340,36004,1,0,0:0:0:0:
424,192,36121,1,0,0:0:0:0:
372,84,36238,2,0,L|464:84,2,90
292,172,36590,1,0,0:0:0:0:
292,172,36648,1,0,0:0:0:0:
292,172,36707,1,0,0:0:0:0:
360,216,36824,6,0,P|360:272|248:340,1,180
184,260,37175,2,0,P|216:200|212:160,1,90
140,108,37410,1,0,0:0:0:0:
220,56,37527,1,0,0:0:0:0:
316,104,37644,2,0,L|336:200,1,90
400,124,37878,2,0,L|464:60,1,90
472,184,38112,1,0,0:0:0:0:
212,172,38230,6,0,P|176:224|172:256,1,90
256,248,38464,2,0,P|212:232|128:240,1,90
136,144,38698,2,0,P|176:180|184:232,1,90
260,172,38932,2,0,P|200:192|160:240,1,90
200,260,39167,2,0,B|184:208|204:160|248:172,1,90
252,44,39401,2,0,B|252:96|252:96|264:176|264:176|272:176|272:176|272:168|272:168|280:168|280:168|280:160|280:160|288:160|288:160|288:152|288:152|312:188|312:188|296:152|296:152|304:152|304:152|304:144|304:144|312:144|312:144,1,270
360,56,39870,6,0,P|424:96|444:136,1,90
340,224,40104,1,0,0:0:0:0:
212,188,40221,2,0,P|208:120|192:104,1,90
304,104,40455,2,0,P|328:148|264:268,1,180
404,296,40807,1,0,0:0:0:0:
448,216,40924,1,0,0:0:0:0:
284,188,41041,6,0,L|360:256,1,90
252,96,41275,2,0,P|268:56|256:8,1,90
344,120,41510,1,0,0:0:0:0:
340,220,41627,1,0,0:0:0:0:
340,220,41685,1,0,0:0:0:0:
340,220,41744,2,0,P|408:204|424:184,1,90
244,152,41978,2,0,P|176:112|128:120,2,90
324,100,42330,5,0,0:0:0:0:
452,76,42447,1,0,0:0:0:0:
360,292,42564,2,0,P|416:268|440:156,1,180
328,184,42915,2,0,P|268:232|260:256,1,90
176,300,43384,2,0,P|176:256|204:208,1,90
132,136,43618,1,0,0:0:0:0:
216,92,43735,1,0,0:0:0:0:
288,152,43852,6,0,L|392:180,1,90
440,84,44087,2,0,L|452:180,1,90
400,260,44321,1,0,0:0:0:0:
300,284,44438,1,0,0:0:0:0:
268,360,44555,2,0,P|168:360|164:360,1,90
132,208,44790,2,0,L|248:196,1,90
168,72,45024,2,0,L|48:84,1,90
252,128,45258,6,0,L|280:220,1,90
364,232,45492,1,0,0:0:0:0:
432,168,45610,1,0,0:0:0:0:
380,76,45727,1,0,0:0:0:0:
380,76,45844,2,0,L|256:56,1,90
156,152,46078,1,0,0:0:0:0:
156,152,46137,1,0,0:0:0:0:
156,152,46195,1,0,0:0:0:0:
156,152,46312,1,0,0:0:0:0:
156,152,46430,1,0,0:0:0:0:
224,248,46664,6,0,P|300:208|308:112,1,180
420,192,47015,2,0,P|448:264|480:280,1,90
432,96,47250,1,0,0:0:0:0:
320,120,47367,2,0,L|264:204,1,90
340,324,47601,1,0,0:0:0:0:
172,272,47718,2,0,L|256:232,1,90
152,144,47952,1,0,0:0:0:0:
228,56,48070,6,0,L|120:76,1,90
40,20,48304,2,0,L|136:40,1,90
76,208,48538,2,0,L|112:112,1,90
180,280,49124,1,0,0:0:0:0:
244,148,49241,1,0,0:0:0:0:
312,276,49358,1,0,0:0:0:0:
348,192,49475,2,0,L|444:192,1,90
396,320,49710,6,0,L|304:336,1,90
240,244,49944,1,0,0:0:0:0:
288,148,50061,1,0,0:0:0:0:
196,76,50178,2,0,L|96:124,1,90
64,240,50412,1,0,0:0:0:0:
128,332,50530,1,0,0:0:0:0:
168,220,50647,2,0,P|208:160|256:136,1,90
320,96,50881,6,0,P|328:48|300:12,2,90
380,128,51233,1,0,0:0:0:0:
312,284,51350,1,0,0:0:0:0:
248,160,51467,1,0,0:0:0:0:
152,112,51584,2,0,L|48:104,1,90
76,272,51818,1,0,0:0:0:0:
168,184,51935,2,0,L|240:96,1,90
160,68,52404,5,0,0:0:0:0:
228,272,52521,1,0,0:0:0:0:
376,120,52638,2,0,L|256:156,1,90
256,84,52873,2,0,B|184:148|252:208|276:240|332:196,1,180
416,156,53224,2,0,L|436:68,1,90
272,136,53458,2,0,L|204:216,1,90
84,296,53693,2,0,L|84:388,2,90
96,176,54044,6,0,B|144:128|196:156|248:200|248:200|300:148|308:76|436:144,1,360
380,304,54864,2,0,P|432:284|496:296,1,90
336,164,55098,2,0,P|304:208|264:220,1,90
264,64,55333,2,0,P|312:36|360:32,1,90
168,136,55567,1,0,0:0:0:0:
132,200,55684,1,0,0:0:0:0:
104,272,55801,1,0,0:0:0:0:
132,344,55918,1,0,0:0:0:0:
308,256,56270,5,0,0:0:0:0:
308,256,56328,1,0,0:0:0:0:
308,256,56387,1,0,0:0:0:0:
308,256,56504,2,0,L|400:244,1,90
397,244,56680,2,0,B|396:180|388:172|388:172|400:164|400:164|388:160|388:160|388:136|400:128|400:128|388:124|388:124|400:116|400:116|388:112|400:104|388:96|388:96|400:92|400:92|388:88|388:88|400:80|400:80,1,225
136,192,57207,6,0,L|212:116,1,90
304,92,57441,2,0,P|384:88|408:116,1,90
448,196,57675,1,0,0:0:0:0:
416,296,57793,2,0,P|388:340|336:352,1,90
220,288,58144,2,0,L|132:252,1,90
232,156,58378,1,0,0:0:0:0:
112,80,58495,1,0,0:0:0:0:
236,32,58613,1,0,0:0:0:0:
332,104,58730,2,0,L|408:184,1,90
308,268,58964,5,0,0:0:0:0:
216,188,59081,1,0,0:0:0:0:
120,272,59198,1,0,0:0:0:0:
44,188,59315,1,0,0:0:0:0:
108,104,59433,2,0,L|204:84,1,90
264,112,59667,2,0,L|356:176,1,90
256,192,59843,8,0,60721,0:0:0:0:
160,300,60838,5,0,0:0:0:0:
104,156,60955,1,0,0:0:0:0:
224,60,61073,1,0,0:0:0:0:
360,128,61190,1,0,0:0:0:0:
316,276,61307,1,0,0:0:0:0:
176,336,61424,1,0,0:0:0:0:
56,240,61541,2,0,L|112:160,1,90
108,88,61775,5,0,0:0:0:0:
252,40,61893,1,0,0:0:0:0:
368,140,62010,1,0,0:0:0:0:
320,284,62127,1,0,0:0:0:0:
176,336,62244,1,0,0:0:0:0:
144,232,62361,2,0,L|64:188,1,90
64,104,62595,1,0,0:0:0:0:
200,36,62713,5,0,0:0:0:0:
340,96,62830,1,0,0:0:0:0:
404,236,62947,1,0,0:0:0:0:
252,208,63064,2,0,L|172:304,1,90
224,176,64001,1,0,0:0:0:0:
88,108,64118,2,0,L|120:212,1,90
220,308,64353,1,0,0:0:0:0:
184,160,64470,2,0,L|244:64,1,90
336,192,64704,1,0,0:0:0:0:
416,64,64821,5,0,0:0:0:0:
448,212,64938,2,0,L|384:140,1,90
240,104,65173,2,0,P|152:164|144:244,1,180
276,304,65524,1,0,0:0:0:0:
312,156,65641,2,0,L|236:68,1,90
408,76,65876,2,0,L|452:192,1,90
288,228,66344,6,0,L|208:160,1,90
284,84,66578,1,0,0:0:0:0:
396,88,66696,2,0,P|408:172|368:256,1,180
244,164,67047,2,0,P|136:188|80:256,1,180
448,184,67398,2,0,P|392:104|300:64,1,180
216,172,67750,2,0,L|196:272,1,90
376,144,67984,2,0,L|436:56,1,90
176,232,68804,6,0,L|176:128,2,90
300,164,69156,2,0,L|384:120,1,90
200,80,69390,2,0,L|200:32,2,45
344,88,69624,2,0,L|432:156,1,90
360,284,69858,1,0,0:0:0:0:
248,228,69976,1,0,0:0:0:0:
104,144,70093,2,0,P|136:224|96:312,1,180
240,156,70444,6,0,L|328:108,1,90
396,268,70678,2,0,P|304:340|236:328,1,180
156,248,71264,2,0,L|76:176,1,90
260,124,71498,2,0,P|288:180|328:204,1,90
296,264,71733,2,0,P|356:236|364:192,1,90
200,180,71967,2,0,P|168:220|172:264,1,90
68,284,72201,1,0,0:0:0:0:
64,160,72318,6,0,P|68:112|36:56,1,90
64,160,72553,2,0,P|128:124|168:124,1,90
236,180,72787,1,0,0:0:0:0:
324,140,72904,2,0,P|376:124|400:80,1,90
464,200,73138,2,0,P|476:256|512:292,1,90
368,332,73373,2,0,P|320:296|264:280,1,90
280,172,73607,5,0,0:0:0:0:
280,172,73666,1,0,0:0:0:0:
280,172,73724,1,0,0:0:0:0:
280,172,73841,2,0,L|184:240,1,90
112,156,74076,2,0,L|24:108,1,90
120,268,74310,2,0,L|40:312,1,90
180,192,74544,2,0,L|160:144,4,45
220,192,74837,2,0,L|252:228,3,45
236,172,75071,6,0,L|240:120,3,45
260,200,75306,2,0,L|288:244,2,45
320,176,75481,2,0,L|360:128,4,45
332,196,75774,2,0,L|364:244,5,45
376,80,76184,6,0,P|332:64|264:72,1,90
176,288,77121,1,0,0:0:0:0:
244,132,77238,1,0,0:0:0:0:
328,264,77356,2,0,P|276:316|232:324,1,90
128,140,77590,2,0,P|172:108|220:88,1,90
408,180,77824,2,0,P|380:124|352:108,1,90
192,296,78058,2,0,P|148:272|132:236,1,90
140,148,78293,6,0,B|352:196|140:148|140:148|392:100,1,450
392,200,79113,2,0,P|380:256|344:288,1,90
236,188,79347,1,0,0:0:0:0:
236,188,79406,1,0,0:0:0:0:
236,188,79464,1,0,0:0:0:0:
236,188,79523,2,0,L|320:152,1,90
328,136,79699,2,0,P|361:47|361:47,1,90
284,40,79933,6,0,L|200:84,1,90
160,212,80167,1,0,0:0:0:0:
256,280,80284,1,0,0:0:0:0:
340,172,80401,2,0,P|412:228|420:320,1,180
256,280,80753,2,0,P|184:248|160:204,1,90
144,136,80987,2,0,P|104:104|36:96,1,90
256,124,81221,2,0,P|336:112|356:84,1,90
424,184,81456,5,0,0:0:0:0:
368,284,81573,1,0,0:0:0:0:
304,192,81690,2,0,L|248:228,4,45
184,268,82159,2,0,L|112:204,1,90
104,92,82393,1,0,0:0:0:0:
232,144,82510,2,0,L|232:48,2,90
312,156,82861,2,0,L|364:232,1,90
104,280,83213,6,0,P|132:216|132:176,1,90
96,72,83447,2,0,P|168:104|176:120,1,90
200,216,83681,1,0,0:0:0:0:
320,268,83799,2,0,P|388:240|408:136,1,180
344,72,84150,2,0,P|236:64|192:132,1,180
224,300,84501,2,0,B|216:288|216:288|220:284|220:284|216:280|216:280|216:276|216:276|220:272|220:272|216:268|216:268|220:264|220:264|216:260|216:260|220:256|220:256|212:252|212:252|220:248|220:248|208:240|224:232|224:232|200:224|200:224|228:216|228:216|196:208|196:208|232:208|232:208|192:200|232:192|192:188|192:188|232:184|232:184|188:176|236:172|188:168|188:168|240:164,1,405
180,228,85321,6,0,L|248:156,1,90
388,200,85556,2,0,L|368:112,1,90
236,56,85790,1,0,0:0:0:0:
272,156,85907,2,0,P|308:224|316:244,1,90
248,324,86141,1,0,0:0:0:0:
144,268,86259,2,0,L|100:232,3,45
100,208,86493,2,0,L|72:104,1,90
204,72,86727,2,0,L|316:128,1,90
260,204,86961,6,0,L|344:260,1,90
392,64,87196,2,0,L|292:40,1,90
192,168,87430,2,0,L|260:228,1,90
256,192,87606,12,0,88660,0:0:0:0:
