osu file format v14

[General]
AudioFilename: asumi2.mp3
AudioLeadIn: 0
PreviewTime: 49699
Countdown: 0
SampleSet: None
StackLeniency: 0.6
Mode: 0
LetterboxInBreaks: 0
WidescreenStoryboard: 1

[Editor]
Bookmarks: 16737
DistanceSpacing: 1.2
BeatDivisor: 4
GridSize: 32
TimelineZoom: 1.7

[Metadata]
Title:SOMEONE ELSE (TV Size)
TitleUnicode:SOMEONE ELSE (TV Size)
Artist:Asumi Kana feat. Fujita Saki & Kitamura Eri
ArtistUnicode:Asumi Kana feat. Fujita Saki & Kitamura Eri
Creator:Silverboxer
Version:Wan Wan Doguu U>w<*U
Source:Working!!
Tags:anime opening intro tv size
BeatmapID:1849228
BeatmapSetID:701210

[Difficulty]
HPDrainRate:4.2
CircleSize:3.8
OverallDifficulty:9.4
ApproachRate:9.6
SliderMultiplier:1.6
SliderTickRate:2

[Events]
//Background and Video events
0,0,"working.jpg",0,0
//Break Periods
//Storyboard Layer 0 (Background)
//Storyboard Layer 1 (Fail)
//Storyboard Layer 2 (Pass)
//Storyboard Layer 3 (Foreground)
//Storyboard Sound Samples

[TimingPoints]
257,515.021459227468,4,2,0,60,1,0
4119,-66.6666666666667,4,2,0,60,0,0
8497,-33.3333333333333,4,1,0,60,0,0
14935,-80,4,2,0,60,0,0
15450,-50,4,2,0,60,0,0
16737,-50,4,2,0,60,0,0
18540,-44.4444444444445,4,2,0,60,0,0
18797,-50,4,2,0,60,0,0
20600,-44.4444444444445,4,2,0,60,0,0
20857,-50,4,2,0,60,0,0
22660,-44.4444444444445,4,2,0,60,0,0
22917,-50,4,2,0,60,0,0
24334,-44.4444444444445,4,2,0,60,0,0
24978,-47.6190476190476,4,2,0,60,0,0
26780,-42.5531914893617,4,2,0,60,0,0
27038,-47.6190476190476,4,2,0,60,0,0
28454,-42.5531914893617,4,2,0,60,0,0
29098,-47.6190476190476,4,2,0,60,0,0
30514,-42.5531914893617,4,2,0,60,0,0
31158,-45.4545454545455,4,2,0,60,0,0
32188,-42.5531914893617,4,2,0,60,0,0
33218,-57.1428571428571,4,3,0,60,0,0
35278,-80,4,3,0,60,0,0
37338,-57.1428571428571,4,3,0,60,0,0
41458,-44.4444444444445,4,3,0,60,0,0
49699,-40,4,1,0,65,0,1
65407,-40,4,1,0,65,0,0
66179,-40,4,3,0,65,0,1
80600,-40,4,1,0,65,0,0
81372,-40,4,1,0,65,0,1
81501,-40,4,1,0,65,0,0
81630,-40,4,1,0,65,0,1
81759,-40,4,1,0,65,0,0
82660,-40,4,1,0,65,0,1
84720,-50,4,1,0,65,0,0
85493,-50,4,1,0,65,0,1
85621,-50,4,1,0,65,0,0
85750,-40,4,3,0,65,0,1
85879,-40,4,3,0,65,0,0
86780,-40,4,2,0,65,0,1
87553,-40,4,2,0,5,0,0

[Colours]
Combo1 : 192,192,192
Combo2 : 84,220,231
Combo3 : 148,83,255
Combo4 : 255,28,67
Combo5 : 58,91,222

[HitObjects]
371,238,257,6,0,L|293:258,1,80,4|0,0:0|0:0,0:0:0:0:
433,167,772,1,0,0:0:0:0:
231,329,1029,1,0,0:0:0:0:
314,181,1287,6,0,L|369:237,1,80,4|0,0:0|0:0,0:0:0:0:
221,161,1802,1,0,0:0:0:0:
463,256,2059,1,0,0:0:0:0:
314,181,2317,6,0,L|294:258,1,80,4|0,0:0|0:0,0:0:0:0:
323,349,2832,1,0,0:0:0:0:
284,93,3089,1,0,0:0:0:0:
371,238,3347,6,0,L|293:258,1,80,4|0,0:0|0:0,0:0:0:0:
205,300,3733,2,0,L|281:278,1,80
466,249,4119,6,0,P|482:192|466:135,1,120.000004577637,0|4,0:0|0:0,0:0:0:0:
136,67,4892,5,8,0:0:0:0:
46,135,5149,2,0,P|29:191|45:248,1,120.000004577637,0|4,0:0|0:0,0:0:0:0:
381,109,5922,5,8,0:0:0:0:
313,19,6179,2,0,P|257:2|200:18,1,120.000004577637,0|4,0:0|0:0,0:0:0:0:
131,275,6952,5,8,0:0:0:0:
199,365,7209,2,0,P|255:382|312:366,1,120.000004577637,0|4,0:0|0:0,0:0:0:0:
437,173,7724,5,8,3:3:0:0:
376,317,7853,1,0,3:3:0:0:
281,192,7982,1,8,3:3:0:0:
255,308,8111,5,0,3:3:0:0:
349,93,8239,1,8,3:3:0:0:
488,281,8368,1,0,3:3:0:0:
183,129,8497,5,4,0:0:0:0:
183,129,8754,2,0,L|63:141,1,120.000004577637,8|0,0:0|0:0,0:0:0:0:
291,232,9012,5,0,0:0:0:0:
291,232,9269,2,0,L|411:244,1,120.000004577637,8|0,0:0|0:0,0:0:0:0:
329,90,9527,5,0,0:0:0:0:
329,90,9784,2,0,L|449:78,1,120.000004577637,8|0,0:0|0:0,0:0:0:0:
183,90,10042,2,0,L|63:78,2,120.000004577637,0|0|8,0:0|0:0|0:0,0:0:0:0:
293,24,10557,5,0,0:0:0:0:
219,153,10814,2,0,L|293:247,1,120.000004577637,8|0,0:0|0:0,0:0:0:0:
100,136,11072,5,0,0:0:0:0:
175,265,11329,2,0,L|293:247,1,120.000004577637,8|0,0:0|0:0,0:0:0:0:
101,359,11587,5,0,0:0:0:0:
250,359,11844,2,0,L|294:247,1,120.000004577637,8|0,0:0|0:0,0:0:0:0:
131,153,12102,2,0,L|175:265,1,120.000004577637
12,359,12360,2,0,L|56:247,1,120.000004577637,8|0,0:0|0:0,0:0:0:0:
12,25,12617,5,0,0:0:0:0:
209,93,12875,2,0,L|329:79,1,120.000004577637,8|0,0:0|0:0,0:0:0:0:
46,162,13132,5,0,0:0:0:0:
243,230,13390,2,0,L|363:216,1,120.000004577637,8|0,0:0|0:0,0:0:0:0:
80,299,13647,5,0,0:0:0:0:
277,367,13905,2,0,L|397:353,1,120.000004577637,8|0,0:0|0:0,0:0:0:0:
80,299,14162,1,8,0:3:0:0:
243,230,14291,1,0,0:3:0:0:
46,162,14420,1,8,0:3:0:0:
209,93,14548,1,0,0:3:0:0:
12,25,14677,5,4,0:0:0:0:
12,25,14935,2,2,P|59:8|108:10,1,100,2|2,0:0|0:0,0:0:0:0:
300,65,15450,2,2,P|378:71|450:38,1,160,2|2,0:0|0:0,0:0:0:0:
160,252,15965,5,8,3:3:0:0:
294,148,16093,1,0,3:3:0:0:
248,312,16222,1,8,3:3:0:0:
189,151,16351,5,0,3:3:0:0:
330,247,16480,1,8,3:3:0:0:
143,257,16608,1,0,3:3:0:0:
303,133,16737,6,0,L|378:104,1,80,4|0,0:0|0:0,0:0:0:0:
504,175,16995,2,0,L|429:204,1,80,8|0,0:0|0:0,0:0:0:0:
255,272,17252,2,0,L|330:243,1,80
456,314,17510,2,0,L|381:343,1,80,8|0,0:0|0:0,0:0:0:0:
181,341,17767,5,0,0:0:0:0:
56,314,17896,2,0,L|43:234,1,80,0|8,0:0|0:0,0:0:0:0:
255,272,18153,2,0,L|426:338,1,160
144,159,18540,2,2,P|127:200|130:245,1,90.0000034332277,2|0,0:0|0:0,0:0:0:0:
342,93,18797,6,0,L|417:67,1,80
256,160,19055,2,0,L|230:85,1,80,8|0,0:0|0:0,0:0:0:0:
323,246,19312,2,0,L|248:272,1,80
409,179,19570,2,0,L|435:254,1,80,8|0,0:0|0:0,0:0:0:0:
256,160,19827,5,0,0:0:0:0:
342,93,19956,2,0,L|421:87,1,80,0|8,0:0|0:0,0:0:0:0:
323,246,20214,2,0,L|163:258,1,160
396,333,20600,2,2,P|423:298|435:255,1,90.0000034332277,2|0,0:0|0:0,0:0:0:0:
164,258,20857,6,0,L|122:341,1,80
306,164,21115,2,0,L|348:81,1,80,8|0,0:0|0:0,0:0:0:0:
184,279,21372,2,0,L|165:370,1,80
297,152,21630,2,0,L|316:60,1,80,8|0,0:0|0:0,0:0:0:0:
268,314,21887,6,0,L|337:376,1,80
435,254,22145,1,8,0:0:0:0:
297,152,22274,2,0,L|144:201,1,160
360,229,22660,2,2,P|403:241|456:279,1,90.0000034332277,2|0,0:0|0:0,0:0:0:0:
184,279,22917,6,0,L|107:303,1,80
284,205,23175,2,0,L|361:229,1,80,8|0,0:0|0:0,0:0:0:0:
123,155,23432,2,0,L|46:179,1,80
344,87,23690,2,0,L|403:32,1,80,8|0,0:0|0:0,0:0:0:0:
412,182,23947,5,0,0:0:0:0:
284,205,24076,2,0,L|207:181,1,80,0|8,0:0|0:0,0:0:0:0:
344,87,24334,2,2,P|430:70|506:114,1,180.000006866455
296,189,24720,2,2,P|260:161|237:123,1,90.0000034332277
512,249,24978,6,0,L|432:272,1,83.9999974365235
319,329,25235,2,0,L|392:370,1,83.9999974365235,8|0,0:0|0:0,0:0:0:0:
221,370,25493,1,0,0:0:0:0:
197,289,25621,1,0,0:0:0:0:
173,208,25750,2,0,L|213:135,1,83.9999974365235,8|0,0:0|0:0,0:0:0:0:
108,26,26008,5,0,0:0:0:0:
3,137,26136,2,0,L|45:208,1,83.9999974365235,0|8,0:0|0:0,0:0:0:0:
173,208,26394,2,0,L|316:121,1,167.999994873047
88,99,26780,2,0,P|43:112|3:137,1,93.9999985656738,2|0,0:0|0:0,0:0:0:0:
245,164,27038,6,0,L|263:82,1,83.9999974365235
46,209,27295,1,8,0:0:0:0:
91,279,27423,1,0,0:0:0:0:
172,296,27553,2,0,L|242:250,1,83.9999974365235
163,138,27810,2,0,L|88:99,1,83.9999974365235,8|0,0:0|0:0,0:0:0:0:
224,32,28068,5,0,0:0:0:0:
349,138,28196,2,0,L|387:212,1,83.9999974365235,0|8,0:0|0:0,0:0:0:0:
172,296,28454,2,2,P|82:274|33:196,1,187.999997131348
266,220,28840,2,2,P|287:261|291:308,1,93.9999985656738
163,138,29098,6,0,L|221:77,1,83.9999974365235
353,113,29355,2,0,L|273:137,1,83.9999974365235,8|0,0:0|0:0,0:0:0:0:
368,191,29613,2,0,L|449:211,1,83.9999974365235
483,343,29870,2,0,L|423:285,1,83.9999974365235,8|0,0:0|0:0,0:0:0:0:
318,350,30128,5,0,0:0:0:0:
180,218,30257,2,0,L|240:276,1,83.9999974365235,0|8,0:0|0:0,0:0:0:0:
367,191,30514,2,2,P|368:144|352:100,1,93.9999985656738
24,42,30772,1,2,0:0:0:0:
125,144,30900,1,10,0:0:0:0:
59,221,31029,1,2,0:0:0:0:
104,288,31158,5,2,0:0:0:0:
191,278,31287,2,2,P|228:255|271:247,1,88.000002685547,2|10,0:0|0:0,0:0:0:0:
399,204,31544,2,2,P|348:134|264:115,1,176.000005371094
104,288,31930,5,8,0:1:0:0:
463,98,32188,2,0,P|465:51|450:7,1,93.9999985656738
163,138,32445,5,8,3:3:0:0:
202,284,32574,1,0,3:3:0:0:
348,245,32703,1,8,3:3:0:0:
309,99,32832,1,0,3:3:0:0:
192,302,32960,5,8,3:3:0:0:
319,81,33089,1,0,3:3:0:0:
446,302,33218,5,4,0:0:0:0:
446,302,33475,1,0,0:0:0:0:
445,301,33733,2,0,L|323:378,1,140.000001335144,8|0,0:0|0:0,0:0:0:0:
270,63,34248,2,2,P|354:3|457:7,1,210.000002002716,4|2,3:3|2:2,2:2:0:0:
123,92,34891,1,2,2:2:0:0:
48,57,35020,2,2,P|22:33|2:4,1,70.000000667572,2|2,2:2|2:2,2:2:0:0:
221,204,35278,6,0,B|225:240|225:240|204:268|204:268|206:311|188:353|149:379,1,200,4|8,0:0|0:0,0:0:0:0:
105,56,36308,2,0,B|138:70|138:70|153:102|153:102|191:122|218:159|220:205,1,200,2|8,0:0|0:0,0:0:0:0:
473,140,37338,6,0,B|403:141|403:141|342:176,1,140.000001335144,4|0,0:0|0:0,0:0:0:0:
279,358,37853,2,0,P|191:254|55:252,1,280.000002670288,8|2,0:0|0:2,0:0:0:0:
395,103,38754,1,2,2:2:0:0:
89,16,39012,1,2,2:2:0:0:
136,83,39141,2,2,P|146:116|149:151,1,70.000000667572,2|2,2:2|2:2,2:2:0:0:
55,251,39398,6,0,P|191:254|279:358,1,280.000002670288,4|8,0:0|0:0,0:0:0:0:
445,242,40428,5,2,0:0:0:0:
494,53,40686,1,0,0:0:0:0:
306,2,40943,1,8,0:0:0:0:
256,192,41201,1,0,0:0:0:0:
435,191,41458,6,0,P|391:197|348:209,1,90.0000034332277,8|0,0:0|0:0,0:0:0:0:
165,34,41716,2,0,P|192:69|224:101,1,90.0000034332277,8|0,0:0|0:0,0:0:0:0:
164,346,41973,2,0,P|182:305|193:262,1,90.0000034332277,8|0,0:0|0:0,0:0:0:0:
351,22,42231,2,0,P|333:63|323:106,1,90.0000034332277,8|0,0:0|0:0,0:0:0:0:
443,299,42488,6,0,P|406:273|373:243,1,90.0000034332277,8|0,0:0|0:0,0:0:0:0:
68,83,42746,2,0,P|104:108|137:138,1,90.0000034332277,8|0,0:0|0:0,0:0:0:0:
481,52,43003,2,0,P|437:55|393:65,1,90.0000034332277,8|0,0:0|0:0,0:0:0:0:
63,298,43261,1,8,0:0:0:0:
237,240,43390,1,0,0:0:0:0:
295,66,43518,6,0,P|253:52|208:46,1,90.0000034332277,8|0,0:0|0:0,0:0:0:0:
149,269,43776,2,0,P|176:304|208:335,1,90.0000034332277,8|0,0:0|0:0,0:0:0:0:
386,190,44033,2,0,P|385:145|378:101,1,90.0000034332277,8|0,0:0|0:0,0:0:0:0:
148,114,44291,2,0,P|122:150|102:191,1,90.0000034332277,8|0,0:0|0:0,0:0:0:0:
296,315,44548,6,0,P|338:301|378:280,1,90.0000034332277,8|0,0:0|0:0,0:0:0:0:
214,66,44806,2,0,P|172:80|132:101,1,90.0000034332277,8|0,0:0|0:0,0:0:0:0:
380,149,45063,2,0,P|366:107|345:67,1,90.0000034332277,8|0,0:0|0:0,0:0:0:0:
130,232,45321,2,0,P|144:273|165:313,1,90.0000034332277,8|0,0:0|0:0,0:0:0:0:
498,160,45578,6,0,P|495:116|485:72,1,90.0000034332277,8|0,0:0|0:0,0:0:0:0:
12,221,45836,2,0,P|15:265|25:309,1,90.0000034332277,8|0,0:0|0:0,0:0:0:0:
360,55,46093,6,0,P|326:26|288:3,1,90.0000034332277,8|0,0:0|0:0,0:0:0:0:
151,327,46351,2,0,P|185:356|223:380,1,90.0000034332277,8|0,0:0|0:0,0:0:0:0:
239,72,46608,6,0,P|195:75|151:85,1,90.0000034332277,8|0,0:0|0:0,0:0:0:0:
272,309,46866,2,0,P|316:306|360:296,1,90.0000034332277,8|0,0:0|0:0,0:0:0:0:
201,150,47123,6,0,P|172:183|148:221,1,90.0000034332277,8|0,0:0|0:0,0:0:0:0:
310,232,47381,1,8,0:0:0:0:
152,86,47510,1,0,0:0:0:0:
104,294,47638,6,0,P|121:335|144:373,1,90.0000034332277,8|0,0:0|0:0,0:0:0:0:
241,9,47896,2,0,P|197:3|152:3,1,90.0000034332277,8|0,0:0|0:0,0:0:0:0:
421,271,48153,2,0,P|447:235|468:196,1,90.0000034332277,8|0,0:0|0:0,0:0:0:0:
196,295,48411,1,8,0:0:0:0:
195,86,48540,1,0,0:0:0:0:
375,190,48669,1,8,0:0:0:0:
374,203,49184,5,8,0:0:0:0:
159,341,49312,1,0,0:0:0:0:
250,103,49441,1,8,0:0:0:0:
317,351,49570,1,0,0:0:0:0:
118,189,49699,6,0,L|57:111,1,100,4|0,0:0|0:0,0:0:0:0:
286,94,49956,2,0,L|187:107,1,100,8|0,0:0|0:0,0:0:0:0:
184,299,50214,2,0,L|221:207,1,100
382,270,50471,1,8,0:0:0:0:
320,190,50600,1,0,0:0:0:0:
282,285,50729,6,0,P|179:297|202:199,1,200,0|8,0:0|0:0,0:0:0:0:
64,164,51115,2,0,P|167:152|144:250,1,200
382,270,51501,6,0,L|419:178,1,100,8|0,0:0|0:0,0:0:0:0:
324,1,51759,2,0,L|287:93,1,100
173,224,52016,1,8,0:0:0:0:
64,164,52145,2,0,B|51:104|51:104|146:89|233:138,1,200
207,343,52531,6,0,L|109:358,1,100,8|0,0:0|0:0,0:0:0:0:
348,301,52789,2,0,L|446:316,1,100
121,219,53046,2,0,L|23:204,1,100,8|0,0:0|0:0,0:0:0:0:
404,166,53304,2,0,L|502:151,1,100
103,71,53561,2,0,L|5:56,1,100,8|0,0:0|0:0,0:0:0:0:
414,15,53819,6,0,L|512:0,1,100
210,238,54076,1,8,0:0:0:0:
266,3,54205,1,0,0:0:0:0:
374,175,54334,2,0,P|385:224|390:274,1,100,2|0,0:2|0:0,0:0:0:0:
117,135,54591,2,0,P|106:86|101:36,1,100,8|0,0:0|0:0,0:0:0:0:
319,97,54849,5,0,0:0:0:0:
250,290,54978,1,0,0:0:0:0:
58,215,55106,2,0,P|85:172|117:134,1,100,8|0,0:0|0:0,0:0:0:0:
203,34,55364,5,2,0:2:0:0:
362,221,55493,1,0,0:0:0:0:
120,265,55621,1,8,0:0:0:0:
336,81,55750,1,0,0:0:0:0:
253,312,55879,6,0,P|217:346|172:367,1,100
64,111,56136,2,0,L|144:53,1,100,8|0,0:0|0:0,0:0:0:0:
351,168,56394,2,0,L|270:225,1,100,2|0,0:2|0:0,0:0:0:0:
378,57,56651,1,8,0:0:0:0:
243,336,56780,1,0,0:0:0:0:
67,79,56909,6,0,P|105:46|148:20,1,100
378,57,57166,1,8,0:0:0:0:
345,199,57295,2,0,B|263:257|263:257|159:268,1,200
484,156,57681,2,0,B|493:256,1,100,8|0,0:0|0:0,0:0:0:0:
209,142,57939,6,0,B|200:42,1,100
267,275,58196,2,0,B|167:284,1,100,8|0,0:0|0:0,0:0:0:0:
342,84,58454,2,0,B|442:75,1,100
400,217,58711,2,0,B|409:317,1,100,8|0,0:0|0:0,0:0:0:0:
209,142,58969,6,0,B|117:99,1,100
167,284,59226,1,8,0:0:0:0:
318,274,59355,2,0,B|400:217|400:217|442:126,1,200
118,100,59741,2,0,B|16:108,1,100,8|0,0:0|0:0,0:0:0:0:
18,276,59999,6,0,B|118:284,1,100
300,131,60257,1,8,0:0:0:0:
212,345,60385,1,0,0:0:0:0:
157,120,60514,2,0,B|133:23,1,100
396,158,60772,2,0,B|300:131,1,100,8|0,0:0|0:0,0:0:0:0:
145,318,61029,6,0,B|218:249,1,100
303,14,61287,2,0,B|231:83,1,100,8|0,0:0|0:0,0:0:0:0:
54,174,61544,2,0,B|150:202,1,100
396,158,61802,1,8,0:0:0:0:
304,14,61930,1,0,0:0:0:0:
292,213,62059,6,0,B|316:310,1,100
133,23,62317,1,8,0:0:0:0:
13,258,62445,1,0,0:0:0:0:
157,120,62574,2,0,B|254:95,1,100,2|0,0:2|0:0,0:0:0:0:
130,382,62832,1,8,0:0:0:0:
84,189,62960,1,0,0:0:0:0:
275,246,63089,6,0,B|372:270,1,100
130,382,63347,2,0,B|33:357,1,100,8|0,0:0|0:0,0:0:0:0:
297,332,63604,5,2,0:2:0:0:
150,297,63733,1,0,0:0:0:0:
253,186,63862,5,8,0:0:0:0:
213,357,63990,1,0,0:0:0:0:
380,307,64119,6,0,P|429:315|473:337,1,100
150,297,64377,1,8,0:0:0:0:
273,101,64505,1,0,0:0:0:0:
380,307,64634,2,0,P|363:260|359:210,1,100,2|0,0:2|0:0,0:0:0:0:
375,0,64892,5,8,0:0:0:0:
472,111,65020,1,0,0:0:0:0:
380,307,65149,2,0,P|347:345|306:372,1,100
150,193,65407,5,8,3:3:0:0:
240,245,65535,1,0,3:3:0:0:
150,89,65664,5,8,3:3:0:0:
150,297,65793,1,0,3:3:0:0:
240,37,65922,5,8,3:3:0:0:
60,245,66050,1,0,3:3:0:0:
330,88,66179,6,0,P|377:73|426:61,1,100,4|0,0:0|0:0,0:0:0:0:
181,294,66437,2,0,P|134:310|85:322,1,100,8|0,0:0|0:0,0:0:0:0:
394,205,66694,5,8,0:0:0:0:
116,177,66823,1,0,0:0:0:0:
308,307,66952,5,8,0:0:0:0:
203,76,67081,1,0,0:0:0:0:
55,282,67209,6,0,P|39:329|27:378,1,100,4|0,0:0|0:0,0:0:0:0:
382,204,67467,1,8,0:0:0:0:
331,8,67596,2,0,P|315:55|303:104,1,100,0|8,0:0|0:0,0:0:0:0:
353,190,67853,1,0,0:0:0:0:
278,317,67982,5,8,0:0:0:0:
93,314,68111,1,0,0:0:0:0:
0,131,68239,2,0,P|15:88|44:47,1,100,4|0,0:0|0:0,0:0:0:0:
467,47,68497,2,0,P|496:88|521:131,1,100,8|0,0:0|0:0,0:0:0:0:
120,174,68754,5,8,0:0:0:0:
337,289,68883,1,0,0:0:0:0:
175,289,69012,1,8,0:0:0:0:
392,174,69141,1,0,0:0:0:0:
200,102,69269,6,0,P|189:52|183:3,1,100,4|0,0:0|0:0,0:0:0:0:
375,153,69527,2,0,P|385:202|391:251,1,100,8|0,0:0|0:0,0:0:0:0:
163,231,69784,5,8,0:0:0:0:
411,23,69913,1,0,0:0:0:0:
262,215,70042,5,8,0:0:0:0:
313,40,70171,1,0,0:0:0:0:
350,298,70299,6,0,P|357:248|361:199,1,100,4|0,0:0|0:0,0:0:0:0:
248,253,70557,2,0,P|210:287|170:317,1,100,8|0,0:0|0:0,0:0:0:0:
29,201,70814,2,0,P|79:208|129:212,1,100,2|0,0:0|0:0,0:0:0:0:
74,98,71072,2,0,P|40:60|10:20,1,100,8|0,0:0|0:0,0:0:0:0:
365,127,71329,5,4,0:0:0:0:
319,301,71458,1,0,0:0:0:0:
145,255,71587,1,8,0:0:0:0:
191,81,71716,1,0,0:0:0:0:
358,219,71844,1,2,0:0:0:0:
153,164,71973,5,0,0:0:0:0:
283,89,72102,1,8,0:0:0:0:
228,294,72231,1,0,0:0:0:0:
77,144,72360,2,0,P|69:96|77:46,1,100,4|0,0:0|0:0,0:0:0:0:
126,322,72617,5,8,0:0:0:0:
283,89,72746,1,0,0:0:0:0:
228,294,72875,2,0,P|219:342|227:392,1,100,2|0,0:0|0:0,0:0:0:0:
378,144,73132,2,0,P|424:127|463:95,1,100,8|0,0:0|0:0,0:0:0:0:
173,89,73390,5,4,0:0:0:0:
346,262,73518,1,0,0:0:0:0:
291,57,73647,1,8,0:0:0:0:
141,207,73776,2,0,P|109:245|91:292,1,100,0|8,0:0|0:0,0:0:0:0:
378,144,74033,1,0,0:0:0:0:
173,89,74162,5,8,0:0:0:0:
228,294,74291,1,0,0:0:0:0:
291,57,74420,2,0,P|332:27|375:1,1,100,4|0,0:0|0:0,0:0:0:0:
221,327,74677,2,0,P|179:356|136:382,1,100,8|0,0:0|0:0,0:0:0:0:
121,157,74935,5,8,0:0:0:0:
385,140,75063,1,0,0:0:0:0:
180,309,75192,5,8,0:0:0:0:
247,52,75321,1,0,0:0:0:0:
344,299,75450,6,0,P|327:347|307:393,1,100,4|0,0:0|0:0,0:0:0:0:
93,150,75707,1,8,0:0:0:0:
411,130,75836,2,0,P|462:131|512:135,1,100,0|8,0:0|0:0,0:0:0:0:
256,178,76093,5,0,0:0:0:0:
73,51,76222,1,8,0:0:0:0:
438,51,76351,1,0,0:0:0:0:
128,160,76480,2,0,P|126:209|128:259,1,100,4|0,0:0|0:0,0:0:0:0:
384,223,76737,2,0,P|385:174|383:124,1,100,8|0,0:0|0:0,0:0:0:0:
192,362,76995,5,8,0:0:0:0:
320,322,77123,1,0,0:0:0:0:
222,232,77252,1,8,0:0:0:0:
282,149,77381,1,0,0:0:0:0:
256,32,77510,6,0,P|208:17|159:6,1,100,4|0,0:0|0:0,0:0:0:0:
96,192,77767,2,0,P|81:239|70:288,1,100,8|0,0:0|0:0,0:0:0:0:
256,352,78025,2,0,P|303:366|352:377,1,100,8|0,0:0|0:0,0:0:0:0:
416,192,78282,2,0,P|430:144|441:95,1,100,8|0,0:0|0:0,0:0:0:0:
256,32,78540,6,0,P|208:17|159:6,1,100,4|0,0:0|0:0,0:0:0:0:
272,251,78797,1,8,0:0:0:0:
186,101,78926,1,0,0:0:0:0:
100,251,79055,5,10,0:0:0:0:
272,151,79184,1,0,0:0:0:0:
186,301,79312,5,8,0:0:0:0:
100,51,79441,1,0,0:0:0:0:
14,301,79570,6,0,P|11:250|14:199,1,100,4|0,0:0|0:0,0:0:0:0:
272,100,79827,1,8,0:0:0:0:
100,251,79956,1,0,0:0:0:0:
358,101,80085,5,10,0:0:0:0:
100,151,80214,1,8,0:0:0:0:
444,151,80342,5,10,0:0:0:0:
14,201,80471,1,8,0:0:0:0:
493,236,80600,5,6,0:0:0:0:
0,209,81372,6,2,P|97:200|180:252,1,200,2|2,3:2|3:2,3:2:0:0:
179,259,81887,1,2,2:2:0:0:
177,265,82145,1,2,2:2:0:0:
175,271,82402,1,2,2:2:0:0:
367,322,82660,6,0,L|465:303,1,100,4|0,0:0|0:0,0:0:0:0:
319,116,82917,2,0,P|357:148|382:190,1,100,8|0,0:0|0:0,0:0:0:0:
232,320,83175,2,0,P|256:276|264:227,1,100
140,236,83432,2,0,P|93:253|44:254,1,100,8|0,0:0|0:0,0:0:0:0:
7,58,83690,6,0,P|32:100|70:132,1,100
330,56,83947,1,8,0:0:0:0:
426,130,84076,1,0,0:0:0:0:
441,251,84205,2,0,P|432:300|408:343,1,100
291,248,84463,2,0,P|253:215|227:173,1,100,8|0,0:0|0:0,0:0:0:0:
368,119,84720,5,4,0:0:0:0:
368,119,84978,2,0,P|344:87|329:50,1,80,2|0,2:2|2:0,2:0:0:0:
222,160,85235,6,2,P|153:200|114:268,1,160,2|2,2:2|2:2,2:2:0:0:
0,88,85750,1,2,0:1:0:0:
298,322,86008,5,8,3:3:0:0:
142,108,86136,1,8,3:3:0:0:
394,191,86265,1,8,3:3:0:0:
142,272,86394,5,8,3:3:0:0:
298,57,86523,1,8,3:3:0:0:
298,348,86651,1,8,3:3:0:0:
128,87,86780,5,6,3:1:0:0:
256,192,86812,12,0,87810,0:0:0:0:
