osu file format v14

[General]
AudioFilename: asumi2.mp3
AudioLeadIn: 0
PreviewTime: 49697
Countdown: 0
SampleSet: Soft
StackLeniency: 0.4
Mode: 0
LetterboxInBreaks: 0
WidescreenStoryboard: 1

[Editor]
Bookmarks: 16737
DistanceSpacing: 0.3
BeatDivisor: 4
GridSize: 8
TimelineZoom: 1

[Metadata]
Title:SOMEONE ELSE (TV Size)
TitleUnicode:SOMEONE ELSE (TV Size)
Artist:Asumi Kana feat. Fujita Saki & Kitamura Eri
ArtistUnicode:Asumi Kana feat. Fujita Saki & Kitamura Eri
Creator:Silverboxer
Version:Susume!
Source:Working!!
Tags:anime opening intro tv size
BeatmapID:1484177
BeatmapSetID:701210

[Difficulty]
HPDrainRate:4.8
CircleSize:4
OverallDifficulty:9.3
ApproachRate:9.7
SliderMultiplier:1.6
SliderTickRate:1

[Events]
//Background and Video events
0,0,"shweep_crop.jpg",0,0
//Break Periods
//Storyboard Layer 0 (Background)
//Storyboard Layer 1 (Fail)
//Storyboard Layer 2 (Pass)
//Storyboard Layer 3 (Foreground)
//Storyboard Sound Samples

[TimingPoints]
257,515.021459227468,4,2,1,60,1,0
4113,-66.6666666666667,4,2,1,60,0,0
8491,-50,4,2,1,60,0,0
14677,-50,4,2,0,60,0,0
14929,-100,4,2,1,60,0,0
15444,-50,4,2,1,60,0,0
16731,-66.6666666666667,4,2,1,60,0,0
24978,-62.5,4,2,1,60,0,0
31152,-58.8235294117647,4,2,1,60,0,0
33212,-100,4,2,1,60,0,0
41452,-50,4,2,1,60,0,0
48669,-50,4,2,0,60,0,0
48797,-50,4,2,1,60,0,0
49699,-40,4,2,1,60,0,1
65407,-50,4,2,1,50,0,0
66179,-40,4,1,0,60,0,1
80600,-50,4,2,0,60,0,0
81372,-40,4,2,1,60,0,1
81501,-50,4,2,1,60,0,0
81630,-40,4,2,1,60,0,1
81759,-50,4,2,1,60,0,0
82660,-40,4,2,1,60,0,1
84720,-50,4,2,1,60,0,0
85493,-40,4,2,1,60,0,1
85621,-50,4,2,1,60,0,0
85750,-40,4,2,1,60,0,1
85879,-50,4,2,1,60,0,0
86780,-66.6666666666667,4,2,0,60,0,1
87553,-50,4,2,1,5,0,0

[Colours]
Combo1 : 203,92,46
Combo2 : 255,206,60
Combo3 : 207,181,154
Combo4 : 255,64,98
Combo5 : 79,129,213

[HitObjects]
115,109,257,6,0,B|112:148|112:148|117:189,1,80,8|0,0:0|0:0,0:0:0:0:
204,96,772,1,0,0:0:0:0:
189,252,1029,1,0,0:0:0:0:
207,90,1287,6,0,P|201:43|199:9,1,80,8|0,0:0|0:0,0:0:0:0:
255,205,1802,1,0,0:0:0:0:
307,23,2059,1,0,0:0:0:0:
259,217,2317,6,0,P|299:239|334:248,1,80,8|0,0:0|0:0,0:0:0:0:
269,127,2832,1,0,0:0:0:0:
330,327,3089,1,0,0:0:0:0:
257,113,3347,6,0,L|201:105,1,40,8|0,0:0|0:0,0:0:0:0:
98,179,3604,1,0,0:0:0:0:
98,179,3733,2,0,L|104:276,1,80
330,327,4119,2,0,L|335:268,1,60.0000022888184,8|0,0:0|0:0,0:0:0:0:
174,332,4377,6,0,P|220:344|241:350,1,60.0000022888184,8|0,0:0|0:0,0:0:0:0:
360,164,4634,2,0,P|331:171|302:179,1,60.0000022888184
199,202,4892,1,0,0:0:0:0:
199,202,5149,1,0,0:0:0:0:
330,327,5407,6,0,P|342:295|346:270,1,60.0000022888184,8|0,0:0|0:0,0:0:0:0:
199,202,5664,2,0,P|204:231|215:259,1,60.0000022888184
289,123,5922,1,0,0:0:0:0:
289,123,6179,1,0,0:0:0:0:
183,47,6437,6,0,L|102:55,1,60.0000022888184,8|0,0:0|0:0,0:0:0:0:
139,207,6694,2,0,L|198:201,1,60.0000022888184
34,186,6952,1,0,0:0:0:0:
34,186,7209,1,0,0:0:0:0:
85,325,7467,6,0,P|93:370|99:393,1,60.0000022888184,8|0,0:0|0:0,0:0:0:0:
139,207,7724,1,8,0:0:0:0:
1,280,7853,1,8,0:0:0:0:
182,334,7982,1,8,0:0:0:0:
34,186,8111,1,8,0:0:0:0:
196,116,8239,2,0,P|240:127|273:128,1,60.0000022888184,8|0,0:0|0:0,0:0:0:0:
415,37,8497,6,0,P|380:73|368:103,1,80
334,212,8754,1,4,0:0:0:0:
293,27,8883,1,0,0:0:0:0:
217,195,9012,2,0,P|171:204|135:207,1,80
7,104,9269,2,0,P|46:107|85:115,1,80,4|0,0:0|0:0,0:0:0:0:
211,294,9527,2,0,L|202:373,1,80
87,330,9784,5,6,0:0:0:0:
309,291,9913,1,0,0:0:0:0:
101,242,10042,5,2,0:0:0:0:
323,281,10171,1,0,0:0:0:0:
144,163,10299,5,6,0:0:0:0:
201,373,10428,1,0,0:0:0:0:
248,173,10557,6,0,B|243:131|243:131|227:97,1,80
104,34,10814,1,4,0:0:0:0:
144,163,10943,1,0,0:0:0:0:
296,33,11072,2,0,P|342:18|384:11,1,80
415,179,11329,2,0,P|375:171|337:158,1,80,4|0,0:0|0:0,0:0:0:0:
502,33,11587,2,0,L|497:117,1,80
429,310,11844,5,6,0:0:0:0:
409,92,11973,1,0,0:0:0:0:
311,331,12102,5,2,0:0:0:0:
331,113,12231,1,0,0:0:0:0:
486,197,12360,5,6,0:0:0:0:
261,209,12489,1,0,0:0:0:0:
429,310,12617,6,0,P|473:316|510:331,1,80
212,307,12875,2,0,P|174:320|135:325,1,80,4|0,0:0|0:0,0:0:0:0:
254,129,13132,2,0,L|261:209,1,80
44,261,13390,2,0,L|51:181,1,80,4|0,0:0|0:0,0:0:0:0:
151,36,13647,6,0,P|200:37|232:39,1,80
412,137,13905,1,8,0:0:0:0:
254,129,14033,1,8,0:0:0:0:
342,3,14162,1,8,0:0:0:0:
331,188,14291,1,8,0:0:0:0:
151,36,14420,5,8,0:0:0:0:
412,137,14548,1,8,0:0:0:0:
107,187,14677,1,4,0:0:0:0:
107,187,14935,6,0,P|110:249|113:287,1,93.3333333333333
202,334,15450,6,0,P|203:294|206:254,1,80,8|0,0:0|0:0,0:0:0:0:
236,32,15707,2,0,P|237:71|240:111,1,80,8|0,0:0|0:0,0:0:0:0:
303,301,15965,5,8,0:0:0:0:
329,72,16093,1,8,0:0:0:0:
117,163,16222,1,8,0:0:0:0:
380,196,16351,1,8,0:0:0:0:
107,187,16480,5,8,0:0:0:0:
378,175,16608,1,8,0:0:0:0:
56,268,16737,6,0,P|56:314|64:346,1,60.0000022888184
168,378,16995,2,0,L|227:370,1,60.0000022888184,4|0,0:0|0:0,0:0:0:0:
279,262,17252,2,0,L|220:254,1,60.0000022888184
379,348,17510,2,0,L|388:277,1,60.0000022888184,4|0,0:0|0:0,0:0:0:0:
403,184,17767,5,0,0:0:0:0:
470,301,17896,1,0,0:0:0:0:
294,279,18025,2,0,P|266:298|244:320,1,60.0000022888184,4|0,0:0|0:0,0:0:0:0:
242,188,18282,2,0,P|239:154|231:124,1,60.0000022888184
346,188,18540,6,0,P|376:202|431:214,1,90.0000034332277,4|0,0:0|0:0,0:0:0:0:
455,199,18797,6,0,L|461:138,1,60.0000022888184
380,65,19055,2,0,L|374:4,1,60.0000022888184,4|0,0:0|0:0,0:0:0:0:
272,137,19312,2,0,B|259:168|259:168|238:190,1,60.0000022888184
160,37,19570,2,0,P|201:43|225:45,1,60.0000022888184,4|0,0:0|0:0,0:0:0:0:
45,56,19827,5,0,0:0:0:0:
144,27,19956,1,0,0:0:0:0:
116,128,20085,2,0,L|122:193,1,60.0000022888184,4|0,0:0|0:0,0:0:0:0:
73,383,20342,2,0,L|79:318,1,60.0000022888184
161,274,20600,6,0,L|277:288,1,90.0000034332277,4|0,0:0|0:0,0:0:0:0:
262,261,20857,6,0,P|306:267|332:267,1,60.0000022888184
242,169,21115,2,0,P|198:175|172:175,1,60.0000022888184,4|0,0:0|0:0,0:0:0:0:
336,107,21372,2,0,P|371:89|389:77,1,60.0000022888184
214,48,21630,2,0,P|179:30|161:18,1,60.0000022888184,4|0,0:0|0:0,0:0:0:0:
247,145,21887,5,0,0:0:0:0:
305,20,22016,1,0,0:0:0:0:
354,122,22145,2,0,P|348:164|346:193,1,60.0000022888184,4|0,0:0|0:0,0:0:0:0:
454,297,22402,2,0,P|451:267|446:237,1,60.0000022888184
277,267,22660,6,0,P|266:306|289:350,1,90.0000034332277,4|0,0:0|0:0,0:0:0:0:
308,361,22917,6,0,L|371:349,1,60.0000022888184
182,332,23175,2,0,L|123:320,1,60.0000022888184,4|0,0:0|0:0,0:0:0:0:
245,188,23432,2,0,B|277:184|277:184|305:188,1,60.0000022888184
147,154,23690,2,0,B|127:128|127:128|117:102,1,60.0000022888184,4|0,0:0|0:0,0:0:0:0:
78,232,23947,5,0,0:0:0:0:
160,133,24076,1,0,0:0:0:0:
191,273,24205,1,4,0:0:0:0:
262,165,24334,2,0,P|318:138|376:161,1,120.000004577637
303,323,24720,2,0,P|294:291|294:264,1,60.0000022888184,4|0,0:0|0:0,0:0:0:0:
419,231,24978,6,0,L|501:237,1,64
499,91,25235,2,0,L|435:86,1,64,4|0,0:0|0:0,0:0:0:0:
304,36,25493,2,0,P|263:12|246:-1,1,64
177,99,25750,2,0,P|138:98|109:101,1,64,4|0,0:0|0:0,0:0:0:0:
63,175,26008,5,0,0:0:0:0:
191,115,26136,1,0,0:0:0:0:
19,97,26265,1,4,0:0:0:0:
170,209,26394,2,0,B|227:239|270:221|270:221|261:192,1,128
84,285,26780,6,0,P|94:338|116:373,1,96,4|0,0:0|0:0,0:0:0:0:
148,376,27038,6,0,L|214:360,1,64
299,255,27295,1,4,0:0:0:0:
170,209,27424,1,0,0:0:0:0:
309,357,27553,2,0,L|373:369,1,64
496,260,27810,2,0,L|432:272,1,64,4|0,0:0|0:0,0:0:0:0:
381,161,28068,5,0,0:0:0:0:
491,284,28196,1,0,0:0:0:0:
276,271,28325,1,4,0:0:0:0:
398,176,28454,6,0,P|464:161|484:79,1,160
465,57,28840,2,0,L|352:62,1,96,4|0,0:0|0:0,0:0:0:0:
338,48,29098,6,0,L|274:42,1,64
303,127,29355,2,0,L|239:121,1,64,4|0,0:0|0:0,0:0:0:0:
124,38,29613,2,0,P|129:80|134:105,1,64
36,112,29870,2,0,P|41:154|46:179,1,64,4|0,0:0|0:0,0:0:0:0:
50,92,30128,5,0,0:0:0:0:
105,253,30257,2,0,L|170:260,1,64,0|4,0:0|0:0,0:0:0:0:
302,219,30557,6,0,P|346:235|359:308,1,128
328,337,30900,2,0,L|241:344,1,85.3333333333333,4|0,0:0|0:0,0:0:0:0:
217,356,31158,6,0,P|154:364|128:362,1,68.0000012969971
32,270,31415,2,0,L|26:191,1,68.0000012969971,4|0,0:0|0:0,0:0:0:0:
139,93,31673,2,0,P|189:101|212:103,1,68.0000012969971
264,216,31930,2,0,P|214:224|191:226,1,68.0000012969971,4|0,0:0|0:0,0:0:0:0:
331,112,32188,6,0,P|359:139|380:167,1,68.0000012969971
362,32,32445,5,8,0:0:0:0:
381,184,32574,1,8,0:0:0:0:
280,43,32703,5,8,0:0:0:0:
286,215,32832,1,8,0:0:0:0:
199,35,32960,5,8,0:0:0:0:
174,225,33089,1,8,0:0:0:0:
119,14,33218,6,0,L|86:120,1,80
199,35,33733,2,0,L|186:122,1,80,4|0,0:0|0:0,0:0:0:0:
280,43,34248,2,0,L|284:142,1,80
362,32,34763,2,0,L|379:115,1,80,4|0,0:0|0:0,0:0:0:0:
424,192,35149,1,0,0:0:0:0:
424,192,35278,6,0,P|410:255|409:282,1,80
333,358,35793,2,0,P|328:318|318:279,1,80,4|0,0:0|0:0,0:0:0:0:
238,200,36308,2,0,P|224:263|223:290,1,80
147,366,36823,2,0,P|142:326|132:287,1,80,4|0,0:0|0:0,0:0:0:0:
96,202,37209,1,0,0:0:0:0:
96,202,37338,6,0,L|11:209,1,80
112,117,37853,2,0,L|27:124,1,80,4|0,0:0|0:0,0:0:0:0:
180,174,38239,1,0,0:0:0:0:
180,174,38368,6,0,L|259:180,1,80
196,259,38883,2,0,L|275:265,1,80,4|0,0:0|0:0,0:0:0:0:
436,273,39398,6,0,P|470:317|493:360,1,80
364,70,39913,2,0,P|385:36|410:5,1,80,4|0,0:0|0:0,0:0:0:0:
385,367,40428,5,0,0:0:0:0:
168,81,40686,1,0,0:0:0:0:
214,338,40943,1,4,0:0:0:0:
410,5,41201,1,0,0:0:0:0:
296,258,41458,6,0,P|255:261|214:258,1,80,8|0,0:0|0:0,0:0:0:0:
216,126,41716,2,0,P|257:123|298:126,1,80,8|0,0:0|0:0,0:0:0:0:
257,269,41973,6,0,P|220:251|186:228,1,80,8|0,0:0|0:0,0:0:0:0:
254,114,42231,2,0,P|291:132|325:155,1,80,8|0,0:0|0:0,0:0:0:0:
218,259,42488,6,0,P|195:225|177:188,1,80,8|0,0:0|0:0,0:0:0:0:
293,124,42746,2,0,P|316:158|334:195,1,80,8|0,0:0|0:0,0:0:0:0:
190,232,43003,6,0,P|187:190|190:150,1,80,8|0,0:0|0:0,0:0:0:0:
305,15,43261,1,8,0:0:0:0:
376,244,43390,1,4,0:0:0:0:
295,96,43518,6,0,P|255:90|216:96,1,80,8|0,0:0|0:0,0:0:0:0:
217,288,43776,2,0,P|256:293|295:287,1,80,8|0,0:0|0:0,0:0:0:0:
241,89,44033,6,0,P|204:103|173:128,1,80,8|0,0:0|0:0,0:0:0:0:
270,294,44291,2,0,P|307:280|338:255,1,80,8|0,0:0|0:0,0:0:0:0:
192,110,44548,6,0,P|167:141|153:178,1,80,8|0,0:0|0:0,0:0:0:0:
319,273,44806,2,0,P|344:242|358:205,1,80,8|0,0:0|0:0,0:0:0:0:
160,153,45063,6,0,P|154:192|160:231,1,80,8|0,0:0|0:0,0:0:0:0:
352,231,45321,2,0,P|357:191|351:152,1,80,8|0,0:0|0:0,0:0:0:0:
229,322,45578,6,0,P|259:356|289:376,1,80,8|0,0:0|0:0,0:0:0:0:
201,70,45836,2,0,P|157:61|121:62,1,80,8|0,0:0|0:0,0:0:0:0:
371,257,46093,2,0,P|412:239|441:217,1,80,8|0,0:0|0:0,0:0:0:0:
124,206,46351,2,0,P|100:245|91:280,1,80,8|0,0:0|0:0,0:0:0:0:
341,18,46608,6,0,P|354:57|358:99,1,80,8|0,0:0|0:0,0:0:0:0:
288,382,46866,2,0,P|254:358|227:327,1,80,8|0,0:0|0:0,0:0:0:0:
117,57,47123,2,0,P|158:56|199:66,1,80,8|0,0:0|0:0,0:0:0:0:
447,219,47381,2,0,P|414:244|375:260,1,80,8|0,0:0|0:0,0:0:0:0:
91,227,47638,6,0,P|70:261|59:299,1,80,8|0,0:0|0:0,0:0:0:0:
410,260,47896,2,0,P|446:244|478:220,1,80,8|0,0:0|0:0,0:0:0:0:
171,45,48153,2,0,P|132:37|92:37,1,80,8|0,0:0|0:0,0:0:0:0:
392,132,48411,1,8,0:0:0:0:
153,241,48540,1,0,0:0:0:0:
256,366,48669,1,4,0:0:0:0:
256,366,49184,5,8,0:0:0:0:
256,18,49312,1,8,0:0:0:0:
256,366,49441,1,8,0:0:0:0:
256,18,49569,1,8,0:0:0:0:
256,366,49699,6,0,P|305:383|356:382,1,100
198,209,49956,2,0,P|148:208|101:225,1,100,4|0,0:0|0:0,0:0:0:0:
363,188,50214,2,0,B|402:152|402:152|423:110,1,100
409,294,50471,1,4,0:0:0:0:
316,80,50600,1,0,0:0:0:0:
272,286,50729,6,0,B|219:372|122:337|122:337|140:313,1,200,0|4,0:0|0:0,0:0:0:0:
363,188,51115,2,0,B|415:274|512:239|512:239|494:215,1,200
316,80,51501,2,0,L|191:99,1,100,4|0,0:0|0:0,0:0:0:0:
71,200,51759,6,0,B|63:255|63:255|75:300,1,100
187,381,52016,1,4,0:0:0:0:
369,222,52145,2,0,P|269:232|168:243,1,200
330,366,52531,2,0,L|432:355,1,100,4|0,0:0|0:0,0:0:0:0:
509,233,52789,6,0,L|495:133,1,100
346,13,53046,2,0,L|331:111,1,100,4|0,0:0|0:0,0:0:0:0:
241,341,53304,2,0,L|214:239,1,100
37,15,53561,2,0,L|22:121,1,100,4|0,0:0|0:0,0:0:0:0:
215,244,53819,6,0,B|262:267|262:267|314:275,1,100
299,141,54076,1,4,0:0:0:0:
106,293,54205,1,0,0:0:0:0:
277,372,54334,2,0,P|330:364|378:362,1,100
507,176,54591,2,0,P|457:178|407:186,1,100,4|0,0:0|0:0,0:0:0:0:
215,244,54849,5,0,0:0:0:0:
392,274,54978,1,0,0:0:0:0:
299,141,55106,2,0,P|284:94|277:42,1,100,4|0,0:0|0:0,0:0:0:0:
215,244,55364,2,0,B|169:272|169:272|111:286,1,100
183,144,55621,5,4,0:0:0:0:
246,372,55750,1,0,0:0:0:0:
427,196,55879,6,0,P|376:194|330:216,1,100
488,376,56136,2,0,L|501:276,1,100,4|0,0:0|0:0,0:0:0:0:
350,48,56394,2,0,L|363:148,1,100
464,360,56651,2,0,L|477:260,1,100,4|0,0:0|0:0,0:0:0:0:
327,70,56909,6,0,P|322:120|314:170,1,100
222,307,57166,1,4,0:0:0:0:
0,187,57295,2,0,B|11:150|46:118|46:118|131:150|228:118,1,250
227,103,57681,2,0,P|228:55|222:3,1,100,4|0,0:0|0:0,0:0:0:0:
157,233,57939,6,0,B|182:276|182:276|222:307,1,100
355,189,58196,2,0,B|305:189|305:189|258:208,1,100,4|0,0:0|0:0,0:0:0:0:
294,382,58454,2,0,B|318:338|318:338|325:288,1,100
306,100,58711,1,4,0:0:0:0:
342,282,58840,1,0,0:0:0:0:
216,50,58969,6,0,B|148:11|66:62|66:62|87:79|119:79,1,200,0|4,0:0|0:0,0:0:0:0:
361,188,59355,2,0,B|429:227|511:176|511:176|490:159|458:159,1,200
193,158,59741,2,0,L|97:202,1,100,4|0,0:0|0:0,0:0:0:0:
321,324,59999,6,0,L|432:343,1,100
345,173,60257,1,4,0:0:0:0:
184,346,60385,1,0,0:0:0:0:
92,217,60514,2,0,P|83:164|70:114,1,100
277,23,60772,2,0,P|264:71|256:120,1,100,4|0,0:0|0:0,0:0:0:0:
321,324,61029,6,0,P|431:287|397:197,1,200,0|4,0:0|0:0,0:0:0:0:
256,120,61415,1,0,0:0:0:0:
436,124,61544,2,0,B|481:150|481:150|512:186,1,100
239,217,61802,2,0,B|239:165|239:165|254:119,1,100,4|0,0:0|0:0,0:0:0:0:
206,320,62059,6,0,P|167:351|120:373,1,100
321,309,62317,1,4,0:0:0:0:
106,263,62445,1,0,0:0:0:0:
336,171,62574,6,0,P|349:120|348:73,1,100
239,217,62832,1,4,0:0:0:0:
242,20,62960,1,0,0:0:0:0:
321,309,63089,6,0,B|370:329|370:329|432:324,1,100
161,334,63347,5,6,0:0:0:0:
384,233,63475,1,0,0:0:0:0:
116,214,63604,5,2,0:0:0:0:
370,152,63733,1,0,0:0:0:0:
113,72,63862,5,6,0:0:0:0:
372,71,63990,1,0,0:0:0:0:
100,84,64119,6,0,B|55:106|55:106|15:144,1,100
29,334,64377,2,0,L|132:350,1,100,4|0,0:0|0:0,0:0:0:0:
265,168,64634,2,0,B|259:113|259:113|239:63,1,100
309,292,64892,2,0,B|359:314|359:314|412:321,1,100,4|0,0:0|0:0,0:0:0:0:
155,219,65149,6,0,B|110:225|110:225|60:247,1,100
396,191,65407,1,4,0:0:0:0:
164,97,65535,1,4,0:0:0:0:
198,344,65664,5,4,0:0:0:0:
290,119,65793,1,4,0:0:0:0:
60,247,65922,1,4,0:0:0:0:
317,296,66050,1,4,0:0:0:0:
164,97,66179,6,0,P|108:80|60:80,1,100
100,361,66437,2,0,P|149:358|197:343,1,100
387,101,66694,2,0,P|337:103|289:118,1,100
469,312,66952,2,0,P|492:267|502:218,1,100,4|0,0:0|0:0,0:0:0:0:
356,12,67209,5,0,0:0:0:0:
390,228,67338,1,0,0:0:0:0:
272,28,67467,5,0,0:0:0:0:
300,253,67596,1,0,0:0:0:0:
190,28,67724,5,0,0:0:0:0:
200,261,67853,1,0,0:0:0:0:
105,11,67982,2,0,L|113:113,1,100
300,253,68239,6,0,B|308:197|308:197|298:155,1,100
115,315,68497,2,0,B|159:349|159:349|200:362,1,100
6,339,68754,1,0,0:0:0:0:
200,261,68883,1,0,0:0:0:0:
32,202,69012,2,0,P|16:138|8:98,1,100
201,10,69269,6,0,P|197:59|188:114,1,100
6,339,69527,2,0,P|50:317|102:298,1,100
440,379,69784,2,0,P|393:361|348:339,1,100
405,16,70042,2,0,P|412:65|417:115,1,100
273,239,70299,6,0,L|169:226,1,100
351,147,70557,1,0,0:0:0:0:
255,340,70686,1,0,0:0:0:0:
195,142,70814,2,0,P|191:88|186:42,1,100
448,279,71072,2,0,P|442:328|439:378,1,100
255,340,71329,6,0,P|194:344|143:345,1,100
2,186,71587,2,0,P|51:187|101:190,1,100
257,248,71844,1,0,0:0:0:0:
8,289,71973,5,0,0:0:0:0:
189,133,72102,1,0,0:0:0:0:
155,344,72231,1,0,0:0:0:0:
2,186,72360,6,0,P|2:103|21:67,1,100
212,41,72617,1,0,0:0:0:0:
130,230,72746,1,0,0:0:0:0:
27,2,72875,2,0,L|127:14,1,100
392,70,73132,2,0,L|292:82,1,100
130,230,73390,6,0,L|122:127,1,100
212,41,73647,1,0,0:0:0:0:
291,295,73776,2,0,B|274:322|240:329|240:329|229:247|265:198,1,200
387,174,74162,2,0,L|495:187,1,100
212,41,74420,6,0,P|158:12|115:8,1,100
38,263,74677,2,0,P|87:255|129:229,1,100
9,31,74935,2,0,L|21:138,1,100
247,352,75192,2,0,L|258:252,1,100
279,104,75450,5,0,0:0:0:0:
333,306,75578,1,0,0:0:0:0:
356,125,75707,5,0,0:0:0:0:
423,297,75836,1,0,0:0:0:0:
430,119,75965,5,0,0:0:0:0:
509,268,76093,1,0,0:0:0:0:
447,108,76222,2,0,B|426:57|426:57|419:11,1,100
312,205,76480,6,0,B|269:237|269:237|221:256,1,100
41,140,76737,2,0,L|28:39,1,100
217,155,76995,1,0,0:0:0:0:
38,245,77123,1,0,0:0:0:0:
125,60,77252,1,0,0:0:0:0:
160,268,77381,1,0,0:0:0:0:
326,111,77510,6,0,P|368:87|423:64,1,100
249,312,77767,2,0,P|203:292|159:267,1,100
368,249,78025,5,0,0:0:0:0:
118,178,78153,1,0,0:0:0:0:
421,156,78282,5,0,0:0:0:0:
186,117,78411,1,0,0:0:0:0:
458,67,78540,6,0,P|503:109|515:146,1,100
27,169,78797,2,0,P|45:123|83:91,1,100
297,150,79055,5,0,0:0:0:0:
118,178,79184,1,0,0:0:0:0:
368,249,79312,2,0,L|467:235,1,100
144,298,79570,2,0,L|45:312,1,100
316,334,79827,5,0,0:0:0:0:
118,178,79956,1,0,0:0:0:0:
391,154,80085,1,0,0:0:0:0:
144,298,80214,1,0,0:0:0:0:
234,54,80342,1,0,0:0:0:0:
316,334,80471,1,0,0:0:0:0:
32,265,80600,5,4,0:0:0:0:
32,265,81372,2,0,L|43:162,1,100,4|0,0:0|0:0,0:0:0:0:
195,13,81630,2,0,L|205:112,1,100,4|0,0:0|0:0,0:0:0:0:
218,213,82660,6,0,B|258:243|258:243|311:258,1,100
372,4,82917,2,0,B|326:23|326:23|286:62,1,100,4|0,0:0|0:0,0:0:0:0:
494,159,83175,2,0,L|502:58,1,100
412,292,83432,2,0,P|443:352|467:387,1,100,4|0,0:0|0:0,0:0:0:0:
297,151,83690,2,0,L|201:116,1,100
316,235,83947,5,4,0:0:0:0:
138,182,84076,1,0,0:0:0:0:
316,314,84205,5,0,0:0:0:0:
72,272,84334,1,0,0:0:0:0:
362,380,84463,5,4,0:0:0:0:
74,380,84591,1,0,0:0:0:0:
213,248,84720,5,0,0:0:0:0:
216,224,84978,1,0,0:0:0:0:
220,200,85235,1,0,0:0:0:0:
225,177,85493,6,0,L|241:62,1,100,4|0,0:0|0:0,0:0:0:0:
58,172,85750,2,0,L|71:271,1,100,4|0,0:0|0:0,0:0:0:0:
345,172,86008,5,8,0:0:0:0:
136,61,86136,1,8,0:0:0:0:
216,298,86265,1,8,0:0:0:0:
259,54,86394,1,8,0:0:0:0:
58,172,86523,1,8,0:0:0:0:
345,172,86651,1,8,0:0:0:0:
118,305,86780,6,0,B|67:333|4:289|4:289|83:213|168:274|168:307|174:334|223:357|260:353|289:340|289:340|269:318|240:327,1,480.000018310548,4|0,0:0|0:0,0:0:0:0:
