osu file format v14

[General]
AudioFilename: audio.mp3
AudioLeadIn: 0
PreviewTime: 42378
Countdown: 0
SampleSet: Soft
StackLeniency: 0.1
Mode: 0
LetterboxInBreaks: 0
WidescreenStoryboard: 1

[Editor]
Bookmarks: 6636,18636,30636,42636,54636
DistanceSpacing: 0.8
BeatDivisor: 4
GridSize: 4
TimelineZoom: 3.599998

[Metadata]
Title:Wario's Gold Mine (Cut Ver.)
TitleUnicode:ワリオこうざん (Cut Ver.)
Artist:Asuka Ohta, Ryo Nagamatsu
ArtistUnicode:太田あすか, 永松亮
Creator:atlas-
Version:chill's Expert
Source:Mario Kart Wii
Tags:mkwii wii mkw wario kouzan electronic folk video game vgm instrumental nintendo original soundtrack ost bluirre mkguh verychill yokespai aeniko atlas マリオカートWii プラチナサウンドトラック
BeatmapID:3362963
BeatmapSetID:1640259

[Difficulty]
HPDrainRate:4.5
CircleSize:4.5
OverallDifficulty:9
ApproachRate:9.2
SliderMultiplier:1.8
SliderTickRate:1

[Events]
//Background and Video events
0,0,"wario.jpg",0,0
//Break Periods
//Storyboard Layer 0 (Background)
//Storyboard Layer 1 (Fail)
//Storyboard Layer 2 (Pass)
//Storyboard Layer 3 (Foreground)
//Storyboard Layer 4 (Overlay)
//Storyboard Sound Samples

[TimingPoints]
425,375,4,2,0,40,1,0
5112,-100,4,2,0,35,0,0
6425,-50,4,2,0,60,0,0
8675,-100,4,2,0,60,0,0
8956,-76.9230769230769,4,2,0,60,0,0
9237,-62.5,4,2,0,60,0,0
10175,-100,4,2,0,60,0,0
10456,-76.9230769230769,4,2,0,60,0,0
10737,-55.5555555555556,4,2,0,60,0,0
11487,-50,4,2,0,60,0,0
12050,-100,4,2,0,60,0,0
12425,-62.5,4,2,0,60,0,0
13175,-80,4,2,0,60,0,0
13925,-62.5,4,2,0,60,0,0
16175,-80,4,2,0,60,0,0
16737,-62.5,4,2,0,60,0,0
16925,-50,4,2,0,60,0,0
17675,-40,4,2,0,60,0,1
18050,-40,4,2,0,60,0,0
18425,-90.9090909090909,4,2,0,50,0,0
20675,-111.111111111111,4,2,0,50,0,0
21425,-90.9090909090909,4,2,0,50,0,0
22925,-71.4285714285714,4,2,0,50,0,0
24425,-71.4285714285714,4,2,0,50,0,0
25175,-100,4,2,0,50,0,0
25550,-86.9565217391304,4,2,0,50,0,0
25925,-71.4285714285714,4,2,0,50,0,0
29675,-50,4,2,0,50,0,1
30050,-50,4,2,0,50,0,0
30425,-66.2251655629139,4,2,0,50,0,0
36425,-66.2251655629139,4,2,0,55,0,0
40925,-66.2251655629139,4,2,0,60,0,0
41675,-166.666666666667,4,2,0,60,0,0
41862,-40,4,2,0,60,0,1
42237,-40,4,2,0,60,0,0
42425,-50,4,2,0,70,0,1
44675,-100,4,2,0,70,0,1
45425,-50,4,2,0,70,0,1
46362,-80,4,2,0,70,0,1
46550,-66.6666666666667,4,2,0,70,0,1
46737,-66.6666666666667,4,2,0,70,0,1
46925,-50,4,2,0,70,0,1
47487,-40,4,2,0,70,0,1
47675,-35.0877192982456,4,2,0,70,0,1
47956,-50,4,2,0,70,0,1
48237,-40,4,2,0,70,0,1
48425,-50,4,2,0,70,0,1
49175,-71.4285714285714,4,2,0,70,0,1
50300,-66.6666666666667,4,2,0,70,0,1
50487,-80,4,2,0,70,0,1
50675,-100,4,2,0,70,0,1
51050,-57.1428571428571,4,2,0,70,0,1
51237,-50,4,2,0,70,0,1
51800,-83.3333333333333,4,2,0,70,0,1
51987,-62.5,4,2,0,70,0,1
52175,-50,4,2,0,70,0,1
53675,-36.3636363636364,4,2,0,70,0,1
54050,-36.3636363636364,4,2,0,70,0,0
54425,-62.5,4,2,0,52,0,0
55925,-62.5,4,2,0,55,0,0
57425,-62.5,4,2,0,57,0,0
58925,-66.2251655629139,4,2,0,60,0,0
59675,-80,4,2,0,60,0,0
60050,-80,4,2,0,55,0,0
60425,-80,4,2,0,40,0,0
61175,-80,4,2,0,35,0,0
61925,-80,4,2,0,30,0,0
62675,-80,4,2,0,25,0,0
63425,-80,4,2,0,20,0,0

[Colours]
Combo1 : 100,135,227
Combo2 : 155,101,47
Combo3 : 200,150,119
Combo4 : 216,63,67
Combo5 : 226,101,111
Combo6 : 235,198,86
Combo7 : 242,223,159
Combo8 : 65,86,171

[HitObjects]
512,85,425,5,8,3:3:0:0:
449,22,612,1,4,3:3:0:0:
443,39,706,1,4,3:3:0:0:
437,57,800,1,0,3:3:0:0:
305,84,987,1,4,3:3:0:0:
243,23,1175,1,8,3:3:0:0:
237,40,1268,1,4,3:3:0:0:
156,45,1456,1,4,3:3:0:0:
150,62,1550,1,4,3:3:0:0:
144,80,1643,1,4,3:3:0:0:
138,97,1737,1,4,3:3:0:0:
0,192,1925,5,8,3:3:0:0:
63,129,2112,1,4,3:3:0:0:
69,146,2206,1,4,3:3:0:0:
75,164,2300,1,4,3:3:0:0:
207,192,2487,1,4,3:3:0:0:
242,180,2581,1,4,3:3:0:0:
277,168,2675,1,8,3:3:0:0:
283,186,2769,1,4,3:3:0:0:
368,213,2956,1,4,3:3:0:0:
374,231,3050,1,4,3:3:0:0:
409,219,3143,1,4,3:3:0:0:
443,207,3238,1,4,3:3:0:0:
512,354,3425,101,8,3:3:0:0:
449,291,3612,1,4,3:3:0:0:
443,308,3706,1,4,3:3:0:0:
437,326,3800,1,4,3:3:0:0:
305,354,3987,1,4,3:3:0:0:
243,293,4175,1,8,3:3:0:0:
237,310,4268,1,4,3:3:0:0:
167,381,4456,1,4,3:3:0:0:
155,346,4550,1,4,3:3:0:0:
79,293,4737,1,4,3:3:0:0:
73,310,4830,1,4,3:3:0:0:
67,327,4925,1,8,3:3:0:0:
0,192,5112,5,2,0:0:0:0:
34,204,5206,1,2,0:0:0:0:
68,216,5300,1,2,0:0:0:0:
80,182,5393,1,2,0:0:0:0:
92,147,5487,1,2,0:0:0:0:
126,159,5581,1,2,0:0:0:0:
160,171,5676,1,2,0:0:0:0:
172,137,5769,1,2,0:0:0:0:
184,102,5863,1,2,0:0:0:0:
218,114,5957,1,2,0:0:0:0:
252,126,6050,1,2,0:0:0:0:
264,92,6143,1,2,0:0:0:0:
276,57,6237,1,2,0:0:0:0:
110,65,6425,70,2,P|27:71|9:153,1,180,6|2,1:2|3:3,0:2:0:0:
55,214,6706,1,2,3:2:0:0:
124,190,6800,1,2,1:2:0:0:
337,276,6987,1,2,3:3:0:0:
268,252,7175,5,2,1:2:0:0:
225,310,7268,1,2,3:2:0:0:
156,286,7363,1,2,3:3:0:0:
113,344,7456,1,2,3:2:0:0:
44,320,7549,1,2,1:2:0:0:
175,108,7737,1,2,3:3:0:0:
244,132,7925,101,2,1:2:0:0:
399,40,8112,1,2,3:3:0:0:
356,98,8206,1,2,3:2:0:0:
287,74,8300,1,2,1:2:0:0:
468,64,8487,1,2,3:3:0:0:
426,123,8675,6,0,L|409:216,1,90,2|2,1:3|3:3,0:2:0:0:
429,284,8956,1,2,3:3:0:0:
442,284,9050,2,0,P|468:274|486:251,1,58.4999973220826,2|0,3:3|0:2,0:2:0:0:
254,352,9237,2,2,P|288:343|312:316,1,72,2|0,3:3|0:2,0:2:0:0:
363,382,9425,102,2,L|338:228,1,144,2|2,1:2|3:3,0:2:0:0:
308,169,9706,1,2,3:2:0:0:
235,181,9800,1,2,1:2:0:0:
161,371,9987,1,2,3:3:0:0:
88,359,10175,6,0,L|-20:339,1,90,2|2,1:3|3:3,0:2:0:0:
28,271,10456,1,2,3:3:0:0:
40,266,10550,2,0,P|68:267|93:283,1,58.4999973220826,2|0,1:3|0:2,0:2:0:0:
187,48,10737,2,2,P|207:81|246:80,1,80.9999975280763,2|0,3:3|0:2,0:2:0:0:
150,132,10925,102,2,P|153:53|72:14,1,161.999995056153,2|2,1:2|3:3,0:2:0:0:
26,50,11206,1,2,3:2:0:0:
45,121,11300,1,2,1:2:0:0:
155,244,11487,2,2,P|197:241|211:280,1,90,2|0,3:3|0:2,0:2:0:0:
93,283,11675,6,2,P|152:217|238:194,1,180,2|2,1:2|3:3,0:2:0:0:
282,255,11956,1,2,3:2:0:0:
212,281,12050,2,2,P|170:319|178:366,1,90,2|2,1:2|3:3,0:2:0:0:
502,283,12425,102,2,P|488:350|422:368,1,144,6|2,1:2|3:3,0:2:0:0:
368,319,12706,1,2,3:2:0:0:
391,250,12800,1,2,1:2:0:0:
218,42,12987,1,2,3:3:0:0:
263,99,13175,6,0,L|375:101,1,112.5,0|2,1:2|3:3,0:2:0:0:
447,88,13456,1,2,3:3:0:0:
423,157,13550,1,2,1:3:0:0:
368,319,13737,1,2,3:3:0:0:
296,332,13925,102,2,P|232:299|161:299,1,144,0|2,1:2|3:3,0:2:0:0:
137,368,14206,1,2,3:2:0:0:
90,312,14300,1,2,1:2:0:0:
10,101,14487,1,2,3:3:0:0:
55,157,14675,5,2,1:2:0:0:
122,132,14768,1,2,3:2:0:0:
167,188,14863,1,2,3:3:0:0:
234,163,14956,1,2,3:2:0:0:
279,219,15050,1,2,1:2:0:0:
346,194,15143,1,2,3:2:0:0:
391,250,15238,1,2,3:3:0:0:
458,225,15331,1,2,3:2:0:0:
502,283,15425,102,2,P|488:350|422:368,1,144,2|2,1:2|3:3,0:2:0:0:
368,319,15706,1,2,3:2:0:0:
391,250,15800,1,2,1:2:0:0:
218,42,15987,1,2,3:3:0:0:
148,27,16175,6,0,L|141:140,1,112.5,0|2,1:2|3:3,0:2:0:0:
179,202,16456,1,2,3:3:0:0:
248,179,16550,1,2,1:3:0:0:
237,376,16737,2,2,P|203:362|177:338,1,72,2|0,3:3|0:2,0:2:0:0:
76,323,16925,102,2,P|176:305|269:257,1,180,2|2,1:2|3:3,0:2:0:0:
322,228,17206,1,2,3:2:0:0:
248,179,17300,1,2,1:2:0:0:
345,6,17487,2,2,P|387:15|392:57,1,90,2|0,3:3|0:2,0:2:0:0:
512,65,17675,6,2,B|449:115|399:88|399:80|361:50|301:96,1,225,2|4,1:2|3:3,0:1:0:0:
297,101,17925,37,4,3:3:0:0:
299,107,17987,5,4,3:3:0:0:
305,109,18050,101,12,1:1:0:0:
392,57,18425,22,2,L|375:204,1,148.50000453186,6|2,1:2|0:2,0:2:0:0:
422,256,18800,1,2,1:2:0:0:
330,377,18987,1,2,0:3:0:0:
284,324,19175,5,2,1:2:0:0:
288,287,19268,1,2,0:2:0:0:
291,250,19362,1,2,0:3:0:0:
295,213,19456,1,2,0:2:0:0:
299,176,19550,1,2,1:2:0:0:
182,7,19737,1,2,0:3:0:0:
228,60,19925,101,2,1:2:0:0:
213,203,20112,1,2,0:3:0:0:
217,166,20206,1,2,0:2:0:0:
221,129,20300,1,2,1:2:0:0:
206,272,20487,1,2,0:3:0:0:
150,233,20675,6,0,L|45:242,1,80.9999975280763,0|2,1:3|0:3,0:2:0:0:
51,170,20956,1,2,0:3:0:0:
63,169,21050,2,0,L|168:160,1,80.9999975280763,2|2,1:3|0:3,0:2:0:0:
353,267,21425,102,2,P|279:262|206:272,1,148.50000453186,2|0,1:2|0:2,0:1:0:0:
148,310,21800,2,2,P|130:329|133:357,1,49.5000015106202,2|0,1:2|0:2,0:1:0:0:
306,372,21987,2,2,P|326:370|310:358,1,49.5000015106202,2|0,0:3|0:2,0:1:0:0:
218,377,22175,5,2,1:2:0:0:
216,368,22268,1,2,0:2:0:0:
214,359,22362,1,2,0:3:0:0:
212,350,22456,1,2,0:2:0:0:
210,341,22550,2,2,P|236:339|254:317,1,49.5000015106202,2|0,1:2|0:2,0:1:0:0:
331,119,22737,2,2,P|328:99|316:115,1,49.5000015106202,2|0,0:3|0:2,0:1:0:0:
244,120,22925,102,2,P|308:149|343:196,1,125.999996154785,2|2,1:2|0:3,0:1:0:0:
284,234,23206,1,2,0:2:0:0:
258,225,23300,2,2,P|239:210|262:214,1,62.9999980773926,2|0,1:2|0:2,0:1:0:0:
413,308,23487,2,2,P|425:288|405:299,1,62.9999980773926,2|0,0:3|0:2,0:1:0:0:
492,248,23675,6,2,P|371:283|251:323,1,251.999992309571,2|2,1:2|1:2,0:1:0:0:
173,144,24425,102,2,P|85:109|0:68,1,188.999994232178,6|2,1:2|0:2,0:1:0:0:
50,17,24800,1,2,1:2:0:0:
50,216,24987,1,2,0:3:0:0:
99,268,25175,6,0,L|90:373,1,90,0|2,1:2|0:3,0:2:0:0:
166,367,25456,1,2,0:3:0:0:
179,360,25550,2,2,P|202:326|168:274,1,103.500001974106,2|2,1:3|0:3,0:1:0:0:
263,97,25925,102,2,P|346:140|416:170,1,125.999996154785,2|2,1:2|0:3,0:1:0:0:
450,195,26206,1,2,0:0:0:0:
437,202,26300,1,2,1:2:0:0:
437,362,26487,1,2,0:3:0:0:
486,310,26675,5,2,1:2:0:0:
447,289,26769,1,2,0:2:0:0:
408,268,26863,1,2,0:3:0:0:
369,247,26956,1,2,0:2:0:0:
330,227,27050,1,2,1:2:0:0:
291,206,27144,1,2,0:2:0:0:
252,185,27237,1,2,0:3:0:0:
213,165,27331,1,2,0:2:0:0:
173,144,27425,102,2,P|102:82|56:0,1,188.999994232178,2|2,1:2|0:2,0:1:0:0:
135,0,27800,1,2,1:2:0:0:
50,216,27987,2,2,P|19:218|-3:240,1,62.9999980773926,2|0,0:3|0:2,0:1:0:0:
0,321,28175,6,2,P|53:297|125:266,1,125.999996154785,2|2,1:2|0:3,0:1:0:0:
190,276,28456,1,2,0:3:0:0:
229,256,28550,1,2,1:3:0:0:
463,169,28737,2,2,P|466:149|471:172,1,62.9999980773926,2|0,0:3|0:2,0:1:0:0:
506,246,28925,101,2,1:2:0:0:
505,290,29018,1,2,0:2:0:0:
464,307,29112,2,2,P|435:293|409:275,1,62.9999980773926,2|0,0:3|0:2,0:1:0:0:
316,70,29300,1,2,1:2:0:0:
355,49,29394,1,2,0:2:0:0:
388,77,29487,2,2,P|391:109|388:140,1,62.9999980773926,2|0,0:3|0:2,0:1:0:0:
229,256,29675,6,2,B|354:215|354:215|333:204|319:180,1,180,2|2,1:2|3:3,0:1:0:0:
315,178,29925,69,4,3:3:0:0:
310,182,29987,5,4,3:3:0:0:
312,188,30050,101,12,1:1:0:0:
512,368,30425,86,0,P|480:381|447:382,1,67.949999222374,4|0,3:2|0:3,0:3:0:0:
375,349,30612,1,4,3:3:0:0:
371,330,30706,1,4,3:3:0:0:
367,311,30800,1,4,3:3:0:0:
207,381,30987,1,4,3:3:0:0:
287,346,31175,2,2,P|230:340|149:298,1,135.899998444748,8|0,3:3|3:3,0:2:0:0:
82,311,31456,1,4,3:3:0:0:
86,330,31550,1,4,3:3:0:0:
54,341,31644,1,4,3:3:0:0:
21,349,31737,2,0,P|-9:316|1:261,1,67.949999222374,6|0,3:3|3:0,0:2:0:0:
0,217,31925,6,0,P|32:230|65:231,1,67.949999222374,8|0,3:3|0:3,0:3:0:0:
137,198,32112,1,4,3:3:0:0:
141,179,32206,1,4,3:3:0:0:
145,160,32300,1,4,3:3:0:0:
305,230,32487,1,4,3:3:0:0:
225,195,32675,2,2,P|282:189|363:147,1,135.899998444748,8|0,3:3|3:3,0:2:0:0:
430,160,32956,1,4,3:3:0:0:
426,179,33050,1,4,3:2:0:0:
458,190,33144,1,4,3:3:0:0:
491,198,33238,1,4,3:3:0:0:
512,67,33425,102,0,P|480:80|447:81,1,67.949999222374,8|0,3:3|0:3,0:3:0:0:
375,48,33612,1,4,3:3:0:0:
371,29,33706,1,4,3:3:0:0:
367,10,33800,1,4,3:3:0:0:
207,80,33987,1,4,3:3:0:0:
287,45,34175,1,4,3:3:0:0:
283,26,34268,2,0,P|246:17|218:-6,1,67.949999222374,4|2,3:3|0:3,0:3:0:0:
117,59,34456,1,4,3:3:0:0:
113,78,34550,2,0,P|83:101|67:134,1,67.949999222374,4|0,3:3|0:3,0:3:0:0:
9,253,34737,1,4,3:3:0:0:
4,235,34831,1,4,3:3:0:0:
0,217,34925,6,0,P|32:230|65:231,1,67.949999222374,8|0,3:3|0:3,0:3:0:0:
137,198,35112,1,4,3:3:0:0:
141,179,35206,1,4,3:3:0:0:
145,160,35300,1,4,3:3:0:0:
305,230,35487,1,4,3:3:0:0:
225,195,35675,2,2,P|282:189|363:147,1,135.899998444748,8|0,3:3|3:3,0:2:0:0:
430,160,35956,1,4,3:3:0:0:
426,179,36050,1,4,3:3:0:0:
458,190,36144,1,4,3:3:0:0:
491,198,36238,1,4,3:3:0:0:
485,381,36425,101,4,3:2:0:0:
509,340,36518,1,8,3:3:0:0:
481,301,36612,1,4,3:3:0:0:
460,298,36706,1,4,3:3:0:0:
447,314,36800,1,4,3:3:0:0:
270,344,36987,1,4,3:3:0:0:
378,374,37175,2,2,P|303:336|268:262,1,135.899998444748,8|0,3:3|3:3,0:2:0:0:
198,294,37455,1,4,3:3:0:0:
177,297,37550,1,4,3:3:0:0:
149,336,37643,1,4,3:3:0:0:
173,377,37737,1,4,3:3:0:0:
24,237,37925,5,8,3:3:0:0:
0,196,38018,1,8,3:3:0:0:
28,157,38112,1,4,3:3:0:0:
49,154,38206,1,4,3:3:0:0:
62,170,38300,1,4,3:3:0:0:
239,200,38487,2,0,P|201:188|163:145,1,67.949999222374,6|0,3:3|0:0,0:0:0:0:
131,230,38675,2,2,P|206:192|241:118,1,135.899998444748,8|0,3:3|3:3,0:2:0:0:
311,150,38955,1,4,3:3:0:0:
332,153,39050,1,4,3:3:0:0:
361,189,39143,1,4,3:3:0:0:
406,203,39237,2,0,P|416:157|451:137,1,67.949999222374,4|0,3:3|3:3,0:3:0:0:
488,96,39425,101,4,3:2:0:0:
512,55,39518,1,8,3:3:0:0:
484,16,39612,1,4,3:3:0:0:
463,13,39706,1,4,3:3:0:0:
450,29,39800,1,4,3:3:0:0:
273,59,39987,1,4,3:3:0:0:
381,89,40175,2,2,P|306:51|271:-23,1,135.899998444748,8|0,3:3|3:3,0:2:0:0:
201,9,40455,1,4,3:3:0:0:
180,12,40550,1,4,3:3:0:0:
152,51,40643,1,4,3:3:0:0:
176,92,40737,1,4,3:3:0:0:
278,262,40925,6,2,P|284:293|268:342,1,67.949999222374,8|0,3:3|0:3,0:2:0:0:
187,291,41112,1,4,3:3:0:0:
146,267,41206,1,4,3:3:0:0:
134,221,41300,2,2,P|142:189|170:171,1,67.949999222374,2|0,3:2|0:3,0:2:0:0:
322,192,41487,2,2,P|355:193|378:169,1,67.949999222374,2|0,3:2|0:3,0:2:0:0:
221,37,41675,102,2,P|227:48|238:55,1,26.9999991760254,8|0,3:3|0:3,0:2:0:0:
320,99,41862,6,2,B|350:78|350:35|284:-9|250:36|224:96|242:136,1,225,2|4,0:2|3:3,0:1:0:0:
247,138,42112,69,4,3:3:0:0:
253,139,42175,5,4,3:3:0:0:
258,135,42237,101,4,3:3:0:0:
464,3,42425,54,2,P|502:23|509:66,1,90,6|0,1:2|0:2,0:2:0:0:
505,151,42612,1,8,3:2:0:0:
435,110,42706,1,2,3:2:0:0:
378,169,42800,2,2,P|408:200|452:202,1,90,2|0,1:2|0:2,0:2:0:0:
259,359,42987,2,2,P|201:348|181:309,1,90,10|0,3:2|0:2,0:2:0:0:
202,245,43175,5,2,1:2:0:0:
281,226,43268,1,2,3:2:0:0:
317,300,43362,1,10,3:2:0:0:
396,281,43456,1,2,3:2:0:0:
432,355,43550,2,2,P|473:343|478:301,1,90,2|0,1:2|0:2,0:2:0:0:
253,25,43737,2,2,P|310:35|331:75,1,90,8|0,3:2|0:2,0:2:0:0:
310,139,43925,101,2,1:2:0:0:
116,103,44112,1,10,3:2:0:0:
195,84,44206,1,2,3:2:0:0:
231,158,44300,1,2,1:2:0:0:
80,29,44487,2,2,P|39:41|34:83,1,90,10|0,3:2|0:2,0:2:0:0:
60,161,44675,6,0,L|47:268,1,90,2|8,1:3|3:2,0:2:0:0:
1,307,44955,1,2,3:3:0:0:
11,319,45049,2,0,P|34:327|62:324,1,45,2|0,1:3|0:2,0:2:0:0:
217,374,45237,2,0,P|195:374|175:384,1,45,10|0,3:2|0:2,0:2:0:0:
125,332,45424,101,2,1:2:0:0:
184,299,45518,1,2,3:2:0:0:
194,233,45611,1,10,3:2:0:0:
205,168,45705,1,2,3:2:0:0:
265,135,45800,1,2,1:2:0:0:
309,186,45894,1,2,3:2:0:0:
297,251,45987,1,10,3:2:0:0:
285,316,46081,1,2,3:2:0:0:
329,367,46175,1,2,1:2:0:0:
388,334,46268,1,2,3:2:0:0:
400,267,46362,6,0,P|401:237|431:201,1,56.25,10|0,3:2|0:2,0:2:0:0:
480,179,46550,2,2,P|509:156|509:116,1,67.5000025749208,2|0,1:2|0:2,0:2:0:0:
298,0,46737,2,2,P|271:19|265:52,1,67.5000025749208,10|0,3:2|0:2,0:2:0:0:
190,31,46925,102,2,P|271:68|365:45,1,180,2|10,1:2|3:2,0:2:0:0:
425,109,47206,1,2,3:2:0:0:
343,146,47300,2,2,P|304:168|288:210,1,90,2|0,1:2|0:2,0:2:0:0:
332,375,47487,2,2,P|282:364|296:315,1,112.5,10|0,3:2|0:2,0:2:0:0:
400,267,47675,6,2,B|406:252|451:267|433:337|299:266|243:285|303:313|269:350|206:360,1,256.500002446175,2|10,1:2|0:2,0:1:0:0:
119,358,47956,1,2,3:2:0:0:
119,268,48050,2,2,P|158:249|198:267,1,90,2|0,1:2|0:2,0:1:0:0:
294,316,48237,2,2,B|328:341|332:375|332:375|305:359|294:323,1,112.5,8|0,3:2|0:2,0:2:0:0:
288,208,48425,102,0,B|287:183|296:161|300:166|313:146|310:122,1,90,6|0,1:2|0:2,0:1:0:0:
217,138,48612,2,0,B|258:169|322:173|277:152|341:155|383:188,2,180,10|2|10,3:2|1:2|3:2,0:1:0:0:
75,15,49175,5,2,1:3:0:0:
31,84,49268,2,2,P|56:116|84:141,1,62.9999980773926,2|8,3:3|0:2,0:2:0:0:
44,211,49456,1,2,1:3:0:0:
101,268,49550,2,2,P|123:291|142:316,1,62.9999980773926,2|0,1:3|0:2,0:2:0:0:
311,302,49737,2,2,P|333:323|359:343,1,62.9999980773926,10|0,3:2|0:2,0:2:0:0:
437,369,49925,101,2,1:2:0:0:
481,300,50018,1,2,3:2:0:0:
423,242,50111,1,10,3:2:0:0:
468,173,50205,1,2,3:2:0:0:
411,116,50300,2,2,P|375:125|342:111,1,67.5000025749208,2|0,1:2|0:2,0:2:0:0:
262,219,50487,2,2,P|279:197|306:191,1,56.25,10|0,3:2|0:2,0:2:0:0:
183,204,50675,5,2,1:3:0:0:
217,143,50768,2,2,P|219:117|217:99,1,45,2|8,3:3|0:2,0:2:0:0:
150,338,50956,1,2,3:3:0:0:
81,329,51050,2,2,P|45:342|23:376,1,78.7500007510185,2|0,1:3|0:2,0:2:0:0:
280,326,51237,2,2,P|319:352|361:342,1,90,10|0,3:2|0:2,0:2:0:0:
217,378,51425,101,2,1:2:0:0:
206,292,51518,1,0,3:2:0:0:
125,253,51612,1,8,3:2:0:0:
114,165,51706,1,0,3:2:0:0:
33,128,51800,2,2,P|58:96|89:79,1,53.9999983520508,2|0,1:2|0:2,0:2:0:0:
65,0,51987,2,2,P|34:17|0:11,1,72,10|0,3:2|0:2,0:2:0:0:
138,41,52175,6,2,P|182:47|226:60,1,90,2|0,1:3|0:2,0:2:0:0:
295,6,52362,1,10,3:2:0:0:
306,92,52455,1,2,3:3:0:0:
387,131,52549,1,2,1:3:0:0:
395,220,52643,1,2,3:3:0:0:
477,260,52737,2,2,P|436:303|410:341,1,90,10|0,3:2|0:2,0:2:0:0:
340,381,52925,102,2,P|321:340|329:296,1,90,2|0,1:2|0:2,0:2:0:0:
252,252,53112,1,10,3:2:0:0:
314,189,53206,1,2,3:2:0:0:
236,145,53300,2,2,P|218:104|226:61,1,90,2|0,1:2|0:2,0:2:0:0:
384,53,53487,2,2,P|418:46|388:66,1,90,10|0,3:2|0:2,0:2:0:0:
503,0,53675,6,2,B|405:31|470:52|442:136|356:104|377:42|305:92,1,247.500002360344,2|4,1:2|3:3,0:1:0:0:
302,98,53925,37,4,3:3:0:0:
304,104,53987,5,4,3:3:0:0:
310,106,54050,101,12,1:1:0:0:
0,344,54425,21,8,3:3:0:0:
59,378,54518,1,8,3:3:0:0:
118,342,54612,1,4,3:3:0:0:
126,318,54706,1,4,3:3:0:0:
112,296,54800,1,4,3:3:0:0:
256,200,54987,1,4,3:3:0:0:
309,288,55175,1,8,3:3:0:0:
333,303,55269,1,4,3:3:0:0:
361,298,55363,1,4,3:3:0:0:
379,275,55456,1,4,3:3:0:0:
374,246,55550,1,8,3:3:0:0:
420,193,55643,1,8,3:3:0:0:
489,208,55737,2,0,P|497:250|500:281,1,72,4|0,3:2|3:3,0:3:0:0:
472,348,55925,5,8,3:3:0:0:
400,360,56018,1,8,3:3:0:0:
361,298,56112,1,4,3:3:0:0:
379,275,56206,1,4,3:3:0:0:
374,246,56300,1,4,3:3:0:0:
256,135,56487,1,4,3:3:0:0:
186,232,56675,1,8,3:3:0:0:
199,197,56769,1,4,3:3:0:0:
182,167,56862,1,4,3:3:0:0:
149,153,56956,1,4,3:3:0:0:
117,168,57050,1,8,3:3:0:0:
111,95,57143,1,8,3:3:0:0:
41,70,57237,1,4,3:3:0:0:
0,279,57425,101,4,3:2:0:0:
67,241,57518,1,8,3:3:0:0:
138,273,57612,1,4,3:3:0:0:
173,266,57706,1,4,3:3:0:0:
186,232,57800,1,4,3:3:0:0:
256,52,57987,1,4,3:3:0:0:
368,143,58175,1,8,3:3:0:0:
362,91,58269,1,4,3:3:0:0:
398,64,58363,1,4,3:3:0:0:
446,73,58456,1,4,3:3:0:0:
488,60,58550,1,8,3:3:0:0:
428,110,58643,1,8,3:3:0:0:
421,186,58737,2,0,P|440:241|468:268,1,72,6|0,3:3|3:3,0:3:0:0:
287,319,58925,6,2,P|281:352|261:379,1,67.949999222374,4|0,3:2|0:3,0:2:0:0:
243,251,59112,1,4,3:3:0:0:
272,213,59206,1,4,3:3:0:0:
320,212,59300,2,2,P|346:232|351:265,1,67.949999222374,2|0,3:2|0:3,0:2:0:0:
189,192,59487,2,2,P|156:193|133:168,1,67.949999222374,2|0,3:2|0:3,0:2:0:0:
192,99,59675,102,2,B|162:78|162:35|228:-9|262:36|288:96|270:136,1,225,8|4,3:3|3:3,0:2:0:0:
256,192,60425,12,0,63425,0:2:0:0:
