osu file format v14

[General]
AudioFilename: audio.mp3
AudioLeadIn: 0
PreviewTime: 42378
Countdown: 0
SampleSet: Soft
StackLeniency: 0.3
Mode: 0
LetterboxInBreaks: 0
WidescreenStoryboard: 1

[Editor]
DistanceSpacing: 0.9
BeatDivisor: 2
GridSize: 8
TimelineZoom: 0.7999997

[Metadata]
Title:Wario's Gold Mine (Cut Ver.)
TitleUnicode:ワリオこうざん (Cut Ver.)
Artist:Asuka Ohta, Ryo Nagamatsu
ArtistUnicode:太田あすか, 永松亮
Creator:atlas-
Version:bluirre's Normal
Source:Mario Kart Wii
Tags:mkwii wii mkw wario kouzan electronic folk video game vgm instrumental nintendo original soundtrack ost bluirre mkguh verychill yokespai aeniko atlas マリオカートWii プラチナサウンドトラック
BeatmapID:3390288
BeatmapSetID:1640259

[Difficulty]
HPDrainRate:3
CircleSize:4
OverallDifficulty:4
ApproachRate:5
SliderMultiplier:1.2
SliderTickRate:1

[Events]
//Background and Video events
0,0,"wario.jpg",0,0
//Break Periods
//Storyboard Layer 0 (Background)
//Storyboard Layer 1 (Fail)
//Storyboard Layer 2 (Pass)
//Storyboard Layer 3 (Foreground)
//Storyboard Layer 4 (Overlay)
//Storyboard Sound Samples

[TimingPoints]
425,375,4,2,1,40,1,0
706,-100,4,2,1,40,0,0
5112,-100,4,2,1,30,0,0
6425,-100,4,2,1,65,0,0
11675,-100,4,2,1,65,0,0
12050,-100,4,2,1,65,0,0
12425,-100,4,2,1,65,0,0
17675,-100,4,2,1,65,0,0
18425,-100,4,2,1,65,0,0
23675,-100,4,2,1,65,0,0
24050,-100,4,2,1,65,0,0
24425,-100,4,2,1,65,0,0
28925,-100,4,2,1,65,0,0
30425,-90.9090909090909,4,2,1,75,0,0
33425,-90.9090909090909,4,2,1,80,0,0
36425,-90.9090909090909,4,2,1,85,0,0
39425,-90.9090909090909,4,2,1,90,0,0
40925,-100,4,2,1,90,0,0
41675,-100,4,2,1,90,0,0
41862,-100,4,2,1,90,0,0
42050,-100,4,2,69,100,0,0
42331,-100,4,2,69,5,0,0
42425,-100,4,2,1,65,0,0
52362,-100,4,2,1,65,0,0
52550,-100,4,2,1,65,0,0
52737,-100,4,2,1,65,0,0
52925,-100,4,2,1,65,0,0
54425,-90.9090909090909,4,2,1,75,0,0
55925,-90.9090909090909,4,2,1,80,0,0
57425,-90.9090909090909,4,2,1,85,0,0
58925,-100,4,2,1,90,0,0
59112,-100,4,2,1,85,0,0
59300,-100,4,2,1,80,0,0
59487,-100,4,2,1,75,0,0
59675,-100,4,2,1,70,0,0
59862,-100,4,2,1,65,0,0
60050,-100,4,2,1,60,0,0
60237,-100,4,2,1,55,0,0
60425,-100,4,2,1,40,0,0
61175,-100,4,2,1,30,0,0
61925,-100,4,2,1,20,0,0
62675,-100,4,2,1,10,0,0
63425,-100,4,2,100,5,0,0

[Colours]
Combo1 : 130,97,94
Combo2 : 255,197,138
Combo3 : 85,43,43
Combo4 : 255,168,81

[HitObjects]
155,237,6425,6,0,L|183:114,1,120,6|2,0:0|0:0,0:0:0:0:
200,72,6987,1,2,3:2:0:0:
200,72,7175,1,2,0:0:0:0:
306,92,7550,2,0,L|366:113,1,60,2|2,0:0|3:2,0:0:0:0:
413,129,7925,6,0,B|450:140|467:176|436:181|444:219|480:230,1,120,2|2,0:0|0:0,0:0:0:0:
486,275,8487,1,2,3:2:0:0:
390,319,8862,1,2,3:2:0:0:
390,319,9049,2,0,L|312:299,1,60,2|2,0:0|3:2,0:0:0:0:
279,289,9425,6,0,B|286:257|260:233|242:256|222:226|229:191,1,120,2|2,0:0|0:0,0:0:0:0:
239,138,9987,1,2,3:2:0:0:
135,128,10362,1,2,3:2:0:0:
135,128,10549,2,0,L|57:148,1,60,2|2,0:0|3:2,0:0:0:0:
24,160,10925,6,0,B|17:191|43:215|61:192|81:222|74:257,1,120,2|2,0:0|0:0,0:0:0:0:
105,308,11487,1,2,3:2:0:0:
105,308,11675,2,0,P|178:303|238:314,1,120,2|2,0:0|0:0,0:0:0:0:
323,351,12425,6,0,P|393:338|388:280,1,120,2|2,0:0|0:0,0:0:0:0:
355,270,12987,1,2,3:2:0:0:
269,213,13362,1,2,3:2:0:0:
269,213,13550,2,0,L|247:135,1,60,2|2,0:0|3:2,0:0:0:0:
246,101,13925,6,0,P|255:59|327:40,1,120,2|2,0:0|0:0,0:0:0:0:
359,76,14487,1,2,3:2:0:0:
359,76,14675,2,0,L|349:135,2,60,2|2|2,0:0|3:2|0:0,0:0:0:0:
413,73,15237,1,2,3:2:0:0:
413,73,15425,6,0,P|444:102|425:183,1,120,2|2,0:0|0:0,0:0:0:0:
411,222,15987,1,2,3:2:0:0:
337,301,16362,1,2,3:2:0:0:
337,301,16550,2,0,L|258:281,1,60,2|2,0:0|3:2,0:0:0:0:
227,267,16925,6,0,B|240:236|219:199|196:228|181:188|208:147,1,120,2|2,0:0|0:0,0:0:0:0:
201,110,17487,1,2,3:2:0:0:
201,110,17675,2,0,B|240:64|240:64|204:-10,1,120,2|2,0:0|0:0,0:0:0:0:
106,23,18425,6,0,L|82:144,1,120,2|2,0:0|0:0,0:0:0:0:
75,197,18987,1,2,3:2:0:0:
75,197,19175,1,2,0:0:0:0:
142,293,19550,1,2,0:0:0:0:
142,293,19737,1,2,3:2:0:0:
142,293,19925,6,0,B|180:301|213:279|188:259|214:230|251:238,1,120,2|2,0:0|0:0,0:0:0:0:
289,249,20487,1,2,3:2:0:0:
386,306,20862,1,2,3:2:0:0:
386,306,21049,2,0,L|406:228,1,60,2|2,0:0|3:2,0:0:0:0:
437,209,21425,6,0,B|402:216|372:196|395:178|371:152|339:159,1,120,2|2,0:0|0:0,0:0:0:0:
290,163,21987,1,2,3:2:0:0:
233,256,22362,1,2,3:2:0:0:
233,256,22549,2,0,L|155:276,1,60,2|2,0:0|3:2,0:0:0:0:
128,242,22925,6,0,P|90:250|67:291,2,60,2|2|2,0:0|3:2|0:0,0:0:0:0:
158,197,23487,1,2,3:2:0:0:
158,197,23675,2,0,P|223:164|263:119,1,120,2|2,0:0|0:0,0:0:0:0:
333,57,24425,6,0,P|371:101|422:72,1,120,2|2,0:0|0:0,0:0:0:0:
447,32,24987,1,2,3:2:0:0:
499,132,25362,1,2,3:2:0:0:
499,132,25550,2,0,L|458:201,1,60,2|2,0:0|3:2,0:0:0:0:
437,227,25925,6,0,P|391:249|325:225,1,120,2|2,0:0|0:0,0:0:0:0:
308,178,26487,1,2,3:2:0:0:
308,178,26675,2,0,L|249:188,1,60,2|2,0:0|3:2,0:0:0:0:
209,150,27050,2,0,L|150:155,1,60,2|2,0:0|3:2,0:0:0:0:
95,148,27425,6,0,P|52:176|53:256,1,120,2|2,0:0|0:0,0:0:0:0:
77,288,27987,1,2,3:2:0:0:
77,288,28175,1,2,0:0:0:0:
177,248,28550,2,0,L|226:287,1,60,0|0,0:0|3:2,0:0:0:0:
238,338,28925,6,0,P|268:353|311:344,1,60,2|2,0:0|3:2,0:0:0:0:
323,306,29300,2,0,P|350:287|364:245,1,60,2|2,0:0|3:2,0:0:0:0:
322,227,29675,2,0,P|324:193|353:160,1,60,2|0,0:0|0:0,0:0:0:0:
384,143,30050,1,2,0:0:0:0:
490,201,30425,6,0,L|481:59,1,132.00000402832,2|2,3:2|3:2,0:0:0:0:
473,7,30987,1,2,3:2:0:0:
473,7,31175,2,0,L|320:-3,1,132.00000402832,2|2,3:2|0:0,0:0:0:0:
225,63,31925,6,0,L|233:205,1,132.00000402832,2|2,3:2|3:2,0:0:0:0:
301,208,32487,1,2,3:2:0:0:
301,208,32675,2,0,L|453:217,1,132.00000402832,2|6,3:2|3:2,0:0:0:0:
422,347,33425,6,0,L|279:355,1,132.00000402832,2|2,3:2|3:2,0:0:0:0:
227,359,33987,1,2,3:2:0:0:
227,359,34175,2,0,P|174:312|141:231,1,132.00000402832,2|2,3:2|0:0,0:0:0:0:
54,164,34925,6,0,P|24:222|-9:252,2,99.0000030212403,2|2|2,3:2|3:2|3:2,0:0:0:0:
67,99,35675,2,0,L|208:67,1,132.00000402832,2|2,3:2|0:0,0:0:0:0:
328,66,36425,6,0,L|319:208,1,132.00000402832,6|0,3:2|0:0,0:0:0:0:
298,262,36987,1,2,3:2:0:0:
298,262,37175,2,0,L|145:271,1,132.00000402832,2|2,3:2|0:0,0:0:0:0:
77,367,37925,6,0,L|219:375,1,132.00000402832,2|0,3:2|0:0,0:0:0:0:
276,363,38487,1,6,2:3:0:0:
276,363,38675,2,0,L|428:353,1,132.00000402832,2|2,3:2|0:0,0:0:0:0:
445,228,39425,2,0,L|312:219,1,132.00000402832,6|2,3:2|3:2,0:0:0:0:
262,260,39987,1,2,3:2:0:0:
262,260,40175,2,0,B|219:257|177:284|177:284|183:217,1,132.00000402832,2|2,3:2|0:0,0:0:0:0:
192,134,40925,6,0,B|148:131|104:162|138:188|102:227|37:216,1,180,2|2,3:2|3:2,0:0:0:0:
11,182,41675,1,2,3:2:0:0:
11,182,41862,2,0,L|14:113,1,60,2|2,3:1|3:2,0:0:0:0:
23,14,42425,6,0,L|95:31,1,60,2|10,0:0|2:2,0:0:0:0:
119,65,42800,2,0,L|191:48,1,60,2|10,0:0|2:2,0:0:0:0:
233,36,43175,1,2,0:0:0:0:
233,36,43362,1,10,2:2:0:0:
233,36,43550,1,2,0:0:0:0:
333,75,43925,6,0,B|340:106|314:130|296:107|276:137|283:172,1,120,2|2,0:0|0:0,0:0:0:0:
289,226,44487,1,10,2:2:0:0:
260,331,44862,1,10,2:2:0:0:
260,331,45050,2,0,L|334:325,1,60,2|10,0:0|2:2,0:0:0:0:
372,315,45425,6,0,L|364:246,2,60,2|10|2,0:0|2:2|0:0,0:0:0:0:
425,309,45987,1,10,2:2:0:0:
479,309,46175,2,0,L|471:240,1,60,2|10,0:0|2:2,0:0:0:0:
467,195,46550,2,0,L|459:126,1,60,2|10,0:0|2:2,0:0:0:0:
451,81,46925,6,0,P|357:108|345:143,1,120,2|2,0:0|0:0,0:0:0:0:
339,177,47487,1,10,2:2:0:0:
339,177,47675,1,2,0:0:0:0:
339,177,47862,2,0,P|311:199|241:187,1,60,10|2,2:2|0:0,0:0:0:0:
183,211,48425,5,2,0:0:0:0:
183,211,48612,2,0,L|169:291,1,60,10|0,2:2|0:0,0:0:0:0:
163,323,48987,1,10,2:2:0:0:
163,323,49175,2,0,P|70:275|69:224,1,120,2|2,0:0|0:0,0:0:0:0:
67,219,49737,1,10,2:2:0:0:
67,219,49925,6,0,P|96:155|151:129,1,120,2|2,0:0|0:0,0:0:0:0:
190,119,50487,1,10,2:2:0:0:
190,119,50675,1,2,0:0:0:0:
296,100,51050,2,0,L|369:90,1,60,2|10,0:0|2:2,0:0:0:0:
409,87,51425,5,2,0:0:0:0:
398,194,51800,2,0,L|388:280,1,60,2|10,0:0|2:2,0:0:0:0:
409,304,52175,2,0,P|468:307|484:324,2,60,2|10|2,0:0|2:2|0:0,0:0:0:0:
388,355,52737,1,10,2:2:0:0:
388,355,52925,6,0,P|332:377|269:382,1,120,2|2,0:0|0:0,0:0:0:0:
222,381,53487,1,10,2:2:0:0:
222,381,53675,1,2,0:0:0:0:
247,276,54050,1,2,0:0:0:0:
131,288,54425,6,0,L|-1:279,1,132.00000402832,2|2,3:2|3:2,0:0:0:0:
6,216,54987,1,2,3:2:0:0:
6,216,55175,2,0,L|15:74,1,132.00000402832,2|2,3:2|0:0,0:0:0:0:
134,138,55925,6,0,L|142:5,1,132.00000402832,2|2,3:2|3:2,0:0:0:0:
211,8,56487,1,2,3:2:0:0:
211,8,56675,2,0,L|352:-2,1,132.00000402832,2|2,3:2|3:2,0:0:0:0:
399,118,57425,6,0,P|418:178|419:262,1,132.00000402832,6|2,2:2|3:2,0:0:0:0:
423,316,57987,1,2,3:2:0:0:
423,316,58175,2,0,B|467:306|517:339|517:339|495:390,1,132.00000402832,2|2,3:2|0:0,0:0:0:0:
384,381,58925,6,0,B|247:366|220:239|314:224|279:111|152:99|79:163|118:277|201:253,1,480,6|2,2:2|3:2,0:0:0:0:
256,192,60612,12,2,63425,2:2:0:0:
