osu file format v14

[General]
AudioFilename: audio.mp3
AudioLeadIn: 0
PreviewTime: 42378
Countdown: 0
SampleSet: Soft
StackLeniency: 0.3
Mode: 0
LetterboxInBreaks: 0
WidescreenStoryboard: 0

[Editor]
DistanceSpacing: 0.6
BeatDivisor: 4
GridSize: 8
TimelineZoom: 2.899999

[Metadata]
Title:Wario's Gold Mine (Cut Ver.)
TitleUnicode:ワリオこうざん (Cut Ver.)
Artist:Asuka Ohta, Ryo Nagamatsu
ArtistUnicode:太田あすか, 永松亮
Creator:atlas-
Version:Ultra Shortcut
Source:Mario Kart Wii
Tags:mkwii wii mkw wario kouzan electronic folk video game vgm instrumental nintendo original soundtrack ost bluirre mkguh verychill yokespai aeniko atlas マリオカートWii プラチナサウンドトラック
BeatmapID:3347941
BeatmapSetID:1640259

[Difficulty]
HPDrainRate:5
CircleSize:5
OverallDifficulty:9
ApproachRate:9.4
SliderMultiplier:2.2
SliderTickRate:1

[Events]
//Background and Video events
0,0,"wario.jpg",0,0
//Break Periods
//Storyboard Layer 0 (Background)
//Storyboard Layer 1 (Fail)
//Storyboard Layer 2 (Pass)
//Storyboard Layer 3 (Foreground)
//Storyboard Layer 4 (Overlay)
//Storyboard Sound Samples

[TimingPoints]
425,375,4,2,1,40,1,0
706,-200,4,2,1,40,0,0
5112,-200,4,2,1,30,0,0
6425,-100,4,2,1,65,0,0
11675,-80,4,2,1,65,0,0
12050,-71.4285714285714,4,2,1,65,0,0
12425,-100,4,2,1,65,0,0
17675,-66.6666666666667,4,2,1,65,0,0
18425,-100,4,2,1,65,0,0
23675,-80,4,2,1,65,0,0
24050,-71.4285714285714,4,2,1,65,0,0
24425,-100,4,2,1,65,0,0
28925,-80,4,2,1,65,0,0
30425,-80,4,2,1,75,0,1
33425,-80,4,2,1,80,0,1
36237,-80,4,2,1,80,0,0
36425,-80,4,2,1,85,0,1
39425,-80,4,2,1,90,0,1
40925,-58.8235294117647,4,2,1,90,0,1
41675,-100,4,2,1,90,0,1
41862,-66.6666666666667,4,2,1,90,0,1
42050,-40,4,2,69,100,0,1
42331,-30.2154625840491,4,2,69,5,0,1
42425,-80,4,2,1,65,0,0
52362,-100,4,2,1,65,0,0
52550,-133.333333333333,4,2,1,65,0,0
52737,-200,4,2,1,65,0,0
52925,-80,4,2,1,65,0,0
54425,-80,4,2,1,75,0,1
55925,-80,4,2,1,80,0,1
57425,-80,4,2,1,85,0,1
58925,-80,4,2,1,90,0,1
59112,-80,4,2,1,85,0,1
59300,-80,4,2,1,80,0,1
59487,-80,4,2,1,75,0,1
59675,-80,4,2,1,70,0,1
59862,-80,4,2,1,65,0,1
60050,-80,4,2,1,60,0,1
60237,-80,4,2,1,55,0,1
60425,-80,4,2,1,40,0,0
61175,-80,4,2,1,30,0,0
61925,-80,4,2,1,20,0,0
62675,-80,4,2,1,10,0,0
63425,-80,4,2,100,5,0,0

[Colours]
Combo1 : 130,97,94
Combo2 : 255,197,138
Combo3 : 85,43,43
Combo4 : 255,168,81

[HitObjects]
28,359,425,5,6,2:3:0:0:
33,357,518,1,2,0:0:0:0:
37,356,612,1,2,3:2:0:0:
88,312,706,2,0,L|116:317,2,27.5,6|2|2,2:3|0:0|0:0,0:0:0:0:
36,265,987,5,2,3:2:0:0:
31,263,1080,1,2,0:0:0:0:
27,262,1174,1,6,2:3:0:0:
10,193,1268,2,0,L|37:188,2,27.5,2|2|2,0:0|0:0|3:2,0:0:0:0:
66,128,1550,5,2,0:0:0:0:
78,131,1643,1,2,0:0:0:0:
85,143,1737,1,2,3:2:0:0:
484,359,1925,5,6,2:3:0:0:
479,357,2018,1,2,0:0:0:0:
475,356,2112,1,2,3:2:0:0:
423,312,2206,2,0,L|396:317,2,27.5,6|2|2,2:3|0:0|0:0,0:0:0:0:
476,265,2487,5,2,3:2:0:0:
481,263,2580,1,2,0:0:0:0:
485,262,2674,1,6,2:3:0:0:
502,193,2768,2,0,L|474:188,2,27.5,2|2|2,0:0|0:0|3:2,0:0:0:0:
446,128,3050,5,2,0:0:0:0:
434,131,3143,1,2,0:0:0:0:
427,143,3237,1,2,3:2:0:0:
28,25,3425,5,6,2:3:0:0:
33,27,3518,1,2,0:0:0:0:
37,28,3612,1,2,3:2:0:0:
88,71,3706,2,0,L|116:67,2,27.5,6|2|2,2:3|0:0|0:0,0:0:0:0:
36,119,3987,5,2,3:2:0:0:
31,121,4080,1,2,0:0:0:0:
27,122,4174,1,6,2:3:0:0:
0,184,4268,2,0,L|27:188,2,27.5,2|2|2,0:0|0:0|3:2,0:0:0:0:
131,235,4550,5,2,0:0:0:0:
123,246,4643,1,2,0:0:0:0:
111,250,4737,1,2,3:2:0:0:
98,249,4831,1,2,3:2:0:0:
88,241,4925,1,6,2:3:0:0:
180,354,5112,5,2,0:0:0:0:
184,349,5206,1,2,0:0:0:0:
191,343,5300,1,2,0:0:0:0:
209,340,5393,1,2,0:0:0:0:
230,348,5487,1,2,0:0:0:0:
252,363,5581,1,2,0:0:0:0:
282,365,5675,1,2,0:0:0:0:
307,353,5768,1,2,0:0:0:0:
320,326,5862,1,2,0:0:0:0:
312,302,5956,1,2,0:0:0:0:
288,280,6050,1,2,0:0:0:0:
251,282,6143,1,2,0:0:0:0:
235,315,6237,1,2,0:0:0:0:
421,381,6425,6,0,L|428:227,1,110,6|2,0:0|3:2,0:0:0:0:
471,217,6706,1,2,0:0:0:0:
399,203,6800,2,0,L|389:128,1,55,2|0,0:0|0:0,0:0:0:0:
383,83,6987,2,0,L|373:8,1,55,2|0,3:2|0:0,0:0:0:0:
283,32,7175,5,2,0:0:0:0:
269,105,7268,1,2,0:0:0:0:
201,90,7362,1,2,3:2:0:0:
215,19,7456,1,2,0:0:0:0:
269,105,7550,6,0,P|287:156|275:179,1,55,2|0,0:0|0:0,0:0:0:0:
352,169,7737,2,0,P|328:217|303:225,1,55,2|0,3:2|0:0,0:0:0:0:
204,206,7925,6,0,L|289:221,1,55,2|0,0:0|0:0,0:0:0:0:
330,216,8112,1,2,3:2:0:0:
371,271,8206,1,2,0:0:0:0:
345,336,8300,2,0,L|260:351,1,55,2|0,0:0|0:0,0:0:0:0:
120,375,8487,2,0,L|250:353,1,110,2|0,3:2|0:0,0:0:0:0:
405,376,8862,6,0,P|424:319|410:292,1,55,2|0,3:2|0:0,0:0:0:0:
492,318,9050,2,0,P|465:264|436:255,1,55,2|0,0:0|0:0,0:0:0:0:
512,218,9237,2,0,P|455:199|428:212,1,55,2|0,3:2|0:0,0:0:0:0:
389,231,9425,6,0,L|366:86,1,110,2|2,0:0|3:2,0:0:0:0:
362,56,9706,1,2,0:0:0:0:
432,73,9800,2,0,L|450:177,1,55,2|0,0:0|0:0,0:0:0:0:
327,241,9987,2,0,L|304:96,1,110,2|0,3:2|0:0,0:0:0:0:
293,20,10362,6,0,P|266:2|220:17,1,55,2|0,3:2|0:0,0:0:0:0:
134,85,10550,2,0,P|161:67|207:82,1,55,2|0,0:0|0:0,0:0:0:0:
309,132,10737,2,0,P|282:114|236:129,1,55,2|0,3:2|0:0,0:0:0:0:
73,145,10925,6,0,L|85:228,1,55,2|0,0:0|0:0,0:0:0:0:
162,199,11112,1,2,3:2:0:0:
162,199,11206,1,2,0:0:0:0:
162,199,11300,2,0,L|174:282,1,55,2|0,0:0|0:0,0:0:0:0:
241,272,11487,2,0,L|253:355,1,55,2|0,3:2|0:0,0:0:0:0:
334,322,11675,6,0,B|381:320|389:290|384:282|376:272|420:235|461:271,1,137.5,2|2,0:0|3:2,0:0:0:0:
471,322,11956,1,0,0:0:0:0:
442,260,12050,2,0,B|394:269|376:229|383:220|391:210|351:170|306:209,1,153.999995300293,2|2,0:0|3:2,0:0:0:0:
319,199,12425,6,0,P|331:146|373:112,1,110,2|2,0:0|3:2,0:0:0:0:
274,112,12706,2,0,P|227:104|224:100,1,55,2|2,0:0|0:0,0:0:0:0:
224,37,12893,1,0,0:0:0:0:
287,33,12987,2,0,L|397:19,1,110,2|0,3:2|0:0,0:0:0:0:
369,263,13362,5,2,3:2:0:0:
306,298,13456,1,2,0:0:0:0:
264,246,13550,2,0,B|240:265|240:265|201:250,1,55,2|0,0:0|0:0,0:0:0:0:
153,317,13737,2,0,B|177:336|177:336|216:321,1,55,2|0,3:2|0:0,0:0:0:0:
251,165,13925,6,0,L|130:189,1,110,2|2,0:0|3:2,0:0:0:0:
78,198,14206,1,2,0:0:0:0:
47,132,14300,2,0,P|69:89|97:85,1,55,2|0,0:0|0:0,0:0:0:0:
36,30,14487,2,0,P|81:15|104:32,1,55,2|0,3:2|0:0,0:0:0:0:
151,83,14675,5,2,0:0:0:0:
166,78,14768,1,2,0:0:0:0:
201,17,14862,5,2,3:2:0:0:
229,22,14956,1,2,0:0:0:0:
259,93,15050,5,2,0:0:0:0:
295,85,15143,1,2,0:0:0:0:
302,8,15237,5,2,3:2:0:0:
345,17,15331,1,2,0:0:0:0:
388,76,15425,6,0,L|370:215,1,110,2|2,0:0|3:2,0:0:0:0:
370,249,15706,1,2,0:0:0:0:
305,240,15800,2,0,P|291:195|308:167,1,55,2|0,0:0|0:0,0:0:0:0:
295,85,15987,2,0,P|221:139|165:124,1,110,2|0,3:2|0:0,0:0:0:0:
20,72,16362,5,2,3:2:0:0:
87,58,16456,1,2,0:0:0:0:
154,47,16550,2,0,L|139:132,1,55,2|0,0:0|0:0,0:0:0:0:
121,219,16737,2,0,L|136:134,1,55,2|0,3:2|0:0,0:0:0:0:
154,47,16925,6,0,L|283:28,1,110,2|2,0:0|3:2,0:0:0:0:
331,25,17206,1,2,0:0:0:0:
379,78,17300,2,0,P|348:121|334:123,1,55,2|0,0:0|0:0,0:0:0:0:
279,120,17487,1,2,3:2:0:0:
451,373,17675,6,0,B|470:214|470:214|507:211|532:191|538:148,1,247.500009441376,2|0,0:0|0:0,0:0:0:0:
379,78,18050,2,0,L|407:267,1,165.000006294251,2|2,0:0|3:2,0:0:0:0:
377,311,18425,6,0,B|344:314|326:288|337:277|319:247|271:255,1,110,2|2,0:0|3:2,0:0:0:0:
227,246,18706,1,2,0:0:0:0:
184,303,18800,2,0,L|106:313,1,55,2|0,0:0|0:0,0:0:0:0:
65,318,18987,2,0,L|-13:328,1,55,2|0,3:2|0:0,0:0:0:0:
94,213,19175,5,2,0:0:0:0:
80,142,19269,1,2,0:0:0:0:
148,127,19363,1,2,3:2:0:0:
162,200,19456,1,2,0:0:0:0:
148,127,19550,6,0,P|166:76|154:53,1,55,2|0,0:0|0:0,0:0:0:0:
240,75,19737,2,0,P|216:26|191:18,1,55,2|0,3:2|0:0,0:0:0:0:
269,138,19925,6,0,B|297:122|297:122|335:133,1,55,2|0,0:0|0:0,0:0:0:0:
386,140,20112,1,2,3:2:0:0:
376,204,20206,1,2,0:0:0:0:
355,266,20300,2,0,B|331:282|331:282|306:274,1,55,2|0,0:0|0:0,0:0:0:0:
240,75,20487,2,0,B|288:45|288:45|349:71,1,110,2|0,3:2|0:0,0:0:0:0:
437,96,20862,6,0,P|456:153|442:180,1,55,2|0,3:2|0:0,0:0:0:0:
512,187,21050,2,0,P|485:241|456:250,1,55,2|0,0:0|0:0,0:0:0:0:
507,308,21237,2,0,P|450:327|423:314,1,55,2|0,3:2|0:0,0:0:0:0:
294,384,21425,6,0,L|310:246,1,110,2|2,0:0|3:2,0:0:0:0:
306,205,21706,1,2,0:0:0:0:
241,186,21800,2,0,P|206:229|206:244,1,55,2|0,0:0|0:0,0:0:0:0:
173,299,21987,2,0,P|138:256|138:241,1,55,2|0,3:2|0:0,0:0:0:0:
110,91,22175,5,2,0:0:0:0:
155,98,22268,1,2,0:0:0:0:
200,105,22362,1,2,3:2:0:0:
244,113,22456,1,2,0:0:0:0:
316,112,22550,6,0,L|304:39,1,55,2|0,0:0|0:0,0:0:0:0:
306,205,22737,2,0,L|314:259,1,55,2|0,3:2|0:0,0:0:0:0:
359,319,22925,6,0,P|384:283|378:254,1,55,2|0,0:0|0:0,0:0:0:0:
381,203,23112,1,2,3:2:0:0:
446,192,23206,1,2,0:0:0:0:
509,181,23300,2,0,P|484:145|490:116,1,55,2|0,0:0|0:0,0:0:0:0:
448,48,23487,2,0,P|442:74|422:93,1,55,2|0,3:2|0:0,0:0:0:0:
246,176,23675,6,0,P|250:98|320:61,1,137.5,2|2,0:0|3:2,0:0:0:0:
357,47,23956,1,0,0:0:0:0:
293,64,24050,2,0,P|216:61|179:-8,1,153.999995300293,2|2,0:0|3:2,0:0:0:0:
75,26,24425,6,0,P|50:61|72:125,1,110,2|2,0:0|3:2,0:0:0:0:
113,174,24706,1,2,0:0:0:0:
46,186,24800,2,0,P|59:220|44:255,1,55,2|0,0:0|0:0,0:0:0:0:
54,341,24987,2,0,P|88:291|147:279,1,110,2|0,3:2|0:0,0:0:0:0:
203,228,25362,5,2,3:2:0:0:
192,295,25456,1,2,0:0:0:0:
183,363,25550,2,0,L|252:348,1,55,2|0,0:0|0:0,0:0:0:0:
298,339,25737,2,0,L|369:323,1,55,2|0,3:2|0:0,0:0:0:0:
472,239,25925,6,0,L|361:259,1,110,2|2,0:0|3:2,0:0:0:0:
298,272,26206,1,2,0:0:0:0:
267,202,26300,2,0,P|279:165|309:147,1,55,2|0,0:0|0:0,0:0:0:0:
237,101,26487,2,0,P|271:83|301:92,1,55,2|0,3:2|0:0,0:0:0:0:
512,77,26675,5,2,0:0:0:0:
497,72,26768,1,2,0:0:0:0:
462,11,26862,5,2,3:2:0:0:
434,16,26956,1,2,0:0:0:0:
411,90,27050,5,2,0:0:0:0:
375,82,27143,1,2,0:0:0:0:
361,2,27237,5,2,3:2:0:0:
318,11,27331,1,2,0:0:0:0:
286,85,27425,6,0,L|164:73,1,110,2|2,0:0|3:2,0:0:0:0:
113,87,27706,1,2,0:0:0:0:
144,149,27800,2,0,L|226:158,1,55,2|0,0:0|0:0,0:0:0:0:
315,167,27987,2,0,L|260:160,1,55,2|0,3:2|0:0,0:0:0:0:
146,220,28175,6,0,P|165:255|158:285,1,55,2|0,0:0|0:0,0:0:0:0:
131,331,28362,1,2,3:2:0:0:
190,350,28456,1,2,0:0:0:0:
254,363,28550,2,0,L|242:298,1,55,2|0,0:0|0:0,0:0:0:0:
260,160,28737,2,0,L|269:214,1,55,2|0,3:2|0:0,0:0:0:0:
427,383,28925,6,0,B|445:356|445:356|434:318,1,68.75,2|0,0:0|0:0,0:0:0:0:
340,371,29112,2,0,B|329:335|329:335|348:309,1,68.75,2|0,3:2|0:0,0:0:0:0:
469,85,29300,6,0,B|487:111|487:111|476:149,1,68.75,2|0,0:0|0:0,0:0:0:0:
380,97,29487,2,0,B|369:132|369:132|388:158,1,68.75,2|0,3:2|0:0,0:0:0:0:
474,234,29675,6,0,L|249:212,1,206.25,2|0,0:0|0:0,0:0:0:0:
228,269,30050,1,2,0:0:0:0:
481,25,30425,5,2,3:2:0:0:
475,30,30518,1,2,0:0:0:0:
474,37,30612,1,2,3:2:0:0:
409,70,30706,5,2,3:2:0:0:
413,81,30800,1,2,3:2:0:0:
421,89,30893,1,2,0:0:0:0:
381,154,30987,5,2,3:2:0:0:
393,161,31081,1,2,0:0:0:0:
407,158,31175,1,2,3:2:0:0:
454,221,31268,5,2,0:0:0:0:
467,212,31362,1,2,0:0:0:0:
469,194,31456,1,2,3:2:0:0:
370,241,31550,5,2,0:0:0:0:
375,306,31643,1,2,0:0:0:0:
379,373,31737,2,0,P|396:336|430:325,1,68.75,6|0,2:3|3:2,0:0:0:0:
117,384,31925,5,2,3:2:0:0:
123,379,32018,1,2,0:0:0:0:
124,372,32112,1,2,3:2:0:0:
189,339,32206,5,2,3:2:0:0:
185,328,32300,1,2,3:2:0:0:
177,320,32393,1,2,0:0:0:0:
217,255,32487,5,2,3:2:0:0:
205,248,32581,1,2,0:0:0:0:
191,251,32675,1,2,3:2:0:0:
144,188,32768,5,2,0:0:0:0:
131,197,32862,1,2,0:0:0:0:
129,215,32956,1,2,3:2:0:0:
228,168,33050,5,6,3:2:0:0:
223,103,33143,1,2,0:0:0:0:
219,36,33237,2,0,P|202:73|168:84,1,68.75,2|0,3:2|3:2,0:0:0:0:
256,337,33425,5,2,3:2:0:0:
263,334,33518,1,2,0:0:0:0:
270,331,33612,1,2,3:2:0:0:
294,258,33706,5,2,3:2:0:0:
308,263,33800,1,2,3:2:0:0:
322,268,33893,1,2,0:0:0:0:
349,346,33987,5,2,3:2:0:0:
367,340,34081,1,2,0:0:0:0:
388,335,34175,1,2,3:2:0:0:
414,260,34268,5,2,0:0:0:0:
440,266,34362,1,6,2:3:0:0:
469,273,34456,1,2,3:2:0:0:
511,169,34550,5,2,0:0:0:0:
443,178,34643,1,2,0:0:0:0:
374,187,34737,1,2,3:2:0:0:
305,196,34831,1,2,3:2:0:0:
196,57,34925,5,2,3:2:0:0:
203,60,35018,1,2,0:0:0:0:
210,63,35112,1,2,3:2:0:0:
234,136,35206,5,2,3:2:0:0:
248,131,35300,1,2,3:2:0:0:
262,126,35393,1,2,0:0:0:0:
289,48,35487,5,2,3:2:0:0:
307,54,35581,1,2,0:0:0:0:
328,59,35675,1,2,3:2:0:0:
354,134,35768,5,2,0:0:0:0:
380,128,35862,1,2,0:0:0:0:
409,121,35956,1,2,3:2:0:0:
381,14,36050,5,2,0:0:0:0:
442,28,36143,1,2,0:0:0:0:
505,44,36237,1,2,3:2:0:0:
500,300,36425,5,6,3:2:0:0:
488,312,36518,1,2,0:0:0:0:
469,305,36612,1,2,3:2:0:0:
433,370,36706,5,2,3:2:0:0:
408,370,36799,1,2,3:2:0:0:
394,348,36893,1,2,0:0:0:0:
321,362,36987,5,2,3:2:0:0:
299,340,37080,1,2,0:0:0:0:
307,310,37174,1,2,3:2:0:0:
233,292,37268,5,2,0:0:0:0:
232,254,37361,1,2,0:0:0:0:
266,233,37455,1,2,3:2:0:0:
395,175,37550,5,2,0:0:0:0:
327,158,37643,1,2,0:0:0:0:
261,142,37737,2,0,L|170:125,1,68.75,2|0,3:2|3:2,0:0:0:0:
83,278,37925,5,2,3:2:0:0:
71,266,38018,1,2,0:0:0:0:
78,247,38112,1,2,3:2:0:0:
13,211,38206,5,2,3:2:0:0:
13,186,38299,1,2,3:2:0:0:
35,172,38393,1,2,0:0:0:0:
21,99,38487,5,6,2:3:0:0:
43,77,38580,1,2,0:0:0:0:
73,85,38674,1,2,3:2:0:0:
91,11,38768,5,2,0:0:0:0:
130,9,38861,1,2,0:0:0:0:
150,44,38955,1,2,3:2:0:0:
73,85,39050,5,2,0:0:0:0:
138,105,39143,1,2,0:0:0:0:
202,124,39237,1,2,3:2:0:0:
268,142,39331,1,2,3:2:0:0:
478,38,39425,5,6,3:2:0:0:
413,25,39519,1,2,0:0:0:0:
346,13,39612,1,2,3:2:0:0:
73,85,39706,5,2,3:2:0:0:
123,77,39800,1,2,3:2:0:0:
177,68,39894,1,2,0:0:0:0:
370,180,39987,5,2,3:2:0:0:
328,167,40081,1,2,0:0:0:0:
287,156,40175,1,2,3:2:0:0:
222,217,40269,5,2,0:0:0:0:
227,251,40362,1,2,0:0:0:0:
230,278,40456,1,2,3:2:0:0:
309,334,40550,5,2,0:0:0:0:
306,353,40644,1,2,0:0:0:0:
301,372,40737,1,2,3:2:0:0:
301,373,40925,6,0,B|96:343|96:343|161:345|186:300,1,280.500005350113,2|2,3:2|3:2,0:0:0:0:
158,256,41300,2,0,L|140:165,1,93.500001783371,2|0,3:2|0:0,0:0:0:0:
94,272,41487,2,0,L|75:180,1,93.500001783371,2|0,3:2|0:0,0:0:0:0:
444,121,41675,6,0,P|413:108|380:145,1,82.5,2|0,3:2|0:0,0:0:0:0:
355,215,41862,2,0,P|403:226|442:239,1,82.5000031471254,2|0,3:1|0:0,0:0:0:0:
256,29,42050,6,0,B|262:8|247:-10|247:-10|306:-13|346:25|338:85|293:108|293:108|154:70|154:70|176:83|180:113,1,412.5,2|0,3:2|3:0,0:0:0:0:
87,230,42425,6,0,L|226:216,1,137.5,2|10,0:0|2:2,0:0:0:0:
287,260,42706,1,2,0:0:0:0:
231,321,42800,2,0,L|310:333,1,68.75,2|0,0:0|0:0,0:0:0:0:
362,342,42987,2,0,L|441:354,1,68.75,10|0,2:2|0:0,0:0:0:0:
497,285,43175,5,2,0:0:0:0:
424,271,43268,1,2,0:0:0:0:
439,203,43362,1,10,2:2:0:0:
510,217,43456,1,2,0:0:0:0:
444,131,43550,6,0,P|386:158|380:179,1,68.75,2|0,0:0|0:0,0:0:0:0:
446,43,43737,2,0,P|504:70|510:91,1,68.75,10|0,2:2|0:0,0:0:0:0:
284,70,43925,6,0,L|202:82,1,68.75,2|0,0:0|0:0,0:0:0:0:
147,87,44112,1,10,2:2:0:0:
181,147,44206,1,2,0:0:0:0:
250,147,44300,2,0,L|318:137,1,68.75,2|0,0:0|0:0,0:0:0:0:
281,1,44487,2,0,L|124:21,1,137.5,10|0,2:2|0:0,0:0:0:0:
144,18,44862,6,0,B|117:36|117:36|124:79,1,68.75,10|0,2:2|0:0,0:0:0:0:
52,72,45050,2,0,B|46:103|46:103|81:129,1,68.75,2|0,0:0|0:0,0:0:0:0:
21,176,45237,2,0,B|39:202|39:202|82:195,1,68.75,10|0,2:2|0:0,0:0:0:0:
423,211,45425,5,2,0:0:0:0:
379,160,45518,1,2,0:0:0:0:
314,148,45612,1,10,2:2:0:0:
257,181,45706,1,2,0:0:0:0:
223,237,45800,1,2,0:0:0:0:
193,298,45893,1,2,0:0:0:0:
133,332,45987,1,10,2:2:0:0:
67,307,46081,1,2,0:0:0:0:
30,248,46175,5,2,0:0:0:0:
97,224,46268,1,2,0:0:0:0:
161,202,46362,1,10,2:2:0:0:
181,132,46456,1,2,0:0:0:0:
200,62,46550,1,2,0:0:0:0:
268,49,46643,1,2,0:0:0:0:
334,38,46737,1,10,2:2:0:0:
399,28,46831,1,2,0:0:0:0:
464,21,46925,6,0,P|455:107|395:137,1,137.5,2|10,0:0|2:2,0:0:0:0:
348,157,47206,1,2,0:0:0:0:
348,157,47300,2,0,P|342:121|379:94,1,68.75,2|0,0:0|0:0,0:0:0:0:
439,214,47487,2,0,P|459:240|453:272,1,68.75,10|0,0:0|0:0,0:0:0:0:
259,377,47675,5,2,0:0:0:0:
266,310,47768,1,2,0:0:0:0:
273,244,47862,1,10,2:2:0:0:
279,178,47956,1,2,0:0:0:0:
183,228,48050,6,0,P|198:279|203:307,1,68.75,2|0,0:0|0:0,0:0:0:0:
266,310,48237,1,10,2:2:0:0:
130,93,48425,6,0,L|209:74,1,68.75,2|0,0:0|0:0,0:0:0:0:
353,43,48612,2,0,L|261:62,1,68.75,10|0,2:2|0:0,0:0:0:0:
175,17,48800,1,0,0:0:0:0:
175,17,48987,2,0,P|199:54|184:100,1,68.75,10|0,2:2|0:0,0:0:0:0:
118,162,49175,6,0,L|229:177,1,103.125,2|0,0:0|0:0,0:0:0:0:
286,184,49362,2,0,L|377:195,1,68.75,10|0,2:2|0:0,0:0:0:0:
424,200,49550,5,2,0:0:0:0:
451,264,49643,1,2,0:0:0:0:
408,317,49737,2,0,P|378:288|335:282,1,68.75,10|2,2:2|0:0,0:0:0:0:
173,268,49925,6,0,B|234:303|234:303|275:250,1,137.5,2|10,0:0|2:2,0:0:0:0:
286,184,50206,1,2,0:0:0:0:
279,116,50300,2,0,L|185:74,1,68.75,2|0,0:0|0:0,0:0:0:0:
191,11,50487,2,0,L|97:53,1,68.75,10|0,2:2|0:0,0:0:0:0:
8,182,50675,5,2,0:0:0:0:
54,199,50768,1,2,0:0:0:0:
78,251,50862,1,10,2:2:0:0:
69,299,50956,1,2,0:0:0:0:
28,334,51050,1,2,0:0:0:0:
96,134,51237,1,10,2:2:0:0:
296,223,51425,5,2,0:0:0:0:
227,213,51519,1,2,0:0:0:0:
185,273,51613,1,10,2:2:0:0:
208,343,51707,1,2,0:0:0:0:
280,352,51800,1,2,0:0:0:0:
364,163,51987,1,10,2:2:0:0:
413,372,52175,6,0,L|421:296,1,68.75,2|2,0:0|0:0,0:0:0:0:
507,255,52362,2,0,L|491:182,1,55,10|2,2:2|0:0,0:0:0:0:
435,148,52550,2,0,L|451:82,1,41.2500015735627,2|2,0:0|0:0,0:0:0:0:
488,59,52737,2,0,L|476:13,1,27.5,10|2,2:2|0:0,0:0:0:0:
345,26,52925,6,0,L|364:168,1,137.5,2|10,0:0|2:2,0:0:0:0:
372,226,53206,1,2,0:0:0:0:
300,201,53300,2,0,L|288:122,1,68.75,2|0,0:0|0:0,0:0:0:0:
278,69,53487,2,0,L|266:-10,1,68.75,10|0,2:2|0:0,0:0:0:0:
166,13,53675,6,0,P|197:70|237:74,1,68.75,2|0,0:0|0:0,0:0:0:0:
70,75,53862,2,0,P|39:132|-1:136,1,68.75,10|0,2:2|0:0,0:0:0:0:
140,257,54050,2,0,P|159:176|239:138,1,137.5,2|0,0:0|0:0,0:0:0:0:
328,30,54425,5,2,3:2:0:0:
346,52,54518,1,2,0:0:0:0:
346,83,54612,1,2,3:2:0:0:
456,104,54706,5,2,3:2:0:0:
427,128,54800,1,2,3:2:0:0:
420,166,54893,1,2,0:0:0:0:
314,171,54987,5,2,3:2:0:0:
336,209,55081,1,2,0:0:0:0:
333,248,55175,1,2,3:2:0:0:
475,263,55268,5,2,0:0:0:0:
438,302,55362,1,2,0:0:0:0:
433,355,55456,1,2,3:2:0:0:
347,382,55550,5,2,0:0:0:0:
340,317,55643,1,2,0:0:0:0:
333,248,55737,2,0,L|256:266,1,68.75,6|0,2:2|3:2,0:0:0:0:
183,30,55925,5,2,3:2:0:0:
165,52,56018,1,2,0:0:0:0:
165,83,56112,1,2,3:2:0:0:
55,104,56206,5,2,3:2:0:0:
84,128,56300,1,2,3:2:0:0:
91,166,56393,1,2,0:0:0:0:
209,177,56487,5,2,3:2:0:0:
187,215,56581,1,2,0:0:0:0:
190,254,56675,1,2,3:2:0:0:
36,263,56768,5,2,0:0:0:0:
73,302,56862,1,2,0:0:0:0:
78,355,56956,1,2,3:2:0:0:
174,382,57050,5,2,3:2:0:0:
181,317,57143,1,2,0:0:0:0:
190,254,57237,2,0,L|267:272,1,68.75,2|0,3:2|3:2,0:0:0:0:
496,156,57425,5,6,2:2:0:0:
461,161,57518,1,2,0:0:0:0:
429,167,57612,1,2,3:2:0:0:
429,78,57706,5,2,3:2:0:0:
383,72,57800,1,2,3:2:0:0:
342,68,57893,1,2,0:0:0:0:
352,225,57987,5,2,3:2:0:0:
303,232,58081,1,2,0:0:0:0:
257,239,58175,1,2,3:2:0:0:
239,62,58268,5,2,0:0:0:0:
174,50,58362,1,2,0:0:0:0:
110,42,58456,1,2,3:2:0:0:
15,163,58550,5,2,0:0:0:0:
90,169,58643,1,2,0:0:0:0:
144,121,58737,2,0,L|233:130,1,68.75,6|0,2:3|3:2,0:0:0:0:
381,132,58925,5,6,2:2:0:0:
384,112,59018,1,2,0:0:0:0:
405,96,59112,1,2,3:2:0:0:
448,103,59206,1,2,3:2:0:0:
476,146,59300,1,2,3:2:0:0:
470,207,59393,1,2,0:0:0:0:
414,243,59487,1,2,3:2:0:0:
346,225,59581,1,2,0:0:0:0:
310,165,59675,5,2,3:2:0:0:
302,153,59768,1,2,0:0:0:0:
294,150,59862,1,2,0:0:0:0:
287,149,59956,1,2,3:2:0:0:
283,149,60050,1,2,0:0:0:0:
280,150,60143,1,2,0:0:0:0:
276,150,60237,1,2,3:2:0:0:
93,363,60425,5,2,3:2:0:0:
256,192,60518,12,2,63425,2:2:0:0:
