osu file format v14

[General]
AudioFilename: audio.mp3
AudioLeadIn: 0
PreviewTime: 42378
Countdown: 0
SampleSet: Soft
StackLeniency: 0.3
Mode: 0
LetterboxInBreaks: 0
WidescreenStoryboard: 1

[Editor]
Bookmarks: 26886
DistanceSpacing: 0.6
BeatDivisor: 8
GridSize: 8
TimelineZoom: 2.899999

[Metadata]
Title:Wario's Gold Mine (Cut Ver.)
TitleUnicode:ワリオこうざん (Cut Ver.)
Artist:Asuka Ohta, Ryo Nagamatsu
ArtistUnicode:太田あすか, 永松亮
Creator:atlas-
Version:Another
Source:Mario Kart Wii
Tags:mkwii wii mkw wario kouzan electronic folk video game vgm instrumental nintendo original soundtrack ost bluirre mkguh verychill yokespai aeniko atlas マリオカートWii プラチナサウンドトラック
BeatmapID:3373887
BeatmapSetID:1640259

[Difficulty]
HPDrainRate:5
CircleSize:4.2
OverallDifficulty:8.6
ApproachRate:8.8
SliderMultiplier:2.1
SliderTickRate:1

[Events]
//Background and Video events
0,0,"wario.jpg",0,0
//Break Periods
//Storyboard Layer 0 (Background)
//Storyboard Layer 1 (Fail)
//Storyboard Layer 2 (Pass)
//Storyboard Layer 3 (Foreground)
//Storyboard Layer 4 (Overlay)
//Storyboard Sound Samples

[TimingPoints]
425,375,4,2,1,40,1,0
5112,-100,4,2,1,30,0,0
6425,-71.4285714285714,4,2,1,65,0,0
30425,-71.4285714285714,4,2,1,75,0,1
33425,-71.4285714285714,4,2,1,80,0,1
36237,-71.4285714285714,4,2,1,80,0,0
36425,-71.4285714285714,4,2,1,85,0,1
39425,-71.4285714285714,4,2,1,90,0,1
41675,-55.5555555555556,4,2,1,90,0,1
41862,-43.4782608695652,4,2,1,90,0,1
42050,-500,4,2,69,100,0,1
42331,-500,4,2,69,5,0,1
42425,-71.4285714285714,4,2,1,65,0,0
54425,-71.4285714285714,4,2,1,75,0,1
55925,-71.4285714285714,4,2,1,80,0,1
57425,-71.4285714285714,4,2,1,85,0,1
58925,-71.4285714285714,4,2,1,90,0,1
59112,-71.4285714285714,4,2,1,85,0,1
59300,-71.4285714285714,4,2,1,80,0,1
59487,-71.4285714285714,4,2,1,75,0,1
59675,-71.4285714285714,4,2,1,70,0,1
59862,-71.4285714285714,4,2,1,65,0,1
60050,-71.4285714285714,4,2,1,60,0,1
60237,-71.4285714285714,4,2,1,55,0,1
60425,-71.4285714285714,4,2,1,40,0,0
61175,-71.4285714285714,4,2,1,30,0,0
61925,-71.4285714285714,4,2,1,20,0,0
62675,-71.4285714285714,4,2,1,10,0,0
63425,-71.4285714285714,4,2,100,5,0,0

[Colours]
Combo1 : 130,97,94
Combo2 : 255,197,138
Combo3 : 85,43,43
Combo4 : 255,168,81

[HitObjects]
33,363,425,5,6,2:3:0:0:
41,357,518,1,2,0:0:0:0:
42,348,612,1,2,3:2:0:0:
101,303,706,2,0,L|115:366,2,52.5,6|2|2,2:3|0:0|0:0,0:0:0:0:
144,237,987,5,2,3:2:0:0:
136,231,1080,1,2,0:0:0:0:
135,222,1174,1,6,2:3:0:0:
76,177,1268,2,0,L|62:240,2,52.5,2|2|2,0:0|0:0|3:2,0:0:0:0:
17,126,1550,5,2,0:0:0:0:
25,120,1643,1,2,0:0:0:0:
26,111,1737,1,2,3:2:0:0:
479,363,1925,5,6,2:3:0:0:
471,357,2018,1,2,0:0:0:0:
470,348,2112,1,2,3:2:0:0:
411,303,2206,2,0,L|397:366,2,52.5,6|2|2,2:3|0:0|0:0,0:0:0:0:
368,237,2487,5,2,3:2:0:0:
376,231,2580,1,2,0:0:0:0:
377,222,2674,1,6,2:3:0:0:
436,177,2768,2,0,L|450:240,2,52.5,2|2|2,0:0|0:0|3:2,0:0:0:0:
495,126,3050,5,2,0:0:0:0:
487,120,3143,1,2,0:0:0:0:
486,111,3237,1,2,3:2:0:0:
179,7,3425,5,6,2:3:0:0:
181,17,3518,1,2,0:0:0:0:
183,29,3612,1,2,3:2:0:0:
254,53,3706,2,0,L|243:119,2,52.5,6|2|2,2:3|0:0|0:0,0:0:0:0:
297,159,3987,5,2,3:2:0:0:
295,169,4080,1,2,0:0:0:0:
293,181,4174,1,6,2:3:0:0:
222,205,4268,2,0,L|233:271,2,52.5,2|2|2,0:0|0:0|3:2,0:0:0:0:
304,285,4550,5,2,0:0:0:0:
304,293,4643,1,2,0:0:0:0:
303,302,4737,1,2,3:2:0:0:
303,311,4831,1,2,3:2:0:0:
303,320,4925,1,6,2:3:0:0:
371,221,5112,6,0,L|363:166,1,52.5,2|2,0:0|0:0,0:0:0:0:
428,135,5300,2,0,L|420:80,1,52.5,2|2,0:0|0:0,0:0:0:0:
489,58,5487,2,0,L|481:3,1,52.5,2|2,0:0|0:0,0:0:0:0:
369,22,5675,5,2,0:0:0:0:
357,14,5768,1,2,0:0:0:0:
344,14,5862,1,2,0:0:0:0:
333,17,5956,1,2,0:0:0:0:
281,74,6050,5,2,0:0:0:0:
273,76,6143,1,2,0:0:0:0:
267,72,6237,1,2,0:0:0:0:
151,5,6425,6,0,L|169:181,1,146.999995513916,6|2,0:0|3:2,0:0:0:0:
175,224,6706,1,2,0:0:0:0:
104,196,6800,1,2,0:0:0:0:
245,177,6987,2,0,L|353:194,1,73.4999977569581,2|0,3:2|0:0,0:0:0:0:
396,197,7175,5,2,0:0:0:0:
416,223,7268,1,2,0:0:0:0:
422,249,7362,1,2,3:2:0:0:
403,270,7456,1,2,0:0:0:0:
378,286,7550,1,2,0:0:0:0:
374,115,7737,2,0,L|470:93,1,73.4999977569581,2|0,3:2|0:0,0:0:0:0:
378,286,7925,6,0,L|201:256,1,146.999995513916,2|2,0:0|3:2,0:0:0:0:
161,320,8206,1,2,0:0:0:0:
238,345,8300,1,2,0:0:0:0:
139,202,8487,6,0,B|231:162|162:151|275:124,1,146.999995513916,2|0,3:2|0:0,0:0:0:0:
349,70,8862,6,0,P|326:53|279:58,1,73.4999977569581,2|0,3:2|0:0,0:0:0:0:
382,154,9050,2,0,P|427:130|433:15,1,146.999995513916,2|2,0:0|3:2,0:0:0:0:
261,127,9425,6,0,L|292:362,1,220.499993270874,2|2,0:0|0:0,0:0:0:0:
457,226,9800,2,0,L|427:383,1,146.999995513916,2|2,0:0|3:2,0:0:0:0:
289,345,10175,5,0,0:0:0:0:
289,345,10362,2,0,P|237:323|214:313,1,73.4999977569581,2|0,3:2|0:0,0:0:0:0:
228,222,10550,2,0,P|171:240|142:243,1,73.4999977569581,2|0,0:0|0:0,0:0:0:0:
105,169,10737,2,0,P|77:222|59:244,1,73.4999977569581,2|0,3:2|0:0,0:0:0:0:
188,142,10925,6,0,P|168:63|153:-26,1,146.999995513916,2|2,0:0|3:2,0:0:0:0:
79,3,11206,1,2,0:0:0:0:
71,78,11300,1,2,0:0:0:0:
256,81,11487,6,0,P|264:38|291:0,1,73.4999977569581,2|0,3:2|0:0,0:0:0:0:
489,49,11675,2,0,L|311:83,1,146.999995513916,2|2,0:0|3:2,0:0:0:0:
481,166,12050,2,0,L|303:200,1,146.999995513916,2|2,0:0|3:2,0:0:0:0:
211,314,12425,6,0,L|443:267,1,220.499993270874,2|2,0:0|0:0,0:0:0:0:
506,263,12800,2,0,P|482:337|457:342,1,73.4999977569581,2|0,0:0|0:0,0:0:0:0:
429,363,12987,1,2,3:2:0:0:
477,190,13175,6,0,L|490:99,1,73.4999977569581
496,40,13362,1,2,3:2:0:0:
484,38,13456,1,2,0:0:0:0:
472,43,13550,1,2,0:0:0:0:
410,93,13737,1,2,3:2:0:0:
328,12,13925,6,0,B|176:3|283:61|103:69,1,220.499993270874,2|2,0:0|0:0,0:0:0:0:
80,134,14300,2,0,B|106:159|106:159|149:132,1,73.4999977569581,2|0,0:0|0:0,0:0:0:0:
121,67,14487,1,2,3:2:0:0:
131,251,14675,5,2,0:0:0:0:
139,243,14768,1,2,0:0:0:0:
146,239,14862,1,2,3:2:0:0:
157,237,14956,1,2,0:0:0:0:
171,237,15050,1,2,0:0:0:0:
188,244,15143,1,2,0:0:0:0:
204,260,15237,1,2,3:2:0:0:
228,305,15331,1,2,0:0:0:0:
277,332,15425,6,0,P|283:237|306:100,1,220.499993270874,2|2,0:0|0:0,0:0:0:0:
359,224,15800,2,0,P|363:187|369:151,1,73.4999977569581,2|0,0:0|0:0,0:0:0:0:
302,113,15987,1,2,3:2:0:0:
374,306,16175,6,0,L|451:288,1,73.4999977569581
493,229,16362,1,2,3:2:0:0:
484,226,16456,1,2,0:0:0:0:
472,222,16550,1,2,0:0:0:0:
455,368,16737,1,2,3:2:0:0:
386,180,16925,6,0,B|425:46|472:142|512:-11,1,220.499993270874,2|2,0:0|0:0,0:0:0:0:
392,35,17300,2,0,B|425:110|454:68|485:165,1,146.999995513916,2|2,0:0|3:2,0:0:0:0:
354,253,17675,6,0,P|286:221|116:191,1,220.499993270874,2|0,0:0|0:0,0:0:0:0:
201,99,18050,2,0,P|143:116|51:126,1,146.999995513916,2|2,0:0|3:2,0:0:0:0:
22,333,18425,6,0,P|113:315|256:288,1,220.499993270874,2|2,0:0|0:0,0:0:0:0:
311,278,18800,1,2,0:0:0:0:
255,190,18987,1,2,3:2:0:0:
312,363,19175,6,0,B|390:374|392:374|397:375,1,73.4999977569581,2|2,0:0|0:0,0:0:0:0:
429,315,19362,2,0,B|507:326|509:326|514:327,1,73.4999977569581,2|2,3:2|0:0,0:0:0:0:
501,245,19550,1,2,0:0:0:0:
501,245,19737,1,2,3:2:0:0:
346,33,19925,6,0,P|366:109|369:188,1,146.999995513916,2|2,0:0|3:2,0:0:0:0:
446,173,20206,1,2,0:0:0:0:
462,96,20300,1,2,0:0:0:0:
294,119,20487,2,0,B|209:103|265:58|152:57,1,146.999995513916,2|0,3:2|0:0,0:0:0:0:
48,141,20862,6,0,B|68:170|68:170|128:154,1,73.4999977569581,2|0,3:2|0:0,0:0:0:0:
96,0,21050,2,0,B|23:16|23:16|-7:105,1,146.999995513916,2|2,0:0|3:2,0:0:0:0:
112,287,21425,6,0,P|155:262|162:161,1,146.999995513916,2|2,0:0|3:2,0:0:0:0:
233,121,21706,1,2,0:0:0:0:
254,196,21800,1,2,0:0:0:0:
319,69,21987,2,0,L|390:53,1,73.4999977569581,2|0,3:2|0:0,0:0:0:0:
477,58,22175,5,2,0:0:0:0:
486,66,22268,1,2,0:0:0:0:
492,73,22362,2,0,P|482:122|478:153,1,73.4999977569581,2|0,3:2|0:0,0:0:0:0:
319,69,22550,2,0,P|329:118|333:149,1,73.4999977569581,2|0,0:0|0:0,0:0:0:0:
512,232,22737,2,0,P|502:281|498:312,1,73.4999977569581,2|0,3:2|0:0,0:0:0:0:
398,171,22925,6,0,L|231:199,1,146.999995513916,2|2,0:0|3:2,0:0:0:0:
232,290,23206,1,2,0:0:0:0:
232,290,23300,2,0,L|125:275,1,73.4999977569581,2|0,0:0|0:0,0:0:0:0:
181,206,23487,1,2,3:2:0:0:
54,365,23675,6,0,L|14:114,1,220.499993270874,2|0,0:0|0:0,0:0:0:0:
103,161,24050,2,0,L|125:0,1,146.999995513916,2|2,0:0|3:2,0:0:0:0:
394,0,24425,6,0,B|333:115|289:14|232:157,1,220.499993270874,2|2,0:0|0:0,0:0:0:0:
268,214,24800,2,0,P|310:172|294:112,1,73.4999977569581,2|0,0:0|0:0,0:0:0:0:
238,142,24987,1,2,3:2:0:0:
381,216,25175,6,0,B|363:304|363:305|362:312,1,73.4999977569581
313,349,25362,1,2,3:2:0:0:
308,338,25456,1,2,0:0:0:0:
298,330,25550,1,2,0:0:0:0:
225,373,25737,1,2,3:2:0:0:
238,142,25925,6,0,P|166:97|16:65,1,220.499993270874,2|2,0:0|0:0,0:0:0:0:
209,36,26300,2,0,P|249:37|353:-5,1,146.999995513916,2|2,0:0|3:2,0:0:0:0:
428,67,26675,5,2,0:0:0:0:
436,75,26768,1,2,0:0:0:0:
440,82,26862,1,2,3:2:0:0:
442,93,26956,1,2,0:0:0:0:
442,107,27050,1,2,0:0:0:0:
435,124,27143,1,2,0:0:0:0:
419,140,27237,1,2,3:2:0:0:
374,164,27331,1,2,0:0:0:0:
333,150,27425,6,0,P|249:132|203:168,1,146.999995513916,2|2,0:0|3:2,0:0:0:0:
222,242,27706,1,2,0:0:0:0:
297,229,27800,1,2,0:0:0:0:
204,165,27987,2,0,P|125:155|114:150,1,73.4999977569581,2|0,3:2|0:0,0:0:0:0:
52,289,28175,6,0,P|87:280|124:281,1,73.4999977569581,2|0,0:0|0:0,0:0:0:0:
194,321,28362,1,2,3:2:0:0:
184,343,28456,1,2,0:0:0:0:
156,353,28550,1,2,0:0:0:0:
0,196,28737,2,0,P|35:204|72:203,1,73.4999977569581,2|0,3:2|0:0,0:0:0:0:
382,188,28925,5,2,0:0:0:0:
354,298,29112,1,2,3:2:0:0:
253,165,29300,5,2,0:0:0:0:
239,90,29487,1,2,3:2:0:0:
482,18,29675,6,0,B|450:99|455:257,1,220.499993270874,2|0,0:0|0:0,0:0:0:0:
382,188,30050,5,2,0:0:0:0:
382,188,30425,6,0,L|270:171,1,73.4999977569581,2|2,3:2|0:0,0:0:0:0:
258,111,30612,1,2,3:2:0:0:
219,133,30706,1,2,3:2:0:0:
179,131,30800,1,2,3:2:0:0:
319,34,30987,2,0,L|391:45,1,73.4999977569581,2|2,3:2|0:0,0:0:0:0:
207,212,31175,6,0,B|61:216|156:144|-1:155,1,220.499993270874,2|2,3:2|3:2,0:0:0:0:
4,226,31550,1,2,0:0:0:0:
173,42,31737,6,0,B|192:40|202:18|202:18|192:40|218:70,1,73.4999977569581,6|0,2:3|3:2,0:0:0:0:
316,182,31925,6,0,P|289:244|243:248,1,73.4999977569581,2|2,3:2|0:0,0:0:0:0:
120,239,32112,1,2,3:2:0:0:
164,224,32206,1,2,3:2:0:0:
207,212,32300,1,2,3:2:0:0:
235,308,32487,2,0,P|262:370|308:374,1,73.4999977569581,2|2,3:2|0:0,0:0:0:0:
476,354,32675,6,0,P|404:321|326:311,1,146.999995513916,2|2,3:2|0:0,0:0:0:0:
476,119,32956,1,2,3:2:0:0:
507,195,33050,2,0,P|435:228|357:238,1,146.999995513916,6|2,3:2|3:2,0:0:0:0:
251,121,33425,5,2,3:2:0:0:
252,112,33518,1,2,0:0:0:0:
257,105,33612,1,2,3:2:0:0:
330,129,33706,2,0,B|285:120|270:93|294:68|264:35|211:40,1,146.999995513916,2|2,3:2|0:0,0:0:0:0:
125,71,33987,2,0,P|146:49|159:2,1,73.4999977569581,2|2,3:2|0:0,0:0:0:0:
227,40,34175,1,2,3:2:0:0:
47,223,34362,5,6,2:3:0:0:
104,156,34456,2,0,P|129:236|166:384,1,220.499993270874,2|2,3:2|3:2,0:0:0:0:
236,361,34831,1,2,3:2:0:0:
236,361,34925,6,0,P|271:303|266:265,1,73.4999977569581,2|2,3:2|0:0,0:0:0:0:
263,224,35112,1,2,3:2:0:0:
282,204,35206,1,2,3:2:0:0:
311,212,35300,1,2,3:2:0:0:
420,319,35487,2,0,P|361:286|329:277,1,73.4999977569581,2|2,3:2|0:0,0:0:0:0:
512,124,35675,6,0,B|446:158|359:152,1,146.999995513916,2|2,3:2|0:0,0:0:0:0:
356,285,35956,1,2,3:2:0:0:
356,285,36050,2,0,P|281:301|273:305,1,73.4999977569581,2|2,0:0|0:0,0:0:0:0:
311,212,36237,1,2,3:2:0:0:
211,365,36425,6,0,P|188:290|151:220,1,146.999995513916,6|2,3:2|3:2,0:0:0:0:
189,159,36706,1,2,3:2:0:0:
259,131,36800,1,2,3:2:0:0:
165,73,36987,2,0,P|129:65|105:32,1,73.4999977569581,2|2,3:2|0:0,0:0:0:0:
218,3,37175,6,0,P|301:17|337:85,1,146.999995513916,2|2,3:2|0:0,0:0:0:0:
443,174,37456,1,2,3:2:0:0:
477,97,37550,2,0,P|394:111|358:179,1,146.999995513916,2|2,0:0|3:2,0:0:0:0:
347,298,37925,5,2,3:2:0:0:
342,291,38018,1,2,0:0:0:0:
335,286,38112,2,0,P|299:296|256:301,1,73.4999977569581,2|2,3:2|3:2,0:0:0:0:
231,373,38300,2,0,P|156:341|78:331,1,146.999995513916,2|6,3:2|2:3,0:0:0:0:
97,258,38581,1,2,0:0:0:0:
97,258,38675,6,0,B|225:226|154:174|294:161,1,220.499993270874,2|2,3:2|3:2,0:0:0:0:
375,135,39050,1,2,0:0:0:0:
381,129,39143,1,2,0:0:0:0:
383,120,39237,2,0,B|347:107|359:99|307:86,1,73.4999977569581,2|2,3:2|3:2,0:0:0:0:
201,22,39425,6,0,P|232:62|222:89,1,73.4999977569581,6|2,3:2|0:0,0:0:0:0:
191,137,39612,1,2,3:2:0:0:
176,143,39706,1,2,3:2:0:0:
158,136,39800,1,2,3:2:0:0:
63,91,39987,2,0,P|109:71|144:47,1,73.4999977569581,2|2,3:2|0:0,0:0:0:0:
168,255,40175,6,0,P|102:220|25:210,1,146.999995513916,2|2,3:2|0:0,0:0:0:0:
10,280,40456,1,2,3:2:0:0:
80,308,40550,2,0,P|127:333|145:360,1,73.4999977569581,2|2,0:0|0:0,0:0:0:0:
211,328,40737,1,2,3:2:0:0:
211,328,40925,6,0,P|202:218|165:114,1,220.499993270874,2|2,3:2|3:2,0:0:0:0:
299,104,41300,2,0,P|282:191|281:205,1,73.4999977569581,2|0,3:2|0:0,0:0:0:0:
181,43,41487,2,0,P|174:79|165:114,1,73.4999977569581,2|0,3:2|0:0,0:0:0:0:
316,258,41675,6,0,B|406:240|353:191|447:190,1,141.749995674133,2|0,3:2|0:0,0:0:0:0:
283,175,41862,2,0,B|390:181|323:243|442:258,1,181.125003454685,2|0,3:1|0:0,0:0:0:0:
377,377,42050,6,0,L|342:370,1,31.5,2|0,3:2|3:0,0:0:0:0:
238,252,42425,6,0,P|173:284|157:352,1,146.999995513916,2|10,0:0|2:2,0:0:0:0:
229,379,42706,1,2,0:0:0:0:
279,323,42800,1,2,0:0:0:0:
123,195,42987,6,0,L|1:185,1,73.4999977569581,10|0,2:2|0:0,0:0:0:0:
12,117,43175,1,2,0:0:0:0:
79,97,43268,1,2,0:0:0:0:
150,79,43362,2,0,L|224:59,1,73.4999977569581,10|2,2:2|0:0,0:0:0:0:
293,44,43550,1,2,0:0:0:0:
272,133,43737,1,10,2:2:0:0:
398,63,43925,6,0,B|425:55|446:10|446:10|440:58|473:93,1,146.999995513916,2|10,0:0|2:2,0:0:0:0:
417,144,44206,1,2,0:0:0:0:
417,144,44300,2,0,B|403:148|393:170|393:170|396:146|385:136,1,73.4999977569581,2|0,0:0|0:0,0:0:0:0:
336,309,44487,2,0,B|416:327|429:261|421:256|410:247|455:184|529:225,1,220.499993270874,10|0,2:2|0:0,0:0:0:0:
332,226,44862,6,0,P|243:206|189:202,1,73.4999977569581,10|0,2:2|0:0,0:0:0:0:
148,159,45050,2,0,P|241:129|273:78,1,146.999995513916,2|10,0:0|2:2,0:0:0:0:
272,14,45425,5,2,0:0:0:0:
264,12,45518,1,2,0:0:0:0:
254,9,45612,2,0,L|173:28,1,73.4999977569581,10|2,2:2|0:0,0:0:0:0:
36,71,45800,5,2,0:0:0:0:
44,69,45893,1,2,0:0:0:0:
54,66,45987,2,0,L|135:85,1,73.4999977569581,10|2,2:2|0:0,0:0:0:0:
238,148,46175,5,2,0:0:0:0:
230,146,46268,1,2,0:0:0:0:
220,143,46362,2,0,L|139:162,1,73.4999977569581,10|2,2:2|0:0,0:0:0:0:
60,224,46550,2,0,L|141:243,1,73.4999977569581,2|2,0:0|0:0,0:0:0:0:
255,290,46737,2,0,L|174:309,1,73.4999977569581,10|2,2:2|0:0,0:0:0:0:
6,337,46925,6,0,P|97:353|150:386,1,146.999995513916,2|10,0:0|2:2,0:0:0:0:
183,307,47206,1,2,0:0:0:0:
238,377,47300,2,0,P|329:361|382:328,1,146.999995513916,2|10,0:0|2:2,0:0:0:0:
412,202,47675,5,2,0:0:0:0:
401,209,47768,1,2,0:0:0:0:
404,219,47862,1,10,2:2:0:0:
416,219,47956,1,2,0:0:0:0:
422,208,48050,1,2,0:0:0:0:
440,110,48237,6,0,B|431:86|452:78|452:78|460:95|439:110,1,73.4999977569581,10|0,2:2|0:0,0:0:0:0:
334,153,48425,6,0,P|266:134|237:137,1,73.4999977569581,2|0,0:0|0:0,0:0:0:0:
250,42,48612,2,0,P|200:77|99:76,1,146.999995513916,10|0,2:2|0:0,0:0:0:0:
16,148,48987,2,0,P|36:232|32:255,1,73.4999977569581,10|0,2:2|0:0,0:0:0:0:
7,287,49175,6,0,B|31:270|35:235|35:235|129:205,1,146.999995513916,2|10,0:0|2:2,0:0:0:0:
189,192,49456,1,0,0:0:0:0:
189,192,49550,2,0,P|207:247|172:279,1,73.4999977569581,2|2,0:0|0:0,0:0:0:0:
275,291,49737,2,0,P|248:342|201:340,1,73.4999977569581,10|2,2:2|0:0,0:0:0:0:
313,207,49925,6,0,L|463:227,1,146.999995513916,2|10,0:0|2:2,0:0:0:0:
507,162,50206,1,2,0:0:0:0:
456,103,50300,2,0,L|310:83,1,146.999995513916,2|10,0:0|2:2,0:0:0:0:
228,37,50675,5,2,0:0:0:0:
222,31,50768,1,2,0:0:0:0:
227,26,50862,1,10,2:2:0:0:
235,30,50956,1,2,0:0:0:0:
235,37,51050,1,2,0:0:0:0:
176,99,51237,2,0,P|108:64|78:60,1,73.4999977569581,10|0,2:2|0:0,0:0:0:0:
38,241,51425,5,2,0:0:0:0:
68,213,51518,1,2,0:0:0:0:
105,195,51612,1,10,2:2:0:0:
146,187,51706,1,2,0:0:0:0:
226,187,51800,6,0,L|203:288,1,73.4999977569581,2|0,0:0|0:0,0:0:0:0:
157,307,51987,2,0,L|180:408,1,73.4999977569581,10|0,2:2|0:0,0:0:0:0:
288,367,52175,6,0,B|318:329|384:301,1,73.4999977569581,2|2,0:0|0:0,0:0:0:0:
378,228,52362,2,0,B|408:266|474:294,1,73.4999977569581,10|2,2:2|0:0,0:0:0:0:
222,47,52550,6,0,B|252:85|318:113,1,73.4999977569581,2|2,0:0|0:0,0:0:0:0:
312,186,52737,2,0,B|342:148|408:120,1,73.4999977569581,10|2,2:2|0:0,0:0:0:0:
499,90,52925,6,0,B|453:99|427:66|451:47|422:3|356:36,1,146.999995513916,2|10,0:0|2:2,0:0:0:0:
374,30,53206,1,2,0:0:0:0:
374,30,53300,2,0,P|329:19|309:-9,1,73.4999977569581,2|0,0:0|0:0,0:0:0:0:
216,124,53487,2,0,P|241:98|277:92,1,73.4999977569581,10|0,2:2|0:0,0:0:0:0:
200,25,53675,6,0,P|107:17|-29:0,1,220.499993270874,2|0,0:0|0:0,0:0:0:0:
0,129,54050,2,0,P|95:107|156:98,1,146.999995513916,2|0,0:0|0:0,0:0:0:0:
281,177,54425,6,0,P|272:218|224:233,1,73.4999977569581,2|2,3:2|0:0,0:0:0:0:
176,216,54612,1,2,3:2:0:0:
176,216,54706,1,2,3:2:0:0:
176,216,54800,1,2,3:2:0:0:
304,365,54987,2,0,P|312:275|317:260,1,73.4999977569581,2|2,3:2|0:0,0:0:0:0:
355,236,55175,5,2,3:2:0:0:
281,177,55362,1,2,0:0:0:0:
274,159,55456,1,2,3:2:0:0:
260,148,55550,2,0,P|252:58|247:43,1,73.4999977569581,2|2,0:0|0:0,0:0:0:0:
310,23,55737,1,6,2:2:0:0:
184,270,55925,5,2,3:2:0:0:
152,290,56018,1,2,0:0:0:0:
120,285,56112,1,2,3:2:0:0:
95,256,56206,1,2,3:2:0:0:
95,222,56300,1,2,3:2:0:0:
207,123,56487,2,0,P|233:112|257:68,1,73.4999977569581,2|2,3:2|0:0,0:0:0:0:
139,63,56675,6,0,P|65:24|-23:-12,1,146.999995513916,2|2,3:2|0:0,0:0:0:0:
141,161,56956,2,0,P|67:122|-21:86,1,146.999995513916,2|2,3:2|0:0,0:0:0:0:
0,177,57237,1,2,3:2:0:0:
232,235,57425,6,0,P|271:208|316:212,1,73.4999977569581,6|2,2:2|0:0,0:0:0:0:
325,102,57612,2,0,P|364:129|409:125,1,73.4999977569581,2|2,3:2|3:2,0:0:0:0:
337,287,57800,2,0,P|406:249|477:264,1,146.999995513916,2|2,3:2|3:2,0:0:0:0:
499,332,58081,5,2,0:0:0:0:
499,332,58175,1,2,3:2:0:0:
465,342,58268,1,2,0:0:0:0:
436,354,58362,1,2,0:0:0:0:
411,363,58456,2,0,L|331:392,2,73.4999977569581,2|2|2,3:2|0:0|0:0,0:0:0:0:
337,287,58737,1,6,2:3:0:0:
210,373,58925,5,6,2:2:0:0:
194,377,59018,1,2,0:0:0:0:
176,373,59112,1,2,3:2:0:0:
166,362,59206,1,2,3:2:0:0:
160,336,59300,1,2,3:2:0:0:
147,290,59393,1,2,0:0:0:0:
106,242,59487,1,2,3:2:0:0:
46,239,59581,1,2,0:0:0:0:
6,283,59675,1,2,3:2:0:0:
11,330,59768,1,2,0:0:0:0:
41,352,59862,1,2,0:0:0:0:
71,348,59956,1,2,3:2:0:0:
82,327,60050,5,2,0:0:0:0:
77,317,60143,1,2,0:0:0:0:
71,306,60237,1,2,3:2:0:0:
253,384,60425,5,2,3:2:0:0:
256,192,60518,12,2,63425,2:2:0:0:
