osu file format v14

[General]
AudioFilename: 1-02 Main Menu.ogg
AudioLeadIn: 0
PreviewTime: 88350
Countdown: 0
SampleSet: Normal
StackLeniency: 0.7
Mode: 1
LetterboxInBreaks: 0
WidescreenStoryboard: 0

[Editor]
DistanceSpacing: 0.7
BeatDivisor: 4
GridSize: 32
TimelineZoom: 1.45

[Metadata]
Title:Main Menu
TitleUnicode:メインメニュー
Artist:Asuka Ohta, Ryo Nagamatsu
ArtistUnicode:太田あすか、永松亮
Creator:meiqth
Version:Mirror
Source:Mario Kart Wii
Tags:electronic video game music vgm instrumental nintendo original soundtrack ost mkwii マリオカートwii プラチナサウンドトラック
BeatmapID:4101889
BeatmapSetID:1976287

[Difficulty]
HPDrainRate:6
CircleSize:2
OverallDifficulty:6
ApproachRate:10
SliderMultiplier:1.4
SliderTickRate:1

[Events]
//Background and Video events
0,0,"selfie.jpg",0,-50
//Break Periods
//Storyboard Layer 0 (Background)
//Storyboard Layer 1 (Fail)
//Storyboard Layer 2 (Pass)
//Storyboard Layer 3 (Foreground)
//Storyboard Layer 4 (Overlay)
//Storyboard Sound Samples

[TimingPoints]
464,344.80776966841,4,1,0,45,1,0
464,-125,4,1,0,45,0,0
44594,-111.111111111111,4,1,0,65,0,0
66808,-117.647058823529,4,1,0,55,0,0
88734,-100,4,1,0,75,0,1
110802,-100,4,1,0,75,0,0
110875,-105.263157894737,4,1,0,60,0,0
132870,-100,4,1,0,75,0,1
138714,-101.90659,4,1,0,71,0,1
138887,-102.89317,4,1,0,68,0,1
139059,-103.893166,4,1,0,66,0,1
139145,-104.4005,4,1,0,65,0,1
139231,-104.91279,4,1,0,64,0,1
139404,-105.95874,4,1,0,62,0,1
139576,-107.01952,4,1,0,60,0,1
139921,-109.212585,4,1,0,55,0,1
140093,-110.33987,4,1,0,53,0,1
140266,-111.49742,4,1,0,51,0,1
140438,-112.6726,4,1,0,49,0,1
140610,-113.87283,4,1,0,47,0,1
140697,-114.48972,4,1,0,45,0,1
140783,-115.10611,4,1,0,44,0,1
140955,-116.35904,4,1,0,42,0,1
141128,-117.64706,4,1,0,40,0,1
141472,-120.29484,4,1,0,36,0,1
141817,-123.0728,4,1,0,31,0,1
141990,-124.51467,4,1,0,29,0,1
142334,-127.48451,4,1,0,25,0,1
142679,-130.60876,4,1,0,20,0,1
143024,-133.88998,4,1,0,16,0,1
143196,-135.58823,4,1,0,14,0,1
143369,-137.34035,4,1,0,12,0,1
143541,-139.1278,4,1,0,9,0,1
143904,-142.85715,4,1,0,5,0,0

[HitObjects]
256,192,464,5,8,0:0:0:0:
256,192,981,1,0,0:0:0:0:
256,192,1067,1,0,0:0:0:0:
256,192,1153,1,0,0:0:0:0:
256,192,1326,1,8,0:0:0:0:
256,192,1498,1,8,0:0:0:0:
256,192,1670,1,0,0:0:0:0:
256,192,2015,1,0,0:0:0:0:
256,192,2360,1,8,0:0:0:0:
256,192,2532,1,0,0:0:0:0:
256,192,2619,1,0,0:0:0:0:
256,192,2705,1,0,0:0:0:0:
256,192,2791,1,8,0:0:0:0:
256,192,2877,1,0,0:0:0:0:
256,192,3050,1,0,0:0:0:0:
256,192,3222,1,8,0:0:0:0:
256,192,3739,1,0,0:0:0:0:
256,192,3825,1,0,0:0:0:0:
256,192,3912,1,0,0:0:0:0:
256,192,4084,1,8,0:0:0:0:
256,192,4256,1,0,0:0:0:0:
256,192,4429,1,0,0:0:0:0:
256,192,4774,1,0,0:0:0:0:
256,192,5118,1,8,0:0:0:0:
256,192,5291,1,0,0:0:0:0:
256,192,5377,1,0,0:0:0:0:
256,192,5463,1,0,0:0:0:0:
256,192,5636,1,0,0:0:0:0:
256,192,5808,1,0,0:0:0:0:
256,192,5980,1,8,0:0:0:0:
256,192,6498,1,0,0:0:0:0:
256,192,6584,1,0,0:0:0:0:
256,192,6670,1,0,0:0:0:0:
256,192,6842,1,8,0:0:0:0:
256,192,7015,1,8,0:0:0:0:
256,192,7187,1,0,0:0:0:0:
256,192,7532,1,0,0:0:0:0:
256,192,7877,1,8,0:0:0:0:
256,192,8049,1,0,0:0:0:0:
256,192,8135,1,0,0:0:0:0:
256,192,8222,1,0,0:0:0:0:
256,192,8566,1,0,0:0:0:0:
256,192,8739,1,8,0:0:0:0:
256,192,9256,1,0,0:0:0:0:
256,192,9342,1,0,0:0:0:0:
256,192,9429,1,0,0:0:0:0:
256,192,9601,1,8,0:0:0:0:
256,192,9773,1,0,0:0:0:0:
256,192,9946,1,0,0:0:0:0:
256,192,10291,1,0,0:0:0:0:
256,192,10635,1,8,0:0:0:0:
256,192,10722,1,8,0:0:0:0:
256,192,10808,1,0,0:0:0:0:
256,192,10980,1,8,0:0:0:0:
256,192,11066,1,8,0:0:0:0:
256,192,11153,1,0,0:0:0:0:
256,192,11239,1,8,0:0:0:0:
256,192,11325,1,0,0:0:0:0:
256,192,11497,1,8,0:0:0:0:
256,192,11842,1,8,0:0:0:0:
256,192,12015,1,0,0:0:0:0:
256,192,12101,1,0,0:0:0:0:
256,192,12187,1,0,0:0:0:0:
256,192,12359,1,8,0:0:0:0:
256,192,12532,1,8,0:0:0:0:
256,192,12704,1,0,0:0:0:0:
256,192,13049,1,0,0:0:0:0:
256,192,13394,1,8,0:0:0:0:
256,192,13566,1,0,0:0:0:0:
256,192,13652,1,0,0:0:0:0:
256,192,13739,1,8,0:0:0:0:
256,192,13911,1,0,0:0:0:0:
256,192,14083,1,0,0:0:0:0:
256,192,14256,1,8,0:0:0:0:
256,192,14773,1,0,0:0:0:0:
256,192,14859,1,0,0:0:0:0:
256,192,14945,1,0,0:0:0:0:
256,192,15118,1,8,0:0:0:0:
256,192,15463,1,0,0:0:0:0:
256,192,15635,1,0,0:0:0:0:
256,192,15807,1,0,0:0:0:0:
256,192,16152,1,8,0:0:0:0:
256,192,16325,1,0,0:0:0:0:
256,192,16411,1,0,0:0:0:0:
256,192,16497,1,8,0:0:0:0:
256,192,16669,1,0,0:0:0:0:
256,192,16756,1,8,0:0:0:0:
256,192,16842,1,0,0:0:0:0:
256,192,17014,1,8,0:0:0:0:
256,192,17531,1,0,0:0:0:0:
256,192,17618,1,0,0:0:0:0:
256,192,17704,1,0,0:0:0:0:
256,192,17876,1,8,0:0:0:0:
256,192,18049,1,0,0:0:0:0:
256,192,18221,1,0,0:0:0:0:
256,192,18566,1,0,0:0:0:0:
256,192,18911,1,8,0:0:0:0:
256,192,19083,1,0,0:0:0:0:
256,192,19169,1,0,0:0:0:0:
256,192,19256,1,0,0:0:0:0:
256,192,19428,1,0,0:0:0:0:
256,192,19600,1,8,0:0:0:0:
256,192,19773,1,0,0:0:0:0:
256,192,20290,1,0,0:0:0:0:
256,192,20376,1,0,0:0:0:0:
256,192,20462,1,0,0:0:0:0:
256,192,20635,1,0,0:0:0:0:
256,192,20980,1,8,0:0:0:0:
256,192,21324,1,8,0:0:0:0:
256,192,21669,1,8,0:0:0:0:
256,192,21842,1,0,0:0:0:0:
256,192,21928,1,0,0:0:0:0:
256,192,22014,1,8,0:0:0:0:
256,192,22100,1,8,0:0:0:0:
256,192,22186,1,0,0:0:0:0:
256,192,22273,1,0,0:0:0:0:
256,192,22359,1,8,0:0:0:0:
256,192,22531,1,0,0:0:0:0:
256,192,22876,1,8,0:0:0:0:
256,192,23048,1,0,0:0:0:0:
256,192,23135,1,0,0:0:0:0:
256,192,23221,1,0,0:0:0:0:
256,192,23393,1,8,0:0:0:0:
256,192,23566,1,8,0:0:0:0:
256,192,23738,1,0,0:0:0:0:
256,192,24083,1,0,0:0:0:0:
256,192,24428,1,8,0:0:0:0:
256,192,24600,1,0,0:0:0:0:
256,192,24686,1,0,0:0:0:0:
256,192,24772,1,0,0:0:0:0:
256,192,24859,1,8,0:0:0:0:
256,192,24945,1,0,0:0:0:0:
256,192,25117,1,0,0:0:0:0:
256,192,25290,1,8,0:0:0:0:
256,192,25807,1,0,0:0:0:0:
256,192,25893,1,0,0:0:0:0:
256,192,25979,1,0,0:0:0:0:
256,192,26152,1,8,0:0:0:0:
256,192,26324,1,0,0:0:0:0:
256,192,26496,1,0,0:0:0:0:
256,192,26841,1,0,0:0:0:0:
256,192,27186,1,8,0:0:0:0:
256,192,27359,1,0,0:0:0:0:
256,192,27445,1,0,0:0:0:0:
256,192,27531,1,0,0:0:0:0:
256,192,27703,1,0,0:0:0:0:
256,192,27876,1,0,0:0:0:0:
256,192,28048,1,8,0:0:0:0:
256,192,28565,1,0,0:0:0:0:
256,192,28652,1,0,0:0:0:0:
256,192,28738,1,0,0:0:0:0:
256,192,28910,1,8,0:0:0:0:
256,192,29083,1,8,0:0:0:0:
256,192,29255,1,0,0:0:0:0:
256,192,29600,1,0,0:0:0:0:
256,192,29945,1,8,0:0:0:0:
256,192,30117,1,0,0:0:0:0:
256,192,30203,1,0,0:0:0:0:
256,192,30289,1,0,0:0:0:0:
256,192,30634,1,0,0:0:0:0:
256,192,30807,1,8,0:0:0:0:
256,192,31324,1,0,0:0:0:0:
256,192,31410,1,0,0:0:0:0:
256,192,31496,1,0,0:0:0:0:
256,192,31669,1,8,0:0:0:0:
256,192,31841,1,0,0:0:0:0:
256,192,31927,1,8,0:0:0:0:
256,192,32013,1,8,0:0:0:0:
256,192,32100,1,8,0:0:0:0:
256,192,32186,1,0,0:0:0:0:
256,192,32358,1,8,0:0:0:0:
256,192,32531,1,0,0:0:0:0:
256,192,32617,1,0,0:0:0:0:
256,192,32703,1,8,0:0:0:0:
256,192,32875,1,0,0:0:0:0:
256,192,33048,1,8,0:0:0:0:
256,192,33220,1,0,0:0:0:0:
256,192,33306,1,0,0:0:0:0:
256,192,33393,1,0,0:0:0:0:
256,192,33565,1,8,0:0:0:0:
256,192,34082,1,0,0:0:0:0:
256,192,34168,1,0,0:0:0:0:
256,192,34255,1,0,0:0:0:0:
256,192,34427,1,8,0:0:0:0:
256,192,34599,1,8,0:0:0:0:
256,192,34772,1,0,0:0:0:0:
256,192,35117,1,0,0:0:0:0:
256,192,35461,1,8,0:0:0:0:
256,192,35634,1,0,0:0:0:0:
256,192,35720,1,0,0:0:0:0:
256,192,35806,1,8,0:0:0:0:
256,192,35979,1,0,0:0:0:0:
256,192,36151,1,0,0:0:0:0:
256,192,36324,1,8,0:0:0:0:
256,192,36841,1,0,0:0:0:0:
256,192,36927,1,0,0:0:0:0:
256,192,37013,1,0,0:0:0:0:
256,192,37186,1,8,0:0:0:0:
256,192,37358,1,0,0:0:0:0:
256,192,37530,1,0,0:0:0:0:
256,192,37875,1,0,0:0:0:0:
256,192,38220,1,8,0:0:0:0:
256,192,38392,1,0,0:0:0:0:
256,192,38479,1,0,0:0:0:0:
256,192,38565,1,8,0:0:0:0:
256,192,38737,1,0,0:0:0:0:
256,192,38823,1,8,0:0:0:0:
256,192,38910,1,0,0:0:0:0:
256,192,39082,1,8,0:0:0:0:
256,192,39599,1,0,0:0:0:0:
256,192,39685,1,0,0:0:0:0:
256,192,39772,1,0,0:0:0:0:
256,192,39944,1,8,0:0:0:0:
256,192,40116,1,0,0:0:0:0:
256,192,40289,1,0,0:0:0:0:
256,192,40634,1,0,0:0:0:0:
256,192,40978,1,8,0:0:0:0:
256,192,41151,1,0,0:0:0:0:
256,192,41237,1,0,0:0:0:0:
256,192,41323,1,0,0:0:0:0:
256,192,41496,1,0,0:0:0:0:
256,192,41668,1,8,0:0:0:0:
256,192,41840,1,0,0:0:0:0:
256,192,42358,1,0,0:0:0:0:
256,192,42444,1,0,0:0:0:0:
256,192,42530,1,0,0:0:0:0:
256,192,42702,1,0,0:0:0:0:
256,192,43047,1,8,0:0:0:0:
256,192,43392,1,8,0:0:0:0:
256,192,43737,1,0,0:0:0:0:
256,192,43909,1,8,0:0:0:0:
256,192,43995,1,8,0:0:0:0:
256,192,44082,1,0,0:0:0:0:
256,192,44168,1,0,0:0:0:0:
256,192,44254,1,8,0:0:0:0:
256,192,44426,1,0,0:0:0:0:
256,192,44599,1,8,0:0:0:0:
256,192,44944,1,8,0:0:0:0:
256,192,45116,1,0,0:0:0:0:
256,192,45202,1,0,0:0:0:0:
256,192,45289,1,8,0:0:0:0:
256,192,45461,1,0,0:0:0:0:
256,192,45633,1,0,0:0:0:0:
256,192,45806,1,8,0:0:0:0:
256,192,45978,1,0,0:0:0:0:
256,192,46151,1,8,0:0:0:0:
256,192,46323,1,8,0:0:0:0:
256,192,46495,1,0,0:0:0:0:
256,192,46668,1,8,0:0:0:0:
256,192,46754,1,8,0:0:0:0:
256,192,46840,1,8,0:0:0:0:
256,192,47013,1,0,0:0:0:0:
256,192,47185,1,0,0:0:0:0:
256,192,47357,1,8,0:0:0:0:
256,192,47702,1,8,0:0:0:0:
256,192,47875,1,0,0:0:0:0:
256,192,47961,1,0,0:0:0:0:
256,192,48047,1,8,0:0:0:0:
256,192,48219,1,8,0:0:0:0:
256,192,48392,1,0,0:0:0:0:
256,192,48564,1,8,0:0:0:0:
256,192,48737,1,0,0:0:0:0:
256,192,48909,1,8,0:0:0:0:
256,192,49081,1,0,0:0:0:0:
256,192,49254,1,0,0:0:0:0:
256,192,49426,1,8,0:0:0:0:
256,192,49512,1,8,0:0:0:0:
256,192,49599,1,0,0:0:0:0:
256,192,49771,1,8,0:0:0:0:
256,192,49943,1,0,0:0:0:0:
256,192,50116,1,8,0:0:0:0:
256,192,50461,1,8,0:0:0:0:
256,192,50633,1,0,0:0:0:0:
256,192,50719,1,0,0:0:0:0:
256,192,50805,1,8,0:0:0:0:
256,192,50978,1,8,0:0:0:0:
256,192,51150,1,0,0:0:0:0:
256,192,51323,1,8,0:0:0:0:
256,192,51495,1,8,0:0:0:0:
256,192,51667,1,0,0:0:0:0:
256,192,51840,1,8,0:0:0:0:
256,192,52012,1,0,0:0:0:0:
256,192,52185,1,8,0:0:0:0:
256,192,52271,1,8,0:0:0:0:
256,192,52357,1,0,0:0:0:0:
256,192,52529,1,8,0:0:0:0:
256,192,52702,1,8,0:0:0:0:
256,192,52874,1,0,0:0:0:0:
256,192,53219,1,8,0:0:0:0:
256,192,53391,1,0,0:0:0:0:
256,192,53478,1,8,0:0:0:0:
256,192,53564,1,0,0:0:0:0:
256,192,53736,1,0,0:0:0:0:
256,192,53909,1,8,0:0:0:0:
256,192,54081,1,8,0:0:0:0:
256,192,54254,1,0,0:0:0:0:
256,192,54426,1,8,0:0:0:0:
256,192,54598,1,0,0:0:0:0:
256,192,54771,1,8,0:0:0:0:
256,192,54857,1,8,0:0:0:0:
256,192,54943,1,0,0:0:0:0:
256,192,55029,1,0,0:0:0:0:
256,192,55116,1,8,0:0:0:0:
256,192,55288,1,0,0:0:0:0:
256,192,55374,1,0,0:0:0:0:
256,192,55460,1,0,0:0:0:0:
256,192,55633,1,8,0:0:0:0:
256,192,55978,1,8,0:0:0:0:
256,192,56150,1,0,0:0:0:0:
256,192,56236,1,0,0:0:0:0:
256,192,56322,1,8,0:0:0:0:
256,192,56495,1,8,0:0:0:0:
256,192,56667,1,0,0:0:0:0:
256,192,56840,1,8,0:0:0:0:
256,192,57012,1,0,0:0:0:0:
256,192,57184,1,8,0:0:0:0:
256,192,57357,1,8,0:0:0:0:
256,192,57529,1,0,0:0:0:0:
256,192,57702,1,8,0:0:0:0:
256,192,57788,1,8,0:0:0:0:
256,192,57874,1,8,0:0:0:0:
256,192,58046,1,0,0:0:0:0:
256,192,58219,1,0,0:0:0:0:
256,192,58391,1,8,0:0:0:0:
256,192,58736,1,8,0:0:0:0:
256,192,58908,1,0,0:0:0:0:
256,192,58995,1,0,0:0:0:0:
256,192,59081,1,8,0:0:0:0:
256,192,59253,1,0,0:0:0:0:
256,192,59426,1,8,0:0:0:0:
256,192,59598,1,8,0:0:0:0:
256,192,59770,1,0,0:0:0:0:
256,192,59943,1,8,0:0:0:0:
256,192,60115,1,0,0:0:0:0:
256,192,60288,1,8,0:0:0:0:
256,192,60460,1,0,0:0:0:0:
256,192,60546,1,0,0:0:0:0:
256,192,60632,1,8,0:0:0:0:
256,192,60719,1,8,0:0:0:0:
256,192,60805,1,0,0:0:0:0:
256,192,60977,1,0,0:0:0:0:
256,192,61150,1,8,0:0:0:0:
256,192,61494,1,8,0:0:0:0:
256,192,61667,1,0,0:0:0:0:
256,192,61753,1,0,0:0:0:0:
256,192,61839,1,8,0:0:0:0:
256,192,62012,1,0,0:0:0:0:
256,192,62184,1,8,0:0:0:0:
256,192,62356,1,8,0:0:0:0:
256,192,62529,1,0,0:0:0:0:
256,192,62701,1,8,0:0:0:0:
256,192,62874,1,8,0:0:0:0:
256,192,63046,1,0,0:0:0:0:
256,192,63219,1,8,0:0:0:0:
256,192,63305,1,8,0:0:0:0:
256,192,63391,1,0,0:0:0:0:
256,192,63563,1,8,0:0:0:0:
256,192,63736,1,8,0:0:0:0:
256,192,63908,1,0,0:0:0:0:
256,192,64253,1,8,0:0:0:0:
256,192,64425,1,0,0:0:0:0:
256,192,64512,1,0,0:0:0:0:
256,192,64598,1,8,0:0:0:0:
256,192,64770,1,0,0:0:0:0:
256,192,64943,1,8,0:0:0:0:
256,192,65115,1,8,0:0:0:0:
256,192,65287,1,0,0:0:0:0:
256,192,65460,1,8,0:0:0:0:
256,192,65632,1,0,0:0:0:0:
256,192,65805,1,8,0:0:0:0:
256,192,65977,1,0,0:0:0:0:
256,192,66063,1,0,0:0:0:0:
256,192,66149,1,8,0:0:0:0:
256,192,66236,1,8,0:0:0:0:
256,192,66322,1,0,0:0:0:0:
256,192,66408,1,0,0:0:0:0:
256,192,66494,1,8,0:0:0:0:
256,192,66667,1,0,0:0:0:0:
256,192,67011,1,8,0:0:0:0:
256,192,67184,1,0,0:0:0:0:
256,192,67270,1,0,0:0:0:0:
256,192,67356,1,0,0:0:0:0:
256,192,67529,1,8,0:0:0:0:
256,192,67701,1,8,0:0:0:0:
256,192,67873,1,0,0:0:0:0:
256,192,68218,1,0,0:0:0:0:
256,192,68563,1,8,0:0:0:0:
256,192,68649,1,8,0:0:0:0:
256,192,68735,1,0,0:0:0:0:
256,192,68822,1,0,0:0:0:0:
256,192,68908,1,8,0:0:0:0:
256,192,69080,1,0,0:0:0:0:
256,192,69253,1,0,0:0:0:0:
256,192,69425,1,8,0:0:0:0:
256,192,69942,1,0,0:0:0:0:
256,192,70028,1,0,0:0:0:0:
256,192,70115,1,0,0:0:0:0:
256,192,70287,1,8,0:0:0:0:
256,192,70459,1,0,0:0:0:0:
256,192,70632,1,0,0:0:0:0:
256,192,70977,1,0,0:0:0:0:
256,192,71321,1,8,0:0:0:0:
256,192,71408,1,8,0:0:0:0:
256,192,71494,1,0,0:0:0:0:
256,192,71580,1,0,0:0:0:0:
256,192,71666,1,8,0:0:0:0:
256,192,71839,1,0,0:0:0:0:
256,192,71925,1,0,0:0:0:0:
256,192,72011,1,8,0:0:0:0:
256,192,72184,1,0,0:0:0:0:
256,192,72701,1,0,0:0:0:0:
256,192,72787,1,0,0:0:0:0:
256,192,72873,1,0,0:0:0:0:
256,192,73046,1,8,0:0:0:0:
256,192,73218,1,8,0:0:0:0:
256,192,73390,1,0,0:0:0:0:
256,192,73735,1,0,0:0:0:0:
256,192,74080,1,8,0:0:0:0:
256,192,74252,1,0,0:0:0:0:
256,192,74339,1,0,0:0:0:0:
256,192,74425,1,0,0:0:0:0:
256,192,74597,1,8,0:0:0:0:
256,192,74770,1,0,0:0:0:0:
256,192,74942,1,8,0:0:0:0:
256,192,75459,1,0,0:0:0:0:
256,192,75545,1,0,0:0:0:0:
256,192,75632,1,0,0:0:0:0:
256,192,75804,1,8,0:0:0:0:
256,192,75976,1,0,0:0:0:0:
256,192,76063,1,8,0:0:0:0:
256,192,76149,1,8,0:0:0:0:
256,192,76235,1,8,0:0:0:0:
256,192,76321,1,0,0:0:0:0:
256,192,76494,1,8,0:0:0:0:
256,192,76666,1,0,0:0:0:0:
256,192,76752,1,0,0:0:0:0:
256,192,76838,1,8,0:0:0:0:
256,192,77011,1,0,0:0:0:0:
256,192,77183,1,8,0:0:0:0:
256,192,77356,1,0,0:0:0:0:
256,192,77528,1,0,0:0:0:0:
256,192,77700,1,8,0:0:0:0:
256,192,78218,1,0,0:0:0:0:
256,192,78304,1,0,0:0:0:0:
256,192,78390,1,0,0:0:0:0:
256,192,78562,1,8,0:0:0:0:
256,192,78735,1,8,0:0:0:0:
256,192,78907,1,0,0:0:0:0:
256,192,79252,1,0,0:0:0:0:
256,192,79597,1,8,0:0:0:0:
256,192,79769,1,0,0:0:0:0:
256,192,79855,1,0,0:0:0:0:
256,192,79942,1,8,0:0:0:0:
256,192,80114,1,0,0:0:0:0:
256,192,80286,1,0,0:0:0:0:
256,192,80459,1,8,0:0:0:0:
256,192,80976,1,0,0:0:0:0:
256,192,81062,1,0,0:0:0:0:
256,192,81149,1,0,0:0:0:0:
256,192,81321,1,8,0:0:0:0:
256,192,81493,1,0,0:0:0:0:
256,192,81666,1,0,0:0:0:0:
256,192,82011,1,0,0:0:0:0:
256,192,82355,1,8,0:0:0:0:
256,192,82528,1,0,0:0:0:0:
256,192,82614,1,0,0:0:0:0:
256,192,82700,1,8,0:0:0:0:
256,192,82873,1,0,0:0:0:0:
256,192,82959,1,8,0:0:0:0:
256,192,83045,1,0,0:0:0:0:
256,192,83217,1,8,0:0:0:0:
256,192,83735,1,0,0:0:0:0:
256,192,83821,1,0,0:0:0:0:
256,192,83907,1,0,0:0:0:0:
256,192,84079,1,8,0:0:0:0:
256,192,84252,1,0,0:0:0:0:
256,192,84424,1,0,0:0:0:0:
256,192,84769,1,0,0:0:0:0:
256,192,85114,1,8,0:0:0:0:
256,192,85286,1,0,0:0:0:0:
256,192,85372,1,0,0:0:0:0:
256,192,85459,1,0,0:0:0:0:
256,192,85631,1,0,0:0:0:0:
256,192,85803,1,8,0:0:0:0:
256,192,85976,1,0,0:0:0:0:
256,192,86493,1,0,0:0:0:0:
256,192,86579,1,0,0:0:0:0:
256,192,86665,1,0,0:0:0:0:
256,192,86838,1,0,0:0:0:0:
256,192,87010,1,0,0:0:0:0:
256,192,87183,1,8,0:0:0:0:
256,192,87527,1,8,0:0:0:0:
256,192,87872,1,0,0:0:0:0:
256,192,88045,1,8,0:0:0:0:
256,192,88131,1,8,0:0:0:0:
256,192,88217,1,0,0:0:0:0:
256,192,88303,1,0,0:0:0:0:
256,192,88389,1,8,0:0:0:0:
256,192,88562,1,0,0:0:0:0:
256,192,88734,1,12,0:0:0:0:
256,192,89079,1,8,0:0:0:0:
256,192,89252,1,0,0:0:0:0:
256,192,89424,1,0,0:0:0:0:
256,192,89510,1,0,0:0:0:0:
256,192,89596,1,8,0:0:0:0:
256,192,89769,1,0,0:0:0:0:
256,192,89941,1,8,0:0:0:0:
256,192,90114,1,0,0:0:0:0:
256,192,90286,1,8,0:0:0:0:
256,192,90458,1,8,0:0:0:0:
256,192,90545,1,8,0:0:0:0:
256,192,90631,1,0,0:0:0:0:
256,192,90803,1,8,0:0:0:0:
256,192,91148,1,0,0:0:0:0:
256,192,91234,1,0,0:0:0:0:
256,192,91320,1,8,0:0:0:0:
256,192,91407,1,0,0:0:0:0:
256,192,91493,1,8,0:0:0:0:
256,192,91665,1,0,0:0:0:0:
256,192,91838,1,8,0:0:0:0:
256,192,92010,1,0,0:0:0:0:
256,192,92182,1,0,0:0:0:0:
256,192,92269,1,8,0:0:0:0:
256,192,92355,1,0,0:0:0:0:
256,192,92527,1,8,0:0:0:0:
256,192,92700,1,0,0:0:0:0:
256,192,92786,1,0,0:0:0:0:
256,192,92872,1,0,0:0:0:0:
256,192,93044,1,8,0:0:0:0:
256,192,93217,1,8,0:0:0:0:
256,192,93303,1,0,0:0:0:0:
256,192,93389,1,8,0:0:0:0:
256,192,93562,1,0,0:0:0:0:
256,192,93906,1,8,0:0:0:0:
256,192,93993,1,0,0:0:0:0:
256,192,94079,1,0,0:0:0:0:
256,192,94165,1,0,0:0:0:0:
256,192,94251,1,8,0:0:0:0:
256,192,94596,1,8,0:0:0:0:
256,192,94768,1,8,0:0:0:0:
256,192,94941,1,0,0:0:0:0:
256,192,95027,1,0,0:0:0:0:
256,192,95113,1,8,0:0:0:0:
256,192,95286,1,0,0:0:0:0:
256,192,95458,1,8,0:0:0:0:
256,192,95630,1,8,0:0:0:0:
256,192,95803,1,0,0:0:0:0:
256,192,95975,1,8,0:0:0:0:
256,192,96061,1,8,0:0:0:0:
256,192,96148,1,0,0:0:0:0:
256,192,96320,1,8,0:0:0:0:
256,192,96492,1,0,0:0:0:0:
256,192,96579,1,0,0:0:0:0:
256,192,96665,1,8,0:0:0:0:
256,192,96751,1,0,0:0:0:0:
256,192,96837,1,8,0:0:0:0:
256,192,96923,1,8,0:0:0:0:
256,192,97010,1,0,0:0:0:0:
256,192,97354,1,8,0:0:0:0:
256,192,97527,1,0,0:0:0:0:
256,192,97699,1,0,0:0:0:0:
256,192,97785,1,8,0:0:0:0:
256,192,97872,1,0,0:0:0:0:
256,192,98044,1,8,0:0:0:0:
256,192,98217,1,0,0:0:0:0:
256,192,98303,1,0,0:0:0:0:
256,192,98389,1,8,0:0:0:0:
256,192,98561,1,0,0:0:0:0:
256,192,98734,1,8,0:0:0:0:
256,192,98820,1,8,0:0:0:0:
256,192,98906,1,0,0:0:0:0:
256,192,98992,1,0,0:0:0:0:
256,192,99079,1,8,0:0:0:0:
256,192,99251,1,0,0:0:0:0:
256,192,99423,1,12,0:0:0:0:
256,192,99768,1,0,0:0:0:0:
256,192,100113,1,0,0:0:0:0:
256,192,100285,1,8,0:0:0:0:
256,192,100458,1,8,0:0:0:0:
256,192,100544,1,8,0:0:0:0:
256,192,100630,1,0,0:0:0:0:
256,192,100803,1,0,0:0:0:0:
256,192,100975,1,8,0:0:0:0:
256,192,101147,1,0,0:0:0:0:
256,192,101320,1,8,0:0:0:0:
256,192,101492,1,0,0:0:0:0:
256,192,101578,1,0,0:0:0:0:
256,192,101665,1,8,0:0:0:0:
256,192,101837,1,8,0:0:0:0:
256,192,102182,1,0,0:0:0:0:
256,192,102268,1,8,0:0:0:0:
256,192,102354,1,0,0:0:0:0:
256,192,102440,1,0,0:0:0:0:
256,192,102527,1,8,0:0:0:0:
256,192,102699,1,0,0:0:0:0:
256,192,102871,1,8,0:0:0:0:
256,192,103044,1,8,0:0:0:0:
256,192,103216,1,0,0:0:0:0:
256,192,103302,1,8,0:0:0:0:
256,192,103389,1,0,0:0:0:0:
256,192,103561,1,0,0:0:0:0:
256,192,103733,1,8,0:0:0:0:
256,192,103906,1,0,0:0:0:0:
256,192,103992,1,0,0:0:0:0:
256,192,104078,1,8,0:0:0:0:
256,192,104251,1,0,0:0:0:0:
256,192,104423,1,8,0:0:0:0:
256,192,104595,1,8,0:0:0:0:
256,192,104768,1,0,0:0:0:0:
256,192,104940,1,12,0:0:0:0:
256,192,105285,1,8,0:0:0:0:
256,192,105630,1,8,0:0:0:0:
256,192,105802,1,0,0:0:0:0:
256,192,105975,1,8,0:0:0:0:
256,192,106061,1,8,0:0:0:0:
256,192,106147,1,0,0:0:0:0:
256,192,106319,1,0,0:0:0:0:
256,192,106492,1,8,0:0:0:0:
256,192,106664,1,0,0:0:0:0:
256,192,106837,1,8,0:0:0:0:
256,192,107009,1,8,0:0:0:0:
256,192,107095,1,8,0:0:0:0:
256,192,107182,1,0,0:0:0:0:
256,192,107354,1,8,0:0:0:0:
256,192,107526,1,0,0:0:0:0:
256,192,107613,1,0,0:0:0:0:
256,192,107699,1,8,0:0:0:0:
256,192,107785,1,0,0:0:0:0:
256,192,107871,1,8,0:0:0:0:
256,192,107957,1,8,0:0:0:0:
256,192,108044,1,0,0:0:0:0:
256,192,108388,1,8,0:0:0:0:
256,192,108561,1,0,0:0:0:0:
256,192,108733,1,8,0:0:0:0:
256,192,108819,1,8,0:0:0:0:
256,192,108906,1,0,0:0:0:0:
256,192,109078,1,8,0:0:0:0:
256,192,109250,1,8,0:0:0:0:
256,192,109595,1,0,0:0:0:0:
256,192,109681,1,0,0:0:0:0:
256,192,109768,1,8,0:0:0:0:
256,192,109940,1,0,0:0:0:0:
256,192,110112,1,8,0:0:0:0:
256,192,110199,1,8,0:0:0:0:
256,192,110285,1,0,0:0:0:0:
256,192,110457,1,12,0:0:0:0:
256,192,110802,1,0,0:0:0:0:
256,192,111147,1,8,0:0:0:0:
256,192,111319,1,0,0:0:0:0:
256,192,111405,1,0,0:0:0:0:
256,192,111492,1,0,0:0:0:0:
256,192,111664,1,8,0:0:0:0:
256,192,111836,1,8,0:0:0:0:
256,192,112009,1,0,0:0:0:0:
256,192,112354,1,0,0:0:0:0:
256,192,112698,1,0,0:0:0:0:
256,192,112785,1,8,0:0:0:0:
256,192,112871,1,0,0:0:0:0:
256,192,112957,1,0,0:0:0:0:
256,192,113043,1,8,0:0:0:0:
256,192,113216,1,0,0:0:0:0:
256,192,113388,1,0,0:0:0:0:
256,192,113560,1,8,0:0:0:0:
256,192,113905,1,8,0:0:0:0:
256,192,114078,1,0,0:0:0:0:
256,192,114164,1,0,0:0:0:0:
256,192,114250,1,0,0:0:0:0:
256,192,114422,1,8,0:0:0:0:
256,192,114595,1,0,0:0:0:0:
256,192,114767,1,0,0:0:0:0:
256,192,115112,1,0,0:0:0:0:
256,192,115457,1,8,0:0:0:0:
256,192,115543,1,8,0:0:0:0:
256,192,115629,1,0,0:0:0:0:
256,192,115715,1,0,0:0:0:0:
256,192,115802,1,8,0:0:0:0:
256,192,115974,1,0,0:0:0:0:
256,192,116060,1,0,0:0:0:0:
256,192,116147,1,8,0:0:0:0:
256,192,116319,1,0,0:0:0:0:
256,192,116578,1,0,0:0:0:0:
256,192,116664,1,8,0:0:0:0:
256,192,116836,1,0,0:0:0:0:
256,192,116922,1,0,0:0:0:0:
256,192,117009,1,0,0:0:0:0:
256,192,117181,1,8,0:0:0:0:
256,192,117353,1,8,0:0:0:0:
256,192,117526,1,0,0:0:0:0:
256,192,117871,1,0,0:0:0:0:
256,192,118215,1,0,0:0:0:0:
256,192,118302,1,8,0:0:0:0:
256,192,118388,1,0,0:0:0:0:
256,192,118474,1,0,0:0:0:0:
256,192,118560,1,8,0:0:0:0:
256,192,118733,1,0,0:0:0:0:
256,192,118905,1,0,0:0:0:0:
256,192,119077,1,8,0:0:0:0:
256,192,119422,1,8,0:0:0:0:
256,192,119595,1,0,0:0:0:0:
256,192,119681,1,0,0:0:0:0:
256,192,119767,1,0,0:0:0:0:
256,192,119939,1,8,0:0:0:0:
256,192,120112,1,0,0:0:0:0:
256,192,120198,1,8,0:0:0:0:
256,192,120284,1,8,0:0:0:0:
256,192,120370,1,8,0:0:0:0:
256,192,120457,1,0,0:0:0:0:
256,192,120629,1,8,0:0:0:0:
256,192,120801,1,0,0:0:0:0:
256,192,120888,1,0,0:0:0:0:
256,192,120974,1,8,0:0:0:0:
256,192,121146,1,0,0:0:0:0:
256,192,121319,1,8,0:0:0:0:
256,192,121491,1,0,0:0:0:0:
256,192,121663,1,0,0:0:0:0:
256,192,121836,1,8,0:0:0:0:
256,192,122094,1,0,0:0:0:0:
256,192,122181,1,8,0:0:0:0:
256,192,122353,1,0,0:0:0:0:
256,192,122439,1,0,0:0:0:0:
256,192,122525,1,0,0:0:0:0:
256,192,122698,1,8,0:0:0:0:
256,192,122870,1,8,0:0:0:0:
256,192,123043,1,0,0:0:0:0:
256,192,123387,1,0,0:0:0:0:
256,192,123732,1,8,0:0:0:0:
256,192,123818,1,8,0:0:0:0:
256,192,123905,1,0,0:0:0:0:
256,192,123991,1,0,0:0:0:0:
256,192,124077,1,8,0:0:0:0:
256,192,124249,1,0,0:0:0:0:
256,192,124422,1,0,0:0:0:0:
256,192,124594,1,8,0:0:0:0:
256,192,124939,1,8,0:0:0:0:
256,192,125112,1,0,0:0:0:0:
256,192,125198,1,0,0:0:0:0:
256,192,125284,1,0,0:0:0:0:
256,192,125456,1,8,0:0:0:0:
256,192,125629,1,0,0:0:0:0:
256,192,125801,1,0,0:0:0:0:
256,192,126146,1,0,0:0:0:0:
256,192,126491,1,0,0:0:0:0:
256,192,126577,1,8,0:0:0:0:
256,192,126663,1,0,0:0:0:0:
256,192,126749,1,0,0:0:0:0:
256,192,126836,1,8,0:0:0:0:
256,192,127008,1,0,0:0:0:0:
256,192,127094,1,0,0:0:0:0:
256,192,127180,1,0,0:0:0:0:
256,192,127353,1,8,0:0:0:0:
256,192,127698,1,8,0:0:0:0:
256,192,127870,1,0,0:0:0:0:
256,192,127956,1,0,0:0:0:0:
256,192,128042,1,0,0:0:0:0:
256,192,128215,1,8,0:0:0:0:
256,192,128387,1,0,0:0:0:0:
256,192,128560,1,0,0:0:0:0:
256,192,128904,1,0,0:0:0:0:
256,192,129249,1,8,0:0:0:0:
256,192,129335,1,8,0:0:0:0:
256,192,129422,1,0,0:0:0:0:
256,192,129508,1,0,0:0:0:0:
256,192,129594,1,8,0:0:0:0:
256,192,129766,1,0,0:0:0:0:
256,192,129939,1,8,0:0:0:0:
256,192,130111,1,0,0:0:0:0:
256,192,130456,1,8,0:0:0:0:
256,192,130628,1,0,0:0:0:0:
256,192,130715,1,0,0:0:0:0:
256,192,130801,1,0,0:0:0:0:
256,192,130973,1,0,0:0:0:0:
256,192,131146,1,0,0:0:0:0:
256,192,131318,1,8,0:0:0:0:
256,192,131663,1,8,0:0:0:0:
256,192,132008,1,0,0:0:0:0:
256,192,132094,1,0,0:0:0:0:
256,192,132180,1,0,0:0:0:0:
256,192,132352,1,8,0:0:0:0:
256,192,132439,1,0,0:0:0:0:
256,192,132525,1,8,0:0:0:0:
256,192,132611,1,8,0:0:0:0:
256,192,132697,1,0,0:0:0:0:
256,192,132870,1,12,0:0:0:0:
256,192,133214,1,8,0:0:0:0:
256,192,133387,1,0,0:0:0:0:
256,192,133559,1,0,0:0:0:0:
256,192,133646,1,0,0:0:0:0:
256,192,133732,1,8,0:0:0:0:
256,192,133904,1,0,0:0:0:0:
256,192,134077,1,8,0:0:0:0:
256,192,134249,1,0,0:0:0:0:
256,192,134421,1,8,0:0:0:0:
256,192,134594,1,8,0:0:0:0:
256,192,134680,1,8,0:0:0:0:
256,192,134766,1,0,0:0:0:0:
256,192,134939,1,8,0:0:0:0:
256,192,135283,1,0,0:0:0:0:
256,192,135370,1,0,0:0:0:0:
256,192,135456,1,8,0:0:0:0:
256,192,135542,1,0,0:0:0:0:
256,192,135628,1,8,0:0:0:0:
256,192,135801,1,0,0:0:0:0:
256,192,135973,1,8,0:0:0:0:
256,192,136145,1,0,0:0:0:0:
256,192,136318,1,0,0:0:0:0:
256,192,136404,1,8,0:0:0:0:
256,192,136490,1,0,0:0:0:0:
256,192,136663,1,8,0:0:0:0:
256,192,136835,1,0,0:0:0:0:
256,192,136921,1,0,0:0:0:0:
256,192,137007,1,0,0:0:0:0:
256,192,137180,1,8,0:0:0:0:
256,192,137352,1,8,0:0:0:0:
256,192,137438,1,0,0:0:0:0:
256,192,137525,1,8,0:0:0:0:
256,192,137697,1,0,0:0:0:0:
256,192,138042,1,8,0:0:0:0:
256,192,138128,1,0,0:0:0:0:
256,192,138214,1,0,0:0:0:0:
256,192,138300,1,0,0:0:0:0:
256,192,138387,1,8,0:0:0:0:
256,192,138731,1,8,0:0:0:0:
256,192,138904,1,8,0:0:0:0:
256,192,139076,1,0,0:0:0:0:
256,192,139162,1,0,0:0:0:0:
256,192,139249,1,8,0:0:0:0:
256,192,139421,1,0,0:0:0:0:
256,192,139593,1,8,0:0:0:0:
256,192,139938,1,0,0:0:0:0:
256,192,140111,1,8,0:0:0:0:
256,192,140283,1,0,0:0:0:0:
256,192,140455,1,8,0:0:0:0:
256,192,140628,1,0,0:0:0:0:
256,192,140714,1,0,0:0:0:0:
256,192,140800,1,0,0:0:0:0:
256,192,140973,1,8,0:0:0:0:
256,192,141145,1,0,0:0:0:0:
256,192,141490,1,8,0:0:0:0:
256,192,141835,1,0,0:0:0:0:
256,192,142007,1,8,0:0:0:0:
256,192,142352,1,0,0:0:0:0:
256,192,142697,1,0,0:0:0:0:
256,192,143042,1,0,0:0:0:0:
256,192,143214,1,8,0:0:0:0:
256,192,143386,1,8,0:0:0:0:
256,192,143559,1,0,0:0:0:0:
256,192,143904,1,8,0:0:0:0:
