osu file format v14

[General]
AudioFilename: Astronaut - Rain (MitiS Remix).mp3
AudioLeadIn: 0
PreviewTime: 33170
Countdown: 1
SampleSet: Soft
StackLeniency: 0.3
Mode: 0
LetterboxInBreaks: 1
WidescreenStoryboard: 1

[Editor]
Bookmarks: 99377
DistanceSpacing: 1.2
BeatDivisor: 2
GridSize: 4
TimelineZoom: 1

[Metadata]
Title:Rain (MitiS Remix)
TitleUnicode:Rain (MitiS Remix)
Artist:Astronaut
ArtistUnicode:Astronaut
Creator:Come[Back]Home
Version:Easy
Source:
Tags:phaZ, Ashasaki, dnb, drum_and_bass
BeatmapID:732289
BeatmapSetID:135239

[Difficulty]
HPDrainRate:4
CircleSize:3
OverallDifficulty:4
ApproachRate:4
SliderMultiplier:1
SliderTickRate:1

[Events]
//Background and Video events
0,0,"2b.jpg",0,0
//Break Periods
//Storyboard Layer 0 (Background)
//Storyboard Layer 1 (Fail)
//Storyboard Layer 2 (Pass)
//Storyboard Layer 3 (Foreground)
//Storyboard Sound Samples

[TimingPoints]
67,344.827586206897,4,2,0,70,1,0
44204,-100,4,1,0,90,0,1
63515,-100,4,1,0,70,0,0
64032,-100,4,2,0,70,0,0
65584,-100,4,3,0,70,0,0
66273,-100,4,1,0,70,0,1
88342,-100,4,2,0,70,0,0

[HitObjects]
128,332,67,6,0,P|152:272|96:168,1,150
184,88,929,2,0,L|308:80,1,100
432,328,2825,6,0,B|428:288|428:288|440:216|440:216|432:136,1,150
344,104,3687,2,0,L|220:128,1,100
168,284,4549,1,0,0:0:0:0:
48,76,5239,1,0,0:0:0:0:
152,132,5584,6,0,P|204:140|320:76,1,150
412,116,6446,2,0,P|424:172|416:224,1,100
332,296,7135,2,0,L|208:292,1,100
60,48,8342,6,0,B|128:60|128:60|224:36,1,150
324,72,9204,1,0,0:0:0:0:
336,252,9722,2,0,P|288:272|232:268,1,100
136,208,10411,2,0,L|148:92,1,100
244,40,11101,6,0,B|304:44|304:44|332:32|332:32|400:36,1,150
456,136,11963,1,0,0:0:0:0:
412,248,12308,2,0,P|368:272|176:224,1,250
160,116,13515,1,0,0:0:0:0:
260,48,13860,6,0,B|332:56|332:56|420:24,1,150
476,124,14722,1,0,0:0:0:0:
368,180,15067,2,0,P|356:228|404:328,1,150
156,352,16273,1,0,0:0:0:0:
72,268,16618,6,0,B|88:212|88:212|72:116,1,150
152,32,17480,1,0,0:0:0:0:
232,124,17825,1,0,0:0:0:0:
328,196,18170,2,0,P|388:200|444:180,1,100
164,40,19377,6,0,P|124:88|152:204,1,150
204,264,20239,1,0,0:0:0:0:
384,244,20756,2,0,P|360:168|440:72,1,200
192,28,22135,6,0,L|32:36,1,150
12,152,22998,1,0,0:0:0:0:
80,252,23342,2,0,P|148:244|228:292,1,150
300,368,24204,1,0,0:0:0:0:
404,308,24549,1,0,0:0:0:0:
456,200,24894,6,0,P|460:144|408:52,1,150
300,40,25756,1,0,0:0:0:0:
208,116,26101,2,0,B|156:128|156:128|44:104,1,150
20,344,27308,1,0,0:0:0:0:
120,276,27653,6,0,P|196:264|296:288,1,150
360,352,28515,1,0,0:0:0:0:
436,260,28860,1,0,0:0:0:0:
384,152,29204,2,0,B|380:96|380:96|396:44,1,100
92,68,30411,6,0,L|84:252,1,150
160,312,31273,2,0,B|216:300|216:300|320:324,1,150
404,252,32135,2,0,L|408:132,1,100
320,72,32825,1,0,0:0:0:0:
220,140,33170,6,0,P|164:160|40:64,2,200
304,56,34894,2,0,P|336:100|340:148,1,100
272,244,35584,1,0,0:0:0:0:
208,344,35929,6,0,L|420:352,2,200
124,260,37653,2,0,P|120:200|132:160,1,100
236,104,38342,1,0,0:0:0:0:
292,208,38687,6,0,B|348:212|348:212|440:204|440:204|496:208,2,200
208,120,40411,2,0,L|96:128,1,100
44,228,41101,1,0,0:0:0:0:
256,192,41446,12,0,42825,0:0:0:0:
104,336,44204,6,0,B|100:284|100:284|112:200|112:200|108:132,1,200
204,60,45239,1,0,0:0:0:0:
288,148,45584,2,0,P|336:120|484:180,1,200
376,236,46618,1,0,0:0:0:0:
276,300,46963,6,0,B|184:312|184:312|44:276,1,200
40,172,47998,1,0,0:0:0:0:
120,84,48342,2,0,P|168:68|336:88,1,200
380,180,49377,1,0,0:0:0:0:
344,296,49722,6,0,L|136:308,1,200
52,232,50756,1,0,0:0:0:0:
80,116,51101,2,0,B|136:108|136:108|232:120|232:120|300:112,1,200
380,52,52135,1,0,0:0:0:0:
476,124,52480,6,0,B|456:252|456:252|488:340,1,200
368,360,53515,1,0,0:0:0:0:
280,276,53860,2,0,P|220:260|80:300,1,200
20,196,54894,1,0,0:0:0:0:
112,120,55239,6,0,P|164:124|216:108,1,100
304,36,55929,2,0,P|352:22|401:27,1,100
364,140,56618,2,0,B|344:220|344:220|380:348,1,200
260,364,57653,1,0,0:0:0:0:
176,276,57998,6,0,L|76:280,1,100
28,172,58687,2,0,P|24:116|52:76,1,100
148,148,59377,2,0,P|204:156|340:92,1,200
408,8,60411,1,0,0:0:0:0:
464,112,60756,6,0,L|456:216,1,100
352,268,61446,2,0,P|300:268|240:292,1,100
148,228,62135,2,0,B|156:176|156:176|148:88|148:88|164:24,1,200
280,16,63170,1,0,0:0:0:0:
360,104,63515,6,0,P|416:112|512:76,1,150
504,204,64377,1,0,0:0:0:0:
364,316,64894,6,0,L|248:308,1,100
208,204,65584,2,0,L|128:208,2,50
256,96,66273,6,0,P|308:144|296:288,1,200
208,328,67308,1,0,0:0:0:0:
104,268,67653,2,0,B|112:172|112:172|88:68,1,200
200,24,68687,1,0,0:0:0:0:
284,112,69032,6,0,P|372:96|492:152,1,200
496,252,70067,1,0,0:0:0:0:
404,332,70411,2,0,B|344:324|344:324|260:332|260:332|172:324,1,200
116,244,71446,1,0,0:0:0:0:
128,124,71791,6,0,P|172:96|320:112,1,200
380,208,72825,1,0,0:0:0:0:
468,292,73170,2,0,L|480:72,1,200
372,36,74204,1,0,0:0:0:0:
268,92,74549,6,0,P|216:104|72:60,1,200
28,176,75584,1,0,0:0:0:0:
76,288,75929,2,0,L|296:276,1,200
360,192,76963,1,0,0:0:0:0:
275,106,77308,6,0,L|164:100,1,100
64,148,77998,1,0,0:0:0:0:
108,260,78342,1,0,0:0:0:0:
216,316,78687,2,0,B|272:312|272:312|368:320|368:320|428:316,1,200
488,220,79722,1,0,0:0:0:0:
432,116,80067,6,0,P|380:104|328:108,1,100
268,208,80756,1,0,0:0:0:0:
256,328,81101,1,0,0:0:0:0:
160,256,81446,2,0,P|148:192|252:92,1,200
268,208,82480,1,0,0:0:0:0:
364,280,82825,6,0,L|468:272,1,100
492,156,83515,2,0,P|432:136|384:136,1,100
288,184,84204,2,0,P|232:192|92:136,1,200
48,36,85239,1,0,0:0:0:0:
256,192,85584,12,0,88342,0:0:0:0:
104,328,89722,6,0,B|56:208|204:132,1,200
276,116,90756,1,0,0:0:0:0:
344,216,91101,6,0,L|456:220,1,100
384,324,91791,2,0,L|272:320,1,100
236,212,92480,6,0,B|248:144|304:120|304:120|288:24,1,200
172,16,93515,1,0,0:0:0:0:
72,84,93860,6,0,P|64:140|72:196,1,100
108,296,94549,2,0,L|232:288,1,100
268,184,95239,2,0,B|416:192|416:192|488:172,2,200
256,192,96791,12,0,99377,0:0:0:0:
