osu file format v14

[General]
AudioFilename: audio.mp3
AudioLeadIn: 0
PreviewTime: 62967
Countdown: 0
SampleSet: Soft
StackLeniency: 0.7
Mode: 0
LetterboxInBreaks: 0
WidescreenStoryboard: 0

[Editor]
Bookmarks: 39999,84999,103749,129999,144999,161874,174999,186249
DistanceSpacing: 0.8
BeatDivisor: 4
GridSize: 8
TimelineZoom: 1

[Metadata]
Title:Champions (feat. Harry Brooks Jnr)
TitleUnicode:Champions (feat. Harry Brooks Jnr)
Artist:Astronaut
ArtistUnicode:Astronaut
Creator:Come[Back]Home
Version:Normal
Source:
Tags:cbh electronic monstercat apollo male vocals dance edm
BeatmapID:1860184
BeatmapSetID:889441

[Difficulty]
HPDrainRate:5
CircleSize:3.5
OverallDifficulty:5
ApproachRate:5.5
SliderMultiplier:1.4
SliderTickRate:1

[Events]
//Background and Video events
0,0,"alena-aenami-imhere1k.jpg",0,0
//Break Periods
2,40199,46374
2,99964,102624
//Storyboard Layer 0 (Background)
//Storyboard Layer 1 (Fail)
//Storyboard Layer 2 (Pass)
//Storyboard Layer 3 (Foreground)
//Storyboard Sound Samples

[TimingPoints]
624,468.75,4,2,0,60,1,0
2499,-100,4,2,1,60,0,0
3788,-100,4,2,1,5,0,0
3905,-100,4,2,1,60,0,0
7538,-100,4,2,1,5,0,0
7655,-100,4,2,1,60,0,0
10467,-100,4,2,0,35,0,0
26991,-100,4,2,0,5,0,0
27108,-100,4,2,0,35,0,0
40467,-100,4,2,0,35,0,0
43866,-100,4,2,0,5,0,0
43983,-100,4,2,0,35,0,0
45624,-100,4,2,0,35,0,0
47499,-100,4,2,0,35,0,0
54999,-100,4,2,0,45,0,0
62499,-100,4,2,3,60,0,0
69999,-100,4,2,2,60,0,1
76561,-100,4,2,2,60,0,1
77499,-100,4,2,2,60,0,1
83124,-100,4,2,3,60,0,1
84295,-100,4,2,3,60,0,0
84999,-100,4,2,2,60,0,1
91561,-100,4,2,2,60,0,1
91913,-100,4,2,2,5,0,1
92030,-100,4,2,2,60,0,1
92499,-100,4,2,2,60,0,1
96249,-100,4,2,0,60,0,0
99530,-100,4,2,3,60,0,0
103749,-100,4,2,1,60,0,0
129999,-100,4,2,0,60,0,0
152499,-100,4,2,3,60,0,0
159295,-100,4,2,3,60,0,0
161874,-100,4,2,2,60,0,1
166561,-100,4,2,2,60,0,1
167499,-100,4,2,2,60,0,1
173124,-100,4,2,3,60,0,1
174295,-100,4,2,3,60,0,0
174999,-100,4,2,2,60,0,1
181561,-100,4,2,3,60,0,1
181913,-100,4,2,3,5,0,1
182030,-100,4,2,3,60,0,1
182499,-100,4,2,2,60,0,1
186249,-100,4,2,0,60,0,0

[Colours]
Combo1 : 92,163,124
Combo2 : 185,118,17
Combo3 : 90,124,182
Combo4 : 219,215,47

[HitObjects]
424,318,2030,5,2,0:0:0:0:
424,318,2499,2,0,P|393:291|395:177,1,140,2|8,0:0|0:0,0:0:0:0:
413,150,3202,2,0,L|181:163,1,210,2|10,0:0|0:0,0:0:0:0:
108,221,4374,2,0,P|90:182|128:85,2,140,0|8|0,0:0|0:0|0:0,0:0:0:0:
145,262,5545,1,0,0:0:0:0:
190,294,5780,2,0,L|273:283,1,70,8|0,0:0|0:0,0:0:0:0:
303,319,6249,6,0,P|324:283|319:168,1,140,2|8,0:0|0:0,0:0:0:0:
286,147,6952,2,0,P|336:169|373:45,1,210,2|10,0:0|0:0,0:0:0:0:
276,41,8124,2,0,L|131:57,2,140,0|8|0,0:0|0:0|0:0,0:0:0:0:
331,31,9295,1,0,0:0:0:0:
303,79,9530,2,0,L|291:170,1,70,8|0,0:0|0:0,0:0:0:0:
283,203,9999,1,6,0:0:0:0:
221,296,10467,6,0,L|62:277,1,140,2|0,0:0|0:0,0:0:0:0:
21,185,11405,1,2,0:0:0:0:
74,169,11639,1,0,0:0:0:0:
128,155,11874,2,0,L|249:168,2,105,2|0|2,0:0|0:0|0:0,0:0:0:0:
392,36,13749,1,4,0:0:0:0:
442,135,14217,6,0,L|422:287,1,140,2|0,0:0|0:0,0:0:0:0:
316,307,15155,1,2,0:0:0:0:
265,283,15389,1,0,0:0:0:0:
215,257,15624,2,0,L|243:107,1,140,2|2,0:0|0:0,0:0:0:0:
329,50,16561,1,2,0:0:0:0:
329,50,16795,2,0,L|354:187,1,140,0|0,0:0|0:0,0:0:0:0:
367,242,17499,1,4,0:0:0:0:
272,302,17967,6,0,L|120:285,1,140,2|0,0:0|0:0,0:0:0:0:
62,198,18905,2,0,P|98:182|123:152,1,70,2|0,0:0|0:0,0:0:0:0:
151,114,19374,2,0,P|168:152|226:201,2,105,2|0|2,0:0|0:0|0:0,0:0:0:0:
409,5,21249,1,4,0:0:0:0:
453,107,21717,6,0,L|438:264,1,140,2|0,0:0|0:0,0:0:0:0:
346,309,22655,2,0,P|314:287|260:270,1,70,2|0,0:0|0:0,0:0:0:0:
229,277,23124,2,0,L|242:137,1,140,2|0,0:0|0:0,0:0:0:0:
330,68,24061,1,0,0:0:0:0:
330,68,24295,2,0,P|347:109|424:173,1,140,2|0,0:0|0:0,0:0:0:0:
469,193,24999,1,4,0:0:0:0:
377,257,25467,6,0,L|304:265,1,70,2|0,0:0|0:0,0:0:0:0:
161,347,26405,1,2,0:0:0:0:
161,347,26639,2,0,L|193:190,1,140,0|2,0:0|0:0,0:0:0:0:
108,135,27577,2,0,P|152:123|214:39,1,140,0|0,0:0|0:0,0:0:0:0:
239,4,28280,1,2,0:0:0:0:
263,54,28514,6,0,L|344:49,1,70,0|0,0:0|0:0,0:0:0:0:
388,43,28983,1,0,0:0:0:0:
358,151,29452,2,0,L|337:271,2,105,0|0|2,0:0|0:0|0:0,0:0:0:0:
432,234,30624,2,0,P|428:290|348:349,1,140,4|0,0:0|0:0,0:0:0:0:
257,351,31561,1,0,0:0:0:0:
257,351,31795,2,0,P|203:307|194:240,1,140,2|0,0:0|0:0,0:0:0:0:
213,187,32499,5,4,0:0:0:0:
267,197,32733,1,0,0:0:0:0:
319,216,32967,2,0,P|325:180|406:110,2,140,2|0|2,0:0|0:0|0:0,0:0:0:0:
334,269,34139,1,0,0:0:0:0:
355,320,34374,2,0,L|234:315,2,105,2|0|2,0:0|0:0|0:0,0:0:0:0:
107,339,36249,6,0,L|97:253,1,70,4|0,0:0|0:0,0:0:0:0:
46,249,36717,2,0,P|72:215|81:117,1,140,2|0,0:0|0:0,0:0:0:0:
14,31,37655,2,0,L|96:37,1,70,2|0,0:0|0:0,0:0:0:0:
132,63,38124,2,0,L|274:51,1,140,2|0,0:0|0:0,0:0:0:0:
382,38,39061,1,0,0:0:0:0:
382,38,39295,2,0,B|360:106|360:106|391:178,1,140,2|0,0:0|0:0,0:0:0:0:
414,218,39999,1,4,0:1:0:0:
87,170,47499,6,0,L|78:52,2,105,2|0|2,0:0|0:0|0:0,0:0:0:0:
63,250,48553,1,0,0:0:0:0:
143,273,48905,1,2,0:0:0:0:
197,260,49139,1,2,0:0:0:0:
251,247,49374,2,0,L|379:264,2,105,2|0|2,0:0|0:0|0:0,0:0:0:0:
204,177,50428,1,0,0:0:0:0:
279,138,50780,2,0,P|305:115|323:72,1,70,2|2,0:0|0:0,0:0:0:0:
318,27,51249,6,0,L|194:41,2,105,2|0|2,0:0|0:0|0:0,0:0:0:0:
401,15,52303,1,0,0:0:0:0:
444,86,52655,1,2,0:0:0:0:
438,141,52889,1,2,0:0:0:0:
430,196,53124,2,0,L|304:210,1,105,2|0,0:0|0:0,0:0:0:0:
284,280,53827,1,2,0:0:0:0:
230,264,54061,2,0,P|191:273|155:290,1,70,2|2,0:0|0:0,0:0:0:0:
128,328,54530,2,0,P|95:341|61:349,1,70,2|2,0:0|0:0,0:0:0:0:
15,316,54999,6,0,P|44:280|50:205,1,105,6|0,0:0|0:0,0:0:0:0:
23,146,55702,2,0,L|154:157,1,105,2|0,0:0|0:0,0:0:0:0:
205,185,56405,1,2,0:0:0:0:
203,129,56639,1,2,0:0:0:0:
173,81,56874,2,0,L|306:85,1,105,2|0,0:0|0:0,0:0:0:0:
350,41,57577,2,0,B|361:96|361:96|338:149,1,105,2|0,0:0|0:0,0:0:0:0:
271,187,58280,2,0,P|256:226|260:266,1,70,2|2,0:0|0:0,0:0:0:0:
285,302,58749,6,0,L|154:292,2,105,6|0|2,0:0|0:0|0:0,0:0:0:0:
356,346,59803,1,0,0:0:0:0:
415,286,60155,1,2,0:0:0:0:
416,230,60389,1,2,0:0:0:0:
452,187,60624,6,0,P|465:152|444:72,2,105,2|0|2,0:0|0:0|0:0,0:0:0:0:
416,230,61561,2,0,P|403:265|424:345,2,105,2|0|2,0:0|0:0|0:0,0:0:0:0:
452,187,62499,6,0,L|311:178,1,140,14|10,0:0|0:0,0:0:0:0:
252,53,63436,2,0,L|112:61,1,140,10|10,0:0|0:0,0:0:0:0:
56,67,64139,1,2,0:0:0:0:
22,112,64374,2,0,P|58:152|64:245,1,140,12|8,0:0|0:0,0:0:0:0:
185,348,65311,2,0,P|187:279|230:224,1,140,8|10,0:0|0:0,0:0:0:0:
335,185,66249,6,0,L|447:204,2,105,14|10|10,0:0|0:0|0:0,0:0:0:0:
279,182,67186,2,0,L|175:199,2,105,14|10|10,0:0|0:0|0:0,0:0:0:0:
313,138,68124,1,12,0:0:0:0:
116,335,69999,6,0,P|140:302|114:196,1,140,14|8,0:0|0:0,0:0:0:0:
90,166,70702,1,2,0:0:0:0:
48,128,70936,2,0,L|195:118,1,140,8|8,0:0|0:0,0:0:0:0:
281,56,71874,2,0,P|301:95|278:186,1,140,10|8,0:0|0:0,0:0:0:0:
243,227,72577,1,2,0:0:0:0:
206,184,72811,2,0,P|181:120|204:55,1,140,8|10,0:0|0:0,0:0:0:0:
247,19,73514,1,2,0:0:0:0:
294,48,73749,6,0,B|341:68|341:68|435:44,2,140,10|8|8,0:0|0:0|0:0,0:0:0:0:
189,6,75155,1,8,0:0:0:0:
154,49,75389,1,2,0:0:0:0:
117,91,75624,2,0,L|137:232,1,140,10|8,0:0|0:0,0:0:0:0:
148,284,76327,1,0,0:0:0:0:
192,249,76561,2,0,L|406:258,1,210,8|0,0:0|0:0,0:0:0:0:
457,266,77499,6,0,P|423:232|424:133,1,140,14|8,0:0|0:0,0:0:0:0:
443,94,78202,1,2,0:0:0:0:
399,58,78436,2,0,L|246:70,1,140,8|8,0:0|0:0,0:0:0:0:
158,119,79374,2,0,P|136:158|151:270,1,140,10|8,0:0|0:0,0:0:0:0:
177,292,80077,1,2,0:0:0:0:
223,260,80311,2,0,B|263:236|263:236|357:244,1,140,8|8,0:0|0:0,0:0:0:0:
411,250,81014,1,0,0:0:0:0:
389,198,81249,6,0,L|406:47,1,140,10|8,0:0|0:0,0:0:0:0:
297,26,82186,2,0,L|312:165,1,140,10|8,0:0|0:0,0:0:0:0:
319,220,82889,1,2,0:0:0:0:
325,275,83124,2,0,P|286:284|243:307,1,70,8|8,0:0|0:0,0:0:0:0:
211,325,83592,2,0,L|125:310,1,70,8|8,0:0|0:0,0:0:0:0:
87,327,84061,2,0,P|117:288|66:132,1,210,8|2,0:0|0:0,0:0:0:0:
37,110,84999,6,0,L|203:91,1,140,14|8,0:0|0:0,0:0:0:0:
231,88,85702,1,2,0:0:0:0:
274,123,85936,2,0,P|277:162|296:201,1,70,8|0,0:0|0:0,0:0:0:0:
332,225,86405,2,0,P|329:264|310:303,1,70,8|2,0:0|0:0,0:0:0:0:
278,332,86874,2,0,L|132:316,1,140,10|8,0:0|0:0,0:0:0:0:
47,251,87811,2,0,P|78:217|75:122,1,140,8|10,0:0|0:0,0:0:0:0:
49,78,88514,1,2,0:0:0:0:
92,42,88749,6,0,L|234:37,1,140,10|8,0:0|0:0,0:0:0:0:
287,31,89452,1,2,0:0:0:0:
330,66,89686,2,0,P|341:106|339:142,1,70,8|0,0:0|0:0,0:0:0:0:
298,172,90155,2,0,L|284:261,1,70,8|2,0:0|0:0,0:0:0:0:
299,295,90624,2,0,L|446:279,1,140,10|8,0:0|0:0,0:0:0:0:
501,187,91561,2,0,L|269:168,1,210,0|2,0:0|0:0,0:0:0:0:
241,143,92499,6,0,P|222:182|131:239,1,140,14|8,0:0|0:0,0:0:0:0:
91,254,93202,1,2,0:0:0:0:
42,226,93436,2,0,L|61:77,1,140,8|8,0:0|0:0,0:0:0:0:
74,32,94139,1,2,0:0:0:0:
127,49,94374,2,0,P|167:64|209:63,1,70,10|0,0:0|0:0,0:0:0:0:
242,38,94842,2,0,P|276:40|308:54,1,70,8|2,0:0|0:0,0:0:0:0:
349,93,95311,2,0,L|331:231,1,140,8|8,0:0|0:0,0:0:0:0:
235,291,96249,6,0,P|202:263|122:253,2,105,2|2|2,0:0|0:0|0:0,0:0:0:0:
277,327,97186,2,0,L|398:312,2,105,2|2|2,0:0|0:0|0:0,0:0:0:0:
222,338,98124,1,0,0:0:0:0:
316,198,98827,1,0,0:0:0:0:
148,190,99530,1,8,0:0:0:0:
95,208,99764,1,0,0:0:0:0:
187,330,103749,6,0,L|174:173,1,140,0|10,0:0|0:0,0:0:0:0:
170,134,104452,1,0,0:0:0:0:
167,78,104686,2,0,L|306:89,1,140,2|10,0:0|0:0,0:0:0:0:
361,99,105389,1,2,0:0:0:0:
416,104,105624,2,0,L|427:243,2,140,2|10|2,0:0|0:0|0:0,0:0:0:0:
486,16,107030,1,8,0:0:0:0:
431,27,107264,1,0,0:0:0:0:
375,34,107499,6,0,L|235:22,1,140,0|10,0:0|0:0,0:0:0:0:
179,18,108202,1,0,0:0:0:0:
142,60,108436,2,0,B|113:126|113:126|142:198,1,140,2|10,0:0|0:0,0:0:0:0:
163,239,109139,1,2,0:0:0:0:
215,258,109374,2,0,L|354:269,2,140,2|8|0,0:0|0:0|0:0,0:0:0:0:
133,334,110780,1,8,0:0:0:0:
87,300,111014,1,0,0:0:0:0:
49,259,111249,6,0,P|47:209|127:137,1,140,0|10,0:0|0:0,0:0:0:0:
154,122,111952,1,0,0:0:0:0:
208,110,112186,2,0,L|364:127,1,140,2|10,0:0|0:0,0:0:0:0:
402,133,112889,1,2,0:0:0:0:
457,139,113124,2,0,P|459:189|379:261,2,140,2|8|2,0:0|0:0|0:0,0:0:0:0:
411,36,114530,1,8,0:0:0:0:
370,74,114764,1,0,0:0:0:0:
326,109,114999,6,0,L|174:99,1,140,0|10,0:0|0:0,0:0:0:0:
130,97,115702,1,2,0:0:0:0:
87,133,115936,2,0,P|99:176|96:215,1,70,0|0,0:0|0:0,0:0:0:0:
90,256,116405,2,0,L|229:265,1,140,10|0,0:0|0:0,0:0:0:0:
313,339,117342,2,0,B|333:272|333:272|312:200,1,140,8|0,0:0|0:0,0:0:0:0:
284,156,118045,1,0,0:0:0:0:
313,108,118280,2,0,L|402:115,1,70,10|2,0:0|0:0,0:0:0:0:
438,118,118749,6,0,B|418:185|418:185|439:257,1,140,0|8,0:0|0:0,0:0:0:0:
457,304,119452,1,2,0:0:0:0:
414,340,119686,2,0,L|341:333,1,70,0|0,0:0|0:0,0:0:0:0:
288,325,120155,2,0,B|308:258|308:258|287:186,1,140,10|0,0:0|0:0,0:0:0:0:
241,89,121092,2,0,L|84:102,1,140,8|0,0:0|0:0,0:0:0:0:
45,107,121795,1,2,0:0:0:0:
28,160,122030,2,0,L|55:241,1,70,8|2,0:0|0:0,0:0:0:0:
89,266,122499,6,0,P|132:257|221:305,1,140,0|10,0:0|0:0,0:0:0:0:
252,339,123202,1,0,0:0:0:0:
294,375,123436,2,0,L|316:225,1,140,2|10,0:0|0:0,0:0:0:0:
400,164,124374,1,2,0:0:0:0:
407,108,124608,1,0,0:0:0:0:
413,52,124842,2,0,L|274:72,1,140,8|0,0:0|0:0,0:0:0:0:
162,69,125780,2,0,P|156:103|140:134,1,70,8|0,0:0|0:0,0:0:0:0:
94,167,126249,6,0,L|232:146,1,140,0|10,0:0|0:0,0:0:0:0:
329,201,127186,2,0,B|348:134|348:134|319:58,1,140,2|10,0:0|0:0,0:0:0:0:
269,52,127889,1,2,0:0:0:0:
312,16,128124,2,0,L|461:21,2,140,2|10|2,0:0|0:0|0:0,0:0:0:0:
269,52,129295,1,2,0:0:0:0:
225,87,129530,2,0,L|122:83,1,70,10|2,0:0|0:0,0:0:0:0:
104,109,129999,6,0,L|120:225,2,105,2|0|2,0:0|0:0|0:0,0:0:0:0:
416,96,133749,6,0,L|400:212,2,105,2|0|2,0:0|0:0|0:0,0:0:0:0:
96,96,137030,5,2,0:0:0:0:
96,96,137264,1,2,0:0:0:0:
96,96,137499,2,0,L|112:212,2,105,2|0|2,0:0|0:0|0:0,0:0:0:0:
416,96,141249,6,0,L|400:212,2,105,2|0|2,0:0|0:0|0:0,0:0:0:0:
420,40,142186,2,0,L|315:54,2,105,2|0|2,0:0|0:0|0:0,0:0:0:0:
155,247,144295,1,2,0:0:0:0:
210,237,144530,1,2,0:0:0:0:
265,229,144764,1,2,0:0:0:0:
320,224,144999,6,0,P|348:249|385:337,2,105,6|0|2,0:0|0:0|0:0,0:0:0:0:
241,252,146053,2,0,L|258:127,1,105,0|2,0:0|0:0,0:0:0:0:
266,92,146639,1,2,0:0:0:0:
277,37,146874,2,0,L|172:51,2,105,2|0|2,0:0|0:0|0:0,0:0:0:0:
369,22,147928,2,0,B|387:60|387:60|379:137,1,105,0|2,0:0|0:0,0:0:0:0:
373,178,148514,1,2,0:0:0:0:
351,229,148749,6,0,P|309:213|229:228,2,105,6|0|2,0:0|0:0|0:0,0:0:0:0:
432,250,149803,2,0,L|427:118,1,105,0|2,0:0|0:0,0:0:0:0:
464,101,150389,1,2,0:0:0:0:
429,56,150624,2,0,L|297:61,1,105,2|0,0:0|0:0,0:0:0:0:
240,67,151327,1,2,0:0:0:0:
240,67,151561,2,0,L|245:157,1,70,2|0,0:0|0:0,0:0:0:0:
216,186,152030,2,0,L|221:276,1,70,2|2,0:0|0:0,0:0:0:0:
216,311,152499,6,0,P|255:292|354:321,1,140,14|8,0:0|0:0,0:0:0:0:
436,378,153436,2,0,B|463:322|463:322|450:227,1,140,8|10,0:0|0:0,0:0:0:0:
438,190,154139,1,2,0:0:0:0:
389,161,154374,2,0,P|350:180|251:151,1,140,14|8,0:0|0:0,0:0:0:0:
148,143,155311,2,0,B|137:65|137:65|164:9,1,140,8|10,0:0|0:0,0:0:0:0:
252,78,156249,6,0,L|372:68,2,105,14|10|10,0:0|0:0|0:0,0:0:0:0:
196,79,157186,2,0,L|76:69,2,105,14|10|10,0:0|0:0|0:0,0:0:0:0:
234,37,158124,1,12,0:0:0:0:
256,192,158241,12,2,159999,0:0:0:0:
118,347,161874,6,0,L|110:203,1,140,14|8,0:0|0:0,0:0:0:0:
110,151,162577,1,2,0:0:0:0:
165,141,162811,2,0,P|223:141|292:95,1,140,8|10,0:0|0:0,0:0:0:0:
331,59,163514,1,2,0:0:0:0:
365,14,163749,6,0,L|372:153,1,140,10|8,0:0|0:0,0:0:0:0:
472,204,164686,2,0,L|464:64,1,140,8|8,0:0|0:0,0:0:0:0:
462,8,165389,1,2,0:0:0:0:
419,44,165624,2,0,P|375:57|286:27,1,140,10|8,0:0|0:0,0:0:0:0:
239,0,166327,1,2,0:0:0:0:
184,11,166561,2,0,P|203:84|119:186,1,210,8|2,0:0|0:0,0:0:0:0:
85,222,167499,6,0,L|250:213,1,140,14|8,0:0|0:0,0:0:0:0:
335,209,168436,2,0,L|318:348,2,140,8|8|10,0:0|0:0|0:0,0:0:0:0:
340,153,169608,1,0,0:0:0:0:
298,115,169842,2,0,P|264:102|223:66,1,70,8|2,0:0|0:0,0:0:0:0:
195,44,170311,2,0,L|178:183,1,140,8|8,0:0|0:0,0:0:0:0:
97,261,171249,6,0,P|133:287|229:280,1,140,10|8,0:0|0:0,0:0:0:0:
312,214,172186,2,0,L|329:75,1,140,10|8,0:0|0:0,0:0:0:0:
336,19,172889,1,2,0:0:0:0:
284,41,173124,2,0,L|205:47,1,70,8|8,0:0|0:0,0:0:0:0:
168,79,173592,2,0,L|98:73,1,70,8|8,0:0|0:0,0:0:0:0:
49,45,174061,2,0,L|20:271,1,210,8|2,0:0|0:0,0:0:0:0:
11,308,174999,6,0,P|48:286|161:304,1,140,14|8,0:0|0:0,0:0:0:0:
191,316,175702,1,2,0:0:0:0:
243,336,175936,2,0,P|310:347|373:319,1,140,8|8,0:0|0:0,0:0:0:0:
418,285,176639,1,2,0:0:0:0:
453,241,176874,2,0,L|460:91,1,140,10|8,0:0|0:0,0:0:0:0:
365,39,177811,2,0,L|371:178,1,140,8|10,0:0|0:0,0:0:0:0:
374,234,178514,1,2,0:0:0:0:
376,290,178749,6,0,L|236:283,1,140,10|8,0:0|0:0,0:0:0:0:
180,281,179452,1,2,0:0:0:0:
124,276,179686,2,0,L|117:136,1,140,8|8,0:0|0:0,0:0:0:0:
116,23,180624,2,0,L|255:29,1,140,10|8,0:0|0:0,0:0:0:0:
311,33,181327,1,2,0:0:0:0:
366,40,181561,2,0,L|377:268,1,210,0|2,0:0|0:0,0:0:0:0:
377,305,182499,6,0,P|331:285|231:302,1,140,14|8,0:0|0:0,0:0:0:0:
201,332,183202,1,2,0:0:0:0:
161,371,183436,1,0,0:0:0:0:
113,269,183905,2,0,L|127:189,1,70,8|2,0:0|0:0,0:0:0:0:
106,147,184374,2,0,P|147:162|256:119,1,140,10|8,0:0|0:0,0:0:0:0:
298,44,185311,2,0,L|449:55,1,140,8|8,0:0|0:0,0:0:0:0:
395,158,186249,6,0,L|405:286,2,105,2|2|2,0:0|0:0|0:0,0:0:0:0:
364,111,187186,2,0,P|324:103|261:48,2,105,2|2|2,0:0|0:0|0:0,0:0:0:0:
419,102,188124,1,0,0:0:0:0:
324,240,188827,1,0,0:0:0:0:
265,144,189295,1,2,0:0:0:0:
265,144,189530,2,0,L|185:135,1,70,2|2,0:0|0:0,0:0:0:0:
139,133,189999,6,0,L|152:256,2,105,2|2|2,0:0|0:0|0:0,0:0:0:0:
256,192,190936,12,0,193749,0:0:0:0:
