osu file format v14

[General]
AudioFilename: audio.mp3
AudioLeadIn: 0
PreviewTime: 62967
Countdown: 0
SampleSet: Soft
StackLeniency: 0.7
Mode: 0
LetterboxInBreaks: 0
WidescreenStoryboard: 0

[Editor]
Bookmarks: 39999,84999,103749,129999,144999,161874,174999,186249
DistanceSpacing: 1.1
BeatDivisor: 4
GridSize: 16
TimelineZoom: 1

[Metadata]
Title:Champions (feat. Harry Brooks Jnr)
TitleUnicode:Champions (feat. Harry Brooks Jnr)
Artist:Astronaut
ArtistUnicode:Astronaut
Creator:Come[Back]Home
Version:Insane
Source:
Tags:cbh electronic monstercat apollo male vocals dance edm
BeatmapID:1859001
BeatmapSetID:889441

[Difficulty]
HPDrainRate:6
CircleSize:4.3
OverallDifficulty:7.5
ApproachRate:8.6
SliderMultiplier:2.8
SliderTickRate:1

[Events]
//Background and Video events
0,0,"alena-aenami-imhere1k.jpg",0,0
//Break Periods
2,99964,103090
//Storyboard Layer 0 (Background)
//Storyboard Layer 1 (Fail)
//Storyboard Layer 2 (Pass)
//Storyboard Layer 3 (Foreground)
//Storyboard Sound Samples

[TimingPoints]
624,468.75,4,2,0,60,1,0
2499,-166.666666666667,4,2,1,60,0,0
3788,-166.666666666667,4,2,1,5,0,0
3905,-166.666666666667,4,2,1,60,0,0
7538,-166.666666666667,4,2,1,5,0,0
7655,-166.666666666667,4,2,1,60,0,0
10467,-250,4,2,0,35,0,0
26991,-250,4,2,0,5,0,0
27108,-250,4,2,0,35,0,0
40467,-333.333333333333,4,2,0,35,0,0
43866,-333.333333333333,4,2,0,5,0,0
43983,-333.333333333333,4,2,0,35,0,0
45624,-666.666666666667,4,2,0,35,0,0
47499,-333.333333333333,4,2,0,35,0,0
54999,-333.333333333333,4,2,0,45,0,0
62499,-125,4,2,3,60,0,0
69999,-100,4,2,2,60,0,1
76561,-59.1715976331361,4,2,2,60,0,1
77499,-100,4,2,2,60,0,1
83124,-100,4,2,3,60,0,1
84295,-100,4,2,3,60,0,0
84999,-100,4,2,2,60,0,1
91561,-333.333333333333,4,2,2,60,0,1
91913,-333.333333333333,4,2,2,5,0,1
92030,-333.333333333333,4,2,2,60,0,1
92499,-100,4,2,2,60,0,1
96249,-333.333333333333,4,2,0,60,0,0
99530,-333.333333333333,4,2,3,60,0,0
103749,-125,4,2,1,60,0,0
129999,-100,4,2,0,60,0,0
152499,-100,4,2,3,60,0,0
159295,-333.333333333333,4,2,3,60,0,0
161874,-100,4,2,2,60,0,1
166561,-59.1715976331361,4,2,2,60,0,1
167499,-100,4,2,2,60,0,1
173124,-100,4,2,3,60,0,1
174295,-100,4,2,3,60,0,0
174999,-100,4,2,2,60,0,1
181561,-333.333333333333,4,2,3,60,0,1
181913,-333.333333333333,4,2,3,5,0,1
182030,-333.333333333333,4,2,3,60,0,1
182499,-100,4,2,2,60,0,1
186249,-333.333333333333,4,2,0,60,0,0

[Colours]
Combo1 : 92,163,124
Combo2 : 185,118,17
Combo3 : 90,124,182
Combo4 : 219,215,47

[HitObjects]
108,317,2030,5,2,0:0:0:0:
108,317,2499,2,0,L|297:305,1,167.999994873047,2|8,0:0|0:0,0:0:0:0:
359,297,3202,1,2,0:0:0:0:
305,232,3436,2,0,B|282:188|282:188|296:106,1,125.999996154785
309,72,3905,1,10,0:0:0:0:
379,117,4139,1,0,0:0:0:0:
309,72,4374,6,0,L|141:82,1,167.999994873047,0|8,0:0|0:0,0:0:0:0:
57,90,5077,1,0,0:0:0:0:
57,90,5194,1,0,0:0:0:0:
57,90,5311,1,0,0:0:0:0:
105,158,5545,1,0,0:0:0:0:
141,82,5780,1,8,0:0:0:0:
26,162,6014,1,0,0:0:0:0:
185,260,6249,6,0,B|232:251|232:251|311:266|311:266|358:253,1,167.999994873047,2|8,0:0|0:0,0:0:0:0:
428,225,6952,1,2,0:0:0:0:
360,175,7186,2,0,P|328:134|334:45,1,125.999996154785
342,23,7655,1,10,0:0:0:0:
419,54,7889,1,0,0:0:0:0:
342,23,8124,6,0,B|303:33|303:33|224:18|224:18|177:27,1,167.999994873047,0|8,0:0|0:0,0:0:0:0:
96,50,8827,1,0,0:0:0:0:
96,50,8944,1,0,0:0:0:0:
96,50,9061,1,0,0:0:0:0:
153,111,9295,1,0,0:0:0:0:
70,129,9530,1,8,0:0:0:0:
177,27,9764,1,0,0:0:0:0:
222,224,9999,1,6,0:0:0:0:
222,224,10467,6,0,L|342:214,1,112,2|0,0:0|0:0,0:0:0:0:
489,197,11405,1,2,0:0:0:0:
438,256,11639,1,0,0:0:0:0:
412,181,11874,5,2,0:0:0:0:
489,197,12225,1,0,0:0:0:0:
438,256,12577,1,2,0:0:0:0:
438,256,13749,5,4,0:0:0:0:
438,256,14217,2,0,P|412:242|322:258,1,112,2|0,0:0|0:0,0:0:0:0:
122,341,15155,1,2,0:0:0:0:
232,306,15389,1,0,0:0:0:0:
100,312,15624,6,0,L|106:236,1,56,2|0,0:0|0:0,0:0:0:0:
51,198,16092,2,0,L|45:122,1,56,2|0,0:0|0:0,0:0:0:0:
56,64,16561,2,0,P|88:46|217:89,1,168,2|0,0:0|0:0,0:0:0:0:
261,133,17499,1,4,0:0:0:0:
397,264,17967,6,0,P|342:261|300:225,1,112,2|0,0:0|0:0,0:0:0:0:
221,89,18905,1,2,0:0:0:0:
299,83,19139,1,0,0:0:0:0:
264,153,19374,5,2,0:0:0:0:
221,89,19725,1,0,0:0:0:0:
299,83,20077,1,2,0:0:0:0:
299,83,21249,5,4,0:0:0:0:
299,83,21717,2,0,L|304:212,1,112,2|0,0:0|0:0,0:0:0:0:
253,347,22655,1,2,0:0:0:0:
325,317,22889,1,0,0:0:0:0:
262,269,23124,6,0,L|147:259,1,112,2|0,0:0|0:0,0:0:0:0:
66,341,23944,1,0,0:0:0:0:
25,230,24295,2,0,L|29:118,1,112,2|0,0:0|0:0,0:0:0:0:
29,39,24999,5,4,0:0:0:0:
165,115,25467,1,2,0:0:0:0:
165,115,25702,2,0,P|198:108|275:55,1,112
323,16,26405,1,2,0:0:0:0:
354,208,26639,2,0,P|399:240|446:251,1,84
463,260,27108,1,2,0:0:0:0:
243,277,27577,6,0,P|189:292|144:324,1,112
92,383,28280,1,2,0:0:0:0:
30,251,28514,2,0,L|48:123,1,112
180,59,29452,5,0,0:0:0:0:
252,87,29803,1,0,0:0:0:0:
190,135,30155,1,2,0:0:0:0:
190,135,30624,6,0,L|202:251,1,112,4|0,0:0|0:0,0:0:0:0:
342,314,31561,1,0,0:0:0:0:
342,314,31795,2,0,L|353:202,1,112,2|0,0:0|0:0,0:0:0:0:
367,124,32499,5,4,0:0:0:0:
427,173,32733,1,0,0:0:0:0:
295,152,32967,2,0,L|183:163,1,112,2|0,0:0|0:0,0:0:0:0:
89,289,33905,1,2,0:0:0:0:
162,316,34139,1,0,0:0:0:0:
149,238,34374,5,2,0:0:0:0:
89,289,34725,1,0,0:0:0:0:
162,316,35077,1,2,0:0:0:0:
162,316,36249,5,4,0:0:0:0:
234,345,36483,1,0,0:0:0:0:
224,267,36717,2,0,L|213:146,1,112,2|0,0:0|0:0,0:0:0:0:
348,74,37655,1,2,0:0:0:0:
273,49,37889,1,0,0:0:0:0:
293,124,38124,6,0,L|282:235,1,112,2|0,0:0|0:0,0:0:0:0:
172,347,39061,1,0,0:0:0:0:
172,347,39295,2,0,P|159:310|99:256,1,112,2|0,0:0|0:0,0:0:0:0:
32,235,39999,5,4,0:1:0:0:
32,235,40467,1,0,0:0:0:0:
90,186,40702,2,0,L|76:54,1,125.999996154785
243,82,41639,2,0,L|160:76,1,83.9999974365235
337,46,42577,6,0,L|462:34,1,125.999996154785
440,192,43514,2,0,L|451:114,1,62.9999980773926
454,100,43983,1,0,0:0:0:0:
374,240,44452,2,0,P|395:262|465:271,1,83.9999974365235
477,176,45155,2,0,P|458:185|442:199,1,41.9999987182618
232,322,45624,6,0,P|224:306|211:291,2,31.4999990386963,2|0|2,0:0|0:0|0:0,0:0:0:0:
139,271,46561,2,0,P|145:256|155:244,2,31.4999990386963,2|0|2,0:0|0:0|0:0,0:0:0:0:
301,166,47499,5,2,0:0:0:0:
230,138,47850,1,0,0:0:0:0:
289,91,48202,1,2,0:0:0:0:
301,166,48553,1,0,0:0:0:0:
230,138,48905,1,2,0:0:0:0:
362,115,49139,1,2,0:0:0:0:
260,272,49374,5,2,0:0:0:0:
301,166,49725,1,0,0:0:0:0:
372,254,50077,1,2,0:0:0:0:
260,272,50428,1,0,0:0:0:0:
301,166,50780,1,2,0:0:0:0:
325,325,51014,1,2,0:0:0:0:
212,189,51249,5,2,0:0:0:0:
353,242,51600,1,0,0:0:0:0:
236,338,51952,1,2,0:0:0:0:
212,189,52303,1,0,0:0:0:0:
353,242,52655,1,2,0:0:0:0:
112,277,52889,1,2,0:0:0:0:
310,138,53124,5,2,0:0:0:0:
240,313,53475,1,0,0:0:0:0:
123,164,53827,1,2,0:0:0:0:
310,138,54061,1,2,0:0:0:0:
240,313,54295,1,2,0:0:0:0:
229,237,54530,1,2,0:0:0:0:
330,275,54764,1,2,0:0:0:0:
159,284,54999,5,6,0:0:0:0:
386,199,55350,1,0,0:0:0:0:
83,169,55702,1,2,0:0:0:0:
159,284,56053,1,0,0:0:0:0:
196,51,56405,1,2,0:0:0:0:
170,122,56639,1,2,0:0:0:0:
300,88,56874,5,2,0:0:0:0:
122,62,57225,1,0,0:0:0:0:
382,30,57577,1,2,0:0:0:0:
122,62,57928,1,0,0:0:0:0:
391,120,58280,1,2,0:0:0:0:
326,158,58514,1,2,0:0:0:0:
392,272,58749,5,6,0:0:0:0:
325,78,59100,1,0,0:0:0:0:
288,328,59452,1,2,0:0:0:0:
392,272,59803,1,0,0:0:0:0:
151,248,60155,1,2,0:0:0:0:
179,318,60389,1,2,0:0:0:0:
232,161,60624,5,2,0:0:0:0:
101,308,60975,1,0,0:0:0:0:
180,64,61327,1,2,0:0:0:0:
239,269,61561,1,2,0:0:0:0:
50,185,61913,1,0,0:0:0:0:
50,185,62030,1,2,0:0:0:0:
337,187,62264,1,2,0:0:0:0:
476,113,62499,6,0,P|502:168|484:234,1,112,14|0,0:0|0:0,0:0:0:0:
235,298,62967,2,0,L|115:287,1,112,10|2,0:0|0:0,0:0:0:0:
78,284,63319,1,0,0:0:0:0:
78,284,63436,1,10,0:0:0:0:
123,206,63670,1,2,0:0:0:0:
135,364,63905,1,10,0:0:0:0:
41,210,64139,1,2,0:0:0:0:
342,254,64374,6,0,L|353:366,1,112,12|0,0:0|0:0,0:0:0:0:
217,145,64842,2,0,P|258:101|317:94,1,112,8|2,0:0|0:0,0:0:0:0:
349,107,65194,1,0,0:0:0:0:
349,107,65311,1,8,0:0:0:0:
296,179,65545,1,2,0:0:0:0:
224,35,65780,1,10,0:0:0:0:
207,240,66014,1,2,0:0:0:0:
443,81,66249,5,14,0:0:0:0:
424,40,66366,1,8,0:0:0:0:
384,18,66483,1,8,0:0:0:0:
339,15,66600,1,10,0:0:0:0:
300,38,66717,1,8,0:0:0:0:
274,75,66834,1,8,0:0:0:0:
274,120,66952,1,10,0:0:0:0:
297,158,67069,1,8,0:0:0:0:
333,183,67186,5,14,0:0:0:0:
353,235,67303,1,8,0:0:0:0:
345,290,67420,1,8,0:0:0:0:
314,337,67538,1,10,0:0:0:0:
262,359,67655,1,12,0:0:0:0:
206,349,67772,1,8,0:0:0:0:
165,310,67889,1,10,0:0:0:0:
146,257,68006,1,8,0:0:0:0:
157,201,68124,1,12,0:0:0:0:
353,94,68592,5,12,0:0:0:0:
319,90,68709,1,8,0:0:0:0:
285,83,68827,1,12,0:0:0:0:
251,78,68944,1,0,0:0:0:0:
217,74,69061,1,12,0:0:0:0:
432,102,69295,5,2,0:0:0:0:
379,250,69530,1,2,0:0:0:0:
322,23,69764,1,2,0:0:0:0:
478,197,69999,6,0,B|400:169|400:169|248:188,1,210,14|2,0:0|0:0,0:0:0:0:
205,200,70467,1,8,0:0:0:0:
292,309,70702,1,2,0:0:0:0:
229,130,70936,1,8,0:0:0:0:
202,355,71170,1,0,0:0:0:0:
321,217,71405,1,8,0:0:0:0:
132,279,71639,1,2,0:0:0:0:
363,355,71874,6,0,L|370:131,1,210,10|2,0:0|0:0,0:0:0:0:
375,75,72342,1,8,0:0:0:0:
478,169,72577,1,2,0:0:0:0:
275,268,72811,2,0,L|125:244,1,140,8|0,0:0|0:0,0:0:0:0:
39,346,73280,1,10,0:0:0:0:
136,245,73514,1,2,0:0:0:0:
99,38,73749,6,0,L|139:264,1,210,10|2,0:0|0:0,0:0:0:0:
154,312,74217,2,0,P|171:232|236:177,1,140,8|2,0:0|0:0,0:0:0:0:
410,102,74686,1,8,0:0:0:0:
224,184,74920,1,0,0:0:0:0:
494,189,75155,1,8,0:0:0:0:
296,93,75389,1,2,0:0:0:0:
385,346,75624,6,0,B|369:276|369:276|387:202|387:202|376:129,1,210,10|2,0:0|0:0,0:0:0:0:
367,71,76092,1,8,0:0:0:0:
487,143,76327,1,0,0:0:0:0:
298,350,76561,6,0,B|282:280|282:280|301:191|301:191|287:116,2,236.600004422531,8|0|8,0:0|0:0|0:0,0:0:0:0:
414,374,77264,1,0,0:0:0:0:
427,102,77499,6,0,B|363:117|363:117|286:100|286:100|190:123,1,210,14|2,0:0|0:0,0:0:0:0:
156,138,77967,1,8,0:0:0:0:
277,208,78202,1,2,0:0:0:0:
171,68,78436,1,8,0:0:0:0:
207,277,78670,1,0,0:0:0:0:
261,109,78905,1,8,0:0:0:0:
66,194,79139,1,2,0:0:0:0:
299,329,79374,6,0,B|348:272|348:272|333:132,1,210,10|2,0:0|0:0,0:0:0:0:
325,68,79842,1,8,0:0:0:0:
441,145,80077,1,2,0:0:0:0:
235,268,80311,2,0,B|206:297|206:297|197:194,1,140,8|0,0:0|0:0,0:0:0:0:
195,127,80663,1,0,0:0:0:0:
195,127,80780,1,8,0:0:0:0:
62,81,81014,1,0,0:0:0:0:
98,321,81249,6,0,L|334:311,1,210,10|2,0:0|0:0,0:0:0:0:
377,307,81717,1,8,0:0:0:0:
293,194,81952,1,2,0:0:0:0:
155,170,82186,6,0,L|391:160,1,210,10|2,0:0|0:0,0:0:0:0:
434,156,82654,1,8,0:0:0:0:
350,43,82889,1,2,0:0:0:0:
261,285,83124,5,8,0:0:0:0:
316,327,83241,1,8,0:0:0:0:
383,346,83358,1,8,0:0:0:0:
450,327,83475,1,8,0:0:0:0:
505,285,83592,2,0,L|497:195,1,70,8|8,0:0|0:0,0:0:0:0:
481,33,83827,1,8,0:0:0:0:
383,267,84061,1,8,0:0:0:0:
442,140,84295,5,2,0:0:0:0:
304,169,84530,1,2,0:0:0:0:
491,239,84764,1,2,0:0:0:0:
347,71,84999,6,0,L|198:64,1,140,14|0,0:0|0:0,0:0:0:0:
137,59,85350,1,2,0:0:0:0:
137,59,85467,1,8,0:0:0:0:
189,189,85702,1,2,0:0:0:0:
256,16,85936,1,8,0:0:0:0:
102,144,86170,1,0,0:0:0:0:
312,215,86405,2,0,L|451:221,1,140,8|2,0:0|0:0,0:0:0:0:
350,318,86874,6,0,L|201:311,1,140,10|0,0:0|0:0,0:0:0:0:
140,310,87225,1,2,0:0:0:0:
140,310,87342,1,8,0:0:0:0:
206,186,87577,1,2,0:0:0:0:
51,280,87811,1,8,0:0:0:0:
128,104,88045,2,0,L|116:190,1,70
140,310,88280,2,0,L|117:171,1,140,10|2,0:0|0:0,0:0:0:0:
341,149,88749,6,0,L|202:171,1,140,10|0,0:0|0:0,0:0:0:0:
135,191,89100,1,2,0:0:0:0:
135,191,89217,1,8,0:0:0:0:
183,59,89452,1,2,0:0:0:0:
237,262,89686,1,8,0:0:0:0:
99,109,89920,1,0,0:0:0:0:
80,339,90155,1,8,0:0:0:0:
228,156,90389,1,2,0:0:0:0:
30,254,90624,6,0,P|97:243|169:299,1,140,10|0,0:0|0:0,0:0:0:0:
206,337,90975,1,2,0:0:0:0:
206,337,91092,1,8,0:0:0:0:
284,224,91327,1,2,0:0:0:0:
438,340,91561,6,0,L|364:333,1,62.9999980773926
354,333,92030,1,10,0:0:0:0:
412,245,92264,1,2,0:0:0:0:
250,33,92499,6,0,L|286:174,1,140,14|0,0:0|0:0,0:0:0:0:
307,242,92850,1,2,0:0:0:0:
307,242,92967,1,8,0:0:0:0:
398,126,93202,1,2,0:0:0:0:
183,125,93436,1,8,0:0:0:0:
375,126,93670,1,0,0:0:0:0:
181,232,93905,1,8,0:0:0:0:
286,53,94139,1,2,0:0:0:0:
357,332,94374,6,0,P|358:280|416:198,1,140,10|0,0:0|0:0,0:0:0:0:
464,173,94725,1,2,0:0:0:0:
464,173,94842,1,8,0:0:0:0:
488,311,95077,1,2,0:0:0:0:
286,219,95311,1,8,0:0:0:0:
507,237,95545,1,0,0:0:0:0:
241,313,95780,1,8,0:0:0:0:
383,118,96014,1,0,0:0:0:0:
406,365,96249,6,0,P|410:346|436:304,2,62.9999980773926,2|2|2,0:0|0:0|0:0,0:0:0:0:
268,150,97186,2,0,P|285:176|293:206,2,62.9999980773926,2|2|2,0:0|0:0|0:0,0:0:0:0:
99,172,98124,6,0,P|147:210|209:208,1,125.999996154785
316,142,99530,2,0,P|328:174|344:189,1,41.9999987182618,8|0,0:0|0:0,0:0:0:0:
137,327,103749,6,0,L|120:203,1,112
102,105,104217,1,10,0:0:0:0:
17,179,104452,1,0,0:0:0:0:
17,179,104569,1,0,0:0:0:0:
17,179,104686,1,2,0:0:0:0:
196,143,104920,1,0,0:0:0:0:
250,157,105038,1,0,0:0:0:0:
303,172,105155,2,0,L|413:156,1,112,10|2,0:0|0:0,0:0:0:0:
366,258,105624,5,2,0:0:0:0:
258,288,105858,2,0,L|196:272,1,56
391,249,106092,1,10,0:0:0:0:
168,202,106327,2,0,L|222:188,1,56
35,248,106561,1,2,0:0:0:0:
78,144,106795,1,0,0:0:0:0:
130,307,107030,1,8,0:0:0:0:
150,67,107264,1,0,0:0:0:0:
204,80,107381,1,0,0:0:0:0:
258,92,107499,6,0,L|268:224,1,112
272,259,107850,1,0,0:0:0:0:
272,259,107967,1,10,0:0:0:0:
358,187,108202,1,0,0:0:0:0:
173,177,108436,1,2,0:0:0:0:
380,302,108670,1,0,0:0:0:0:
380,302,108788,1,0,0:0:0:0:
380,302,108905,2,0,L|388:190,1,112,10|2,0:0|0:0,0:0:0:0:
462,51,109374,6,0,P|412:82|341:81,1,112,2|0,0:0|0:0,0:0:0:0:
304,79,109725,1,2,0:0:0:0:
250,62,109842,2,0,P|194:66|148:96,1,112,8|2,0:0|0:0,0:0:0:0:
256,310,110311,2,0,P|267:255|255:201,1,112
224,153,110663,1,0,0:0:0:0:
224,153,110780,1,8,0:0:0:0:
177,254,111014,1,0,0:0:0:0:
379,305,111249,6,0,L|390:189,1,112
396,137,111600,1,0,0:0:0:0:
396,137,111717,1,10,0:0:0:0:
478,212,111952,1,0,0:0:0:0:
289,239,112186,2,0,P|254:202|193:178,1,112,2|0,0:0|0:0,0:0:0:0:
142,173,112538,1,0,0:0:0:0:
142,173,112655,1,10,0:0:0:0:
192,273,112889,2,0,P|181:299|152:331,1,56,2|0,0:0|0:0,0:0:0:0:
108,256,113124,6,0,P|67:220|56:166,1,112,2|0,0:0|0:0,0:0:0:0:
65,111,113475,1,2,0:0:0:0:
101,68,113592,2,0,L|222:73,1,112,8|2,0:0|0:0,0:0:0:0:
324,79,114061,1,2,0:0:0:0:
264,173,114295,1,0,0:0:0:0:
264,173,114413,1,0,0:0:0:0:
264,173,114530,1,8,0:0:0:0:
272,14,114764,1,0,0:0:0:0:
272,14,114881,1,0,0:0:0:0:
272,14,114999,6,0,L|352:9,3,56
426,92,115467,2,0,L|371:89,3,56,10|0|2|0,0:0|0:0|0:0|0:0,0:0:0:0:
285,138,115936,1,0,0:0:0:0:
295,192,116053,1,0,0:0:0:0:
305,246,116170,1,0,0:0:0:0:
316,301,116288,1,0,0:0:0:0:
328,355,116405,2,0,P|348:326|374:304,3,56,10|0|2|0,0:0|0:0|0:0|0:0,0:0:0:0:
468,270,116874,6,0,P|448:241|422:219,3,56,0|0|2|0,0:0|0:0|0:0|0:0,0:0:0:0:
347,183,117342,1,8,0:0:0:0:
296,207,117459,1,0,0:0:0:0:
240,216,117577,1,2,0:0:0:0:
184,212,117694,1,0,0:0:0:0:
131,191,117811,2,0,P|111:171|95:147,3,56
187,120,118280,2,0,P|206:100|222:76,3,56,10|0|2|0,0:0|0:0|0:0|0:0,0:0:0:0:
316,28,118749,5,0,0:0:0:0:
324,83,118866,1,0,0:0:0:0:
332,138,118983,1,2,0:0:0:0:
341,193,119100,1,0,0:0:0:0:
349,248,119217,2,0,L|417:258,3,56,8|0|2|0,0:0|0:0|0:0|0:0,0:0:0:0:
208,317,119686,2,0,L|263:308,3,56,0|2|0|0,0:0|0:0|0:0|0:0,0:0:0:0:
97,282,120155,1,10,0:0:0:0:
135,241,120272,1,0,0:0:0:0:
157,189,120389,1,0,0:0:0:0:
161,133,120506,1,0,0:0:0:0:
154,77,120624,6,0,P|170:91|216:119,3,56,0|0|2|0,0:0|0:0|0:0|0:0,0:0:0:0:
341,130,121092,2,0,P|317:145|296:163,3,56,8|0|2|0,0:0|0:0|0:0|0:0,0:0:0:0:
397,284,121561,2,0,P|394:256|388:228,3,56,0|0|2|0,0:0|0:0|0:0|0:0,0:0:0:0:
245,232,122030,2,0,P|266:250|289:265,3,56,8|0|2|0,0:0|0:0|0:0|0:0,0:0:0:0:
122,248,122499,5,0,0:0:0:0:
152,200,122616,1,0,0:0:0:0:
164,145,122733,1,2,0:0:0:0:
161,89,122850,1,0,0:0:0:0:
143,36,122967,2,0,L|82:48,1,56,10|0,0:0|0:0,0:0:0:0:
249,111,123202,2,0,L|303:121,1,56
367,224,123436,2,0,L|306:236,3,56,2|0|0|0,0:0|0:0|0:0|0:0,0:0:0:0:
446,268,123905,2,0,P|454:241|455:213,1,56,10|0,0:0|0:0,0:0:0:0:
361,77,124139,2,0,P|362:104|370:131,1,56,2|0,0:0|0:0,0:0:0:0:
497,87,124374,6,0,P|469:87|441:93,2,56,2|0|0,0:0|0:0|0:0,0:0:0:0:
332,210,124725,2,0,P|360:216|388:217,2,56,2|8|0,0:0|0:0|0:0,0:0:0:0:
237,190,125077,2,0,P|245:216|247:245,1,56,2|0,0:0|0:0,0:0:0:0:
354,360,125311,2,0,P|354:333|360:305,3,56
246,332,125780,1,8,0:0:0:0:
191,318,125897,1,0,0:0:0:0:
136,303,126014,1,0,0:0:0:0:
81,290,126131,1,0,0:0:0:0:
25,279,126249,6,0,L|95:265,1,56
188,189,126483,2,0,L|133:179,1,56,2|0,0:0|0:0,0:0:0:0:
278,300,126717,2,0,L|348:286,3,56,10|0|0|0,0:0|0:0|0:0|0:0,0:0:0:0:
440,132,127186,2,0,L|495:143,3,56,2|0|0|0,0:0|0:0|0:0|0:0,0:0:0:0:
351,53,127655,2,0,L|296:63,1,56,10|0,0:0|0:0,0:0:0:0:
134,128,127889,2,0,L|79:117,1,56,2|0,0:0|0:0,0:0:0:0:
217,73,128124,6,0,P|236:134|215:192,1,112,2|0,0:0|0:0,0:0:0:0:
200,332,128592,2,0,P|181:271|202:213,1,112,10|0,0:0|0:0,0:0:0:0:
223,178,128944,1,0,0:0:0:0:
223,178,129061,1,2,0:0:0:0:
308,250,129295,5,2,0:0:0:0:
108,275,129530,1,10,0:0:0:0:
371,339,129764,1,2,0:0:0:0:
164,117,129999,6,0,L|372:94,2,210,2|0|2,0:0|0:0|0:0,0:0:0:0:
39,133,131053,1,0,0:0:0:0:
114,234,131405,1,2,0:0:0:0:
94,42,131639,1,2,0:0:0:0:
241,257,131874,6,0,L|33:280,2,210,2|0|2,0:0|0:0|0:0,0:0:0:0:
365,241,132928,1,0,0:0:0:0:
289,140,133280,1,2,0:0:0:0:
314,340,133514,1,2,0:0:0:0:
396,137,133749,6,0,P|366:67|241:44,2,210,2|0|2,0:0|0:0|0:0,0:0:0:0:
272,162,134803,1,0,0:0:0:0:
353,258,135155,1,2,0:0:0:0:
364,84,135389,1,2,0:0:0:0:
246,269,135624,6,0,P|276:339|401:362,1,210,2|0,0:0|0:0,0:0:0:0:
372,239,136327,1,2,0:0:0:0:
221,130,136561,2,0,B|153:97|153:97|-8:130,1,210,2|0,0:0|0:0,0:0:0:0:
41,160,137030,1,2,0:0:0:0:
76,17,137264,1,2,0:0:0:0:
173,194,137499,6,0,P|137:266|-3:289,2,210,2|0|2,0:0|0:0|0:0,0:0:0:0:
48,173,138553,1,0,0:0:0:0:
242,102,138905,2,0,L|383:126,1,140,2|2,0:0|0:0,0:0:0:0:
434,337,139374,6,0,B|457:285|457:285|443:191|443:191|465:137,2,210,2|0|2,0:0|0:0|0:0,0:0:0:0:
309,357,140428,1,0,0:0:0:0:
180,190,140780,2,0,L|320:208,1,140,2|2,0:0|0:0,0:0:0:0:
360,281,141249,6,0,P|318:189|370:102,2,210,2|0|2,0:0|0:0|0:0,0:0:0:0:
416,32,142186,2,0,B|321:-8|321:70|201:13,2,210,2|0|2,0:0|0:0|0:0,0:0:0:0:
455,270,143124,6,0,P|363:236|368:138,1,210,2|0,0:0|0:0,0:0:0:0:
454,46,143827,1,2,0:0:0:0:
367,138,144061,2,0,L|181:147,1,140,0|2,0:0|0:0,0:0:0:0:
86,151,144530,1,2,0:0:0:0:
265,57,144764,1,2,0:0:0:0:
218,272,144999,5,6,0:0:0:0:
136,253,145350,1,0,0:0:0:0:
193,191,145702,1,2,0:0:0:0:
218,272,146053,1,0,0:0:0:0:
136,253,146405,1,2,0:0:0:0:
272,208,146639,1,2,0:0:0:0:
211,361,146874,5,2,0:0:0:0:
206,235,147225,1,0,0:0:0:0:
318,292,147577,1,2,0:0:0:0:
211,361,147928,1,0,0:0:0:0:
206,235,148280,1,2,0:0:0:0:
313,384,148514,1,2,0:0:0:0:
117,292,148749,5,6,0:0:0:0:
284,278,149100,1,0,0:0:0:0:
187,140,149452,1,2,0:0:0:0:
117,292,149803,1,0,0:0:0:0:
284,278,150155,1,2,0:0:0:0:
81,185,150389,1,2,0:0:0:0:
202,358,150624,5,2,0:0:0:0:
254,154,150975,1,0,0:0:0:0:
53,215,151327,1,2,0:0:0:0:
202,358,151561,1,2,0:0:0:0:
128,117,151913,1,0,0:0:0:0:
128,117,152030,1,2,0:0:0:0:
374,168,152264,1,2,0:0:0:0:
202,358,152499,5,14,0:0:0:0:
200,344,152616,1,0,0:0:0:0:
198,330,152733,1,0,0:0:0:0:
197,316,152850,1,2,0:0:0:0:
196,302,152967,1,8,0:0:0:0:
195,288,153084,1,0,0:0:0:0:
194,273,153202,2,0,L|192:226,2,35,10|8|8,0:0|0:0|0:0,0:0:0:0:
145,176,153436,5,8,0:0:0:0:
171,167,153553,1,2,0:0:0:0:
198,163,153670,1,0,0:0:0:0:
225,166,153788,1,0,0:0:0:0:
250,178,153905,1,10,0:0:0:0:
275,188,154022,1,0,0:0:0:0:
302,191,154139,1,2,0:0:0:0:
329,187,154256,1,0,0:0:0:0:
355,177,154374,5,14,0:0:0:0:
343,202,154491,1,0,0:0:0:0:
341,229,154608,1,0,0:0:0:0:
343,256,154725,1,2,0:0:0:0:
351,282,154842,1,8,0:0:0:0:
363,306,154959,1,0,0:0:0:0:
381,327,155077,2,0,P|400:338|418:343,2,35,10|8|8,0:0|0:0|0:0,0:0:0:0:
491,352,155311,5,8,0:0:0:0:
485,310,155428,1,2,0:0:0:0:
479,268,155545,1,0,0:0:0:0:
474,226,155663,1,0,0:0:0:0:
469,184,155780,1,10,0:0:0:0:
434,207,155897,1,0,0:0:0:0:
392,212,156014,1,2,0:0:0:0:
352,198,156131,1,0,0:0:0:0:
320,169,156249,5,14,0:0:0:0:
295,118,156366,1,8,0:0:0:0:
251,82,156483,1,8,0:0:0:0:
195,73,156600,1,10,0:0:0:0:
140,84,156717,1,8,0:0:0:0:
99,122,156834,1,8,0:0:0:0:
78,174,156952,1,10,0:0:0:0:
93,227,157069,1,8,0:0:0:0:
126,271,157186,5,14,0:0:0:0:
185,234,157303,1,8,0:0:0:0:
252,216,157420,1,8,0:0:0:0:
322,221,157538,1,10,0:0:0:0:
380,259,157655,1,12,0:0:0:0:
446,280,157772,1,8,0:0:0:0:
510,254,157889,2,0,L|498:183,2,70,10|8|12,0:0|0:0|0:0,0:0:0:0:
121,185,159295,6,0,L|178:176,2,41.9999987182618,2|2|2,0:0|0:0|0:0,0:0:0:0:
230,109,159999,2,0,L|308:117,1,62.9999980773926,2|2,0:0|0:0,0:0:0:0:
369,266,160702,2,0,L|420:261,1,41.9999987182618,2|8,0:0|0:0,0:0:0:0:
431,258,161053,1,0,0:0:0:0:
431,258,161170,1,8,0:0:0:0:
197,212,161405,1,8,0:0:0:0:
235,283,161639,1,2,0:0:0:0:
249,143,161874,6,0,P|159:134|118:240,1,210,14|2,0:0|0:0,0:0:0:0:
130,298,162342,1,8,0:0:0:0:
263,253,162577,1,2,0:0:0:0:
31,222,162811,1,8,0:0:0:0:
239,252,163045,1,0,0:0:0:0:
89,122,163280,1,10,0:0:0:0:
201,342,163514,1,2,0:0:0:0:
205,50,163749,6,0,B|273:26|273:26|416:52,1,210,10|2,0:0|0:0,0:0:0:0:
475,71,164217,1,8,0:0:0:0:
350,136,164452,1,2,0:0:0:0:
447,351,164686,2,0,L|461:211,1,140,8|0,0:0|0:0,0:0:0:0:
475,71,165155,1,8,0:0:0:0:
350,136,165389,1,2,0:0:0:0:
461,211,165624,6,0,L|238:227,1,210,10|2,0:0|0:0,0:0:0:0:
181,232,166092,1,8,0:0:0:0:
267,342,166327,1,2,0:0:0:0:
437,116,166561,6,0,L|201:128,2,236.600004422531,8|2|8,0:0|0:0|0:0,0:0:0:0:
496,13,167264,1,2,0:0:0:0:
434,226,167499,6,0,P|356:250|302:298,1,140,14|0,0:0|0:0,0:0:0:0:
268,341,167850,1,2,0:0:0:0:
240,276,167967,2,0,L|224:123,1,140,8|2,0:0|0:0,0:0:0:0:
343,61,168436,1,8,0:0:0:0:
147,40,168670,1,0,0:0:0:0:
324,61,168905,1,8,0:0:0:0:
106,139,169139,1,2,0:0:0:0:
384,154,169374,6,0,P|356:188|339:305,1,140,10|0,0:0|0:0,0:0:0:0:
341,356,169725,1,2,0:0:0:0:
341,356,169842,1,8,0:0:0:0:
442,252,170077,1,2,0:0:0:0:
243,240,170311,1,8,0:0:0:0:
481,121,170545,1,0,0:0:0:0:
481,121,170663,1,0,0:0:0:0:
481,121,170780,1,8,0:0:0:0:
332,284,171014,1,0,0:0:0:0:
183,27,171249,6,0,L|164:253,1,210,10|2,0:0|0:0,0:0:0:0:
154,305,171717,1,8,0:0:0:0:
69,193,171952,1,2,0:0:0:0:
370,69,172186,6,0,L|351:295,1,210,10|2,0:0|0:0,0:0:0:0:
341,347,172654,1,8,0:0:0:0:
256,235,172889,1,2,0:0:0:0:
73,366,173124,5,8,0:0:0:0:
79,296,173241,1,8,0:0:0:0:
85,226,173358,1,8,0:0:0:0:
91,156,173475,1,8,0:0:0:0:
98,86,173592,2,0,P|118:108|176:144,1,70,8|8,0:0|0:0,0:0:0:0:
300,201,173827,1,8,0:0:0:0:
20,255,174061,1,8,0:0:0:0:
150,306,174295,5,2,0:0:0:0:
128,167,174530,1,2,0:0:0:0:
51,360,174764,1,2,0:0:0:0:
254,216,174999,6,0,L|424:201,1,140,14|0,0:0|0:0,0:0:0:0:
463,196,175350,1,2,0:0:0:0:
463,196,175467,1,8,0:0:0:0:
429,332,175702,1,2,0:0:0:0:
357,114,175936,1,8,0:0:0:0:
484,272,176170,1,0,0:0:0:0:
301,241,176405,1,8,0:0:0:0:
512,165,176639,1,2,0:0:0:0:
237,178,176874,6,0,P|215:213|245:312,1,140,10|0,0:0|0:0,0:0:0:0:
297,349,177225,1,2,0:0:0:0:
297,349,177342,1,8,0:0:0:0:
383,240,177577,1,2,0:0:0:0:
120,223,177811,1,8,0:0:0:0:
295,262,178045,1,0,0:0:0:0:
180,99,178280,1,10,0:0:0:0:
203,315,178514,1,2,0:0:0:0:
343,55,178749,6,0,L|368:216,1,140,10|0,0:0|0:0,0:0:0:0:
379,268,179100,1,2,0:0:0:0:
379,268,179217,1,8,0:0:0:0:
481,165,179452,1,2,0:0:0:0:
270,137,179686,1,8,0:0:0:0:
460,165,179920,1,0,0:0:0:0:
231,228,180155,1,8,0:0:0:0:
381,79,180389,1,2,0:0:0:0:
451,332,180624,6,0,P|378:300|311:311,1,140,10|0,0:0|0:0,0:0:0:0:
256,336,180975,1,2,0:0:0:0:
256,336,181092,1,8,0:0:0:0:
129,275,181327,1,2,0:0:0:0:
252,99,181561,6,0,L|254:172,1,62.9999980773926
255,183,182030,1,10,0:0:0:0:
349,137,182264,1,2,0:0:0:0:
446,332,182499,6,0,L|287:312,1,140,14|0,0:0|0:0,0:0:0:0:
238,303,182850,1,2,0:0:0:0:
238,303,182967,1,8,0:0:0:0:
110,362,183202,1,2,0:0:0:0:
196,201,183436,1,8,0:0:0:0:
118,350,183670,1,0,0:0:0:0:
98,135,183905,1,8,0:0:0:0:
264,279,184139,1,2,0:0:0:0:
31,239,184374,6,0,L|180:223,1,140,10|0,0:0|0:0,0:0:0:0:
238,209,184725,1,2,0:0:0:0:
238,209,184842,1,8,0:0:0:0:
312,89,185077,1,2,0:0:0:0:
376,264,185311,1,8,0:0:0:0:
439,33,185545,1,0,0:0:0:0:
439,33,185663,1,0,0:0:0:0:
439,33,185780,1,8,0:0:0:0:
229,120,186014,1,0,0:0:0:0:
456,175,186249,6,0,P|475:154|493:114,2,62.9999980773926,2|2|2,0:0|0:0|0:0,0:0:0:0:
228,250,187186,2,0,P|247:271|265:311,2,62.9999980773926,2|2|2,0:0|0:0|0:0,0:0:0:0:
76,161,188124,6,0,P|105:159|176:88,1,125.999996154785
284,36,189295,1,2,0:0:0:0:
284,36,189530,2,0,P|291:58|310:80,1,41.9999987182618,2|2,0:0|0:0,0:0:0:0:
382,177,189999,6,0,P|363:200|351:238,2,62.9999980773926,2|2|2,0:0|0:0|0:0,0:0:0:0:
256,192,190936,12,0,193749,0:0:0:0:
