osu file format v14

[General]
AudioFilename: audio.mp3
AudioLeadIn: 0
PreviewTime: 62967
Countdown: 0
SampleSet: Soft
StackLeniency: 0.7
Mode: 0
LetterboxInBreaks: 0
WidescreenStoryboard: 0

[Editor]
Bookmarks: 39999,84999,103749,129999,144999,161874,174999,186249
DistanceSpacing: 1
BeatDivisor: 4
GridSize: 16
TimelineZoom: 1

[Metadata]
Title:Champions (feat. Harry Brooks Jnr)
TitleUnicode:Champions (feat. Harry Brooks Jnr)
Artist:Astronaut
ArtistUnicode:Astronaut
Creator:Come[Back]Home
Version:Hard
Source:
Tags:cbh electronic monstercat apollo male vocals dance edm
BeatmapID:1859093
BeatmapSetID:889441

[Difficulty]
HPDrainRate:5.5
CircleSize:4
OverallDifficulty:6.5
ApproachRate:7.5
SliderMultiplier:2.6
SliderTickRate:1

[Events]
//Background and Video events
0,0,"alena-aenami-imhere1k.jpg",0,0
//Break Periods
2,99964,102924
//Storyboard Layer 0 (Background)
//Storyboard Layer 1 (Fail)
//Storyboard Layer 2 (Pass)
//Storyboard Layer 3 (Foreground)
//Storyboard Sound Samples

[TimingPoints]
624,468.75,4,2,0,60,1,0
2499,-166.666666666667,4,2,1,60,0,0
3788,-166.666666666667,4,2,1,5,0,0
3905,-166.666666666667,4,2,1,60,0,0
7538,-166.666666666667,4,2,1,5,0,0
7655,-166.666666666667,4,2,1,60,0,0
10467,-250,4,2,0,35,0,0
26991,-250,4,2,0,5,0,0
27108,-250,4,2,0,35,0,0
40467,-333.333333333333,4,2,0,35,0,0
43866,-333.333333333333,4,2,0,5,0,0
43983,-333.333333333333,4,2,0,35,0,0
45624,-666.666666666667,4,2,0,35,0,0
47499,-333.333333333333,4,2,0,35,0,0
54999,-200,4,2,0,45,0,0
62499,-125,4,2,3,60,0,0
69999,-100,4,2,2,60,0,1
76561,-333.333333333333,4,2,2,60,0,1
77499,-100,4,2,2,60,0,1
83124,-100,4,2,3,60,0,1
84295,-100,4,2,3,60,0,0
84999,-100,4,2,2,60,0,1
91561,-333.333333333333,4,2,2,60,0,1
91913,-333.333333333333,4,2,2,5,0,1
92030,-333.333333333333,4,2,2,60,0,1
92499,-100,4,2,2,60,0,1
96249,-333.333333333333,4,2,0,60,0,0
99530,-333.333333333333,4,2,3,60,0,0
103749,-125,4,2,1,60,0,0
129999,-100,4,2,0,60,0,0
152499,-100,4,2,3,60,0,0
159295,-333.333333333333,4,2,3,60,0,0
161874,-100,4,2,2,60,0,1
166561,-333.333333333333,4,2,2,60,0,1
167499,-100,4,2,2,60,0,1
173124,-100,4,2,3,60,0,1
174295,-100,4,2,3,60,0,0
174999,-100,4,2,2,60,0,1
181561,-333.333333333333,4,2,3,60,0,1
181913,-333.333333333333,4,2,3,5,0,1
182030,-333.333333333333,4,2,3,60,0,1
182499,-100,4,2,2,60,0,1
186249,-333.333333333333,4,2,0,60,0,0

[Colours]
Combo1 : 92,163,124
Combo2 : 185,118,17
Combo3 : 90,124,182
Combo4 : 219,215,47

[HitObjects]
93,303,2030,5,2,0:0:0:0:
93,303,2499,2,0,L|266:293,1,155.999995239258,2|8,0:0|0:0,0:0:0:0:
326,287,3202,1,2,0:0:0:0:
280,223,3436,2,0,P|264:181|293:100,1,116.999996429443,0|0,0:0|0:0,0:0:0:0:
305,81,3905,2,0,P|261:73|218:49,1,77.999997619629,10|0,0:0|0:0,0:0:0:0:
153,47,4374,6,0,L|170:215,2,155.999995239258,0|8|0,0:0|0:0|0:0,0:0:0:0:
77,26,5545,1,0,0:0:0:0:
43,96,5780,2,0,L|53:200,1,77.999997619629,8|0,0:0|0:0,0:0:0:0:
59,251,6249,6,0,B|103:241|103:241|220:265,1,155.999995239258,2|8,0:0|0:0,0:0:0:0:
287,281,6952,1,2,0:0:0:0:
287,281,7069,1,0,0:0:0:0:
287,281,7186,2,0,L|277:187,1,77.999997619629,0|0,0:0|0:0,0:0:0:0:
338,153,7655,1,10,0:0:0:0:
265,124,7889,1,0,0:0:0:0:
325,74,8124,6,0,L|484:68,2,155.999995239258,0|8|0,0:0|0:0|0:0,0:0:0:0:
255,38,9295,1,0,0:0:0:0:
187,74,9530,2,0,L|31:68,1,155.999995239258,8|6,0:0|0:0,0:0:0:0:
35,213,10467,6,0,L|145:217,1,104,2|0,0:0|0:0,0:0:0:0:
256,302,11405,1,2,0:0:0:0:
293,239,11639,1,0,0:0:0:0:
408,308,11874,2,0,L|331:300,2,78,2|0|2,0:0|0:0|0:0,0:0:0:0:
408,308,13749,1,4,0:0:0:0:
408,308,14217,6,0,P|393:273|391:200,1,104,2|0,0:0|0:0,0:0:0:0:
417,64,15155,1,2,0:0:0:0:
466,117,15389,1,0,0:0:0:0:
341,93,15624,2,0,L|284:88,1,52,2|0,0:0|0:0,0:0:0:0:
229,46,16092,2,0,L|177:50,1,52,2|0,0:0|0:0,0:0:0:0:
109,24,16561,1,2,0:0:0:0:
54,142,16795,2,0,L|72:249,1,104,0|0,0:0|0:0,0:0:0:0:
90,315,17499,1,4,0:0:0:0:
90,315,17967,6,0,P|127:302|195:316,1,104,2|0,0:0|0:0,0:0:0:0:
325,366,18905,1,2,0:0:0:0:
307,295,19139,1,0,0:0:0:0:
452,306,19374,2,0,P|415:316|377:312,2,78,2|0|2,0:0|0:0|0:0,0:0:0:0:
452,306,21249,1,4,0:0:0:0:
383,177,21717,6,0,L|394:61,1,104,2|0,0:0|0:0,0:0:0:0:
252,112,22655,1,2,0:0:0:0:
271,182,22889,1,0,0:0:0:0:
199,169,23124,2,0,L|142:162,1,52,2|0,0:0|0:0,0:0:0:0:
76,277,23592,2,0,P|111:261|139:234,1,78,0|0,0:0|0:0,0:0:0:0:
201,144,24295,1,2,0:0:0:0:
282,347,24999,1,4,0:0:0:0:
387,247,25467,5,2,0:0:0:0:
387,247,25702,2,0,L|279:243,1,104,0|0,0:0|0:0,0:0:0:0:
210,238,26405,1,2,0:0:0:0:
250,177,26639,2,0,L|243:114,1,52,0|0,0:0|0:0,0:0:0:0:
136,142,27108,2,0,P|123:172|63:215,2,104,2|0|0,0:0|0:0|0:0,0:0:0:0:
117,71,28280,1,2,0:0:0:0:
187,89,28514,6,0,L|242:84,1,52,0|0,0:0|0:0,0:0:0:0:
299,43,28983,2,0,L|350:47,1,52,0|0,0:0|0:0,0:0:0:0:
337,193,29452,2,0,L|326:116,2,78,0|0|2,0:0|0:0|0:0,0:0:0:0:
445,291,30624,1,4,0:0:0:0:
445,291,31561,1,0,0:0:0:0:
445,291,31795,2,0,L|336:284,1,104,2|0,0:0|0:0,0:0:0:0:
268,279,32499,1,4,0:0:0:0:
212,326,32733,5,0,0:0:0:0:
198,254,32967,2,0,L|208:148,1,104,2|0,0:0|0:0,0:0:0:0:
99,52,33905,1,2,0:0:0:0:
170,36,34139,1,0,0:0:0:0:
65,123,34374,2,0,P|34:97|21:42,2,78,2|0|2,0:0|0:0|0:0,0:0:0:0:
65,123,36249,1,4,0:0:0:0:
108,181,36483,5,0,0:0:0:0:
176,206,36717,2,0,L|285:197,1,104,2|0,0:0|0:0,0:0:0:0:
396,285,37655,1,2,0:0:0:0:
427,219,37889,1,0,0:0:0:0:
443,371,38124,2,0,L|339:362,1,104,2|0,0:0|0:0,0:0:0:0:
194,346,39061,1,0,0:0:0:0:
194,346,39295,2,0,P|221:333|266:264,1,104,2|0,0:0|0:0,0:0:0:0:
291,94,39999,5,4,0:1:0:0:
177,123,40467,2,0,L|121:117,1,38.9999988098145,0|0,0:0|0:0,0:0:0:0:
20,248,41405,1,0,0:0:0:0:
77,255,41639,2,0,L|166:265,1,77.999997619629,0|0,0:0|0:0,0:0:0:0:
263,219,42577,2,0,P|271:243|306:290,1,77.999997619629,0|0,0:0|0:0,0:0:0:0:
344,325,43280,1,0,0:0:0:0:
374,275,43514,6,0,L|364:180,1,77.999997619629,0|0,0:0|0:0,0:0:0:0:
409,88,44452,2,0,L|314:78,1,77.999997619629,0|0,0:0|0:0,0:0:0:0:
273,72,45155,1,0,0:0:0:0:
294,126,45389,1,0,0:0:0:0:
184,123,45624,6,0,L|218:127,2,29.2499991073609,2|0|2,0:0|0:0|0:0,0:0:0:0:
242,225,46561,2,0,L|208:229,2,29.2499991073609,2|0|2,0:0|0:0|0:0,0:0:0:0:
315,278,47499,6,0,P|334:257|375:233,2,58.4999982147217,2|0|2,0:0|0:0|0:0,0:0:0:0:
256,343,48553,1,0,0:0:0:0:
197,278,48905,2,0,P|178:257|159:242,1,38.9999988098145,2|2,0:0|0:0,0:0:0:0:
68,162,49374,6,0,L|137:158,2,58.4999982147217,2|0|2,0:0|0:0|0:0,0:0:0:0:
5,100,50428,1,0,0:0:0:0:
82,59,50780,2,0,L|126:57,1,38.9999988098145,2|2,0:0|0:0,0:0:0:0:
217,105,51249,6,0,P|229:68|224:35,2,58.4999982147217,2|0|2,0:0|0:0|0:0,0:0:0:0:
184,186,52303,1,0,0:0:0:0:
249,245,52655,2,0,P|264:268|271:288,1,38.9999988098145,2|2,0:0|0:0,0:0:0:0:
110,302,53124,6,0,L|42:293,2,58.4999982147217,2|0|2,0:0|0:0|0:0,0:0:0:0:
93,155,54061,2,0,L|135:151,1,38.9999988098145,2|2,0:0|0:0,0:0:0:0:
209,141,54530,1,2,0:0:0:0:
180,213,54764,1,2,0:0:0:0:
160,84,54999,6,0,P|194:65|260:86,2,97.5,6|0|2,0:0|0:0|0:0,0:0:0:0:
107,166,56053,1,0,0:0:0:0:
164,244,56405,2,0,P|179:273|183:313,1,65,2|2,0:0|0:0,0:0:0:0:
321,245,56874,6,0,L|337:142,2,97.5,2|0|2,0:0|0:0|0:0,0:0:0:0:
390,313,57928,1,0,0:0:0:0:
296,341,58280,2,0,L|223:333,1,65,2|2,0:0|0:0,0:0:0:0:
92,258,58749,6,0,L|210:253,2,97.5,6|0|2,0:0|0:0|0:0,0:0:0:0:
51,346,59803,1,0,0:0:0:0:
7,258,60155,2,0,L|17:180,1,65,2|2,0:0|0:0,0:0:0:0:
124,102,60624,6,0,P|147:135|206:168,2,97.5,2|0|2,0:0|0:0|0:0,0:0:0:0:
360,60,61561,2,0,P|318:84|288:122,1,97.5,2|0,0:0|0:0,0:0:0:0:
273,151,62030,2,0,P|293:190|299:238,1,65,2|2,0:0|0:0,0:0:0:0:
282,311,62499,6,0,L|164:299,1,104,14|0,0:0|0:0,0:0:0:0:
87,349,62967,2,0,B|71:296|71:296|94:242,1,104,10|2,0:0|0:0,0:0:0:0:
114,205,63319,1,0,0:0:0:0:
114,205,63436,1,10,0:0:0:0:
204,153,63670,1,2,0:0:0:0:
116,96,63905,2,0,L|-2:84,1,104,10|2,0:0|0:0,0:0:0:0:
204,153,64374,6,0,L|307:142,1,104,12|0,0:0|0:0,0:0:0:0:
387,76,64842,2,0,P|413:126|404:186,1,104,8|2,0:0|0:0,0:0:0:0:
389,220,65194,1,0,0:0:0:0:
389,220,65311,1,8,0:0:0:0:
326,302,65545,1,2,0:0:0:0:
236,248,65780,2,0,L|132:258,1,104,10|2,0:0|0:0,0:0:0:0:
54,189,66249,5,14,0:0:0:0:
57,168,66366,1,8,0:0:0:0:
60,147,66483,1,8,0:0:0:0:
64,126,66600,1,10,0:0:0:0:
67,105,66717,2,0,L|56:48,3,52,8|8|10|8,0:0|0:0|0:0|0:0,0:0:0:0:
157,12,67186,2,0,L|147:63,3,52,14|8|8|10,0:0|0:0|0:0|0:0,0:0:0:0:
236,124,67655,2,0,L|226:72,3,52,12|8|10|8,0:0|0:0|0:0|0:0,0:0:0:0:
168,221,68124,1,12,0:0:0:0:
399,323,68592,5,12,0:0:0:0:
406,282,68709,1,8,0:0:0:0:
413,240,68827,1,12,0:0:0:0:
420,199,68944,1,0,0:0:0:0:
427,158,69061,1,12,0:0:0:0:
431,75,69295,2,0,L|327:87,2,104,2|2|2,0:0|0:0|0:0,0:0:0:0:
240,30,69999,6,0,P|222:98|326:193,1,195,14|2,0:0|0:0,0:0:0:0:
347,201,70467,2,0,P|274:213|219:268,1,130,8|2,0:0|0:0,0:0:0:0:
160,323,70936,2,0,L|136:180,1,130,8|0,0:0|0:0,0:0:0:0:
120,93,71405,1,8,0:0:0:0:
138,194,71639,1,2,0:0:0:0:
220,129,71874,6,0,B|269:121|269:121|344:126|344:126|413:111,1,195,10|2,0:0|0:0,0:0:0:0:
460,90,72342,2,0,P|425:147|434:234,1,130,8|2,0:0|0:0,0:0:0:0:
399,309,72811,2,0,P|358:283|274:278,1,130,8|0,0:0|0:0,0:0:0:0:
179,310,73280,1,10,0:0:0:0:
146,211,73514,1,2,0:0:0:0:
73,286,73749,6,0,L|56:82,1,195,10|2,0:0|0:0,0:0:0:0:
55,39,74217,2,0,P|88:66|209:85,1,130,8|2,0:0|0:0,0:0:0:0:
266,47,74686,2,0,L|404:29,1,130,8|0,0:0|0:0,0:0:0:0:
486,79,75155,1,8,0:0:0:0:
394,30,75389,1,2,0:0:0:0:
353,187,75624,6,0,L|153:216,1,195,10|2,0:0|0:0,0:0:0:0:
119,247,76092,2,0,P|141:185|112:112,1,130,8|0,0:0|0:0,0:0:0:0:
57,341,76561,6,0,L|151:349,1,77.999997619629,8|8,0:0|0:0,0:0:0:0:
165,351,77264,1,0,0:0:0:0:
265,323,77499,6,0,P|242:262|343:175,1,195,14|2,0:0|0:0,0:0:0:0:
372,169,77967,2,0,P|310:133|280:54,1,130,8|2,0:0|0:0,0:0:0:0:
189,37,78436,2,0,L|158:170,1,130,8|0,0:0|0:0,0:0:0:0:
74,223,78905,1,8,0:0:0:0:
132,308,79139,1,2,0:0:0:0:
232,336,79374,6,0,B|278:279|278:279|263:147,1,195,10|2,0:0|0:0,0:0:0:0:
254,107,79842,2,0,L|401:127,1,130,8|2,0:0|0:0,0:0:0:0:
455,198,80311,2,0,P|394:227|360:285,1,130,8|0,0:0|0:0,0:0:0:0:
345,328,80663,1,0,0:0:0:0:
345,328,80780,2,0,L|203:308,1,130,8|0,0:0|0:0,0:0:0:0:
118,346,81249,6,0,B|88:285|88:285|107:154,1,195,10|2,0:0|0:0,0:0:0:0:
118,108,81717,1,8,0:0:0:0:
34,45,81952,1,2,0:0:0:0:
217,42,82186,6,0,L|413:34,1,195,10|2,0:0|0:0,0:0:0:0:
463,29,82655,1,8,0:0:0:0:
416,121,82889,1,2,0:0:0:0:
455,217,83124,6,0,P|423:222|386:244,3,65,8|8|8|8,0:0|0:0|0:0|0:0,0:0:0:0:
295,312,83592,2,0,P|263:307|226:285,2,65,8|8|8,0:0|0:0|0:0,0:0:0:0:
300,207,84061,1,8,0:0:0:0:
201,173,84295,5,2,0:0:0:0:
280,105,84530,1,2,0:0:0:0:
300,207,84764,1,2,0:0:0:0:
181,78,84999,6,0,L|403:67,1,195,14|2,0:0|0:0,0:0:0:0:
427,64,85467,1,8,0:0:0:0:
377,155,85702,1,2,0:0:0:0:
434,241,85936,2,0,P|366:259|305:227,1,130,8|0,0:0|0:0,0:0:0:0:
231,171,86405,2,0,P|171:147|110:165,1,130,8|2,0:0|0:0,0:0:0:0:
45,247,86874,6,0,L|188:269,1,130,10|0,0:0|0:0,0:0:0:0:
224,275,87225,1,2,0:0:0:0:
224,275,87342,1,8,0:0:0:0:
296,350,87577,1,2,0:0:0:0:
373,280,87811,2,0,P|362:212|392:151,1,130,8|0,0:0|0:0,0:0:0:0:
461,85,88280,1,10,0:0:0:0:
386,157,88514,1,2,0:0:0:0:
221,43,88749,6,0,L|237:250,1,195,10|2,0:0|0:0,0:0:0:0:
240,289,89217,1,8,0:0:0:0:
144,246,89452,1,2,0:0:0:0:
101,340,89686,2,0,P|51:290|44:224,1,130,8|0,0:0|0:0,0:0:0:0:
84,138,90155,2,0,L|234:127,1,130,8|2,0:0|0:0,0:0:0:0:
406,55,90624,6,0,L|277:46,1,130,10|0,0:0|0:0,0:0:0:0:
225,40,90975,1,2,0:0:0:0:
225,40,91092,1,8,0:0:0:0:
291,120,91327,1,2,0:0:0:0:
165,247,91561,6,0,L|179:163,1,77.999997619629,0|10,0:0|0:0,0:0:0:0:
184,139,92264,1,2,0:0:0:0:
267,201,92499,6,0,P|338:215|403:192,1,130,14|0,0:0|0:0,0:0:0:0:
436,172,92850,1,2,0:0:0:0:
436,172,92967,1,8,0:0:0:0:
400,73,93202,1,2,0:0:0:0:
302,38,93436,2,0,P|231:24|166:47,1,130,8|0,0:0|0:0,0:0:0:0:
107,117,93905,2,0,L|122:253,1,130,8|2,0:0|0:0,0:0:0:0:
174,335,94374,6,0,P|222:283|299:262,1,130,10|0,0:0|0:0,0:0:0:0:
327,254,94725,1,2,0:0:0:0:
327,254,94842,2,0,P|293:193|293:125,1,130,8|2,0:0|0:0,0:0:0:0:
367,63,95311,2,0,L|200:52,1,130,8|0,0:0|0:0,0:0:0:0:
185,51,95663,1,0,0:0:0:0:
185,51,95780,1,8,0:0:0:0:
93,99,96014,1,0,0:0:0:0:
193,210,96249,6,0,L|206:149,2,58.4999982147217,2|2|2,0:0|0:0|0:0,0:0:0:0:
312,274,97186,2,0,L|299:213,2,58.4999982147217,2|2|2,0:0|0:0|0:0,0:0:0:0:
414,363,98124,6,0,L|438:239,1,116.999996429443,0|0,0:0|0:0,0:0:0:0:
471,161,99530,2,0,P|485:179|502:190,1,38.9999988098145,8|0,0:0|0:0,0:0:0:0:
146,330,103749,6,0,L|132:205,1,104,0|0,0:0|0:0,0:0:0:0:
65,180,104217,2,0,P|113:143|211:207,1,156,10|0,0:0|0:0,0:0:0:0:
217,208,104686,2,0,L|326:194,1,104,2|0,0:0|0:0,0:0:0:0:
380,252,105155,1,10,0:0:0:0:
441,196,105389,1,2,0:0:0:0:
441,196,105506,1,0,0:0:0:0:
441,196,105624,6,0,L|427:87,1,104,2|0,0:0|0:0,0:0:0:0:
354,53,106092,2,0,L|340:156,1,104,10|0,0:0|0:0,0:0:0:0:
335,197,106444,1,0,0:0:0:0:
335,197,106561,2,0,P|300:153|242:125,1,104,2|0,0:0|0:0,0:0:0:0:
176,114,107030,1,8,0:0:0:0:
106,159,107264,1,0,0:0:0:0:
106,159,107381,1,0,0:0:0:0:
106,159,107499,6,0,L|117:276,1,104,0|0,0:0|0:0,0:0:0:0:
175,320,107967,2,0,P|203:275|251:244,1,104,10|0,0:0|0:0,0:0:0:0:
316,288,108436,2,0,L|323:121,1,156,2|0,0:0|0:0,0:0:0:0:
328,90,108905,1,10,0:0:0:0:
400,130,109139,1,2,0:0:0:0:
400,130,109256,1,0,0:0:0:0:
400,130,109374,6,0,L|394:244,1,104,2|0,0:0|0:0,0:0:0:0:
394,275,109725,1,2,0:0:0:0:
390,316,109842,2,0,P|341:300|286:306,1,104,8|2,0:0|0:0,0:0:0:0:
213,338,110311,2,0,P|161:342|112:326,1,104,0|0,0:0|0:0,0:0:0:0:
39,286,110780,1,8,0:0:0:0:
107,239,111014,1,0,0:0:0:0:
107,239,111131,1,0,0:0:0:0:
107,239,111249,6,0,L|118:121,1,104,0|0,0:0|0:0,0:0:0:0:
61,73,111717,2,0,P|115:51|199:126,1,156,10|0,0:0|0:0,0:0:0:0:
202,139,112186,2,0,L|192:242,1,104,2|0,0:0|0:0,0:0:0:0:
241,309,112655,1,10,0:0:0:0:
307,259,112889,1,2,0:0:0:0:
307,259,113006,1,0,0:0:0:0:
307,259,113124,6,0,P|351:296|415:317,1,104,2|0,0:0|0:0,0:0:0:0:
433,324,113475,1,2,0:0:0:0:
474,329,113592,2,0,L|468:210,1,104,8|2,0:0|0:0,0:0:0:0:
490,144,114061,1,2,0:0:0:0:
422,96,114295,1,0,0:0:0:0:
422,96,114413,1,0,0:0:0:0:
422,96,114530,2,0,L|297:83,1,104,8|0,0:0|0:0,0:0:0:0:
235,75,114999,5,0,0:0:0:0:
195,87,115116,1,0,0:0:0:0:
155,99,115233,1,0,0:0:0:0:
114,108,115350,1,0,0:0:0:0:
74,119,115467,2,0,P|104:170|106:226,1,104,10|2,0:0|0:0,0:0:0:0:
87,294,115936,2,0,L|276:281,1,156,0|0,0:0|0:0,0:0:0:0:
284,279,116405,1,10,0:0:0:0:
343,336,116639,1,2,0:0:0:0:
367,256,116874,6,0,L|380:137,1,104,0|2,0:0|0:0,0:0:0:0:
452,116,117342,1,8,0:0:0:0:
383,68,117577,1,2,0:0:0:0:
383,68,117694,1,0,0:0:0:0:
383,68,117811,2,0,L|279:79,1,104,0|0,0:0|0:0,0:0:0:0:
205,41,118280,2,0,P|198:101|233:147,1,104,10|2,0:0|0:0,0:0:0:0:
289,182,118749,5,0,0:0:0:0:
313,215,118866,1,0,0:0:0:0:
325,254,118983,1,2,0:0:0:0:
328,295,119100,1,0,0:0:0:0:
323,336,119217,2,0,L|203:322,1,104,8|2,0:0|0:0,0:0:0:0:
136,314,119686,1,0,0:0:0:0:
136,314,119803,1,2,0:0:0:0:
136,314,119920,1,0,0:0:0:0:
183,245,120155,2,0,L|170:141,1,104,10|0,0:0|0:0,0:0:0:0:
217,72,120624,6,0,P|271:56|325:63,1,104,0|2,0:0|0:0,0:0:0:0:
479,104,121092,2,0,P|430:120|379:115,1,104,8|2,0:0|0:0,0:0:0:0:
317,60,121561,1,0,0:0:0:0:
280,134,121795,1,2,0:0:0:0:
280,134,121913,1,0,0:0:0:0:
280,134,122030,2,0,L|292:248,1,104,8|2,0:0|0:0,0:0:0:0:
260,315,122499,5,0,0:0:0:0:
228,288,122616,1,0,0:0:0:0:
188,276,122733,1,2,0:0:0:0:
146,274,122850,1,0,0:0:0:0:
105,284,122967,2,0,P|131:232|136:169,1,104,10|0,0:0|0:0,0:0:0:0:
71,134,123436,2,0,B|129:109|129:109|230:128,1,156,2|0,0:0|0:0,0:0:0:0:
245,159,123905,2,0,L|353:147,1,104,10|2,0:0|0:0,0:0:0:0:
425,178,124374,6,0,P|392:221|386:279,1,104,2|0,0:0|0:0,0:0:0:0:
384,310,124725,1,2,0:0:0:0:
390,351,124842,2,0,L|275:335,1,104,8|2,0:0|0:0,0:0:0:0:
205,356,125311,1,0,0:0:0:0:
146,296,125545,1,0,0:0:0:0:
78,345,125780,2,0,P|62:288|96:228,1,104,8|0,0:0|0:0,0:0:0:0:
136,188,126249,5,0,0:0:0:0:
177,193,126366,1,0,0:0:0:0:
218,198,126483,1,2,0:0:0:0:
259,203,126600,1,0,0:0:0:0:
300,208,126717,2,0,P|315:159|298:110,1,104,10|0,0:0|0:0,0:0:0:0:
243,47,127186,2,0,L|82:57,1,156,2|0,0:0|0:0,0:0:0:0:
45,59,127655,2,0,P|75:110|76:163,1,104,10|2,0:0|0:0,0:0:0:0:
15,209,128124,6,0,B|70:234|70:234|186:209,1,156,2|0,0:0|0:0,0:0:0:0:
192,184,128592,2,0,L|301:207,1,104,10|0,0:0|0:0,0:0:0:0:
374,227,129061,1,2,0:0:0:0:
349,147,129295,1,2,0:0:0:0:
431,160,129530,1,10,0:0:0:0:
456,238,129764,1,2,0:0:0:0:
308,317,129999,6,0,L|116:282,2,195,2|0|2,0:0|0:0|0:0,0:0:0:0:
456,365,131053,2,0,P|419:305|428:179,1,195,0|2,0:0|0:0,0:0:0:0:
483,97,131639,1,2,0:0:0:0:
387,54,131874,6,0,B|330:67|330:67|252:56|252:56|177:72,2,195,2|0|2,0:0|0:0|0:0,0:0:0:0:
396,209,132928,2,0,B|339:222|339:222|261:211|261:211|186:227,1,195,0|2,0:0|0:0,0:0:0:0:
103,248,133514,1,2,0:0:0:0:
158,159,133749,6,0,P|182:87|58:58,2,195,2|0|2,0:0|0:0|0:0,0:0:0:0:
58,278,134803,2,0,B|131:303|131:303|270:279,1,195,0|2,0:0|0:0,0:0:0:0:
349,261,135389,1,2,0:0:0:0:
422,186,135624,6,0,P|455:258|393:358,2,195,2|0|2,0:0|0:0|0:0,0:0:0:0:
349,261,136561,2,0,P|316:189|378:89,1,195,2|0,0:0|0:0,0:0:0:0:
415,70,137030,2,0,P|357:68|270:21,1,130,2|2,0:0|0:0,0:0:0:0:
193,4,137499,6,0,P|218:67|140:168,2,195,2|0|2,0:0|0:0|0:0,0:0:0:0:
44,50,138553,1,0,0:0:0:0:
20,204,138905,2,0,L|39:345,1,130,2|2,0:0|0:0,0:0:0:0:
140,350,139374,6,0,B|199:315|199:315|343:341,1,195,2|0,0:0|0:0,0:0:0:0:
478,356,140077,2,0,P|432:308|445:167,1,195,2|0,0:0|0:0,0:0:0:0:
503,46,140780,2,0,P|437:62|362:42,1,130,2|2,0:0|0:0,0:0:0:0:
280,10,141249,6,0,L|297:217,2,195,2|0|2,0:0|0:0|0:0,0:0:0:0:
193,66,142186,2,0,L|210:273,2,195,2|0|2,0:0|0:0|0:0,0:0:0:0:
105,123,143124,6,0,L|122:330,2,195,2|0|2,0:0|0:0|0:0,0:0:0:0:
13,73,144061,1,0,0:0:0:0:
101,18,144295,1,2,0:0:0:0:
105,123,144530,1,2,0:0:0:0:
17,179,144764,1,2,0:0:0:0:
167,308,144999,6,0,B|229:289|229:289|294:307|294:307|380:280,2,195,6|0|2,0:0|0:0|0:0,0:0:0:0:
34,226,146053,2,0,P|94:180|91:61,1,195,0|2,0:0|0:0,0:0:0:0:
0,24,146639,1,2,0:0:0:0:
95,67,146874,6,0,L|320:52,1,195,2|0,0:0|0:0,0:0:0:0:
396,167,147577,2,0,L|201:154,1,195,2|0,0:0|0:0,0:0:0:0:
45,142,148280,2,0,P|86:201|99:274,1,130,2|2,0:0|0:0,0:0:0:0:
114,359,148749,6,0,P|169:319|312:345,2,195,6|0|2,0:0|0:0|0:0,0:0:0:0:
13,239,149803,2,0,B|61:188|61:188|43:52,1,195,0|2,0:0|0:0,0:0:0:0:
130,4,150389,1,2,0:0:0:0:
210,69,150624,6,0,L|413:53,2,195,2|0|2,0:0|0:0|0:0,0:0:0:0:
116,23,151561,2,0,P|104:88|208:173,2,195,2|0|2,0:0|0:0|0:0,0:0:0:0:
210,69,152499,6,0,L|349:79,1,130,14|0,0:0|0:0,0:0:0:0:
391,168,152967,2,0,L|252:178,1,130,8|10,0:0|0:0,0:0:0:0:
184,247,153436,2,0,P|137:202|71:176,1,130,8|0,0:0|0:0,0:0:0:0:
14,94,153905,2,0,P|73:69|120:24,1,130,10|2,0:0|0:0,0:0:0:0:
217,63,154374,6,0,L|354:72,1,130,14|0,0:0|0:0,0:0:0:0:
433,15,154842,2,0,B|455:80|455:80|422:156,1,130,8|10,0:0|0:0,0:0:0:0:
330,165,155311,2,0,L|200:156,1,130,8|0,0:0|0:0,0:0:0:0:
114,96,155780,2,0,B|89:152|89:152|111:217,1,130,10|2,0:0|0:0,0:0:0:0:
143,316,156249,5,14,0:0:0:0:
194,308,156366,1,8,0:0:0:0:
245,300,156483,1,8,0:0:0:0:
296,294,156600,1,10,0:0:0:0:
347,288,156717,2,0,P|363:311|401:339,3,65,8|8|10|8,0:0|0:0|0:0|0:0,0:0:0:0:
437,246,157186,2,0,P|462:226|481:199,3,65,14|8|8|10,0:0|0:0|0:0|0:0,0:0:0:0:
392,159,157655,2,0,P|366:139|347:112,3,65,12|8|10|8,0:0|0:0|0:0|0:0,0:0:0:0:
436,71,158124,1,12,0:0:0:0:
284,35,159295,6,0,L|233:30,2,38.9999988098145,2|2|2,0:0|0:0|0:0,0:0:0:0:
166,30,159999,2,0,L|180:98,1,58.4999982147217,2|2,0:0|0:0,0:0:0:0:
217,258,160702,1,2,0:0:0:0:
143,231,160936,1,8,0:0:0:0:
143,231,161053,1,0,0:0:0:0:
143,231,161170,1,8,0:0:0:0:
153,308,161405,1,8,0:0:0:0:
409,350,161874,6,0,B|448:285|448:285|428:160,1,195,14|2,0:0|0:0,0:0:0:0:
424,115,162342,2,0,P|394:181|333:210,1,130,8|2,0:0|0:0,0:0:0:0:
252,161,162811,2,0,L|113:146,1,130,8|0,0:0|0:0,0:0:0:0:
70,144,163163,1,0,0:0:0:0:
70,144,163280,1,10,0:0:0:0:
10,229,163514,1,2,0:0:0:0:
102,277,163749,6,0,L|339:300,1,195,10|2,0:0|0:0,0:0:0:0:
338,325,164217,1,8,0:0:0:0:
419,260,164452,1,2,0:0:0:0:
335,197,164686,2,0,B|316:134|316:134|343:63,1,130,8|0,0:0|0:0,0:0:0:0:
422,11,165155,2,0,B|441:74|441:74|414:145,1,130,8|2,0:0|0:0,0:0:0:0:
327,302,165624,6,0,B|260:285|260:285|195:296|195:296|128:272,1,195,10|2,0:0|0:0,0:0:0:0:
88,261,166092,2,0,P|168:245|212:182,1,130,8|2,0:0|0:0,0:0:0:0:
90,69,166561,6,0,P|86:107|101:143,1,77.999997619629,8|8,0:0|0:0,0:0:0:0:
116,169,167264,1,2,0:0:0:0:
193,99,167499,6,0,P|255:75|395:123,1,195,14|2,0:0|0:0,0:0:0:0:
413,140,167967,2,0,B|381:200|381:200|406:268,1,130,8|2,0:0|0:0,0:0:0:0:
324,327,168436,2,0,P|265:293|196:298,1,130,8|0,0:0|0:0,0:0:0:0:
109,337,168905,2,0,P|41:303|12:237,1,130,8|2,0:0|0:0,0:0:0:0:
8,153,169374,6,0,B|71:127|71:127|206:155,1,195,10|2,0:0|0:0,0:0:0:0:
227,193,169842,2,0,P|259:130|321:98,1,130,8|2,0:0|0:0,0:0:0:0:
410,79,170311,2,0,L|419:217,1,130,8|0,0:0|0:0,0:0:0:0:
421,261,170663,1,0,0:0:0:0:
421,261,170780,1,8,0:0:0:0:
349,336,171014,1,0,0:0:0:0:
259,281,171249,6,0,B|193:261|193:261|47:300,1,195,10|2,0:0|0:0,0:0:0:0:
22,312,171717,1,8,0:0:0:0:
113,362,171952,1,2,0:0:0:0:
20,185,172186,6,0,B|86:205|86:205|232:166,1,195,10|2,0:0|0:0,0:0:0:0:
257,154,172654,1,8,0:0:0:0:
166,104,172889,1,2,0:0:0:0:
345,47,173124,6,0,L|419:40,3,65,8|8|8|8,0:0|0:0|0:0|0:0,0:0:0:0:
489,140,173592,2,0,L|424:133,2,65,8|8|8,0:0|0:0|0:0,0:0:0:0:
325,127,174061,1,8,0:0:0:0:
362,223,174295,5,2,0:0:0:0:
258,208,174530,1,2,0:0:0:0:
325,127,174764,1,2,0:0:0:0:
295,293,174999,6,0,P|239:250|100:269,1,195,14|2,0:0|0:0,0:0:0:0:
82,291,175467,2,0,P|106:223|83:159,1,130,8|2,0:0|0:0,0:0:0:0:
18,94,175936,2,0,B|79:72|79:72|146:90,1,130,8|0,0:0|0:0,0:0:0:0:
238,128,176405,2,0,L|377:109,1,130,8|2,0:0|0:0,0:0:0:0:
467,84,176874,6,0,P|448:152|475:223,1,130,10|0,0:0|0:0,0:0:0:0:
485,254,177225,1,2,0:0:0:0:
485,254,177342,1,8,0:0:0:0:
406,322,177577,1,2,0:0:0:0:
306,294,177811,2,0,P|325:226|298:155,1,130,8|0,0:0|0:0,0:0:0:0:
237,95,178280,1,10,0:0:0:0:
197,191,178514,1,2,0:0:0:0:
55,66,178749,6,0,L|263:51,1,195,10|2,0:0|0:0,0:0:0:0:
301,49,179217,1,8,0:0:0:0:
255,142,179452,1,2,0:0:0:0:
358,142,179686,2,0,L|497:127,1,130,8|0,0:0|0:0,0:0:0:0:
452,226,180155,2,0,P|415:281|428:354,1,130,8|2,0:0|0:0,0:0:0:0:
317,343,180624,6,0,L|187:356,1,130,10|0,0:0|0:0,0:0:0:0:
136,367,180975,1,2,0:0:0:0:
136,367,181092,1,8,0:0:0:0:
168,267,181327,1,2,0:0:0:0:
114,99,181561,6,0,P|103:136|78:165,1,77.999997619629,0|10,0:0|0:0,0:0:0:0:
54,185,182264,1,2,0:0:0:0:
152,218,182499,6,0,L|288:209,1,130,14|0,0:0|0:0,0:0:0:0:
333,207,182850,1,2,0:0:0:0:
333,207,182967,1,8,0:0:0:0:
390,293,183202,1,2,0:0:0:0:
435,199,183436,2,0,L|444:63,1,130,8|0,0:0|0:0,0:0:0:0:
345,34,183905,2,0,L|215:42,1,130,8|2,0:0|0:0,0:0:0:0:
111,55,184374,6,0,B|96:122|96:122|127:185,1,130,10|0,0:0|0:0,0:0:0:0:
146,223,184725,1,2,0:0:0:0:
146,223,184842,2,0,P|170:284|151:360,1,130,8|2,0:0|0:0,0:0:0:0:
68,294,185311,2,0,P|44:233|63:157,1,130,8|0,0:0|0:0,0:0:0:0:
82,126,185663,1,0,0:0:0:0:
82,126,185780,1,8,0:0:0:0:
181,156,186014,1,0,0:0:0:0:
311,91,186249,6,0,L|375:85,2,58.4999982147217,2|2|2,0:0|0:0|0:0,0:0:0:0:
444,182,187186,2,0,L|380:176,2,58.4999982147217,2|2|2,0:0|0:0|0:0,0:0:0:0:
313,278,188124,6,0,L|442:268,1,116.999996429443,0|0,0:0|0:0,0:0:0:0:
250,234,189295,1,2,0:0:0:0:
250,234,189530,2,0,P|239:257|236:279,1,38.9999988098145,2|2,0:0|0:0,0:0:0:0:
315,192,189999,6,0,P|299:173|255:158,2,58.4999982147217,2|2|2,0:0|0:0|0:0,0:0:0:0:
256,192,190936,12,0,193749,0:0:0:0:
