osu file format v14

[General]
AudioFilename: audio2.mp3
AudioLeadIn: 0
PreviewTime: 113611
Countdown: 0
SampleSet: Soft
StackLeniency: 0.4
Mode: 0
LetterboxInBreaks: 0
WidescreenStoryboard: 1

[Editor]
DistanceSpacing: 1.5
BeatDivisor: 4
GridSize: 32
TimelineZoom: 1

[Metadata]
Title:Jadikan Aku Yang Kedua
TitleUnicode:Jadikan Aku Yang Kedua
Artist:Astrid
ArtistUnicode:Astrid
Creator:chokeHardXD
Version:...And Make me Happy "Forever"!
Source:
Tags:ke2 ke 2 indonesian lagu indo pop nothardxd
BeatmapID:4525825
BeatmapSetID:2147239

[Difficulty]
HPDrainRate:3.8
CircleSize:3.6
OverallDifficulty:7.2
ApproachRate:7.8
SliderMultiplier:1.6
SliderTickRate:1

[Events]
//Background and Video events
0,0,"bg-coeg.jpg",0,0
//Break Periods
2,69803,83826
2,161955,175550
//Storyboard Layer 0 (Background)
//Storyboard Layer 1 (Fail)
//Storyboard Layer 2 (Pass)
//Storyboard Layer 3 (Foreground)
//Storyboard Layer 4 (Overlay)
//Storyboard Sound Samples

[TimingPoints]
223,468.79028666526,4,2,2,5,1,0
223,-166.666666666667,4,2,2,20,0,0
7723,-125,4,2,2,40,0,0
22724,-100,4,2,2,40,0,0
50852,-250,4,2,2,40,0,0
52024,-125,4,2,2,40,0,0
52610,-125,4,2,2,5,0,0
52727,-83.3333333333333,4,2,2,60,0,0
65853,-100,4,2,2,60,0,0
69603,-100,4,2,2,40,0,0
84605,-125,4,2,2,20,0,0
99606,-100,4,2,2,40,0,0
114490,-100,4,2,2,5,0,0
114607,-83.3333333333333,4,2,2,60,0,0
146485,-83.3333333333333,4,2,2,60,0,0
161486,-166.666666666667,4,2,2,20,0,0
176488,-125,4,2,2,40,0,0
178363,-83.3333333333333,4,2,2,80,0,0
208365,-83.3333333333333,4,2,2,80,0,1
212116,-83.3333333333333,4,2,2,80,0,0
215866,-83.3333333333333,4,2,2,80,0,1
219616,-83.3333333333333,4,2,2,80,0,0
223367,-83.3333333333333,4,2,2,80,0,1
227117,-83.3333333333333,4,2,2,80,0,0
230867,-83.3333333333333,4,2,2,80,0,1
234618,-83.3333333333333,4,2,2,80,0,0
238368,-125,4,2,2,80,0,0
238837,-125,4,2,2,40,0,0
250557,-125,4,2,2,5,0,0

[Colours]
Combo1 : 111,111,183
Combo2 : 0,128,192
SliderBorder : 130,114,178
SliderTrackOverride : 39,35,76

[HitObjects]
113,71,223,6,0,P|121:119|129:182,1,95.9999970703126,0|8,3:2|1:0,0:0:0:0:
180,261,1160,1,2,0:0:0:0:
180,261,1629,2,0,L|243:252,1,47.9999985351563,8|0,1:0|3:2,0:0:0:0:
300,292,2098,2,0,P|309:262|285:193,1,95.9999970703126,0|8,3:2|1:0,0:0:0:0:
223,157,3035,1,2,0:0:0:0:
223,157,3504,2,0,L|231:91,1,47.9999985351563,8|0,1:0|3:2,0:0:0:0:
204,32,3973,6,0,P|239:61|291:46,1,95.9999970703126,0|8,3:2|1:0,0:0:0:0:
400,13,4910,1,2,0:0:0:0:
400,13,5379,2,0,L|391:73,1,47.9999985351563,8|0,1:0|3:2,0:0:0:0:
341,124,5848,2,0,B|351:170|351:170|347:184|347:184|357:233,1,95.9999970703126,0|8,3:2|1:0,0:0:0:0:
438,286,6786,1,2,0:0:0:0:
438,286,7254,2,0,L|444:230,1,47.9999985351563,8|0,1:0|3:2,0:0:0:0:
483,170,7723,6,0,P|443:206|357:180,1,128,0|8,3:2|1:0,0:0:0:0:
306,127,8426,2,0,P|316:80|327:46,2,64,0|2|0,0:0|0:0|0:0,0:0:0:0:
239,200,9130,1,8,1:0:0:0:
239,200,9364,1,0,3:2:0:0:
172,124,9598,2,0,P|122:114|60:179,1,128,0|8,3:2|1:0,0:0:0:0:
125,263,10301,2,0,P|134:222|142:185,2,64,0|2|0,0:0|0:0|0:0,0:0:0:0:
41,328,11005,1,8,1:0:0:0:
41,328,11239,1,0,3:2:0:0:
126,376,11473,6,0,B|181:367|181:367|201:351|201:351|257:343,1,128,0|8,3:2|1:0,0:0:0:0:
311,275,12177,2,0,P|300:237|287:202,2,64,0|2|0,0:0|0:0|0:0,0:0:0:0:
388,334,12880,1,8,1:0:0:0:
388,334,13114,1,0,3:2:0:0:
454,270,13349,2,0,B|448:210|448:210|454:202|454:202|447:132,1,128,0|8,3:2|1:0,0:0:0:0:
410,67,14052,2,0,P|438:56|483:66,2,64,0|2|0,0:0|0:0|0:0,0:0:0:0:
336,131,14755,1,8,1:0:0:0:
336,131,14989,1,0,3:2:0:0:
268,62,15224,6,0,P|231:47|163:109,1,128,0|8,3:2|1:0,0:0:0:0:
192,180,15927,2,0,P|156:185|118:171,2,64,0|2|0,0:0|0:0|0:0,0:0:0:0:
277,226,16630,1,8,1:0:0:0:
277,226,16865,1,0,3:2:0:0:
230,293,17099,2,0,B|181:302|181:302|161:318|161:318|106:330,1,128,0|8,3:2|1:0,0:0:0:0:
63,260,17802,2,0,L|-13:249,2,64,0|2|0,0:0|0:0|0:0,0:0:0:0:
129,197,18505,1,8,1:0:0:0:
129,197,18740,1,0,3:2:0:0:
62,139,18974,6,0,P|111:158|178:117,1,128,0|8,3:2|1:0,0:0:0:0:
238,69,19677,2,0,P|207:47|162:47,2,64,0|2|0,0:0|0:0|0:0,0:0:0:0:
282,146,20380,1,8,1:0:0:0:
282,146,20615,1,0,3:2:0:0:
345,84,20849,2,0,B|398:51|462:94|462:94|462:136|434:159,1,192,4|2,3:2|0:0,0:0:0:0:
410,172,21670,1,2,0:0:0:0:
410,172,21787,2,0,L|420:237,1,64,2|2,0:0|0:0,0:0:0:0:
373,306,22256,1,4,0:0:0:0:
373,306,22724,6,0,B|311:317|311:317|278:299|278:299|193:309,1,160,0|8,3:2|0:0,0:0:0:0:
124,342,23428,2,0,B|113:298|113:298|135:252,1,80,0|2,0:0|0:0,0:0:0:0:
207,191,23896,2,0,L|194:104,1,80,0|8,0:0|0:0,0:0:0:0:
107,42,24365,2,0,B|68:31|68:31|24:47,1,80,0|0,3:2|3:2,0:0:0:0:
93,154,24834,1,0,0:0:0:0:
195,111,25068,2,0,B|234:95|234:95|280:111,1,80,8|0,0:0|0:0,0:0:0:0:
339,187,25537,2,0,B|382:199|382:199|424:180,1,80,2|0,0:0|0:0,0:0:0:0:
501,115,26006,2,0,L|489:213,1,80,8|0,0:0|3:2,0:0:0:0:
432,300,26475,6,0,B|394:311|394:311|350:294,1,80,0|0,3:2|0:0,0:0:0:0:
282,226,26944,2,0,B|241:215|241:215|202:228,1,80,8|0,0:0|0:0,0:0:0:0:
128,317,27412,1,2,0:0:0:0:
58,231,27647,2,0,P|65:190|74:151,1,80,0|8,0:0|0:0,0:0:0:0:
122,43,28116,1,0,3:2:0:0:
204,110,28350,2,0,B|263:101|263:101|302:117|302:117|373:102,1,160,0|8,3:2|0:0,0:0:0:0:
433,45,29053,2,0,B|457:81|457:81|451:126,1,80,0|2,0:0|0:0,0:0:0:0:
397,207,29522,2,0,L|311:197,1,80,0|8,0:0|0:0,0:0:0:0:
218,261,29991,1,0,3:2:0:0:
313,343,30225,6,0,B|371:335|371:335|405:349|405:349|475:337,1,160,0|8,3:2|0:0,0:0:0:0:
473,205,30928,2,0,B|432:194|432:194|390:209,1,80,0|2,0:0|0:0,0:0:0:0:
292,263,31397,2,0,B|251:276|251:276|215:260,1,80,0|8,0:0|0:0,0:0:0:0:
145,151,31866,2,0,L|154:63,1,80,0|0,3:2|3:2,0:0:0:0:
286,19,32335,2,0,L|277:120,1,80,0|8,0:0|0:0,0:0:0:0:
364,179,32803,1,0,0:0:0:0:
453,104,33038,2,0,B|415:88|415:88|368:99,1,80,2|0,0:0|0:0,0:0:0:0:
274,179,33507,2,0,L|268:264,1,80,8|0,0:0|3:2,0:0:0:0:
207,338,33975,6,0,B|170:353|170:353|126:339,1,80,0|0,3:2|0:0,0:0:0:0:
49,262,34444,1,8,0:0:0:0:
138,203,34679,2,0,P|132:154|125:119,1,80,0|2,0:0|0:0,0:0:0:0:
47,51,35147,1,0,0:0:0:0:
141,2,35382,2,0,B|183:-11|183:-11|225:4,1,80,8|0,0:0|3:2,0:0:0:0:
301,71,35851,2,0,B|290:136|290:136|294:150|294:150|282:234,2,160,0|8|2,3:2|0:0|0:0,0:0:0:0:
301,71,37257,2,0,B|339:60|339:60|378:77,1,80,8|0,0:0|3:2,0:0:0:0:
430,180,37726,6,0,B|369:192|369:192|345:216|345:216|273:230,1,160,2|8,3:2|0:0,0:0:0:0:
207,149,38429,1,0,0:0:0:0:
133,226,38663,2,0,L|145:316,1,80,2|0,0:0|0:0,0:0:0:0:
232,365,39132,1,8,0:0:0:0:
303,291,39366,2,0,B|344:278|344:278|389:293,1,80,0|2,3:2|3:2,0:0:0:0:
467,369,39835,2,0,L|456:286,1,80,0|8,0:0|0:0,0:0:0:0:
387,202,40304,1,0,0:0:0:0:
387,202,40538,2,0,L|392:115,1,80,2|0,0:0|0:0,0:0:0:0:
478,34,41007,2,0,B|440:50|440:50|387:31,1,80,8|0,0:0|3:2,0:0:0:0:
303,0,41476,6,0,L|315:86,1,80,2|0,3:2|0:0,0:0:0:0:
254,168,41945,2,0,B|213:183|213:183|168:163,1,80,8|0,0:0|0:0,0:0:0:0:
113,94,42414,2,0,B|73:80|73:80|22:100,1,80,2|0,0:0|0:0,0:0:0:0:
4,184,42882,2,0,L|17:274,1,80,8|0,0:0|3:2,0:0:0:0:
92,343,43351,2,0,B|153:334|153:334|179:313|179:313|246:306,1,160,2|8,3:2|0:0,0:0:0:0:
333,365,44054,1,0,0:0:0:0:
403,286,44289,2,0,L|386:201,1,80,2|0,0:0|0:0,0:0:0:0:
298,125,44758,2,0,L|286:210,1,80,8|0,0:0|3:2,0:0:0:0:
196,273,45226,6,0,P|149:290|90:205,1,160,2|8,3:2|0:0,0:0:0:0:
134,122,45930,1,0,0:0:0:0:
213,192,46164,2,0,B|251:213|251:213|292:202,1,80,2|0,0:0|0:0,0:0:0:0:
390,134,46633,1,8,0:0:0:0:
307,43,46867,2,0,L|220:52,1,80,0|2,3:2|3:2,0:0:0:0:
134,122,47336,1,0,0:0:0:0:
30,37,47570,2,0,L|38:127,1,80,8|0,0:0|0:0,0:0:0:0:
131,211,48039,2,0,L|118:298,1,80,2|0,0:0|0:0,0:0:0:0:
19,372,48508,2,0,B|56:354|56:354|112:373,1,80,8|0,0:0|3:2,0:0:0:0:
216,384,48977,6,0,L|204:299,1,80,2|0,3:2|0:0,0:0:0:0:
324,247,49445,2,0,L|314:329,1,80,8|0,0:0|0:0,0:0:0:0:
436,384,49914,2,0,L|427:298,1,80,2|0,0:0|0:0,0:0:0:0:
419,198,50383,1,8,0:0:0:0:
324,247,50617,1,0,3:2:0:0:
284,150,50852,2,0,P|251:155|213:164,2,64,6|2|2,3:2|0:0|0:0,0:0:0:0:
390,129,52024,5,0,3:2:0:0:
390,129,52141,1,0,3:2:0:0:
390,129,52258,2,0,P|383:188|378:239,1,96,8|0,0:0|0:0,0:0:0:0:
375,259,52727,6,0,B|330:272|330:272|270:243,1,95.9999970703126,6|0,3:2|0:0,0:0:0:0:
127,78,53196,2,0,L|140:181,1,95.9999970703126,10|0,0:0|0:0,0:0:0:0:
213,361,53665,1,2,3:2:0:0:
291,118,53899,2,0,L|279:223,1,95.9999970703126,0|10,3:2|0:0,0:0:0:0:
99,279,54368,1,0,3:2:0:0:
312,347,54602,6,0,P|368:362|423:255,1,191.999994140625,2|10,3:2|0:0,0:0:0:0:
324,89,55305,1,0,0:0:0:0:
236,251,55540,2,0,B|190:267|190:267|141:243,1,95.9999970703126,2|0,3:2|3:2,0:0:0:0:
58,42,56009,1,10,0:0:0:0:
196,165,56243,1,0,3:2:0:0:
9,232,56477,6,0,P|5:177|119:142,1,191.999994140625,2|10,3:2|0:0,0:0:0:0:
236,338,57181,2,0,B|191:355|191:355|133:333,1,95.9999970703126,0|2,0:0|3:2,0:0:0:0:
272,120,57649,2,0,B|319:104|319:104|365:125,1,95.9999970703126,0|10,3:2|0:0,0:0:0:0:
444,267,58118,1,0,3:2:0:0:
311,367,58352,6,0,B|279:334|279:334|294:262|294:262|301:258|301:258|316:180,1,191.999994140625,2|10,3:2|0:0,0:0:0:0:
416,24,59056,1,0,0:0:0:0:
416,24,59173,1,8,0:0:0:0:
416,24,59290,2,0,B|464:10|464:10|520:30,1,95.9999970703126,2|0,3:2|3:2,0:0:0:0:
412,248,59759,1,10,0:0:0:0:
306,59,59993,1,0,3:2:0:0:
208,242,60228,6,0,P|160:264|92:147,1,191.999994140625,6|10,3:2|0:0,0:0:0:0:
148,83,60931,1,0,0:0:0:0:
148,83,61048,1,0,3:2:0:0:
148,83,61165,2,0,P|155:130|162:177,1,95.9999970703126,2|0,3:2|3:2,0:0:0:0:
299,320,61634,2,0,P|307:272|317:225,1,95.9999970703126,10|0,0:0|3:2,0:0:0:0:
434,33,62103,6,0,P|389:110|297:88,1,191.999994140625,2|10,3:2|0:0,0:0:0:0:
94,5,62806,1,0,0:0:0:0:
215,213,63040,2,0,P|222:165|229:118,1,95.9999970703126,2|0,3:2|3:2,0:0:0:0:
16,199,63509,2,0,P|23:246|29:293,1,95.9999970703126,10|0,0:0|3:2,0:0:0:0:
227,358,63978,6,0,B|298:347|298:347|327:313|327:313|415:297,1,191.999994140625,2|10,3:2|0:0,0:0:0:0:
202,141,64681,2,0,P|214:193|223:248,1,95.9999970703126,0|2,0:0|3:2,0:0:0:0:
395,154,65150,2,0,P|403:106|414:59,1,95.9999970703126,0|10,3:2|0:0,0:0:0:0:
220,0,65619,1,0,3:2:0:0:
324,212,65853,1,6,3:2:0:0:
256,192,65970,12,8,69603,1:0:0:0:
128,77,84605,6,0,B|176:89|176:89|196:111|196:111|248:125,1,128,0|2,3:2|0:0,0:0:0:0:
317,180,85308,1,0,0:0:0:0:
317,180,85542,1,2,0:0:0:0:
392,123,85777,2,0,P|381:85|373:54,1,64,0|8,0:0|1:0,0:0:0:0:
464,189,86246,2,0,P|456:227|449:269,1,64,0|0,3:2|3:2,0:0:0:0:
392,319,86714,1,0,0:0:0:0:
392,319,86949,2,0,B|344:312|344:312|318:321|318:321|264:310,1,128,2|2,0:0|0:0,0:0:0:0:
206,253,87652,1,0,0:0:0:0:
206,253,87886,2,0,P|196:217|210:185,1,64,8|0,1:0|3:2,0:0:0:0:
278,142,88355,6,0,P|286:108|272:72,1,64,0|0,3:2|0:0,0:0:0:0:
210,29,88824,2,0,L|138:36,1,64,2|0,0:0|0:0,0:0:0:0:
80,88,89293,1,2,0:0:0:0:
80,88,89527,2,0,P|72:126|81:158,1,64,0|8,0:0|1:0,0:0:0:0:
153,215,89996,1,0,3:2:0:0:
153,215,90230,2,0,B|205:226|205:226|224:250|224:250|296:261,1,128,0|2,3:2|0:0,0:0:0:0:
339,207,90933,1,0,0:0:0:0:
339,207,91168,2,0,P|346:170|334:140,1,64,2|0,0:0|0:0,0:0:0:0:
281,75,91637,2,0,P|272:43|280:7,1,64,8|0,1:0|3:2,0:0:0:0:
361,42,92105,6,0,B|442:29|442:29|470:45|489:83,1,128,0|2,3:2|0:0,0:0:0:0:
502,138,92809,2,0,P|493:184|488:220,1,64,0|2,0:0|0:0,0:0:0:0:
422,249,93277,2,0,P|431:289|438:321,1,64,0|8,0:0|1:0,0:0:0:0:
500,376,93746,2,0,P|469:362|426:365,1,64,0|0,3:2|3:2,0:0:0:0:
354,384,94215,1,0,0:0:0:0:
354,384,94449,2,0,B|362:327|362:327|353:304|353:304|359:253,1,128,2|2,0:0|0:0,0:0:0:0:
320,183,95153,1,0,0:0:0:0:
320,183,95387,2,0,P|286:173|250:183,1,64,8|0,1:0|3:2,0:0:0:0:
191,233,95856,6,0,L|113:226,1,64,0|0,3:2|0:0,0:0:0:0:
59,173,96325,1,2,0:0:0:0:
59,173,96559,2,0,B|51:139|51:139|67:102,1,64,0|2,0:0|0:0,0:0:0:0:
118,52,97028,1,0,0:0:0:0:
118,52,97262,2,0,L|194:59,1,64,8|0,1:0|3:2,0:0:0:0:
244,115,97731,2,0,B|299:107|299:107|317:89|317:89|384:82,2,128,0|2|2,3:2|0:0|0:0,0:0:0:0:
178,165,98903,1,0,3:2:0:0:
178,165,99137,2,0,B|171:200|171:200|186:230,1,64,0|0,3:2|0:0,0:0:0:0:
263,274,99606,6,0,B|325:269|325:269|354:245|354:245|418:241,1,160,2|8,3:2|0:0,0:0:0:0:
499,127,100309,1,0,0:0:0:0:
401,52,100544,2,0,B|360:36|360:36|317:54,1,80,2|0,0:0|0:0,0:0:0:0:
245,168,101012,1,8,0:0:0:0:
163,42,101247,2,0,B|125:27|125:27|73:49,1,80,0|2,3:2|3:2,0:0:0:0:
20,139,101716,1,0,0:0:0:0:
20,139,101950,2,0,P|27:183|34:232,1,80,8|0,0:0|0:0,0:0:0:0:
145,294,102419,2,0,P|154:245|161:208,1,80,2|0,0:0|0:0,0:0:0:0:
241,95,102888,1,8,0:0:0:0:
292,203,103122,1,0,3:2:0:0:
374,105,103356,6,0,B|415:94|415:94|456:111,1,80,2|0,3:2|0:0,0:0:0:0:
501,241,103825,2,0,B|462:255|462:255|418:240,1,80,8|0,0:0|0:0,0:0:0:0:
292,203,104294,1,2,0:0:0:0:
367,327,104528,2,0,P|376:280|386:242,1,80,0|8,0:0|0:0,0:0:0:0:
305,121,104997,1,0,3:2:0:0:
201,200,105232,2,0,P|150:226|86:152,1,160,2|8,3:2|0:0,0:0:0:0:
136,36,105935,2,0,B|178:23|178:23|220:41,1,80,0|2,0:0|0:0,0:0:0:0:
305,121,106403,1,0,0:0:0:0:
416,34,106638,2,0,L|401:120,1,80,8|0,0:0|3:2,0:0:0:0:
301,217,107107,6,0,P|343:200|403:292,1,160,2|8,3:2|0:0,0:0:0:0:
311,359,107810,2,0,B|271:369|271:369|226:349,1,80,0|2,0:0|0:0,0:0:0:0:
176,253,108279,2,0,L|186:171,1,80,0|8,0:0|0:0,0:0:0:0:
145,57,108747,2,0,B|108:41|108:41|56:52,1,80,0|2,3:2|3:2,0:0:0:0:
17,147,109216,1,0,0:0:0:0:
17,147,109451,2,0,L|30:231,1,80,8|0,0:0|0:0,0:0:0:0:
155,273,109919,2,0,L|165:191,1,80,2|0,0:0|0:0,0:0:0:0:
242,82,110388,1,8,0:0:0:0:
290,192,110623,1,0,3:2:0:0:
366,105,110857,6,0,B|407:93|407:93|452:111,1,80,2|0,3:2|0:0,0:0:0:0:
390,217,111326,2,0,B|352:230|352:230|308:210,1,80,8|0,0:0|0:0,0:0:0:0:
213,133,111795,2,0,L|228:223,1,80,2|0,0:0|0:0,0:0:0:0:
152,317,112263,1,8,0:0:0:0:
59,244,112498,1,0,3:2:0:0:
128,151,112732,1,6,3:2:0:0:
114,73,113670,6,0,P|125:128|132:181,1,80,0|0,0:0|3:2,0:0:0:0:
135,191,114021,1,0,3:2:0:0:
135,191,114139,2,0,B|188:203|188:203|204:225|204:225|262:237,1,120,8|0,0:0|0:0,0:0:0:0:
276,247,114607,6,0,B|296:200|296:200|283:153,1,95.9999970703126,6|0,3:2|0:0,0:0:0:0:
94,312,115076,2,0,L|210:333,1,95.9999970703126,10|0,0:0|0:0,0:0:0:0:
417,243,115545,1,2,3:2:0:0:
277,93,115779,2,0,P|286:147|293:199,1,95.9999970703126,0|10,3:2|0:0,0:0:0:0:
166,356,116248,1,0,3:2:0:0:
61,178,116482,6,0,B|131:193|131:193|153:223|153:223|234:239,1,191.999994140625,2|10,3:2|0:0,0:0:0:0:
404,365,117186,1,0,0:0:0:0:
332,157,117420,2,0,P|319:211|309:259,1,95.9999970703126,2|0,3:2|3:2,0:0:0:0:
500,189,117889,1,10,0:0:0:0:
346,64,118123,1,0,3:2:0:0:
392,275,118358,6,0,P|402:228|414:182,1,95.9999970703126,2|0,3:2|0:0,0:0:0:0:
252,55,118826,1,10,0:0:0:0:
310,250,119061,2,0,P|320:203|332:157,1,95.9999970703126,0|2,0:0|3:2,0:0:0:0:
162,27,119530,2,0,P|173:73|183:120,1,95.9999970703126,0|10,3:2|0:0,0:0:0:0:
152,292,119998,1,0,3:2:0:0:
83,139,120233,6,0,B|63:105|25:102|25:102|-22:147|19:243,1,191.999994140625,2|10,3:2|0:0,0:0:0:0:
102,369,120936,1,0,0:0:0:0:
102,369,121053,1,8,0:0:0:0:
102,369,121170,2,0,L|198:356,1,95.9999970703126,2|0,3:2|3:2,0:0:0:0:
260,184,121639,1,10,0:0:0:0:
351,360,121874,1,0,3:2:0:0:
424,175,122108,6,0,P|407:249|296:243,1,191.999994140625,6|10,3:2|0:0,0:0:0:0:
216,19,122811,1,0,0:0:0:0:
216,19,122928,1,0,3:2:0:0:
216,19,123046,2,0,P|231:81|242:131,1,95.9999970703126,2|0,3:2|3:2,0:0:0:0:
110,260,123514,2,0,P|137:215|191:197,1,95.9999970703126,10|0,0:0|3:2,0:0:0:0:
322,351,123983,6,0,B|250:340|250:340|210:356|210:356|114:339,1,191.999994140625,2|10,3:2|0:0,0:0:0:0:
61,135,124686,1,0,0:0:0:0:
233,267,124921,2,0,L|329:253,1,95.9999970703126,2|0,3:2|3:2,0:0:0:0:
193,28,125390,2,0,B|145:15|145:15|77:50,1,95.9999970703126,10|0,0:0|3:2,0:0:0:0:
177,190,125858,6,0,B|253:180|253:180|290:151|290:151|365:142,1,191.999994140625,2|10,3:2|0:0,0:0:0:0:
470,289,126561,2,0,B|426:310|426:310|376:289,1,95.9999970703126,0|2,0:0|3:2,0:0:0:0:
204,98,127030,2,0,P|221:148|234:196,1,95.9999970703126,0|10,3:2|0:0,0:0:0:0:
112,367,127499,1,0,3:2:0:0:
13,189,127733,6,0,B|81:204|81:204|105:237|105:237|192:250,1,191.999994140625,6|10,3:2|0:0,0:0:0:0:
340,100,128437,1,0,0:0:0:0:
156,15,128671,1,8,0:0:0:0:
156,15,128788,1,8,0:0:0:0:
156,15,128905,2,0,L|164:73,1,47.9999985351563,8|8,0:0|0:0,0:0:0:0:
243,143,129140,1,8,0:0:0:0:
236,173,129257,1,8,0:0:0:0:
230,203,129374,1,8,0:0:0:0:
223,235,129491,1,8,0:0:0:0:
216,262,129609,6,0,B|170:277|170:277|117:252,1,95.9999970703126,6|0,3:2|0:0,0:0:0:0:
309,58,130077,2,0,P|319:115|329:168,1,95.9999970703126,10|0,0:0|0:0,0:0:0:0:
252,342,130546,1,2,3:2:0:0:
137,163,130781,2,0,B|90:146|90:146|37:163,1,95.9999970703126,0|10,3:2|0:0,0:0:0:0:
156,383,131249,1,0,3:2:0:0:
298,187,131484,6,0,P|345:220|438:137,1,191.999994140625,2|10,3:2|0:0,0:0:0:0:
230,255,132187,1,0,0:0:0:0:
398,323,132421,2,0,P|446:334|498:349,1,95.9999970703126,2|0,3:2|3:2,0:0:0:0:
365,144,132890,1,10,0:0:0:0:
293,317,133125,1,0,3:2:0:0:
219,149,133359,6,0,B|175:130|175:130|111:152,1,95.9999970703126,2|0,3:2|0:0,0:0:0:0:
25,349,133828,1,10,0:0:0:0:
190,242,134062,2,0,B|234:224|234:224|295:244,1,95.9999970703126,0|2,0:0|3:2,0:0:0:0:
462,363,134531,2,0,P|413:337|395:290,1,95.9999970703126,0|10,3:2|0:0,0:0:0:0:
478,101,135000,1,0,3:2:0:0:
293,153,135234,6,0,P|292:97|409:63,1,191.999994140625,2|10,3:2|0:0,0:0:0:0:
476,278,135937,1,0,0:0:0:0:
476,278,136054,1,8,0:0:0:0:
476,278,136172,2,0,L|359:267,1,95.9999970703126,2|0,3:2|3:2,0:0:0:0:
199,164,136640,1,10,0:0:0:0:
271,349,136875,1,0,3:2:0:0:
417,192,137109,6,0,B|347:200|347:200|318:225|318:225|229:239,1,191.999994140625,6|10,3:2|0:0,0:0:0:0:
54,373,137812,1,0,0:0:0:0:
54,373,137930,1,0,3:2:0:0:
54,373,138047,2,0,P|73:318|118:290,1,95.9999970703126,2|0,3:2|3:2,0:0:0:0:
342,304,138516,1,10,0:0:0:0:
155,161,138750,1,0,3:2:0:0:
227,367,138984,6,0,B|244:300|244:300|233:250|233:250|255:162,1,191.999994140625,2|10,3:2|0:0,0:0:0:0:
345,0,139688,1,0,0:0:0:0:
423,171,139922,2,0,B|474:191|474:191|518:174,1,95.9999970703126,2|0,3:2|3:2,0:0:0:0:
251,0,140391,2,0,P|261:62|268:107,1,95.9999970703126,10|0,0:0|3:2,0:0:0:0:
374,315,140860,2,0,P|352:261|221:284,1,191.999994140625,2|10,3:2|0:0,0:0:0:0:
41,358,141563,2,0,B|90:374|90:374|141:357,1,95.9999970703126,0|2,0:0|3:2,0:0:0:0:
269,142,142032,2,0,P|257:196|248:247,1,95.9999970703126,0|10,3:2|0:0,0:0:0:0:
80,111,142500,1,0,3:2:0:0:
274,29,142735,6,0,B|343:45|343:45|374:81|374:81|450:95,2,191.999994140625,2|10|2,3:2|0:0|3:2,0:0:0:0:
134,204,143907,1,0,3:2:0:0:
43,14,144141,1,10,0:0:0:0:
201,88,144376,1,0,3:2:0:0:
32,229,144610,6,0,P|47:161|73:33,1,191.999994140625,2|10,3:2|0:0,0:0:0:0:
223,180,145313,1,0,3:2:0:0:
109,332,145547,1,2,3:2:0:0:
300,257,145782,1,0,3:2:0:0:
144,142,146016,1,10,0:0:0:0:
221,359,146251,1,0,3:2:0:0:
274,101,146485,5,10,0:0:0:0:
181,241,146719,1,0,3:2:0:0:
378,184,146954,1,0,3:2:0:0:
197,153,147188,5,10,0:0:0:0:
342,271,147423,1,0,3:2:0:0:
353,68,147657,1,0,3:2:0:0:
227,299,147891,6,0,B|178:316|178:316|128:296,1,95.9999970703126,10|0,0:0|3:2,0:0:0:0:
63,81,148360,5,10,0:0:0:0:
228,195,148595,1,0,3:2:0:0:
49,247,148829,1,0,3:2:0:0:
177,111,149063,5,10,0:0:0:0:
156,305,149298,1,0,3:2:0:0:
27,162,149532,1,0,3:2:0:0:
259,276,149767,5,10,0:0:0:0:
70,370,150001,1,0,3:2:0:0:
122,176,150235,6,0,B|186:189|186:189|214:216|214:216|306:232,1,191.999994140625,6|10,3:2|0:0,0:0:0:0:
432,118,150939,1,0,0:0:0:0:
432,118,151056,1,0,3:2:0:0:
432,118,151173,2,0,P|421:175|414:227,1,95.9999970703126,2|0,3:2|3:2,0:0:0:0:
257,316,151642,2,0,P|249:268|240:221,1,95.9999970703126,10|0,0:0|3:2,0:0:0:0:
144,29,152111,6,0,P|95:8|16:114,1,191.999994140625,2|10,3:2|0:0,0:0:0:0:
62,271,152814,1,0,0:0:0:0:
62,271,152931,1,0,3:2:0:0:
62,271,153048,2,0,B|109:287|109:287|161:272,1,95.9999970703126,2|8,3:2|0:0,0:0:0:0:
305,90,153517,1,10,0:0:0:0:
125,191,153751,1,0,3:2:0:0:
337,248,153986,5,10,0:0:0:0:
209,117,154220,1,0,3:2:0:0:
243,308,154455,1,0,3:2:0:0:
349,162,154689,5,10,0:0:0:0:
168,266,154923,1,0,3:2:0:0:
369,331,155158,1,0,3:2:0:0:
262,184,155392,6,0,P|270:237|276:287,1,95.9999970703126,10|0,0:0|3:2,0:0:0:0:
336,69,155861,5,10,0:0:0:0:
150,173,156095,1,0,3:2:0:0:
232,2,156330,1,0,3:2:0:0:
225,229,156564,5,10,0:0:0:0:
124,70,156798,1,0,3:2:0:0:
330,155,157033,1,0,3:2:0:0:
127,263,157267,5,10,0:0:0:0:
242,90,157502,1,0,3:2:0:0:
320,282,157736,6,0,P|373:311|448:212,1,191.999994140625,6|10,3:2|0:0,0:0:0:0:
472,34,158439,1,0,0:0:0:0:
472,34,158556,1,0,3:2:0:0:
472,34,158674,2,0,P|421:50|388:96,1,95.9999970703126,2|0,3:2|3:2,0:0:0:0:
234,131,159142,2,0,P|285:147|318:193,1,95.9999970703126,10|0,0:0|3:2,0:0:0:0:
442,339,159611,6,0,B|375:327|375:327|331:347|331:347|240:331,1,191.999994140625,2|10,3:2|0:0,0:0:0:0:
133,206,160314,1,0,0:0:0:0:
133,206,160432,1,0,3:2:0:0:
133,206,160549,2,0,P|144:258|153:314,1,95.9999970703126,2|8,3:2|0:0,0:0:0:0:
346,159,161018,1,10,0:0:0:0:
131,68,161486,1,2,3:2:0:0:
324,162,176488,6,0,P|314:205|309:241,1,64,0|0,0:0|0:0,0:0:0:0:
215,279,176956,2,0,P|210:237|206:203,1,64,0|0,0:0|0:0,0:0:0:0:
238,116,177425,1,0,0:0:0:0:
238,116,177660,1,0,0:0:0:0:
324,162,177894,1,0,0:0:0:0:
324,162,178128,1,0,0:0:0:0:
212,213,178363,6,0,B|165:226|165:226|109:204,1,95.9999970703126,6|0,3:2|0:0,0:0:0:0:
307,25,178832,2,0,L|321:132,1,95.9999970703126,10|0,0:0|0:0,0:0:0:0:
235,327,179300,1,2,3:2:0:0:
165,141,179535,2,0,B|118:128|118:128|62:150,1,95.9999970703126,0|10,3:2|0:0,0:0:0:0:
148,367,180004,1,0,3:2:0:0:
284,213,180238,6,0,B|350:223|350:223|383:259|383:259|466:276,1,191.999994140625,2|10,3:2|0:0,0:0:0:0:
314,103,180941,1,0,0:0:0:0:
186,228,181176,2,0,B|137:241|137:241|86:222,1,95.9999970703126,2|0,3:2|3:2,0:0:0:0:
160,9,181644,1,10,0:0:0:0:
284,213,181879,1,0,3:2:0:0:
98,106,182113,6,0,B|69:85|35:81|35:81|-20:129|23:224,1,191.999994140625,2|10,3:2|0:0,0:0:0:0:
145,351,182816,2,0,P|200:341|248:332,1,95.9999970703126,0|2,0:0|3:2,0:0:0:0:
435,172,183285,2,0,P|380:162|332:153,1,95.9999970703126,0|10,3:2|0:0,0:0:0:0:
122,254,183754,1,0,3:2:0:0:
336,358,183988,6,0,B|381:378|381:378|371:305|371:305|365:294|365:294|357:218,1,191.999994140625,2|10,3:2|0:0,0:0:0:0:
194,61,184691,1,0,0:0:0:0:
194,61,184809,1,8,0:0:0:0:
194,61,184926,2,0,P|203:125|209:179,1,95.9999970703126,2|0,3:2|3:2,0:0:0:0:
93,360,185395,1,10,0:0:0:0:
20,158,185629,1,0,3:2:0:0:
199,292,185863,6,0,P|251:320|336:240,1,191.999994140625,6|10,3:2|0:0,0:0:0:0:
194,61,186567,1,0,0:0:0:0:
107,247,186801,2,0,B|58:265|58:265|8:245,1,95.9999970703126,2|0,3:2|3:2,0:0:0:0:
102,2,187270,1,10,0:0:0:0:
213,209,187504,1,0,3:2:0:0:
317,20,187739,2,0,P|389:5|442:98,1,191.999994140625,2|10,3:2|0:0,0:0:0:0:
362,317,188442,1,0,0:0:0:0:
282,129,188676,2,0,B|234:114|234:114|181:132,1,95.9999970703126,2|0,3:2|3:2,0:0:0:0:
78,318,189145,2,0,B|125:338|125:338|170:320,1,95.9999970703126,10|0,0:0|3:2,0:0:0:0:
402,187,189614,6,0,P|342:158|255:252,1,191.999994140625,2|10,3:2|0:0,0:0:0:0:
401,347,190317,2,0,B|445:365|445:365|499:344,1,95.9999970703126,0|2,0:0|3:2,0:0:0:0:
323,68,190786,2,0,P|315:125|307:178,1,95.9999970703126,0|10,3:2|0:0,0:0:0:0:
193,352,191255,1,0,3:2:0:0:
76,182,191489,6,0,B|148:194|148:194|174:221|174:221|257:230,1,191.999994140625,6|10,3:2|0:0,0:0:0:0:
438,148,192192,1,0,0:0:0:0:
272,50,192427,1,8,0:0:0:0:
272,50,192544,1,8,0:0:0:0:
272,50,192661,2,0,L|282:109,1,47.9999985351563,8|8,0:0|0:0,0:0:0:0:
350,175,192895,1,8,0:0:0:0:
346,201,193013,1,8,0:0:0:0:
342,227,193130,1,8,0:0:0:0:
339,253,193247,1,8,0:0:0:0:
335,281,193364,6,0,B|289:297|289:297|230:277,1,95.9999970703126,6|0,3:2|0:0,0:0:0:0:
86,79,193833,2,0,L|102:178,1,95.9999970703126,10|0,0:0|0:0,0:0:0:0:
195,371,194302,1,2,3:2:0:0:
300,114,194536,2,0,L|289:217,1,95.9999970703126,0|10,3:2|0:0,0:0:0:0:
105,289,195005,1,0,3:2:0:0:
215,56,195239,6,0,B|206:147|206:147|208:156|208:156|194:263,1,191.999994140625,2|10,3:2|0:0,0:0:0:0:
377,357,195942,1,0,0:0:0:0:
377,357,196060,1,0,0:0:0:0:
377,357,196177,2,0,L|367:251,1,95.9999970703126,2|0,3:2|3:2,0:0:0:0:
292,23,196646,1,10,0:0:0:0:
196,246,196880,1,0,3:2:0:0:
381,69,197114,6,0,P|433:46|499:158,1,191.999994140625,2|10,3:2|0:0,0:0:0:0:
367,261,197818,2,0,L|262:253,1,95.9999970703126,0|2,0:0|3:2,0:0:0:0:
114,73,198286,2,0,B|164:57|164:57|220:75,1,95.9999970703126,0|10,3:2|0:0,0:0:0:0:
403,175,198755,1,0,3:2:0:0:
206,303,198990,6,0,P|159:327|101:210,1,191.999994140625,2|10,3:2|0:0,0:0:0:0:
297,87,199693,1,0,0:0:0:0:
297,87,199810,1,8,0:0:0:0:
297,87,199927,2,0,P|285:142|276:197,1,95.9999970703126,2|0,3:2|3:2,0:0:0:0:
369,360,200396,1,10,0:0:0:0:
434,159,200630,1,0,3:2:0:0:
246,283,200865,6,0,B|175:294|175:294|140:324|140:324|55:336,1,191.999994140625,6|10,3:2|0:0,0:0:0:0:
132,108,201568,1,0,0:0:0:0:
132,108,201685,1,0,3:2:0:0:
132,108,201802,2,0,L|150:211,1,95.9999970703126,2|0,3:2|3:2,0:0:0:0:
275,374,202271,1,10,0:0:0:0:
311,145,202506,1,0,3:2:0:0:
114,281,202740,6,0,B|95:298|64:305|64:305|2:251|47:167,1,191.999994140625,2|10,3:2|0:0,0:0:0:0:
169,3,203443,1,0,0:0:0:0:
263,222,203677,2,0,B|313:241|313:241|356:225,1,95.9999970703126,2|0,3:2|3:2,0:0:0:0:
497,38,204146,2,0,P|488:96|480:165,1,95.9999970703126,10|0,0:0|3:2,0:0:0:0:
325,331,204615,6,0,P|265:361|203:260,1,191.999994140625,2|10,3:2|0:0,0:0:0:0:
332,61,205318,2,0,L|313:161,1,95.9999970703126,0|2,0:0|3:2,0:0:0:0:
125,349,205787,2,0,L|113:241,1,95.9999970703126,0|10,3:2|0:0,0:0:0:0:
206,23,206256,1,0,0:0:0:0:
346,232,206490,6,0,B|415:247|415:247|442:285|442:285|519:298,1,191.999994140625,2|10,3:2|0:0,0:0:0:0:
440,68,207193,1,0,0:0:0:0:
440,68,207310,1,0,3:2:0:0:
440,68,207428,2,0,P|431:120|425:170,1,95.9999970703126,2|0,3:2|3:2,0:0:0:0:
375,363,207896,1,10,0:0:0:0:
302,177,208131,1,0,3:2:0:0:
437,276,208365,5,14,0:0:0:0:
245,108,208599,1,0,3:2:0:0:
272,353,208834,1,0,3:2:0:0:
332,65,209068,5,10,0:0:0:0:
178,262,209303,1,0,3:2:0:0:
439,183,209537,1,0,3:2:0:0:
190,65,209771,6,0,B|141:50|141:50|74:75,1,95.9999970703126,10|0,0:0|3:2,0:0:0:0:
78,297,210240,5,10,0:0:0:0:
267,116,210475,1,0,3:2:0:0:
239,384,210709,1,0,3:2:0:0:
79,183,210943,5,10,0:0:0:0:
336,248,211178,1,0,3:2:0:0:
127,384,211412,1,0,3:2:0:0:
169,114,211647,5,10,0:0:0:0:
338,341,211881,1,0,3:2:0:0:
79,294,212115,6,6,B|153:285|153:285|184:249|184:249|282:237,1,191.999994140625,6|10,3:2|0:0,0:0:0:0:
426,367,212819,1,0,0:0:0:0:
426,367,212936,1,0,3:2:0:0:
426,367,213053,2,0,B|441:319|441:319|419:263,1,95.9999970703126,2|0,3:2|3:2,0:0:0:0:
323,108,213522,1,10,0:0:0:0:
239,278,213756,1,0,3:2:0:0:
83,162,213991,6,0,P|135:210|233:158,1,191.999994140625,6|10,3:2|0:0,0:0:0:0:
426,25,214694,1,0,0:0:0:0:
426,25,214811,1,0,3:2:0:0:
426,25,214928,2,0,L|412:139,1,95.9999970703126,2|0,3:2|3:2,0:0:0:0:
369,345,215397,1,10,0:0:0:0:
293,101,215631,1,0,3:2:0:0:
218,343,215866,5,14,0:0:0:0:
379,166,216100,1,0,3:2:0:0:
125,213,216335,1,0,3:2:0:0:
341,270,216569,5,10,0:0:0:0:
184,69,216803,1,0,3:2:0:0:
133,326,217038,1,0,3:2:0:0:
330,89,217272,6,0,B|378:70|378:70|429:89,1,95.9999970703126,10|0,0:0|3:2,0:0:0:0:
440,340,217741,5,10,0:0:0:0:
229,192,217975,1,0,3:2:0:0:
489,148,218210,1,0,3:2:0:0:
292,322,218444,5,10,0:0:0:0:
304,80,218678,1,0,3:2:0:0:
476,249,218913,1,0,3:2:0:0:
187,263,219147,5,10,0:0:0:0:
399,119,219382,1,0,3:2:0:0:
357,355,219616,6,0,B|293:369|293:369|249:346|249:346|163:362,1,191.999994140625,6|10,3:2|0:0,0:0:0:0:
43,169,220319,2,0,B|90:154|90:154|145:173,1,95.9999970703126,0|2,0:0|3:2,0:0:0:0:
305,280,220788,2,0,L|288:173,1,95.9999970703126,0|10,3:2|0:0,0:0:0:0:
144,40,221257,1,0,3:2:0:0:
86,247,221491,6,0,B|101:269|136:279|136:279|201:249|173:155,1,191.999994140625,6|10,3:2|0:0,0:0:0:0:
36,24,222194,1,0,0:0:0:0:
36,24,222312,1,0,3:2:0:0:
36,24,222429,2,0,L|48:127,1,95.9999970703126,2|8,3:2|0:0,0:0:0:0:
143,339,222898,1,10,0:0:0:0:
231,85,223132,1,0,3:2:0:0:
379,336,223366,5,14,0:0:0:0:
179,177,223601,1,0,3:2:0:0:
454,110,223835,1,0,3:2:0:0:
250,290,224070,5,10,0:0:0:0:
343,23,224304,1,0,3:2:0:0:
469,285,224538,1,0,3:2:0:0:
225,95,224773,6,0,B|172:79|172:79|103:104,1,95.9999970703126,10|0,0:0|3:2,0:0:0:0:
55,359,225242,5,10,0:0:0:0:
286,212,225476,1,0,3:2:0:0:
6,143,225710,1,0,3:2:0:0:
215,341,225945,5,10,0:0:0:0:
203,55,226179,1,0,3:2:0:0:
5,247,226414,1,0,3:2:0:0:
301,302,226648,5,10,0:0:0:0:
94,64,226882,1,0,3:2:0:0:
121,381,227117,6,0,B|132:306|132:306|117:266|117:266|135:171,1,191.999994140625,6|10,3:2|0:0,0:0:0:0:
265,17,227820,2,0,P|230:53|174:58,1,95.9999970703126,0|2,0:0|3:2,0:0:0:0:
28,168,228289,2,0,P|78:162|131:196,1,95.9999970703126,0|10,3:2|0:0,0:0:0:0:
249,373,228757,1,0,3:2:0:0:
383,172,228992,6,0,B|369:240|369:240|382:278|382:278|364:369,1,191.999994140625,6|10,3:2|0:0,0:0:0:0:
242,156,229695,1,0,0:0:0:0:
242,156,229812,1,0,3:2:0:0:
242,156,229929,2,0,L|253:258,1,95.9999970703126,2|0,3:2|3:2,0:0:0:0:
426,85,230398,1,10,0:0:0:0:
196,38,230633,1,0,3:2:0:0:
348,235,230867,5,14,0:0:0:0:
295,2,231101,1,0,3:2:0:0:
499,169,231336,1,0,3:2:0:0:
209,207,231570,5,10,0:0:0:0:
443,73,231805,1,0,3:2:0:0:
377,336,232039,1,0,3:2:0:0:
199,107,232273,6,0,B|146:87|146:87|87:109,1,95.9999970703126,10|0,0:0|3:2,0:0:0:0:
177,383,232742,5,10,0:0:0:0:
310,160,232977,1,0,3:2:0:0:
43,248,233211,1,0,3:2:0:0:
292,263,233445,5,10,0:0:0:0:
131,53,233680,1,0,3:2:0:0:
109,322,233914,1,0,3:2:0:0:
265,40,234149,5,10,0:0:0:0:
5,162,234383,1,0,3:2:0:0:
292,263,234617,6,0,B|369:250|369:250|399:215|399:215|487:201,1,191.999994140625,6|10,3:2|0:0,0:0:0:0:
339,13,235321,1,0,0:0:0:0:
339,13,235438,1,0,3:2:0:0:
339,13,235555,2,0,L|357:115,1,95.9999970703126,2|0,3:2|3:2,0:0:0:0:
188,248,236024,1,10,0:0:0:0:
397,311,236258,1,0,3:2:0:0:
239,139,236493,6,0,B|169:151|169:151|143:178|143:178|52:201,2,191.999994140625,6|10|2,3:2|0:0|3:2,0:0:0:0:
330,339,237664,1,8,0:0:0:0:
394,109,237899,1,10,0:0:0:0:
231,247,238133,1,0,3:2:0:0:
428,311,238368,5,6,3:2:0:0:
428,311,238837,2,0,L|413:237,1,64,2|0,0:0|0:0,0:0:0:0:
359,180,239306,1,2,0:0:0:0:
359,180,239540,2,0,L|367:109,1,64,0|8,0:0|1:0,0:0:0:0:
420,45,240009,1,0,3:2:0:0:
420,45,240243,6,0,P|391:76|303:51,1,128,2|2,3:2|0:0,0:0:0:0:
216,11,241181,2,0,L|239:154,1,128,2|8,0:0|1:0,0:0:0:0:
255,221,241884,1,0,3:2:0:0:
255,221,242118,5,2,3:2:0:0:
255,221,242587,2,0,B|223:234|223:234|176:217,1,64,2|0,0:0|0:0,0:0:0:0:
127,184,243056,1,2,0:0:0:0:
127,184,243290,2,0,L|136:258,1,64,0|8,0:0|1:0,0:0:0:0:
182,321,243759,1,0,3:2:0:0:
182,321,243993,6,0,P|218:338|289:285,1,128,2|2,3:2|0:0,0:0:0:0:
314,183,244931,2,0,B|365:194|365:194|385:215|385:215|448:228,1,128,2|8,0:0|1:0,0:0:0:0:
478,296,245634,1,0,3:2:0:0:
478,296,245869,1,6,3:2:0:0:
256,192,245986,12,0,250557,0:0:0:0:
