osu file format v14

[General]
AudioFilename: audio.mp3
AudioLeadIn: 0
PreviewTime: 64799
Countdown: 0
SampleSet: Soft
StackLeniency: 0.7
Mode: 0
LetterboxInBreaks: 0
WidescreenStoryboard: 0

[Editor]
Bookmarks: 11157,22128,44071,55043,66014,91386,113328,134928,156871,206243,228527,250127,270513,293827
DistanceSpacing: 2.6
BeatDivisor: 4
GridSize: 32
TimelineZoom: 1.2

[Metadata]
Title:Moonlight (Sanaas Remix)
TitleUnicode:Moonlight (Sanaas Remix)
Artist:Asterisk feat. nayuta
ArtistUnicode:Asterisk feat. nayuta
Creator:Mirash
Version:Extra
Source:
Tags:Electronic Japanese hardcore lost landscape you 7uta feat featuring Lilium records J-NERATION
BeatmapID:4355507
BeatmapSetID:2079913

[Difficulty]
HPDrainRate:7
CircleSize:4
OverallDifficulty:8.4
ApproachRate:9
SliderMultiplier:2
SliderTickRate:1

[Events]
//Background and Video events
0,0,"wallhaven-jxl31y.jpg",0,0
//Break Periods
//Storyboard Layer 0 (Background)
//Storyboard Layer 1 (Fail)
//Storyboard Layer 2 (Pass)
//Storyboard Layer 3 (Foreground)
//Storyboard Layer 4 (Overlay)
//Storyboard Sound Samples

[TimingPoints]
342,342.857142857143,4,2,1,40,1,0
342,-125,4,2,1,40,0,0
20227,-125,4,2,1,50,0,0
22284,-111.111111111111,4,2,1,60,0,0
43542,-133.333333333333,4,2,1,60,0,0
46970,-333.333333333333,4,2,1,40,0,0
55199,-200,4,2,1,50,0,0
64799,-200,4,2,1,60,0,0
65484,-200,4,2,1,70,0,0
66170,-133.333333333333,4,2,1,70,0,0
80227,-83.3333333333333,4,2,1,75,0,0
80484,-83.3333333333333,4,2,1,5,0,0
80570,-83.3333333333333,4,2,1,75,0,0
80827,-83.3333333333333,4,2,1,5,0,0
80913,-250,4,2,1,75,0,0
82627,-166.666666666667,4,2,1,70,0,0
85370,-111.111111111111,4,2,1,70,0,0
87084,-111.111111111111,4,2,1,75,0,0
87513,-111.111111111111,4,2,1,5,0,0
87599,-111.111111111111,4,2,1,75,0,0
88027,-111.111111111111,4,2,1,5,0,0
88113,-249.999999999999,4,2,1,75,0,0
88199,-249.999999999999,4,2,1,70,0,0
90342,-249.999999999999,4,2,1,60,0,0
90684,-249.999999999999,4,2,1,50,0,0
91199,-83.3333333333333,4,2,1,80,0,0
93599,-83.3333333333333,4,2,1,40,0,0
93684,-83.3333333333333,4,2,1,60,0,0
93770,-83.3333333333333,4,2,1,80,0,0
104570,-83.3333333333333,4,2,1,40,0,0
104656,-83.3333333333333,4,2,1,60,0,0
104742,-83.3333333333333,4,2,1,80,0,0
123770,-83.3333333333333,4,2,1,40,0,0
123856,-83.3333333333333,4,2,1,60,0,0
123942,-83.3333333333333,4,2,1,80,0,0
131998,-83.3333333333333,4,2,1,80,0,0
133713,-83.3333333333333,4,2,1,80,0,0
134142,-83.3333333333333,4,2,1,5,0,0
134227,-83.3333333333333,4,2,1,80,0,0
134656,-83.3333333333333,4,2,1,80,0,0
134742,-83.3333333333333,4,2,1,80,0,0
136113,-250,4,2,1,60,0,0
139198,-133.333333333333,4,2,1,60,0,0
151199,-133.333333333333,4,2,1,40,0,0
153942,-133.333333333333,4,2,1,60,0,0
155999,-133.333333333333,4,2,1,70,0,0
156856,-133.333333333333,4,2,1,40,0,0
167656,-133.333333333333,4,2,1,50,0,0
173141,-500,4,2,1,40,0,0
180684,-500,4,2,1,15,0,0
180770,-500,4,2,1,25,0,0
180856,-500,4,2,1,40,0,0
181370,-125,4,2,1,60,0,0
195427,-83.3333333333333,4,2,1,70,0,0
195684,-83.3333333333333,4,2,1,5,0,0
195770,-83.3333333333333,4,2,1,70,0,0
196027,-83.3333333333333,4,2,1,5,0,0
196113,-133.333333333333,4,2,1,70,0,0
197827,-125,4,2,1,60,0,0
202284,-125,4,2,1,70,0,0
202713,-125,4,2,1,5,0,0
202799,-125,4,2,1,70,0,0
203227,-125,4,2,1,5,0,0
203313,-250,4,2,1,70,0,0
205713,-250,4,2,1,40,0,0
205799,-250,4,2,1,60,0,0
205884,-250,4,2,1,70,0,0
206399,-83.3333333333333,4,2,1,80,0,0
238970,-83.3333333333333,4,2,1,40,0,0
239056,-83.3333333333333,4,2,1,60,0,0
239142,-83.3333333333333,4,2,1,80,0,0
244456,-125,4,2,1,80,0,0
245827,-100,4,2,1,80,0,0
248913,-166.666666666667,4,2,1,80,0,0
249342,-166.666666666667,4,2,1,80,0,0
249427,-100,4,2,1,80,0,0
249856,-166.666666666667,4,2,1,80,0,0
249942,-83.3333333333333,4,2,1,70,0,0
270684,-133.333333333333,4,2,1,70,0,0
271884,-125,4,2,1,50,0,0
292627,-200,4,2,1,40,0,0
293313,-200,4,2,1,15,0,0
293399,-200,4,2,1,30,0,0
293484,-200,4,2,1,40,0,0
293570,-200,4,2,1,50,0,0
293656,-200,4,2,1,60,0,0
293742,-200,4,2,1,70,0,0
293827,-200,4,2,1,80,0,0
293913,-200,4,2,1,40,0,0
295199,-200,4,2,1,30,0,0
296570,-200,4,2,1,20,0,0
297942,-200,4,2,1,15,0,0
299313,-200,4,2,1,10,0,0
300684,-200,4,2,2,5,0,0

[Colours]
Combo1 : 152,224,31
Combo2 : 61,141,113
Combo3 : 204,130,179
Combo4 : 92,164,173

[HitObjects]
397,130,342,5,4,3:1:0:0:
341,184,513,1,0,0:0:0:0:
301,120,684,1,0,3:0:0:0:
355,62,856,2,0,P|345:137|326:325,1,240,2|2,0:0|3:0,0:0:0:0:
285,364,1542,1,2,0:0:0:0:
285,364,2227,2,0,P|176:342|18:324,1,240,4|2,0:0|3:2,0:0:0:0:
10,258,2913,1,2,0:1:0:0:
61,202,3084,6,0,P|102:236|134:262,1,80,0|2,3:0|0:0,0:0:0:0:
44,187,3427,1,0,3:0:0:0:
223,40,3599,2,2,P|160:90|14:182,1,240,2|0,0:0|3:0,0:0:0:0:
98,192,4284,1,2,0:0:0:0:
63,112,4456,1,0,3:0:0:0:
144,125,4627,2,0,P|190:136|231:144,1,80,2|0,0:0|3:0,0:0:0:0:
294,110,4970,2,0,P|358:131|542:175,1,240,2|2,0:1|3:0,0:0:0:0:
501,321,5656,1,2,0:1:0:0:
209,350,6170,5,0,3:0:0:0:
285,369,6342,2,0,P|326:323|295:225,1,160,2|4,0:0|0:0,0:0:0:0:
230,220,6856,1,2,3:0:0:0:
256,151,7027,1,2,0:0:0:0:
331,162,7199,2,0,P|380:178|418:190,2,80,0|0|2,3:0|0:0|3:0,0:0:0:0:
311,87,7713,2,0,P|248:102|55:153,1,240,4|0,0:0|3:0,0:0:0:0:
13,108,8399,1,2,0:0:0:0:
101,311,8913,5,2,3:0:0:0:
166,268,9084,2,0,P|216:280|339:295,1,160,2|2,0:0|0:1,0:0:0:0:
372,356,9599,1,4,3:2:0:0:
502,333,9770,1,2,0:0:0:0:
437,278,9942,2,0,P|433:206|431:178,2,80,2|2|2,3:0|0:0|3:0,0:0:0:0:
357,173,10456,2,0,P|363:117|366:7,1,160,4|8,1:0|0:0,0:0:0:0:
454,75,10970,1,0,3:0:0:0:
287,106,11142,1,8,0:1:0:0:
191,24,11313,6,0,L|101:38,1,80,4|0,3:1|0:0,0:0:0:0:
182,125,11656,2,0,L|91:115,1,80,0|2,3:0|0:0,0:0:0:0:
147,220,11999,2,0,L|62:187,2,80,0|0|2,0:0|0:0|3:0,0:0:0:0:
224,205,12513,1,2,0:0:0:0:
340,146,12684,6,0,L|430:160,1,80,0|0,0:0|0:0,0:0:0:0:
349,247,13027,2,0,L|439:237,1,80,0|4,0:0|0:0,0:0:0:0:
235,317,13370,2,0,L|405:347,1,160,0|2,0:0|3:2,0:0:0:0:
465,316,13884,1,2,0:1:0:0:
415,374,14056,2,0,L|325:364,1,80,0|2,3:0|0:0,0:0:0:0:
153,287,14399,5,0,3:0:0:0:
102,348,14570,2,2,P|91:275|79:237,1,80,2|0,0:0|0:0,0:0:0:0:
213,175,14913,1,0,0:0:0:0:
213,175,14999,1,2,0:0:0:0:
213,175,15084,2,0,P|204:214|200:253,1,80,0|2,3:0|0:0,0:0:0:0:
126,195,15427,5,0,3:0:0:0:
158,123,15599,1,2,0:0:0:0:
84,135,15770,1,0,3:0:0:0:
84,135,15942,2,0,P|152:111|249:67,1,160,2|0,0:1|0:0,0:0:0:0:
277,10,16456,1,2,3:0:0:0:
421,108,16627,2,0,P|477:155|501:184,2,80,2|0|0,0:1|0:0|0:0,0:0:0:0:
420,33,17142,5,0,3:0:0:0:
313,118,17313,2,0,P|328:191|331:299,1,160,2|4,0:0|0:0,0:0:0:0:
384,338,17827,1,2,3:0:0:0:
227,359,17999,2,0,P|247:307|263:258,1,80,2|0,0:0|3:0,0:0:0:0:
144,270,18342,2,0,P|176:224|204:181,1,80,0|2,0:0|3:0,0:0:0:0:
86,162,18684,2,0,P|129:126|167:92,2,80,4|0|0,0:0|0:0|0:0,0:0:0:0:
9,147,19199,1,0,3:0:0:0:
36,219,19370,1,2,0:0:0:0:
217,215,19542,5,0,0:0:0:0:
310,269,19713,1,8,0:0:0:0:
319,184,19884,5,2,3:0:0:0:
206,305,20056,1,10,0:0:0:0:
237,127,20227,5,0,0:0:0:0:
246,83,20313,1,0,0:0:0:0:
269,45,20399,1,2,0:1:0:0:
301,15,20484,1,0,0:0:0:0:
342,0,20570,1,4,3:2:0:0:
385,3,20656,1,0,0:0:0:0:
425,20,20742,1,2,0:0:0:0:
462,42,20827,1,0,0:0:0:0:
483,80,20913,1,2,3:0:0:0:
427,152,21084,5,2,0:0:0:0:
431,158,21170,1,0,0:0:0:0:
435,164,21256,1,2,3:0:0:0:
439,170,21342,1,0,0:0:0:0:
443,176,21427,1,4,1:0:0:0:
447,182,21513,1,0,0:0:0:0:
451,188,21599,1,0,3:0:0:0:
455,194,21684,1,0,0:0:0:0:
459,200,21770,1,8,0:1:0:0:
463,206,21856,1,8,0:1:0:0:
467,212,21942,5,0,3:0:0:0:
443,249,22027,1,0,0:0:0:0:
440,293,22113,1,8,0:1:0:0:
453,334,22199,1,0,0:0:0:0:
512,376,22284,6,0,P|502:331|489:288,1,89.9999972534181,4|0,3:1|0:0,0:0:0:0:
317,196,22627,2,0,P|333:250|342:301,1,89.9999972534181,8|0,1:0|0:0,0:0:0:0:
215,353,22970,1,0,3:0:0:0:
125,236,23142,1,2,0:0:0:0:
125,236,23227,1,0,0:0:0:0:
125,236,23313,2,0,P|134:191|147:148,1,89.9999972534181,8|2,1:0|0:3,0:0:0:0:
276,105,23656,5,4,3:2:0:0:
188,44,23827,1,0,0:0:0:0:
289,5,23999,1,8,1:0:0:0:
176,150,24170,1,2,0:1:0:0:
346,170,24342,2,0,P|404:145|443:132,1,89.9999972534181,0|0,3:0|0:0,0:0:0:0:
470,71,24684,1,10,1:0:0:0:
471,208,24856,6,2,P|486:265|503:385,1,179.999994506836,2|2,0:1|0:0,0:0:0:0:
391,347,25370,1,8,1:0:0:0:
312,219,25542,2,0,P|337:206|404:216,1,89.9999972534181,2|0,0:0|3:0,0:0:0:0:
253,323,25884,1,2,0:0:0:0:
159,208,26056,1,8,1:0:0:0:
264,139,26227,2,0,P|291:132|353:159,1,89.9999972534181,2|4,0:0|3:2,0:0:0:0:
242,221,26570,5,0,0:0:0:0:
125,137,26742,1,8,1:0:0:0:
304,55,26913,2,0,P|276:48|214:75,1,89.9999972534181,2|0,0:1|3:0,0:0:0:0:
155,36,27256,1,0,0:0:0:0:
52,170,27427,1,10,1:0:0:0:
26,64,27599,1,2,0:1:0:0:
26,64,27684,1,2,0:0:0:0:
26,64,27770,2,0,P|11:157|3:185,1,89.9999972534181,4|0,3:1|0:0,0:0:0:0:
59,253,28113,5,8,1:0:0:0:
19,371,28284,2,0,P|117:359|199:363,1,179.999994506836,2|2,0:0|0:0,0:0:0:0:
256,310,28799,1,10,1:1:0:0:
381,379,28970,5,2,0:0:0:0:
381,379,29056,1,2,0:0:0:0:
381,379,29142,1,0,3:0:0:0:
477,258,29313,1,2,0:0:0:0:
356,162,29484,1,8,1:0:0:0:
260,283,29656,1,2,0:1:0:0:
376,279,29827,2,0,P|371:217|359:160,1,89.9999972534181,0|0,3:0|0:0,0:0:0:0:
277,129,30170,1,10,1:0:0:0:
457,124,30342,2,0,P|462:62|474:5,2,89.9999972534181,2|0|0,0:1|3:0|0:0,0:0:0:0:
326,13,30856,5,10,1:0:0:0:
186,46,31027,2,0,P|193:90|196:242,1,179.999994506836,2|2,0:1|0:0,0:0:0:0:
147,296,31542,1,10,1:0:0:0:
296,211,31713,1,2,0:0:0:0:
125,141,31884,1,4,3:2:0:0:
205,217,32056,1,2,0:0:0:0:
205,217,32142,1,2,0:0:0:0:
205,217,32227,1,8,1:0:0:0:
280,89,32399,5,2,0:0:0:0:
151,48,32570,1,2,3:1:0:0:
81,176,32742,1,2,0:3:0:0:
190,129,32913,1,8,1:0:0:0:
150,98,32999,1,2,0:0:0:0:
102,85,33084,1,2,1:3:0:0:
52,89,33170,1,2,0:0:0:0:
6,109,33256,6,0,P|37:177|51:222,1,89.9999972534181,4|0,3:1|0:0,0:0:0:0:
193,148,33599,2,0,P|185:222|175:268,1,89.9999972534181,8|0,1:0|0:0,0:0:0:0:
335,275,33942,2,0,P|291:335|259:370,1,89.9999972534181,0|2,3:0|0:0,0:0:0:0:
118,311,34284,5,8,1:0:0:0:
236,260,34456,1,2,0:3:0:0:
236,260,34542,1,0,0:0:0:0:
236,260,34627,2,0,P|207:225|183:188,1,89.9999972534181,4|0,3:2|0:0,0:0:0:0:
335,150,34970,2,0,P|327:105|325:61,1,89.9999972534181,8|2,1:0|0:1,0:0:0:0:
476,104,35313,2,0,P|492:62|512:22,1,89.9999972534181,0|0,3:0|0:0,0:0:0:0:
472,224,35656,5,10,1:0:0:0:
322,238,35827,1,2,0:1:0:0:
322,238,35913,1,0,0:0:0:0:
322,238,35999,2,0,P|324:303|318:350,2,89.9999972534181,0|2|8,3:0|0:0|1:0,0:0:0:0:
134,233,36513,2,0,P|129:177|136:48,1,179.999994506836,2|2,0:0|0:0,0:0:0:0:
240,150,37027,1,8,1:0:0:0:
318,36,37199,1,2,0:0:0:0:
318,36,37284,1,0,0:0:0:0:
318,36,37370,2,0,P|257:57|227:67,1,89.9999972534181,4|0,3:2|0:0,0:0:0:0:
374,139,37713,5,8,1:0:0:0:
463,246,37884,2,0,P|460:191|461:57,1,179.999994506836,2|0,0:1|0:0,0:0:0:0:
433,59,38313,1,0,0:0:0:0:
442,33,38399,1,10,1:0:0:0:
258,184,38570,5,2,0:1:0:0:
274,162,38656,1,2,0:0:0:0:
253,144,38742,2,0,P|253:213|256:276,1,89.9999972534181,4|0,3:1|0:0,0:0:0:0:
386,303,39084,2,0,P|387:258|386:213,1,89.9999972534181,8|2,1:0|0:0,0:0:0:0:
150,247,39427,2,0,P|150:316|153:379,1,89.9999972534181,0|2,3:0|0:0,0:0:0:0:
374,216,39770,2,0,P|372:171|373:126,1,89.9999972534181,10|2,1:1|0:0,0:0:0:0:
88,74,40113,6,0,P|88:143|91:206,1,89.9999972534181,0|2,3:0|0:0,0:0:0:0:
448,319,40456,2,0,P|449:274|448:229,1,89.9999972534181,8|2,1:0|0:1,0:0:0:0:
169,213,40799,2,0,P|169:282|166:345,1,89.9999972534181,0|0,3:0|0:0,0:0:0:0:
385,155,41142,2,0,P|383:110|384:65,1,89.9999972534181,10|2,1:0|0:1,0:0:0:0:
203,93,41484,6,0,P|201:151|202:171,1,44.999998626709,4|0,3:1|0:0,0:0:0:0:
344,274,41656,2,0,P|346:216|345:196,1,44.999998626709,2|0,0:0|0:0,0:0:0:0:
306,99,41827,2,0,P|304:157|305:177,1,44.999998626709,10|0,1:0|0:0,0:0:0:0:
181,277,41999,2,0,P|183:219|182:199,1,44.999998626709,2|0,0:1|0:0,0:0:0:0:
439,192,42170,5,0,3:0:0:0:
446,180,42256,1,0,3:0:0:0:
451,167,42342,1,2,3:0:0:0:
456,154,42427,1,0,3:0:0:0:
460,141,42513,1,10,1:0:0:0:
464,128,42599,1,0,3:0:0:0:
467,115,42684,1,2,3:0:0:0:
469,101,42770,1,0,3:0:0:0:
470,87,42856,1,4,3:1:0:0:
320,28,43027,5,2,1:0:0:0:
320,28,43113,1,2,1:0:0:0:
320,28,43199,1,8,1:0:0:0:
320,28,43284,1,0,1:0:0:0:
320,28,43370,1,2,1:0:0:0:
199,108,43542,6,0,P|152:102|121:96,1,75.0000028610231,2|0,3:1|0:0,0:0:0:0:
305,266,43884,2,0,P|352:260|383:254,1,75.0000028610231,10|2,3:1|0:1,0:0:0:0:
437,310,44227,5,4,1:0:0:0:
261,367,46970,6,0,B|211:337|254:207|403:393|528:313|465:207,1,359.999989013672,4|0,0:0|0:0,0:0:0:0:
411,166,49199,1,2,0:0:0:0:
474,116,49370,1,2,0:0:0:0:
436,57,49542,1,2,0:0:0:0:
436,57,49627,1,2,0:0:0:0:
436,57,49713,2,0,P|408:62|398:63,1,29.9999990844727,2|0,0:0|0:0,0:0:0:0:
341,29,50056,6,0,B|275:-30|126:43|268:198|81:283|35:209,1,419.999987182618,4|0,0:0|0:0,0:0:0:0:
69,148,52627,5,2,0:0:0:0:
69,148,52799,2,0,P|67:117|65:108,1,29.9999990844727,2|0,0:0|0:0,0:0:0:0:
141,111,53142,2,0,P|139:80|137:71,1,29.9999990844727,0|2,0:0|0:0,0:0:0:0:
214,116,53484,2,0,P|212:130|212:145,1,29.9999990844727,2|2,0:0|0:0,0:0:0:0:
283,160,53827,2,0,P|281:174|281:189,1,29.9999990844727,2|0,0:0|0:0,0:0:0:0:
358,139,54170,1,2,0:0:0:0:
358,139,54342,1,0,0:0:0:0:
420,187,54513,1,2,0:0:0:0:
420,187,54684,1,0,0:0:0:0:
492,157,54856,1,2,0:0:0:0:
493,39,55027,5,2,0:0:0:0:
493,39,55113,1,0,0:0:0:0:
493,39,55199,2,0,P|450:44|423:47,1,50,4|0,1:0|0:0,0:0:0:0:
375,12,55542,2,0,P|320:17|256:25,1,100,4|2,0:0|0:0,0:0:0:0:
207,46,56056,1,2,0:0:0:0:
137,23,56227,1,2,0:0:0:0:
53,89,56398,5,0,1:0:0:0:
53,89,56484,1,0,0:0:0:0:
53,89,56570,2,0,P|96:94|123:97,1,50,4|0,1:2|0:0,0:0:0:0:
154,153,56913,2,0,P|209:158|273:166,1,100,4|0,0:0|0:0,0:0:0:0:
322,187,57427,1,2,0:0:0:0:
392,164,57599,1,2,0:0:0:0:
336,111,57770,1,0,0:0:0:0:
398,243,57942,5,4,0:0:0:0:
465,254,58284,2,0,P|490:274|505:293,1,50,8|0,0:0|0:0,0:0:0:0:
340,268,58627,2,0,P|364:263|387:253,1,50,8|0,0:0|0:0,0:0:0:0:
437,137,58970,2,0,P|429:160|425:185,1,50,8|0,0:0|0:0,0:0:0:0:
254,210,59313,6,0,P|206:203|94:178,1,150,4|2,0:1|0:0,0:0:0:0:
66,117,59999,1,8,0:1:0:0:
5,166,60170,1,4,0:0:0:0:
49,231,60342,1,4,0:1:0:0:
182,146,60513,5,2,0:0:0:0:
182,146,60599,1,2,0:0:0:0:
182,146,60684,2,0,P|230:139|247:135,1,50,4|0,1:1|0:0,0:0:0:0:
286,88,61027,2,0,P|339:112|431:146,1,150,4|2,0:0|0:0,0:0:0:0:
463,210,61713,1,2,0:0:0:0:
502,142,61884,1,2,0:0:0:0:
381,210,62056,6,0,P|344:215|318:222,1,50,4|0,0:0|0:0,0:0:0:0:
229,267,62399,2,0,P|243:232|250:206,1,50,8|0,0:0|0:0,0:0:0:0:
255,106,62742,2,0,P|277:135|296:154,1,50,8|0,0:0|0:0,0:0:0:0:
156,187,63084,6,0,P|99:178|86:177,1,50,8|0,0:0|0:0,0:0:0:0:
9,149,63427,5,4,1:0:0:0:
77,188,63599,1,2,0:0:0:0:
11,230,63770,1,8,1:0:0:0:
14,149,63942,5,2,0:0:0:0:
74,199,64113,1,0,3:0:0:0:
1,229,64285,1,2,3:2:0:0:
133,98,64456,5,8,1:0:0:0:
137,91,64542,1,0,1:0:0:0:
140,84,64627,1,0,1:0:0:0:
143,77,64713,1,0,1:0:0:0:
147,70,64799,5,0,3:0:0:0:
193,62,64884,1,0,3:0:0:0:
239,73,64970,1,0,3:0:0:0:
278,99,65056,1,0,3:0:0:0:
299,141,65142,1,0,3:0:0:0:
304,187,65227,1,0,3:0:0:0:
324,229,65313,1,0,3:0:0:0:
361,258,65399,1,0,3:0:0:0:
406,271,65484,1,2,3:1:0:0:
430,162,65656,5,2,1:1:0:0:
250,263,65827,1,2,1:1:0:0:
430,362,65999,1,2,1:1:0:0:
440,142,66170,6,0,P|431:95|427:53,1,75.0000028610231,4|0,1:0|0:0,0:0:0:0:
201,36,66513,2,0,P|196:73|189:109,1,75.0000028610231,8|0,1:0|0:0,0:0:0:0:
281,214,66856,1,0,3:0:0:0:
294,113,67027,1,2,0:0:0:0:
172,205,67199,1,8,1:0:0:0:
325,285,67370,5,2,0:0:0:0:
325,285,67456,1,2,0:0:0:0:
325,285,67542,2,0,P|329:322|336:358,1,75.0000028610231,4|0,3:0|0:0,0:0:0:0:
141,293,67884,2,0,P|148:256|152:219,1,75.0000028610231,8|0,1:0|0:0,0:0:0:0:
235,267,68227,1,2,3:0:0:0:
186,122,68399,1,2,0:0:0:0:
68,235,68570,1,8,1:0:0:0:
152,219,68742,5,2,0:0:0:0:
152,219,68827,1,2,0:0:0:0:
152,219,68913,2,0,P|144:182|140:145,2,75.0000028610231,4|0|8,3:2|0:0|1:0,0:0:0:0:
285,191,69427,1,2,0:0:0:0:
423,145,69599,2,0,P|430:181|434:218,2,75.0000028610231,0|0|8,3:0|0:0|1:0,0:0:0:0:
271,111,70113,5,2,0:0:0:0:
302,268,70284,2,0,P|309:304|313:341,1,75.0000028610231,0|0,3:0|0:0,0:0:0:0:
148,235,70627,2,0,P|143:197|136:161,1,75.0000028610231,8|0,1:0|0:0,0:0:0:0:
382,55,70970,2,0,P|389:91|393:128,1,75.0000028610231,2|0,3:0|0:0,0:0:0:0:
450,180,71313,1,8,1:0:0:0:
257,150,71484,5,2,0:0:0:0:
257,150,71570,1,2,0:0:0:0:
257,150,71656,2,0,P|261:112|268:76,1,75.0000028610231,4|0,3:1|0:0,0:0:0:0:
70,32,71999,2,0,P|77:68|81:105,1,75.0000028610231,8|0,1:0|0:0,0:0:0:0:
159,153,72342,1,2,3:0:0:0:
39,258,72513,1,2,0:0:0:0:
7,165,72684,1,8,1:0:0:0:
147,254,72856,5,2,0:0:0:0:
147,254,72942,1,2,0:0:0:0:
147,254,73027,2,0,P|205:279|221:288,1,75.0000028610231,0|0,3:0|0:0,0:0:0:0:
349,354,73370,2,0,P|311:357|274:364,1,75.0000028610231,8|0,1:0|0:0,0:0:0:0:
191,353,73713,5,2,3:0:0:0:
334,243,73884,1,2,0:0:0:0:
334,243,73970,1,0,0:0:0:0:
334,243,74056,1,8,1:0:0:0:
192,178,74227,1,2,0:0:0:0:
329,65,74399,6,0,P|318:112|305:155,1,75.0000028610231,4|0,3:2|0:0,0:0:0:0:
112,200,74742,2,0,P|101:163|93:127,1,75.0000028610231,8|0,1:0|0:0,0:0:0:0:
252,0,75084,2,0,P|243:36|236:57,1,37.5000014305115,2|0,3:0|0:0,0:0:0:0:
240,110,75256,2,0,P|231:146|221:182,1,75.0000028610231,0|8,0:0|1:0,0:0:0:0:
46,263,75599,2,0,P|54:299|64:335,1,75.0000028610231,2|0,0:0|3:0,0:0:0:0:
212,367,75942,1,2,0:0:0:0:
212,367,76027,1,2,0:0:0:0:
212,367,76113,2,0,P|217:347|221:329,3,37.5000014305115,8|0|0|0,1:0|0:0|0:0|0:0,0:0:0:0:
292,306,76456,5,0,3:0:0:0:
169,217,76627,1,4,0:0:0:0:
316,153,76799,1,8,1:0:0:0:
268,228,76970,5,2,0:0:0:0:
268,228,77056,1,2,0:0:0:0:
268,228,77142,2,0,P|267:164|263:122,1,75.0000028610231,4|0,1:0|0:0,0:0:0:0:
430,133,77484,2,0,P|428:170|428:207,1,75.0000028610231,8|0,1:0|0:0,0:0:0:0:
318,46,77827,5,0,3:0:0:0:
177,147,77999,1,2,0:0:0:0:
177,147,78084,1,0,0:0:0:0:
177,147,78170,1,8,1:0:0:0:
223,42,78342,2,0,L|229:87,1,37.5000014305115,2|2,0:0|0:0,0:0:0:0:
286,130,78513,2,0,P|279:179|270:229,1,75.0000028610231,4|0,3:0|0:0,0:0:0:0:
248,225,78770,1,0,0:0:0:0:
255,258,78856,1,8,1:0:0:0:
388,363,79027,5,0,0:0:0:0:
404,333,79113,1,0,0:0:0:0:
389,302,79199,1,2,3:0:0:0:
159,285,79370,1,2,0:0:0:0:
144,316,79456,1,0,0:0:0:0:
160,346,79542,1,8,1:0:0:0:
305,213,79713,1,2,1:0:0:0:
321,166,79799,1,2,1:2:0:0:
284,133,79885,1,4,3:2:0:0:
247,100,79970,1,0,1:0:0:0:
263,53,80056,1,4,1:2:0:0:
167,75,80227,6,0,P|136:141|153:255,1,179.999994506836,12|0,1:0|2:2,0:0:0:0:
410,303,80570,6,0,P|424:215|390:133,1,179.999994506836,12|0,1:0|2:0,0:0:0:0:
265,182,80913,6,0,L|276:348,1,160,12|4,1:0|1:0,0:0:0:0:
275,341,82284,5,8,1:0:0:0:
271,315,82370,1,0,1:0:0:0:
267,289,82456,1,2,1:2:0:0:
263,263,82542,1,2,1:2:0:0:
260,237,82627,2,0,P|251:176|238:113,1,119.999996337891,4|8,3:1|1:0,0:0:0:0:
370,30,83142,5,0,0:0:0:0:
370,30,83227,1,0,1:0:0:0:
370,30,83313,2,0,P|381:88|390:148,1,119.999996337891,2|8,3:0|1:0,0:0:0:0:
96,248,83827,5,2,1:3:0:0:
96,248,83912,1,2,1:0:0:0:
96,248,83998,2,0,P|104:188|111:163,1,59.9999981689454,4|0,1:0|1:0,0:0:0:0:
180,165,84342,1,8,1:0:0:0:
383,231,84513,5,2,1:3:0:0:
383,231,84598,1,0,1:0:0:0:
383,231,84684,2,0,P|394:289|398:316,1,59.9999981689454,2|0,3:0|1:0,0:0:0:0:
337,346,85027,1,8,1:0:0:0:
29,351,85199,5,2,1:2:0:0:
29,351,85284,1,2,1:2:0:0:
29,351,85370,2,0,L|13:297,1,44.999998626709,4|0,1:2|1:0,0:0:0:0:
114,212,85542,2,0,L|130:266,1,44.999998626709,0|0,1:0|1:0,0:0:0:0:
0,239,85713,2,0,L|54:223,1,44.999998626709,8|0,1:0|1:0,0:0:0:0:
141,327,85885,2,0,L|87:343,1,44.999998626709,0|0,1:0|1:0,0:0:0:0:
40,120,86056,5,2,1:0:0:0:
77,95,86141,1,0,3:0:0:0:
118,77,86227,1,0,3:0:0:0:
162,69,86313,1,0,3:0:0:0:
207,69,86398,1,8,1:0:0:0:
251,78,86484,1,8,1:0:0:0:
293,96,86570,1,10,1:0:0:0:
330,121,86656,1,8,1:0:0:0:
361,154,86741,1,12,1:0:0:0:
463,115,87084,6,0,P|476:173|466:351,1,224.999993133545,12|0,1:0|0:0,0:0:0:0:
266,361,87599,2,0,P|254:249|272:138,1,224.999993133545,12|2,1:0|0:0,0:0:0:0:
372,234,88113,5,12,1:0:0:0:
256,192,88199,12,4,89484,0:0:0:0:
259,199,89827,5,2,0:0:0:0:
259,199,90170,1,2,0:0:0:0:
211,136,90342,1,8,1:0:0:0:
211,136,90427,1,0,1:0:0:0:
211,136,90513,1,0,3:0:0:0:
218,90,90599,1,0,3:0:0:0:
225,44,90684,1,0,3:0:0:0:
235,0,90770,1,0,3:0:0:0:
302,40,90856,5,0,3:0:0:0:
302,40,91199,6,0,L|225:57,1,59.9999981689454,12|0,1:0|0:0,0:0:0:0:
176,20,91370,2,0,P|100:51|58:208,1,239.999992675781,4|0,1:2|1:0,0:0:0:0:
53,191,91799,1,0,1:0:0:0:
53,191,91884,1,8,1:0:0:0:
234,205,92056,1,0,3:0:0:0:
267,238,92141,1,0,0:0:0:0:
247,282,92227,2,0,P|231:303|223:345,1,59.9999981689454,0|0,3:0|0:0,0:0:0:0:
133,327,92399,2,0,P|149:348|157:390,1,59.9999981689454,0|0,1:0|0:0,0:0:0:0:
184,372,92570,6,0,P|178:286|180:128,1,239.999992675781,8|0,1:0|3:0,0:0:0:0:
182,120,92999,1,0,0:0:0:0:
184,108,93084,1,0,1:0:0:0:
186,96,93170,1,0,0:0:0:0:
188,84,93256,1,8,1:0:0:0:
191,72,93341,1,0,0:0:0:0:
194,60,93427,1,4,0:0:0:0:
324,181,93599,6,2,P|320:151|313:123,3,59.9999981689454,2|2|2|2,2:0|0:0|0:0|0:0,0:0:0:0:
347,56,93941,6,0,L|412:39,1,59.9999981689454,4|0,1:0|0:0,0:0:0:0:
463,91,94113,2,0,P|527:152|495:308,1,239.999992675781,4|2,1:2|1:0,0:0:0:0:
498,291,94541,1,0,1:0:0:0:
485,290,94627,1,8,1:0:0:0:
318,303,94799,1,2,1:0:0:0:
337,259,94884,1,0,1:0:0:0:
384,267,94970,1,2,1:0:0:0:
490,336,95141,5,0,0:0:0:0:
471,380,95226,1,0,0:0:0:0:
423,371,95313,2,0,L|335:379,1,59.9999981689454,10|0,1:0|0:0,0:0:0:0:
305,328,95484,2,2,P|223:341|53:360,1,239.999992675781,2|2,1:0|0:0,1:1:0:0:
39,212,95999,5,4,1:2:0:0:
85,220,96084,1,0,1:0:0:0:
132,227,96170,1,0,1:0:0:0:
180,230,96256,1,0,1:0:0:0:
227,231,96341,1,2,3:2:0:0:
223,219,96427,1,2,0:0:0:0:
219,207,96513,2,0,P|231:152|234:127,1,59.9999981689454,2|0,3:2|0:0,0:0:0:0:
310,138,96684,6,0,P|298:83|295:58,1,59.9999981689454,4|0,1:0|0:0,0:0:0:0:
362,31,96856,2,0,P|433:112|408:253,1,239.999992675781,4|2,1:2|0:0,0:0:0:0:
419,236,97284,1,0,1:0:0:0:
419,236,97370,1,8,1:0:0:0:
227,335,97541,1,0,1:0:0:0:
186,309,97627,1,0,0:0:0:0:
205,264,97713,2,0,P|217:236|214:188,1,59.9999981689454,2|0,3:1|0:0,0:0:0:0:
156,169,97884,6,0,P|164:88|162:23,1,119.999996337891,0|8,1:0|1:0,0:0:0:0:
197,15,98141,1,2,0:0:0:0:
244,23,98227,1,4,1:2:0:0:
292,21,98313,1,0,1:0:0:0:
339,29,98399,1,0,3:3:0:0:
406,204,98570,1,2,1:2:0:0:
460,87,98741,1,8,1:0:0:0:
290,134,98913,6,2,P|293:220|287:385,1,239.999992675781,6|2,1:0|0:0,1:1:0:0:
185,253,99427,1,8,1:0:0:0:
385,258,99599,2,0,P|453:240|503:227,1,119.999996337891,0|0,1:0|3:0,0:0:0:0:
276,231,99941,2,0,P|325:181|362:145,1,119.999996337891,2|8,3:1|1:0,0:0:0:0:
168,281,100284,5,2,1:0:0:0:
196,127,100456,1,4,1:2:0:0:
66,243,100627,1,2,0:0:0:0:
16,110,100799,5,8,1:0:0:0:
117,167,100970,1,8,1:0:0:0:
117,167,101056,1,0,1:0:0:0:
117,167,101141,1,4,1:0:0:0:
129,35,101313,1,4,0:0:0:0:
46,27,101484,5,8,1:0:0:0:
201,128,101656,1,2,1:2:0:0:
345,30,101827,1,0,3:0:0:0:
345,30,102170,6,0,P|350:83|359:119,1,59.9999981689454,12|0,1:0|0:0,0:0:0:0:
415,133,102341,2,0,P|420:206|396:385,1,239.999992675781,4|0,1:2|1:0,0:0:0:0:
407,379,102770,1,0,1:0:0:0:
408,379,102856,2,0,P|351:370|333:370,1,59.9999981689454,8|0,1:0|0:0,0:0:0:0:
296,315,103027,2,0,P|238:311|220:313,1,59.9999981689454,0|0,3:0|0:0,0:0:0:0:
178,363,103199,2,0,P|113:366|44:367,1,119.999996337891,0|0,3:0|1:0,0:0:0:0:
183,240,103541,6,0,P|241:190|232:28,1,239.999992675781,8|0,1:0|3:0,0:0:0:0:
192,51,103970,1,0,0:0:0:0:
145,38,104056,1,0,1:0:0:0:
97,41,104141,1,0,0:0:0:0:
49,34,104227,1,8,1:0:0:0:
47,45,104313,1,0,0:0:0:0:
45,56,104399,1,4,0:0:0:0:
78,246,104570,5,2,2:0:0:0:
91,199,104656,1,2,0:0:0:0:
104,153,104741,1,2,0:0:0:0:
117,106,104827,1,2,0:0:0:0:
130,59,104913,2,0,P|163:73|202:86,1,59.9999981689454,4|0,1:0|0:0,0:0:0:0:
234,142,105084,2,0,P|299:137|407:125,1,119.999996337891,4|0,1:2|0:0,0:0:0:0:
395,107,105341,5,0,1:0:0:0:
422,146,105427,2,0,P|472:151|504:153,1,59.9999981689454,2|0,1:0|1:0,0:0:0:0:
396,69,105599,2,0,P|401:19|403:-13,1,59.9999981689454,8|0,1:0|0:0,0:0:0:0:
353,131,105770,2,0,P|303:126|271:124,1,59.9999981689454,2|0,1:0|1:0,0:0:0:0:
244,193,105941,6,0,P|161:190|34:178,1,179.999994506836,2|0,1:0|0:0,0:0:0:0:
214,118,106284,2,0,P|220:36|218:16,1,59.9999981689454,10|0,1:0|0:0,0:0:0:0:
320,200,106456,2,2,P|327:284|336:333,1,119.999996337891,2|0,1:0|0:0,1:1:0:0:
297,351,106713,1,0,1:0:0:0:
299,302,106799,2,0,P|334:314|377:323,1,59.9999981689454,2|0,0:0|0:0,0:0:0:0:
61,347,106970,5,4,1:2:0:0:
106,330,107056,1,0,1:0:0:0:
150,313,107141,1,0,1:0:0:0:
195,297,107227,1,0,1:0:0:0:
241,284,107313,2,0,P|276:296|319:305,1,59.9999981689454,2|2,3:2|0:0,0:0:0:0:
176,189,107484,2,0,P|188:154|197:111,1,59.9999981689454,2|0,3:2|0:0,0:0:0:0:
124,285,107656,6,0,P|38:305|-23:317,1,119.999996337891,4|4,1:0|1:2,0:0:0:0:
193,131,107999,2,0,P|173:45|161:-16,1,119.999996337891,0|2,1:0|0:0,0:0:0:0:
348,225,108341,2,0,P|434:205|495:193,1,119.999996337891,8|0,1:0|1:0,0:0:0:0:
196,287,108684,6,0,P|118:328|62:355,1,119.999996337891,2|0,3:1|1:0,0:0:0:0:
222,120,109027,2,0,P|180:42|153:-13,1,119.999996337891,8|4,1:0|1:2,0:0:0:0:
396,171,109369,2,0,P|473:129|529:102,1,119.999996337891,0|2,3:3|1:2,0:0:0:0:
291,258,109713,6,2,P|296:339|304:401,1,119.999996337891,8|6,1:0|1:0,1:1:0:0:
216,191,110056,5,4,1:0:0:0:
153,118,110227,1,2,0:0:0:0:
59,139,110399,1,8,1:0:0:0:
48,234,110570,1,2,1:0:0:0:
212,268,110741,5,4,3:2:0:0:
224,172,110913,1,2,3:1:0:0:
319,163,111084,1,8,1:0:0:0:
366,246,111256,1,2,1:0:0:0:
59,339,111427,5,4,1:2:0:0:
86,299,111513,1,0,0:0:0:0:
130,281,111599,1,2,0:0:0:0:
176,288,111684,1,0,0:0:0:0:
210,321,111770,1,8,1:0:0:0:
241,357,111856,1,0,0:0:0:0:
288,364,111941,1,8,1:0:0:0:
328,337,112027,1,0,1:0:0:0:
341,290,112113,1,4,1:0:0:0:
321,246,112199,1,0,0:0:0:0:
284,215,112284,1,4,0:0:0:0:
270,168,112370,1,0,3:0:0:0:
284,121,112456,1,8,1:0:0:0:
324,96,112541,1,0,3:0:0:0:
372,96,112627,1,2,1:2:0:0:
406,129,112713,1,8,1:0:0:0:
407,177,112799,1,4,1:0:0:0:
59,198,113141,6,0,L|332:173,1,239.999992675781,4|0,1:0|3:0,0:0:0:0:
416,261,113656,1,0,1:0:0:0:
416,261,113741,1,2,0:0:0:0:
416,261,113827,1,8,1:0:0:0:
313,371,113999,2,0,P|316:282|324:206,2,119.999996337891,4|0|2,0:0|3:0|0:0,0:0:0:0:
242,248,114513,2,0,P|188:206|208:125,1,119.999996337891,8|2,1:0|0:3,0:0:0:0:
352,71,114856,5,0,3:0:0:0:
194,29,115027,1,0,1:0:0:0:
194,29,115113,1,2,0:0:0:0:
194,29,115199,1,8,1:0:0:0:
301,126,115370,1,4,0:0:0:0:
310,0,115541,2,0,P|228:21|154:39,2,119.999996337891,4|0|8,3:1|1:0|1:0,0:0:0:0:
443,50,116056,5,2,0:3:0:0:
280,140,116227,2,0,L|155:114,1,119.999996337891,0|2,3:0|1:3,0:0:0:0:
162,115,116484,1,2,0:0:0:0:
162,115,116570,1,8,1:0:0:0:
75,207,116741,1,0,1:0:0:0:
157,308,116913,2,0,L|294:274,1,119.999996337891,4|0,3:2|1:0,0:0:0:0:
364,166,117256,2,0,L|481:190,1,119.999996337891,8|2,1:0|0:3,0:0:0:0:
392,299,117599,5,0,3:0:0:0:
267,187,117770,1,2,0:3:0:0:
267,187,117856,1,2,0:0:0:0:
267,187,117941,1,8,1:0:0:0:
413,133,118113,1,4,0:0:0:0:
506,233,118284,2,0,L|388:208,1,119.999996337891,4|2,3:1|1:2,0:0:0:0:
277,105,118627,6,0,P|153:142|25:168,1,239.999992675781,8|0,1:0|3:0,0:0:0:0:
72,59,119141,1,0,1:0:0:0:
72,59,119227,1,2,0:0:0:0:
72,59,119313,2,0,P|105:112|120:136,1,59.9999981689454,8|0,1:0|0:0,0:0:0:0:
172,147,119484,2,0,P|175:209|185:305,2,119.999996337891,4|4|2,0:0|1:0|0:0,0:0:0:0:
240,113,119999,2,0,P|256:88|312:10,1,119.999996337891,8|2,1:0|0:3,0:0:0:0:
490,119,120341,5,0,3:0:0:0:
374,201,120513,1,0,1:0:0:0:
374,201,120599,1,2,0:0:0:0:
374,201,120684,1,8,1:0:0:0:
361,78,120856,1,4,0:0:0:0:
468,15,121027,1,4,1:0:0:0:
449,96,121199,1,0,1:0:0:0:
385,2,121370,1,8,1:0:0:0:
502,0,121541,1,4,0:0:0:0:
351,81,121713,5,0,3:0:0:0:
197,15,121884,1,2,0:0:0:0:
199,182,122056,1,8,1:0:0:0:
260,100,122227,1,4,0:0:0:0:
132,113,122399,5,4,1:0:0:0:
284,209,122570,1,0,1:0:0:0:
132,245,122741,1,8,1:0:0:0:
231,275,122913,1,0,3:0:0:0:
163,331,123084,5,0,3:0:0:0:
93,148,123256,1,0,1:0:0:0:
132,113,123341,1,0,1:0:0:0:
174,135,123427,1,8,1:0:0:0:
267,165,123599,1,0,3:0:0:0:
306,191,123684,1,0,3:0:0:0:
352,178,123770,2,0,L|432:199,3,59.9999981689454,4|2|2|2,3:1|0:0|0:0|0:0,0:0:0:0:
512,208,124113,6,0,P|446:221|416:402,1,239.999992675781,4|0,1:0|3:0,0:0:0:0:
487,370,124627,1,0,1:0:0:0:
457,258,124799,1,8,1:0:0:0:
297,332,124970,1,4,0:0:0:0:
297,332,125056,1,0,0:0:0:0:
297,332,125141,1,0,3:0:0:0:
231,240,125313,1,2,0:0:0:0:
162,293,125484,2,0,L|21:308,1,119.999996337891,8|2,1:0|0:3,0:0:0:0:
148,205,125827,5,0,3:0:0:0:
224,335,125999,1,0,1:0:0:0:
297,193,126170,1,8,1:0:0:0:
215,63,126341,1,4,0:0:0:0:
212,139,126513,6,0,P|235:215|245:273,1,119.999996337891,4|0,3:1|1:0,0:0:0:0:
403,59,126856,2,0,P|325:40|270:20,1,119.999996337891,8|2,1:0|0:3,0:0:0:0:
376,264,127199,2,0,P|430:206|475:168,1,119.999996337891,0|2,3:0|1:3,0:0:0:0:
262,198,127541,5,8,1:0:0:0:
376,167,127713,1,0,1:0:0:0:
376,167,127799,1,0,0:0:0:0:
376,167,127884,1,4,3:2:0:0:
293,78,128056,1,0,1:0:0:0:
331,236,128227,5,8,1:0:0:0:
373,83,128399,1,2,0:3:0:0:
219,125,128570,1,0,3:0:0:0:
303,162,128741,5,2,0:3:0:0:
115,73,128913,1,8,1:0:0:0:
101,268,129084,1,4,0:0:0:0:
284,358,129256,5,4,3:1:0:0:
217,321,129427,1,2,1:2:0:0:
333,285,129598,5,8,1:0:0:0:
326,206,129770,1,0,0:0:0:0:
453,245,129941,5,0,3:0:0:0:
487,176,130113,1,0,1:0:0:0:
436,255,130284,5,8,1:0:0:0:
476,321,130456,1,4,0:0:0:0:
271,163,130627,5,4,1:0:0:0:
245,236,130798,1,2,0:0:0:0:
193,87,130970,5,8,1:0:0:0:
131,130,131141,1,2,0:3:0:0:
321,91,131313,5,0,3:0:0:0:
266,149,131484,1,0,1:0:0:0:
222,0,131656,5,8,1:0:0:0:
197,73,131827,1,4,0:0:0:0:
373,154,131998,6,0,P|441:137|504:130,1,119.999996337891,4|0,1:0|1:0,0:0:0:0:
264,250,132341,2,0,P|196:233|133:226,1,119.999996337891,8|4,1:0|0:0,0:0:0:0:
241,64,132684,5,0,3:0:0:0:
288,55,132770,1,0,3:0:0:0:
332,72,132856,1,0,3:0:0:0:
362,108,132941,1,0,3:0:0:0:
373,154,133027,1,8,1:0:0:0:
370,202,133113,1,0,3:0:0:0:
346,243,133198,1,0,3:0:0:0:
325,286,133284,1,0,3:0:0:0:
320,333,133370,1,4,3:2:0:0:
97,47,133713,6,0,P|76:130|90:353,1,299.999990844727,12|0,1:0|0:0,0:0:0:0:
302,380,134227,2,0,P|319:231|291:84,1,299.999990844727,12|0,1:0|0:0,0:0:0:0:
191,189,134741,5,12,1:1:0:0:
193,190,136113,6,0,P|130:176|106:12,1,239.999992675781,0|4,3:0|0:0,0:0:0:0:
206,12,137484,2,0,L|247:21,1,40,2|0,0:0|0:0,0:0:0:0:
291,87,137827,1,2,0:0:0:0:
362,56,137998,2,0,P|361:97|359:142,1,80,2|0,0:0|0:0,0:0:0:0:
376,209,138513,1,2,0:0:0:0:
331,146,138684,1,2,0:0:0:0:
464,163,138856,5,4,0:0:0:0:
509,242,139027,1,2,0:0:0:0:
509,242,139113,1,2,0:0:0:0:
509,242,139198,2,0,L|498:289,3,37.5000014305115,2|0|0|0,0:0|0:0|0:0|0:0,0:0:0:0:
419,281,139541,2,0,L|430:328,3,37.5000014305115,2|0|0|0,0:0|0:0|0:0|0:0,0:0:0:0:
343,307,139884,2,0,L|332:354,3,37.5000014305115,2|0|0|0,0:0|0:0|0:0|0:0,0:0:0:0:
266,298,140227,6,0,P|193:288|104:266,1,150.000005722046,2|4,0:0|0:0,0:0:0:0:
66,215,140741,1,4,0:0:0:0:
12,268,140913,1,2,0:0:0:0:
12,268,140998,1,2,0:0:0:0:
12,268,141084,1,6,0:0:0:0:
68,323,141256,1,2,3:2:0:0:
117,266,141427,6,0,P|93:224|91:122,2,150.000005722046,4|2|2,0:0|0:0|0:0,0:0:0:0:
184,237,142284,2,0,P|226:244|266:248,1,75.0000028610231,4|0,0:0|0:0,0:0:0:0:
332,214,142627,1,2,0:0:0:0:
387,273,142798,6,0,P|428:242|425:75,1,225.000008583069,6|2,0:0|0:0,0:0:0:0:
211,10,143656,1,2,0:0:0:0:
147,52,143827,1,2,0:0:0:0:
76,27,143998,1,2,0:0:0:0:
76,27,144170,6,0,P|56:66|67:177,1,150.000005722046,4|2,0:0|0:0,0:0:0:0:
133,199,144684,2,0,P|130:240|127:287,1,75.0000028610231,2|0,0:0|0:0,0:0:0:0:
127,273,144941,1,2,0:0:0:0:
127,273,145027,1,2,0:0:0:0:
220,360,145198,2,0,P|222:310|233:232,1,112.500004291535,4|4,0:0|0:0,0:0:0:0:
219,219,145541,1,2,0:0:0:0:
238,196,145627,1,2,0:0:0:0:
228,167,145713,1,4,0:0:0:0:
267,39,146056,5,2,0:0:0:0:
196,7,146227,2,0,P|129:36|52:58,1,150.000005722046,2|0,0:0|0:0,0:0:0:0:
11,117,146741,1,2,0:0:0:0:
215,112,146913,2,0,P|282:141|359:163,1,150.000005722046,2|0,0:0|0:0,0:0:0:0:
426,198,147427,1,2,0:0:0:0:
248,240,147598,2,0,P|181:269|104:291,1,150.000005722046,2|2,0:0|0:0,0:0:0:0:
65,355,148113,1,2,0:0:0:0:
2,310,148284,1,2,0:0:0:0:
73,211,148456,5,4,0:0:0:0:
135,165,148627,1,0,0:0:0:0:
181,226,148798,2,0,P|234:245|341:267,1,150.000005722046,2|0,0:0|0:0,0:0:0:0:
348,284,149227,1,2,0:0:0:0:
344,313,149313,1,2,0:0:0:0:
465,290,149484,1,2,0:0:0:0:
443,269,149570,1,2,0:0:0:0:
452,240,149656,1,2,0:0:0:0:
432,217,149741,1,2,0:0:0:0:
435,187,149827,1,6,0:0:0:0:
341,133,149998,5,2,0:0:0:0:
341,133,150084,1,2,0:0:0:0:
341,133,150170,2,0,L|345:93,3,37.5000014305115,2|0|0|0,0:0|0:0|0:0|0:0,0:0:0:0:
272,92,150513,2,0,L|276:52,3,37.5000014305115,2|0|0|0,0:0|0:0|0:0|0:0,0:0:0:0:
193,125,150856,2,0,L|197:85,3,37.5000014305115,2|0|0|0,0:0|0:0|0:0|0:0,0:0:0:0:
116,166,151198,6,0,L|75:177,7,37.5000014305115,2|0|0|0|0|0|0|0,3:0|3:0|3:0|3:0|3:0|3:0|3:0|3:0,3:3:0:0:
175,227,151884,2,0,L|134:238,7,37.5000014305115,2|0|0|0|0|0|0|0,3:0|3:0|3:0|3:0|3:0|3:0|3:0|3:0,3:3:0:0:
234,288,152570,2,0,L|193:299,7,37.5000014305115,2|0|0|0|0|0|0|0,3:0|3:0|3:0|3:0|3:0|3:0|3:0|3:0,3:3:0:0:
278,350,153256,5,2,3:0:0:0:
288,346,153341,1,0,3:0:0:0:
298,342,153427,1,0,3:0:0:0:
308,338,153513,1,0,3:0:0:0:
318,334,153598,1,0,3:0:0:0:
328,330,153684,1,0,3:0:0:0:
338,326,153770,1,0,3:0:0:0:
348,322,153856,1,0,3:0:0:0:
358,318,153941,2,2,L|354:270,7,37.5000014305115,2|0|0|0|0|0|0|0,3:0|3:0|3:0|3:0|3:0|3:0|3:0|3:0,3:3:0:0:
425,247,154627,5,2,3:0:0:0:
425,228,154712,1,0,3:0:0:0:
424,209,154798,1,0,3:0:0:0:
421,191,154884,1,0,3:0:0:0:
417,172,154969,1,0,3:0:0:0:
410,155,155055,1,0,3:0:0:0:
403,138,155141,1,0,3:0:0:0:
393,122,155227,1,0,3:0:0:0:
382,107,155312,1,2,3:0:0:0:
369,92,155398,1,0,3:0:0:0:
356,80,155484,1,0,3:0:0:0:
341,68,155569,1,0,3:0:0:0:
325,58,155655,1,0,3:0:0:0:
308,50,155741,1,0,3:0:0:0:
291,44,155827,1,0,3:0:0:0:
272,39,155912,1,0,3:0:0:0:
254,35,155999,5,0,3:0:0:0:
241,70,156084,1,0,3:0:0:0:
220,101,156170,1,2,3:0:0:0:
191,125,156256,1,0,3:0:0:0:
158,142,156342,1,2,3:0:0:0:
122,150,156427,1,0,3:0:0:0:
84,148,156513,1,2,3:0:0:0:
48,137,156599,1,0,3:0:0:0:
16,118,156684,1,4,1:0:0:0:
53,240,157884,5,2,0:0:0:0:
459,240,159427,1,2,0:0:0:0:
259,340,160627,5,2,0:0:0:0:
255,62,162170,5,2,0:0:0:0:
255,322,163370,1,2,0:0:0:0:
257,194,164913,5,2,0:0:0:0:
257,194,166113,1,2,0:0:0:0:
257,194,166799,1,2,0:0:0:0:
431,189,167656,5,2,0:0:0:0:
81,189,168856,1,2,0:0:0:0:
255,54,170398,5,2,0:0:0:0:
255,330,171427,1,2,0:0:0:0:
137,318,173141,6,0,P|117:262|99:182,1,140,2|2,0:0|0:0,0:0:0:0:
375,66,175884,6,0,P|395:122|413:202,1,140,2|2,0:0|0:0,0:0:0:0:
256,192,177256,12,0,179998,0:0:0:0:
263,187,180684,5,0,3:0:0:0:
263,187,180770,1,0,3:0:0:0:
263,187,180856,1,0,3:0:0:0:
263,187,180941,1,0,3:0:0:0:
263,187,181027,1,0,3:0:0:0:
263,187,181113,1,0,3:0:0:0:
263,187,181199,1,0,3:0:0:0:
263,187,181285,1,0,3:0:0:0:
263,187,181370,6,0,P|266:219|274:276,1,80,6|0,1:0|0:0,0:0:0:0:
394,322,181713,2,0,P|388:282|388:257,1,40,10|0,1:0|0:0,0:0:0:0:
441,232,181884,2,0,P|435:192|429:103,1,120,2|0,1:0|0:0,0:0:0:0:
402,90,182227,2,0,P|397:30|390:-20,2,80,2|8|2,1:0|1:0|1:0,0:0:0:0:
270,122,182742,2,0,P|296:68|314:20,1,80,2|0,1:0|1:0,0:0:0:0:
139,83,183084,6,0,P|188:49|200:42,1,40,10|0,1:0|0:0,0:0:0:0:
175,35,183256,2,2,P|188:113|191:227,1,160,2|0,1:0|0:0,1:1:0:0:
288,316,183770,1,10,1:0:0:0:
144,350,183942,1,2,1:0:0:0:
144,350,184027,1,0,0:0:0:0:
144,350,184113,2,0,P|138:293|139:256,1,80,2|0,1:0|0:0,0:0:0:0:
75,226,184456,1,10,1:0:0:0:
285,146,184627,6,0,P|284:185|279:225,1,80,2|0,1:0|0:0,0:0:0:0:
384,245,184970,2,0,P|363:279|339:311,1,80,2|8,1:0|1:0,0:0:0:0:
491,358,185313,2,2,P|477:290|459:177,1,160,2|0,1:0|1:0,1:1:0:0:
503,73,185827,1,8,1:0:0:0:
362,109,185999,1,0,1:0:0:0:
362,109,186084,1,0,0:0:0:0:
362,109,186170,1,0,1:0:0:0:
448,134,186342,1,2,1:0:0:0:
361,24,186513,1,10,1:0:0:0:
452,0,186684,1,0,1:0:0:0:
277,133,186856,6,0,P|273:187|273:237,1,80,2|0,1:0|0:0,0:0:0:0:
177,168,187199,1,10,1:0:0:0:
244,293,187370,2,0,P|199:262|155:237,1,80,2|0,1:0|0:0,0:0:0:0:
77,127,187713,2,0,P|125:103|169:78,1,80,2|8,1:0|1:0,0:0:0:0:
26,61,188056,6,2,P|31:131|28:229,1,160,2|0,1:0|1:0,1:1:0:0:
77,357,188570,1,10,1:0:0:0:
264,308,188742,2,2,P|261:228|266:148,1,160,2|2,1:0|0:1,1:1:0:0:
221,88,189256,1,8,1:0:0:0:
327,8,189427,5,2,1:0:0:0:
327,8,189513,1,0,1:0:0:0:
327,8,189599,1,2,1:0:0:0:
380,143,189770,1,0,1:0:0:0:
227,163,189941,1,8,1:0:0:0:
267,73,190113,5,0,0:0:0:0:
326,217,190284,1,0,1:0:0:0:
186,263,190456,5,2,1:0:0:0:
117,125,190627,1,10,1:0:0:0:
276,320,190799,2,0,P|330:313|452:292,1,160,2|2,1:0|1:0,1:1:0:0:
221,266,191313,5,10,1:0:0:0:
292,80,191484,2,0,P|279:118|270:156,2,80,2|0|0,1:0|1:0|0:0,0:0:0:0:
198,187,191999,2,0,P|159:177|121:165,1,80,10|0,1:0|0:0,0:0:0:0:
296,233,192342,6,0,P|334:245|372:254,1,80,6|0,1:0|0:0,0:0:0:0:
221,273,192684,1,10,1:0:0:0:
270,156,192856,2,0,P|279:118|307:33,1,120,2|0,1:0|0:0,0:0:0:0:
295,20,193199,1,2,1:0:0:0:
159,32,193370,6,0,P|178:79|193:120,1,80,10|0,1:0|0:0,0:0:0:0:
88,78,193713,2,0,P|37:70|-5:63,1,80,2|0,1:0|1:0,0:0:0:0:
89,0,194056,1,10,1:0:0:0:
126,160,194227,1,2,1:0:0:0:
126,160,194313,1,0,1:0:0:0:
126,160,194399,2,0,P|114:233|95:339,1,160,0|10,1:0|1:0,0:0:0:0:
154,373,194913,1,2,1:0:0:0:
388,281,195084,5,4,1:0:0:0:
362,239,195170,1,0,1:0:0:0:
389,199,195256,1,0,1:0:0:0:
479,242,195427,6,0,B|417:237|417:237|359:373,1,179.999994506836,12|0,1:0|0:0,0:0:0:0:
307,292,195770,2,0,B|261:184|261:184|199:189,1,179.999994506836,12|0,1:0|0:0,0:0:0:0:
150,251,196113,2,0,B|67:225|67:225|134:77|134:77|172:134,2,300.000011444092,12|4|0,1:0|0:0|1:0,0:0:0:0:
187,275,197570,1,0,1:0:0:0:
231,284,197656,1,0,1:0:0:0:
271,303,197742,1,0,1:0:0:0:
314,312,197827,6,0,P|363:302|399:297,1,80,4|0,1:0|0:0,0:0:0:0:
441,237,198170,1,10,1:0:0:0:
447,348,198342,2,0,P|438:290|411:176,1,160,2|2,1:0|1:0,0:0:0:0:
460,130,198856,1,8,1:0:0:0:
393,90,199027,1,2,1:0:0:0:
492,0,199199,6,0,P|505:46|514:84,1,80,4|0,1:0|0:0,0:0:0:0:
335,186,199542,1,10,1:0:0:0:
266,151,199713,2,0,P|275:112|296:46,1,80,2|0,1:0|1:0,0:0:0:0:
325,45,199970,1,0,1:0:0:0:
300,3,200056,1,0,1:0:0:0:
128,46,200227,1,10,1:0:0:0:
94,81,200313,1,0,1:0:0:0:
119,121,200399,1,0,1:0:0:0:
298,247,200570,5,4,1:0:0:0:
328,284,200656,1,0,3:0:0:0:
297,321,200742,1,0,3:0:0:0:
289,320,200827,1,0,3:0:0:0:
281,319,200913,5,12,1:0:0:0:
233,326,200999,1,0,3:0:0:0:
217,281,201085,1,0,3:0:0:0:
222,274,201170,1,0,3:0:0:0:
227,268,201256,5,12,1:0:0:0:
245,223,201342,1,0,3:0:0:0:
292,231,201428,1,0,3:0:0:0:
295,239,201513,1,0,3:0:0:0:
298,247,201599,5,12,1:0:0:0:
278,290,201684,1,0,3:0:0:0:
278,290,201770,1,2,3:0:0:0:
278,290,201856,1,2,3:0:0:0:
278,290,201942,5,12,1:0:0:0:
390,313,202284,6,0,P|403:236|382:94,1,200,12|0,1:0|0:0,0:0:0:0:
84,247,202799,2,0,P|144:297|277:350,1,200,12|0,1:0|0:0,0:0:0:0:
293,15,203313,2,0,B|140:15|54:200|176:280|250:308|369:277|322:79|224:137|240:167,1,520,12|0,1:0|0:0,0:0:0:0:
196,213,205713,5,0,3:0:0:0:
153,203,205799,1,0,3:0:0:0:
110,193,205885,1,0,3:0:0:0:
67,183,205970,1,0,3:0:0:0:
23,173,206056,1,0,3:0:0:0:
23,173,206399,6,0,L|92:167,1,59.9999981689454,12|0,1:0|0:0,0:0:0:0:
132,111,206570,2,0,P|206:116|245:260,1,239.999992675781,4|0,1:2|1:0,0:0:0:0:
255,263,206999,1,0,1:0:0:0:
255,263,207084,2,0,P|248:290|246:326,1,59.9999981689454,8|0,1:0|0:0,0:0:0:0:
388,354,207256,2,0,P|386:324|379:294,1,59.9999981689454,0|0,3:0|0:0,0:0:0:0:
439,247,207427,2,0,P|443:151|440:71,1,119.999996337891,0|0,3:0|1:0,0:0:0:0:
271,0,207770,2,0,P|271:59|274:119,1,119.999996337891,8|0,1:0|0:0,0:0:0:0:
339,218,208113,5,4,3:2:0:0:
334,229,208199,1,0,0:0:0:0:
329,240,208284,1,0,1:0:0:0:
324,251,208370,1,0,0:0:0:0:
290,263,208456,1,12,1:0:0:0:
295,274,208542,1,0,0:0:0:0:
300,285,208627,1,4,0:0:0:0:
305,296,208713,1,0,0:0:0:0:
356,353,208799,6,2,L|290:380,3,59.9999981689454,2|2|2|2,2:0|0:0|0:0|0:0,0:0:0:0:
232,343,209142,2,0,L|169:333,1,59.9999981689454,4|0,1:0|0:0,0:0:0:0:
102,368,209313,2,0,P|42:338|68:216,1,179.999994506836,4|0,1:2|0:0,0:0:0:0:
55,234,209656,2,0,P|61:191|52:166,1,59.9999981689454,2|0,1:0|1:0,0:0:0:0:
5,126,209827,2,0,P|1:68|46:23,1,119.999996337891,8|2,1:0|1:0,0:0:0:0:
50,32,210084,1,0,1:0:0:0:
61,27,210170,6,0,L|125:47,1,59.9999981689454,2|0,1:0|0:0,0:0:0:0:
192,33,210342,1,0,1:0:0:0:
269,203,210513,1,10,1:0:0:0:
398,25,210684,2,2,P|399:120|408:281,1,239.999992675781,2|2,1:0|0:0,1:1:0:0:
121,188,211199,5,4,1:2:0:0:
132,184,211284,1,0,1:0:0:0:
143,180,211370,1,0,1:0:0:0:
154,177,211456,1,0,1:0:0:0:
165,174,211542,1,2,3:2:0:0:
203,189,211627,1,2,0:0:0:0:
244,182,211713,2,0,B|275:170|275:170|314:196,1,59.9999981689454,2|0,3:2|0:0,0:0:0:0:
374,200,211884,6,0,L|112:215,1,239.999992675781,4|0,1:0|0:0,0:0:0:0:
25,147,212399,1,2,0:0:0:0:
25,147,212484,1,0,1:0:0:0:
25,147,212570,2,0,P|39:117|48:92,1,59.9999981689454,8|0,1:0|0:0,0:0:0:0:
39,14,212742,1,0,1:0:0:0:
191,60,212913,6,0,P|248:111|291:143,1,119.999996337891,2|0,3:1|1:0,0:0:0:0:
244,154,213170,1,0,0:0:0:0:
258,193,213256,2,0,P|191:221|44:272,1,179.999994506836,8|0,1:0|1:0,0:0:0:0:
55,233,213599,1,0,3:3:0:0:
133,165,213770,1,2,1:2:0:0:
167,345,213942,1,8,1:0:0:0:
61,332,214113,1,6,1:0:0:0:
215,209,214284,5,0,3:0:0:0:
258,294,214456,1,2,0:0:0:0:
108,272,214627,1,8,1:0:0:0:
137,202,214799,1,0,1:0:0:0:
211,362,214970,1,0,3:0:0:0:
136,351,215142,1,2,3:1:0:0:
136,351,215227,1,0,0:0:0:0:
136,351,215313,1,8,1:0:0:0:
324,249,215484,5,2,1:0:0:0:
354,220,215570,1,0,0:0:0:0:
330,185,215656,2,0,P|322:115|321:42,1,119.999996337891,4|2,1:2|0:0,0:0:0:0:
332,25,215913,1,0,0:0:0:0:
294,5,215999,1,8,1:0:0:0:
74,75,216170,5,8,1:0:0:0:
41,101,216256,1,0,1:0:0:0:
66,134,216342,2,0,P|67:182|66:227,1,59.9999981689454,4|0,1:0|0:0,0:0:0:0:
111,253,216513,1,4,0:0:0:0:
128,291,216599,1,0,0:0:0:0:
104,325,216684,1,8,1:0:0:0:
18,359,216856,1,2,1:2:0:0:
18,359,216942,1,0,0:0:0:0:
18,359,217027,1,0,3:0:0:0:
18,359,217370,6,0,P|14:300|11:278,1,59.9999981689454,12|0,1:0|0:0,0:0:0:0:
52,234,217542,2,0,P|53:160|199:81,1,239.999992675781,4|0,1:2|1:0,0:0:0:0:
181,77,217970,1,0,1:0:0:0:
181,77,218056,1,8,1:0:0:0:
253,179,218227,1,0,3:0:0:0:
284,207,218313,1,0,0:0:0:0:
323,191,218399,2,0,P|371:204|398:215,1,59.9999981689454,0|0,3:0|0:0,0:0:0:0:
483,134,218570,2,0,P|435:147|408:158,1,59.9999981689454,0|0,1:0|0:0,0:0:0:0:
358,107,218742,5,8,1:0:0:0:
341,68,218827,1,0,1:0:0:0:
359,29,218913,1,0,1:0:0:0:
400,19,218999,1,0,1:0:0:0:
434,42,219084,1,0,3:0:0:0:
437,83,219170,1,0,1:0:0:0:
427,123,219256,1,0,1:0:0:0:
432,164,219342,1,0,1:0:0:0:
445,203,219427,1,8,1:0:0:0:
456,243,219513,1,0,1:0:0:0:
458,285,219599,2,0,P|445:321|441:366,1,59.9999981689454,4|0,0:0|0:0,0:0:0:0:
362,234,219770,6,0,P|375:287|380:311,3,59.9999981689454,2|2|2|2,2:0|0:0|0:0|0:0,0:0:0:0:
313,332,220113,6,0,L|242:320,1,59.9999981689454,4|0,1:0|0:0,0:0:0:0:
217,258,220284,2,0,P|176:254|39:382,1,239.999992675781,4|2,1:2|1:0,0:0:0:0:
47,384,220713,1,0,1:0:0:0:
47,384,220799,2,0,P|41:316|38:291,1,59.9999981689454,8|0,1:0|0:0,0:0:0:0:
6,258,220970,5,2,1:0:0:0:
24,220,221056,1,0,1:0:0:0:
10,180,221142,2,0,P|5:127|2:104,1,59.9999981689454,2|0,1:0|0:0,0:0:0:0:
89,76,221313,2,0,P|85:105|83:135,1,59.9999981689454,0|0,0:0|0:0,0:0:0:0:
164,214,221484,2,0,P|159:161|156:138,1,59.9999981689454,10|0,1:0|0:0,0:0:0:0:
269,38,221656,2,0,P|272:67|271:182,2,119.999996337891,2|0|2,1:0|0:0|0:0,0:0:0:0:
511,207,222170,5,4,1:2:0:0:
469,201,222256,1,0,1:0:0:0:
426,202,222342,1,0,1:0:0:0:
384,197,222427,1,0,1:0:0:0:
342,203,222513,2,0,L|284:225,1,59.9999981689454,2|2,3:2|0:0,0:0:0:0:
143,135,222684,2,0,L|165:193,1,59.9999981689454,2|0,3:2|0:0,0:0:0:0:
100,359,222856,6,0,P|150:336|226:310,1,119.999996337891,4|4,1:0|1:2,0:0:0:0:
211,314,223113,1,0,0:0:0:0:
211,314,223199,1,0,1:0:0:0:
321,337,223370,1,2,0:0:0:0:
339,352,223456,1,0,0:0:0:0:
362,346,223542,1,8,1:0:0:0:
429,141,223713,5,0,1:0:0:0:
407,149,223799,1,0,0:0:0:0:
400,172,223885,1,2,3:1:0:0:
474,281,224055,1,0,1:0:0:0:
478,258,224141,1,0,0:0:0:0:
462,241,224227,5,8,1:0:0:0:
405,261,224313,1,0,1:0:0:0:
346,248,224399,1,4,1:2:0:0:
303,205,224484,1,0,1:0:0:0:
297,145,224570,6,0,P|302:71|301:21,1,119.999996337891,0|2,3:3|1:2,0:0:0:0:
376,11,224913,1,8,1:0:0:0:
192,82,225084,1,6,1:0:0:0:
88,5,225256,6,0,P|87:64|92:124,1,119.999996337891,4|2,1:0|0:0,0:0:0:0:
259,256,225599,2,0,P|263:196|263:136,1,119.999996337891,8|0,1:0|1:0,0:0:0:0:
19,136,225942,2,0,P|18:195|23:255,1,119.999996337891,4|2,3:2|3:1,0:0:0:0:
334,379,226284,2,0,P|338:319|338:259,1,119.999996337891,8|2,1:0|1:0,0:0:0:0:
90,311,226627,5,4,1:2:0:0:
93,322,226713,1,0,0:0:0:0:
96,333,226799,1,2,0:0:0:0:
99,344,226884,1,0,0:0:0:0:
102,355,226970,1,8,1:0:0:0:
150,329,227056,1,0,0:0:0:0:
164,276,227142,1,8,1:0:0:0:
151,224,227227,1,0,1:0:0:0:
118,180,227313,1,4,1:0:0:0:
107,126,227399,1,0,0:0:0:0:
123,75,227484,1,4,0:0:0:0:
171,50,227570,1,0,3:0:0:0:
220,71,227656,1,8,1:0:0:0:
232,123,227742,1,0,3:0:0:0:
268,162,227827,1,2,1:2:0:0:
322,161,227913,1,8,1:0:0:0:
360,122,227999,1,4,1:0:0:0:
38,254,228342,6,0,P|120:248|277:246,1,239.999992675781,4|0,1:0|3:0,0:0:0:0:
342,373,228856,1,0,1:0:0:0:
342,373,228942,1,2,0:0:0:0:
342,373,229027,2,0,P|332:326|330:299,1,59.9999981689454,8|0,1:0|0:0,0:0:0:0:
395,278,229199,2,0,P|407:207|412:141,2,119.999996337891,4|0|2,0:0|3:0|0:0,0:0:0:0:
326,157,229713,2,0,P|281:112|281:42,1,119.999996337891,8|2,1:0|0:3,0:0:0:0:
436,52,230056,5,0,3:0:0:0:
488,194,230227,1,0,1:0:0:0:
328,187,230399,1,8,1:0:0:0:
257,49,230570,2,0,P|194:63|124:73,1,119.999996337891,4|4,0:0|3:1,0:0:0:0:
25,157,230913,2,0,P|88:171|158:181,1,119.999996337891,0|8,1:0|1:0,0:0:0:0:
244,277,231256,2,0,P|181:291|111:301,1,119.999996337891,2|0,0:3|3:0,0:0:0:0:
55,368,231599,1,2,1:3:0:0:
176,245,231770,1,8,1:0:0:0:
9,256,231942,1,0,1:0:0:0:
201,354,232113,5,4,3:2:0:0:
326,281,232284,1,0,1:0:0:0:
219,184,232456,1,8,1:0:0:0:
241,273,232627,1,2,0:3:0:0:
122,179,232799,1,0,3:0:0:0:
244,94,232970,1,2,0:3:0:0:
244,94,233056,1,2,0:0:0:0:
244,94,233142,2,0,P|314:101|344:103,1,59.9999981689454,8|0,1:0|0:0,0:0:0:0:
358,154,233313,5,4,0:0:0:0:
406,130,233399,1,0,0:0:0:0:
443,167,233484,2,0,P|436:233|431:320,1,119.999996337891,4|2,3:1|1:2,0:0:0:0:
270,376,233827,2,0,P|276:293|280:125,1,239.999992675781,8|0,1:0|3:0,0:0:0:0:
139,181,234342,5,0,1:0:0:0:
92,207,234427,1,2,0:0:0:0:
131,244,234513,2,0,P|135:283|139:330,1,59.9999981689454,8|0,1:0|0:0,0:0:0:0:
78,355,234684,2,0,P|89:285|95:198,2,119.999996337891,4|4|2,0:0|1:0|0:0,0:0:0:0:
63,167,235199,2,0,P|11:117|36:48,1,119.999996337891,8|2,1:0|0:3,0:0:0:0:
55,55,235456,1,0,1:0:0:0:
76,14,235542,2,0,P|131:28|162:33,1,59.9999981689454,0|0,3:0|0:0,0:0:0:0:
210,19,235713,1,0,1:0:0:0:
284,148,235884,1,8,1:0:0:0:
431,31,236056,5,4,0:0:0:0:
357,98,236227,1,4,1:0:0:0:
436,159,236399,1,0,1:0:0:0:
333,262,236570,1,8,1:0:0:0:
472,322,236742,1,4,0:0:0:0:
381,356,236913,1,0,3:0:0:0:
426,243,237084,1,2,0:0:0:0:
426,243,237170,1,0,0:0:0:0:
426,243,237256,1,8,1:0:0:0:
86,243,237427,5,4,0:0:0:0:
86,243,237513,1,0,0:0:0:0:
86,243,237599,1,4,1:0:0:0:
131,356,237770,1,0,1:0:0:0:
40,322,237942,1,8,1:0:0:0:
179,262,238113,1,0,3:0:0:0:
76,159,238284,1,0,3:0:0:0:
155,98,238456,1,0,1:0:0:0:
81,31,238627,1,8,1:0:0:0:
271,29,238799,5,0,3:0:0:0:
264,82,238884,1,0,3:0:0:0:
257,135,238970,2,0,L|270:212,3,59.9999981689454,4|2|2|2,3:1|0:0|0:0|0:0,0:0:0:0:
277,269,239313,6,0,P|349:254|393:98,1,239.999992675781,4|0,1:0|3:0,0:0:0:0:
257,136,239827,1,0,1:0:0:0:
363,201,239999,1,8,1:0:0:0:
401,33,240170,1,4,0:0:0:0:
174,34,240342,2,0,P|179:101|180:165,1,119.999996337891,0|2,3:0|0:0,0:0:0:0:
124,207,240684,2,0,P|119:283|117:355,1,119.999996337891,8|2,1:0|0:3,0:0:0:0:
178,383,241027,5,0,3:0:0:0:
214,232,241199,1,0,1:0:0:0:
43,307,241370,1,8,1:0:0:0:
276,359,241542,5,4,0:0:0:0:
276,359,241627,1,0,0:0:0:0:
276,359,241713,2,0,P|287:300|298:233,1,119.999996337891,4|0,3:1|1:0,0:0:0:0:
129,140,242056,2,0,P|188:151|255:162,1,119.999996337891,8|2,1:0|0:3,0:0:0:0:
356,8,242399,2,0,P|345:67|334:134,1,119.999996337891,0|2,3:0|1:3,0:0:0:0:
505,232,242742,2,0,P|446:221|379:210,1,119.999996337891,8|0,1:0|1:0,0:0:0:0:
235,230,243084,5,4,3:2:0:0:
423,139,243256,1,0,1:0:0:0:
235,101,243427,1,8,1:0:0:0:
357,262,243599,1,2,0:3:0:0:
344,59,243770,1,0,3:0:0:0:
306,182,243942,5,2,0:3:0:0:
328,162,244027,1,0,0:0:0:0:
310,137,244113,1,8,1:0:0:0:
149,194,244284,5,4,0:0:0:0:
127,214,244369,1,0,0:0:0:0:
145,239,244456,2,0,P|144:307|142:337,1,80,4|2,3:1|1:2,0:0:0:0:
373,313,244799,2,0,P|371:273|371:233,1,80,8|0,1:0|0:0,0:0:0:0:
166,142,245142,2,0,P|165:210|163:240,1,80,0|0,3:0|1:0,0:0:0:0:
347,213,245485,2,0,P|345:173|345:133,1,80,8|4,1:0|0:0,0:0:0:0:
130,38,245827,6,0,P|133:135|131:165,1,100,4|2,1:0|0:0,0:0:0:0:
375,138,246170,2,0,P|373:98|376:31,1,100,8|2,1:0|0:3,0:0:0:0:
102,169,246513,6,0,P|105:266|103:296,1,100,0|0,3:0|1:0,0:0:0:0:
407,268,246856,2,0,P|406:218|410:169,1,100,8|4,1:0|0:0,0:0:0:0:
200,145,247199,5,4,1:0:0:0:
296,234,247370,1,0,1:0:0:0:
307,136,247542,1,8,1:0:0:0:
198,243,247713,1,4,1:2:0:0:
263,22,247884,5,0,3:0:0:0:
265,61,247969,1,0,3:0:0:0:
267,101,248055,1,0,3:0:0:0:
269,141,248141,1,0,3:0:0:0:
271,181,248226,1,8,1:0:0:0:
273,221,248312,1,0,3:0:0:0:
275,261,248398,1,0,3:0:0:0:
277,301,248484,1,0,3:0:0:0:
279,341,248569,1,4,3:2:0:0:
474,305,248913,6,0,P|459:229|388:209,1,149.999995422363,12|0,1:0|0:0,0:0:0:0:
298,355,249427,6,0,P|195:348|174:212,1,250,12|0,1:0|0:0,0:0:0:0:
253,211,249942,6,0,P|242:149|236:104,1,59.9999981689454,4|0,1:1|0:0,0:0:0:0:
172,130,250113,1,0,0:0:0:0:
146,96,250199,1,0,0:0:0:0:
166,59,250284,1,8,1:0:0:0:
283,9,250456,1,0,0:0:0:0:
330,117,250627,2,0,P|393:101|461:84,1,119.999996337891,0|2,3:0|0:0,0:0:0:0:
371,256,250970,2,0,P|308:240|240:223,1,119.999996337891,8|2,1:0|0:3,0:0:0:0:
156,137,251313,5,4,3:2:0:0:
49,267,251484,1,0,0:0:0:0:
50,309,251570,1,0,0:0:0:0:
90,321,251656,2,0,P|148:335|206:350,1,119.999996337891,8|2,1:0|0:1,0:0:0:0:
361,268,251999,2,0,P|302:253|244:238,1,119.999996337891,0|0,3:0|0:0,0:0:0:0:
156,137,252342,2,0,P|120:123|96:118,1,59.9999981689454,10|0,1:0|0:0,0:0:0:0:
41,69,252513,6,2,P|58:134|69:219,2,119.999996337891,2|0|2,0:1|0:0|0:0,0:0:0:0:
230,179,253027,1,8,1:0:0:0:
253,40,253199,1,2,0:0:0:0:
253,40,253284,1,0,0:0:0:0:
253,40,253370,2,0,P|169:23|115:9,1,119.999996337891,0|2,3:0|0:0,0:0:0:0:
119,269,253713,1,8,1:0:0:0:
209,237,253884,2,0,P|251:167|292:120,1,119.999996337891,2|4,0:0|3:2,0:0:0:0:
387,82,254227,5,0,0:0:0:0:
481,199,254399,2,0,P|415:188|345:172,1,119.999996337891,8|2,1:0|0:1,0:0:0:0:
363,176,254656,1,0,0:0:0:0:
363,176,254742,1,0,3:0:0:0:
318,296,254913,1,0,0:0:0:0:
421,270,255084,1,10,1:0:0:0:
273,212,255256,1,2,0:1:0:0:
394,350,255427,6,0,P|461:371|528:382,1,119.999996337891,4|0,3:1|0:0,0:0:0:0:
323,298,255770,1,8,1:0:0:0:
374,198,255942,2,0,P|307:219|134:270,1,239.999992675781,2|2,0:0|0:0,0:0:0:0:
21,231,256456,1,10,1:1:0:0:
108,140,256627,5,2,0:0:0:0:
108,140,256713,1,2,0:0:0:0:
108,140,256799,2,0,P|111:237|107:277,1,119.999996337891,0|2,3:0|0:0,0:0:0:0:
303,363,257142,2,0,P|300:303|304:243,1,119.999996337891,8|2,1:0|0:1,0:0:0:0:
264,229,257399,1,0,0:0:0:0:
284,192,257484,1,0,3:0:0:0:
377,116,257656,1,0,0:0:0:0:
231,62,257827,1,10,1:0:0:0:
326,3,257999,1,2,0:1:0:0:
355,32,258084,1,0,0:0:0:0:
320,55,258170,1,0,3:0:0:0:
153,183,258342,5,0,0:0:0:0:
35,107,258513,1,10,1:0:0:0:
144,6,258684,1,2,0:1:0:0:
115,35,258769,1,0,0:0:0:0:
150,58,258855,1,0,0:0:0:0:
252,109,259027,6,0,P|241:140|229:181,1,59.9999981689454,2|0,0:0|0:0,0:0:0:0:
166,195,259199,1,10,1:0:0:0:
301,328,259370,1,2,0:0:0:0:
301,328,259456,1,0,0:0:0:0:
301,328,259542,2,0,P|301:253|304:170,1,119.999996337891,4|2,3:2|0:0,0:0:0:0:
94,155,259884,6,0,P|95:214|95:274,1,119.999996337891,8|2,1:0|0:0,0:0:0:0:
56,293,260142,1,0,0:0:0:0:
80,326,260227,1,2,3:1:0:0:
282,214,260399,5,2,0:3:0:0:
313,187,260484,1,0,0:0:0:0:
289,152,260570,1,8,1:0:0:0:
306,113,260656,1,2,0:0:0:0:
272,87,260742,1,2,1:3:0:0:
291,50,260827,1,2,0:0:0:0:
272,11,260913,6,0,P|281:100|290:166,1,119.999996337891,4|0,3:1|0:0,0:0:0:0:
429,147,261256,2,0,P|438:236|447:302,1,119.999996337891,8|0,1:0|0:0,0:0:0:0:
311,256,261599,2,0,P|320:345|329:411,1,119.999996337891,0|2,3:0|0:0,0:0:0:0:
179,137,261942,2,0,P|188:226|197:292,1,119.999996337891,8|2,1:0|0:3,0:0:0:0:
161,285,262199,1,0,0:0:0:0:
196,306,262284,1,4,3:2:0:0:
6,263,262456,5,0,0:0:0:0:
40,238,262542,1,0,0:0:0:0:
17,202,262627,1,8,1:0:0:0:
98,133,262799,1,2,0:1:0:0:
23,59,262970,2,0,P|106:54|273:32,1,239.999992675781,0|10,3:0|1:0,0:0:0:0:
352,10,263484,1,2,0:1:0:0:
368,48,263570,1,0,0:0:0:0:
409,52,263656,1,0,0:0:0:0:
391,181,263827,5,2,0:0:0:0:
510,262,263999,1,8,1:0:0:0:
391,333,264170,1,2,0:0:0:0:
435,250,264342,2,0,P|428:180|425:111,1,119.999996337891,0|2,0:0|0:0,0:0:0:0:
191,134,264684,1,8,1:0:0:0:
263,222,264856,6,0,P|266:281|272:341,2,119.999996337891,2|4|0,0:0|3:2|0:0,0:0:0:0:
277,182,265284,1,0,1:0:0:0:
312,205,265370,1,8,1:0:0:0:
130,243,265542,1,2,1:1:0:0:
170,253,265627,1,0,1:0:0:0:
189,215,265713,1,0,0:0:0:0:
71,174,265884,1,0,1:0:0:0:
31,164,265969,1,0,1:0:0:0:
12,202,266055,1,10,1:0:0:0:
31,240,266142,1,0,1:0:0:0:
42,279,266227,1,2,0:1:0:0:
9,306,266313,1,2,1:2:0:0:
9,306,266399,6,0,P|23:227|27:178,1,119.999996337891,4|0,3:1|0:0,0:0:0:0:
55,183,266742,2,0,P|134:197|183:201,1,119.999996337891,8|2,1:0|0:0,0:0:0:0:
268,253,267084,2,0,P|282:174|286:125,1,119.999996337891,0|2,3:0|0:0,0:0:0:0:
376,71,267427,2,0,P|455:85|504:89,1,119.999996337891,10|2,1:1|0:0,0:0:0:0:
466,120,267684,1,0,0:0:0:0:
494,88,267770,6,0,P|480:167|476:216,1,119.999996337891,0|2,3:0|0:0,0:0:0:0:
448,211,268113,2,0,P|369:197|320:193,1,119.999996337891,8|2,1:0|0:1,0:0:0:0:
235,141,268455,2,0,P|221:220|217:269,1,119.999996337891,0|0,3:0|0:0,0:0:0:0:
127,323,268798,2,0,P|48:309|-1:305,1,119.999996337891,10|2,1:0|0:1,0:0:0:0:
51,231,269142,6,0,P|59:186|60:158,1,59.9999981689454,4|0,3:1|0:0,0:0:0:0:
93,152,269313,2,0,P|138:160|166:161,1,59.9999981689454,2|0,3:0|0:0,0:0:0:0:
235,203,269484,2,0,P|243:158|244:130,1,59.9999981689454,10|0,1:0|0:0,0:0:0:0:
309,62,269656,2,0,P|354:70|382:71,1,59.9999981689454,10|0,1:1|0:0,0:0:0:0:
499,188,269827,5,0,3:0:0:0:
457,192,269913,1,0,3:0:0:0:
424,218,269999,1,2,3:0:0:0:
411,257,270084,1,0,3:0:0:0:
402,298,270170,1,10,1:0:0:0:
379,333,270256,1,0,3:0:0:0:
339,346,270342,1,2,3:0:0:0:
298,335,270427,1,0,3:0:0:0:
258,349,270513,5,4,3:1:0:0:
215,286,270684,2,0,L|168:307,2,37.5000014305115,2|2|8,1:0|1:0|1:0,0:0:0:0:
271,238,271027,1,2,1:0:0:0:
251,165,271199,1,2,3:1:0:0:
250,157,271284,1,0,1:0:0:0:
249,149,271370,1,0,1:0:0:0:
248,141,271456,1,0,1:0:0:0:
247,133,271542,1,0,1:0:0:0:
290,39,271713,1,0,1:0:0:0:
167,28,271884,6,0,P|113:44|56:56,1,80,0|0,3:0|0:0,0:0:0:0:
137,113,272227,2,0,P|83:129|26:141,1,80,0|0,3:0|0:0,0:0:0:0:
107,198,272570,2,0,P|53:214|-4:226,1,80,0|0,3:0|0:0,0:0:0:0:
77,283,272913,2,0,P|23:299|-34:311,1,80,2|6,3:0|0:0,0:0:0:0:
0,304,273170,1,0,0:0:0:0:
0,304,273256,1,0,3:0:0:0:
121,360,273427,1,0,0:0:0:0:
167,262,273599,1,0,3:0:0:0:
167,262,273770,6,0,P|225:270|344:289,1,160,2|2,0:0|0:0,0:0:0:0:
401,224,274284,1,0,3:0:0:0:
464,307,274456,1,0,0:0:0:0:
345,356,274627,6,0,P|399:340|456:328,1,80,0|0,3:0|0:0,0:0:0:0:
375,271,274970,2,0,P|429:255|486:243,1,80,0|2,3:0|0:0,0:0:0:0:
405,186,275313,2,0,P|459:170|516:158,1,80,0|2,3:0|0:0,0:0:0:0:
435,101,275656,2,0,P|489:85|546:73,1,80,0|2,3:0|0:0,0:0:0:0:
512,80,275913,1,0,0:0:0:0:
512,80,275999,1,0,3:0:0:0:
391,24,276170,5,0,0:0:0:0:
345,122,276342,1,0,3:0:0:0:
419,152,276513,1,2,0:1:0:0:
406,78,276684,1,0,3:0:0:0:
286,176,276856,1,0,0:0:0:0:
432,227,277027,1,2,3:0:0:0:
376,155,277199,6,0,P|277:171|135:187,1,240,6|0,0:1|3:0,0:0:0:0:
33,140,277884,1,2,0:0:0:0:
33,140,277970,1,0,0:0:0:0:
33,140,278056,1,0,3:0:0:0:
87,250,278227,1,2,0:0:0:0:
118,111,278399,1,2,3:0:0:0:
3,217,278570,6,0,P|5:272|2:320,1,80,0|0,0:0|3:0,0:0:0:0:
187,329,278913,2,0,P|185:289|187:249,1,80,0|0,0:0|3:0,0:0:0:0:
218,239,279170,1,0,0:0:0:0:
241,261,279256,1,2,0:1:0:0:
314,343,279427,1,0,3:0:0:0:
409,284,279599,1,0,0:0:0:0:
477,265,279770,1,2,3:0:0:0:
421,314,279942,6,0,P|418:243|411:141,1,160,2|0,0:1|0:0,0:0:0:0:
489,74,280456,1,2,3:0:0:0:
367,52,280627,1,0,0:0:0:0:
367,52,280713,1,0,0:0:0:0:
367,52,280799,1,2,3:0:0:0:
332,122,280970,5,2,0:1:0:0:
145,65,281142,1,2,3:1:0:0:
252,40,281313,1,2,0:0:0:0:
228,149,281484,2,0,P|253:200|265:240,1,80,0|0,3:0|0:0,0:0:0:0:
59,310,281827,1,0,3:0:0:0:
129,340,281999,2,0,P|192:286|267:232,1,160,2|0,0:0|0:0,0:0:0:0:
310,293,282513,1,2,3:0:0:0:
500,182,282684,5,2,0:0:0:0:
474,201,282770,1,0,0:0:0:0:
500,219,282856,2,0,P|445:243|418:254,1,80,0|0,3:0|0:0,0:0:0:0:
343,174,283199,2,0,P|311:149|278:126,1,80,2|2,3:0|0:0,0:0:0:0:
125,192,283542,2,0,P|119:231|115:271,1,80,0|2,3:0|0:0,0:0:0:0:
141,290,283799,1,0,0:0:0:0:
115,308,283884,2,0,P|96:318|72:329,1,40,2|0,3:0|0:0,0:0:0:0:
23,264,284056,2,0,P|23:242|26:216,1,40,2|0,0:0|0:0,0:0:0:0:
134,103,284227,6,0,P|152:114|208:162,1,80,0|0,3:0|0:0,0:0:0:0:
302,178,284570,1,0,3:0:0:0:
351,302,284742,2,0,P|332:312|262:336,2,80,2|0|0,0:1|0:0|0:0,0:0:0:0:
100,263,285256,1,2,3:1:0:0:
171,327,285427,2,0,P|171:305|185:233,1,80,2|0,0:1|3:0,0:0:0:0:
309,184,285770,5,2,0:0:0:0:
337,168,285856,1,2,0:0:0:0:
316,142,285942,1,0,3:0:0:0:
217,13,286113,2,0,P|224:52|230:195,1,160,2|2,0:0|0:0,0:0:0:0:
141,202,286627,1,2,3:0:0:0:
271,296,286799,5,2,0:0:0:0:
289,321,286884,1,2,0:0:0:0:
273,349,286970,1,0,3:0:0:0:
99,324,287142,1,2,0:0:0:0:
83,296,287228,1,2,0:0:0:0:
101,271,287313,1,0,3:0:0:0:
185,99,287484,1,2,0:0:0:0:
203,124,287569,1,2,0:0:0:0:
187,152,287655,1,0,3:0:0:0:
169,177,287741,1,2,0:0:0:0:
185,205,287827,1,2,0:0:0:0:
253,265,287999,1,0,3:0:0:0:
59,357,288170,6,0,P|55:290|46:175,1,160,2|2,0:0|0:0,0:0:0:0:
12,129,288684,1,0,3:0:0:0:
147,34,288856,2,0,P|211:42|258:46,2,80,2|0|2,0:0|3:0|0:0,0:0:0:0:
254,117,289370,2,0,P|302:112|313:111,1,40,2|0,3:0|0:0,0:0:0:0:
356,68,289542,6,0,P|395:63|435:58,1,80,2|0,0:3|3:0,0:0:0:0:
508,182,289884,1,0,0:0:0:0:
365,232,290056,1,0,3:0:0:0:
413,144,290227,1,2,0:1:0:0:
413,144,290313,1,2,0:0:0:0:
413,144,290399,1,0,3:0:0:0:
485,279,290570,1,0,0:0:0:0:
327,312,290742,1,2,3:1:0:0:
335,222,290913,1,2,0:1:0:0:
400,355,291084,5,0,3:0:0:0:
466,222,291256,1,0,0:0:0:0:
400,260,291427,1,2,3:1:0:0:
375,139,291599,1,2,0:1:0:0:
340,205,291770,1,0,3:0:0:0:
269,119,291942,1,2,0:0:0:0:
150,158,292113,5,2,3:0:0:0:
185,295,292284,1,2,0:0:0:0:
31,270,292456,1,0,3:0:0:0:
74,203,292627,6,0,P|94:207|137:216,1,50,4|0,0:0|0:0,0:0:0:0:
41,123,292970,2,0,P|61:127|104:136,1,50,2|0,0:0|0:0,0:0:0:0:
4,31,293313,5,2,0:0:0:0:
25,40,293399,1,2,0:0:0:0:
57,44,293484,1,2,0:0:0:0:
101,42,293570,1,2,0:0:0:0:
146,30,293656,1,2,0:0:0:0:
196,18,293742,1,2,0:0:0:0:
259,1,293827,1,4,3:1:0:0:
256,192,293913,12,0,300684,0:0:0:0:
