osu file format v14

[General]
AudioFilename: ver!!.mp3
AudioLeadIn: 0
PreviewTime: 54638
Countdown: 1
SampleSet: Soft
StackLeniency: 0.7
Mode: 0
LetterboxInBreaks: 1
WidescreenStoryboard: 0

[Editor]
Bookmarks: 12805,23638,34305,44971,55471,70138,76805,87638,98305,108971,119471,140971,146305,156971,167471,178305,183638,188805,199471,210305
DistanceSpacing: 1
BeatDivisor: 4
GridSize: 4
TimelineZoom: 2.1

[Metadata]
Title:ver!!
TitleUnicode:ØωØver!!
Artist:Asterisk
ArtistUnicode:*(Asterisk)
Creator:rui
Version:Live
Source:
Tags:
BeatmapID:827989
BeatmapSetID:378283

[Difficulty]
HPDrainRate:7
CircleSize:4
OverallDifficulty:8
ApproachRate:9
SliderMultiplier:1.8
SliderTickRate:1

[Events]
//Background and Video events
0,0,"new_81zZkTC+yiL.jpg",0,0
//Break Periods
2,24005,25705
2,26672,28038
//Storyboard Layer 0 (Background)
//Storyboard Layer 1 (Fail)
//Storyboard Layer 2 (Pass)
//Storyboard Layer 3 (Foreground)
//Storyboard Sound Samples

[TimingPoints]
972,333.333333333333,4,2,1,50,1,0
2305,-100,4,2,1,60,0,0
2638,-83.3333333333333,4,2,1,60,0,0
2971,-100,4,2,1,60,0,0
3305,-83.3333333333333,4,2,1,60,0,0
3638,-100,4,2,1,60,0,0
3971,-83.3333333333333,4,2,1,60,0,0
4305,-100,4,2,1,60,0,0
4638,-83.3333333333333,4,2,1,60,0,0
4971,-100,4,2,1,60,0,0
5305,-83.3333333333333,4,2,1,60,0,0
5638,-100,4,2,1,60,0,0
5971,-83.3333333333333,4,2,1,60,0,0
6305,-100,4,2,1,60,0,0
6638,-83.3333333333333,4,2,1,60,0,0
6971,-100,4,2,1,60,0,0
7305,-83.3333333333333,4,2,1,60,0,0
7638,-100,4,2,1,60,0,0
7971,-83.3333333333333,4,2,1,60,0,0
8305,-100,4,2,1,60,0,0
8638,-83.3333333333333,4,2,1,60,0,0
8971,-100,4,2,1,60,0,0
9305,-83.3333333333333,4,2,1,60,0,0
9638,-100,4,2,1,60,0,0
9971,-83.3333333333333,4,2,1,60,0,0
10305,-100,4,2,1,60,0,0
10638,-83.3333333333333,4,2,1,60,0,0
10971,-100,4,2,1,60,0,0
11305,-83.3333333333333,4,2,1,60,0,0
11638,-100,4,2,1,60,0,0
12805,-100,4,2,30,70,0,0
12888,-100,4,2,2,70,0,0
15471,-100,4,2,30,70,0,0
15555,-100,4,2,2,70,0,0
18138,-100,4,2,30,70,0,0
18221,-100,4,2,2,70,0,0
23805,-100,4,2,30,70,0,0
28638,-133.333333333333,4,2,1,60,0,0
28971,-100,4,2,2,60,0,0
34305,-100,4,2,30,60,0,0
34388,-100,4,2,2,60,0,0
37138,-100,4,2,30,60,0,0
37305,-100,4,2,2,60,0,0
39638,-100,4,2,30,60,0,0
39721,-100,4,2,2,60,0,0
44971,-133.333333333333,4,2,2,50,0,0
50305,-133.333333333333,4,2,2,50,0,0
50388,-133.333333333333,4,2,1,50,0,0
52638,-100,4,2,1,60,0,0
54971,-66.6666666666667,4,2,1,60,0,0
55471,-83.3333333333333,4,2,30,80,0,1
55555,-83.3333333333333,4,2,2,70,0,1
58138,-83.3333333333333,4,2,30,80,0,1
58221,-83.3333333333333,4,2,2,70,0,1
60805,-83.3333333333333,4,2,30,80,0,1
60888,-83.3333333333333,4,2,2,70,0,1
63471,-66.6666666666667,4,2,2,70,0,1
63971,-83.3333333333333,4,2,2,70,0,1
66055,-83.3333333333333,4,2,30,80,0,0
66138,-83.3333333333333,4,2,30,80,0,1
66221,-83.3333333333333,4,2,2,70,0,1
68805,-83.3333333333333,4,2,30,80,0,1
68888,-83.3333333333333,4,2,2,70,0,1
71471,-83.3333333333333,4,2,30,80,0,1
71555,-83.3333333333333,4,2,2,70,0,1
76805,-83.3333333333333,4,2,30,80,0,0
76805,-83.3333333333333,4,2,30,90,0,0

[Colours]
Combo1 : 145,145,253
Combo2 : 255,125,125

[HitObjects]
120,48,805,6,0,L|76:60,1,45,0|0,1:0|1:0,0:0:0:0:
192,76,971,2,0,B|236:64|236:64|284:76|284:76|328:60,1,135,0|0,1:0|1:0,0:0:0:0:
428,48,1388,1,0,1:0:0:0:
504,124,1555,1,0,0:0:0:0:
492,148,1638,6,0,L|484:200,1,45,4|0,0:3|0:0,0:0:0:0:
400,168,1805,2,0,L|392:220,1,45,4|0,0:3|0:0,0:0:0:0:
301,143,1971,2,0,L|308:188,1,45,4|0,0:3|0:0,0:0:0:0:
209,123,2138,2,0,L|216:168,1,45,4|0,0:3|0:0,0:0:0:0:
124,88,2305,6,0,B|104:128|104:128|112:180|112:180|92:220,1,135,4|0,0:0|0:0,0:0:0:0:
24,232,2638,2,0,P|56:276|120:284,1,107.999996704102,8|8,0:0|0:0,0:0:0:0:
232,276,2971,2,0,P|304:264|380:280,1,135
424,324,3305,2,0,P|440:272|416:216,1,107.999996704102,8|0,0:0|0:0,0:0:0:0:
209,44,3638,6,0,B|252:59|283:75|283:75|304:60|332:44,1,135
408,80,3971,2,0,P|360:108|316:136,1,107.999996704102,8|8,0:0|0:0,0:0:0:0:
192,204,4305,1,0,0:0:0:0:
160,348,4471,1,0,0:0:0:0:
137,154,4638,1,8,0:0:0:0:
315,238,4805,1,0,0:0:0:0:
160,348,4971,6,0,B|106:332|69:327|69:327|36:290,1,135
120,256,5305,2,0,P|176:272|224:284,1,107.999996704102,8|8,0:0|0:0,0:0:0:0:
440,120,5638,2,0,P|384:156|312:144,1,135
238,112,5971,2,0,P|186:124|134:144,1,107.999996704102,8|0,0:0|0:0,0:0:0:0:
20,260,6305,5,0,0:0:0:0:
160,348,6471,1,0,0:0:0:0:
56,184,6638,1,8,0:0:0:0:
76,376,6805,1,8,0:0:0:0:
132,172,6971,2,0,P|152:128|164:76,1,90
394,214,7305,2,0,P|380:240|372:272,1,53.9999983520508,8|0,0:0|0:0,0:0:0:0:
276,256,7471,2,0,P|280:288|292:316,1,53.9999983520508,8|0,0:0|0:0,0:0:0:0:
185,345,7638,6,0,P|186:278|154:210,1,135
56,184,7971,2,0,P|105:204|158:216,1,107.999996704102,8|8,2:0|2:0,2:0:0:0:
346,108,8305,2,0,P|288:80|204:64,1,135,0|0,2:0|2:0,2:0:0:0:
116,36,8638,2,0,P|112:88|144:140,1,107.999996704102,8|0,2:0|2:0,2:0:0:0:
276,256,8971,6,0,B|348:280|348:280|376:264|412:256,1,135
428,172,9304,2,0,B|384:184|384:184|341:198,1,90,8|8,2:0|2:0,2:0:0:0:
158,216,9638,2,0,L|25:172,1,135
85,268,9971,2,0,L|197:304,1,107.999996704102,8|0,2:0|2:0,2:0:0:0:
371,273,10305,6,0,P|419:281|463:309,1,90,0|0,2:0|2:0,2:0:0:0:
164,128,10638,2,0,P|112:120|56:92,1,107.999996704102,8|8,2:0|2:0,2:0:0:0:
364,232,10971,2,0,P|412:200|473:189,1,90,0|0,2:0|2:0,2:0:0:0:
124,210,11305,2,0,P|84:240|24:260,1,107.999996704102,8|0,2:0|2:0,2:0:0:0:
348,192,11638,6,0,P|368:176|388:164,1,45,8|0,0:0|0:0,0:0:0:0:
180,256,11805,2,0,P|160:272|140:284,1,45
317,123,11971,2,0,P|319:98|323:75,1,45,8|0,0:0|0:0,0:0:0:0:
252,291,12138,2,0,P|251:316|246:339,1,45
248,96,12305,1,8,0:0:0:0:
424,196,12471,5,4,0:3:0:0:
408,240,12554,1,4,0:3:0:0:
368,264,12637,1,4,0:3:0:0:
324,264,12721,1,4,0:3:0:0:
288,236,12805,6,0,P|213:189|164:112,1,180,4|0,0:0|0:0,0:0:0:0:
76,56,13305,2,0,P|72:100|84:152,1,90,8|0,2:0|0:0,0:0:0:0:
217,212,13638,2,0,P|173:223|132:240,1,90
64,300,13971,1,8,0:0:0:0:
217,212,14138,2,0,P|308:208|384:268,1,180,0|8,0:0|0:0,0:0:0:0:
420,336,14638,1,0,0:0:0:0:
488,208,14805,5,8,0:0:0:0:
368,128,14971,1,0,0:0:0:0:
300,256,15138,1,8,0:0:0:0:
496,288,15305,1,0,0:0:0:0:
300,256,15471,6,0,B|248:272|248:272|180:256|180:256|124:272,1,180,4|0,0:0|0:0,0:0:0:0:
24,232,15971,1,8,0:0:0:0:
64,92,16138,1,0,0:0:0:0:
24,232,16305,2,0,B|76:216|76:216|144:232|144:232|200:216,1,180,0|8,0:0|0:0,0:0:0:0:
448,140,16805,6,0,P|408:168|376:196,1,90,8|0,0:0|0:0,0:0:0:0:
197,216,17138,2,0,P|240:228|283:244,1,90,8|0,0:0|0:0,0:0:0:0:
392,292,17471,1,8,0:0:0:0:
328,153,17638,1,0,0:0:0:0:
308,344,17805,1,8,0:0:0:0:
232,140,17971,1,0,0:0:0:0:
64,248,18138,6,4,P|112:256|164:272,1,90,4|0,0:0|0:0,0:0:0:0:
248,316,18471,1,0,0:0:0:0:
340,372,18638,2,4,P|378:348|410:316,1,90,8|0,0:0|0:0,0:0:0:0:
468,172,18971,1,8,0:0:0:0:
312,216,19138,1,0,0:0:0:0:
188,328,19305,1,8,0:0:0:0:
44,216,19471,6,0,B|24:172|24:172|28:104|28:104|0:48,2,180,8|8|8,0:0|0:0|0:0,0:0:0:0:
132,304,20305,5,8,0:0:0:0:
204,164,20471,1,0,0:0:0:0:
292,340,20638,1,8,0:0:0:0:
384,148,20805,1,0,0:0:0:0:
464,372,20971,5,2,1:0:0:0:
348,288,21138,1,2,1:1:0:0:
60,268,21471,5,2,1:0:0:0:
176,184,21638,1,2,1:0:0:0:
464,212,21971,5,2,1:0:0:0:
348,128,22138,1,2,1:0:0:0:
60,108,22471,5,2,1:0:0:0:
176,24,22638,1,2,1:1:0:0:
448,120,22971,6,0,P|428:144|416:160,1,45,4|0,3:0|0:0,0:0:0:0:
348,128,23138,2,0,P|342:158|340:178,1,45,4|0,3:0|0:0,0:0:0:0:
284,232,23305,2,0,P|268:190|258:147,1,90,4|0,3:0|0:0,0:0:0:0:
240,88,23638,5,0,1:0:0:0:
208,312,23805,1,4,1:2:0:0:
208,312,26305,5,0,1:0:0:0:
240,88,26472,1,4,1:2:0:0:
264,92,28638,6,0,L|192:108,1,67.5000025749208,0|0,1:0|0:0,0:0:0:0:
164,140,28971,5,0,1:0:0:0:
384,192,29138,1,0,1:0:0:0:
384,192,30138,5,0,1:0:0:0:
120,254,30305,1,0,1:0:0:0:
416,328,30471,1,0,1:0:0:0:
416,328,31138,6,4,L|432:268,1,45,4|4,3:0|3:0,3:0:0:0:
456,188,31305,1,4,3:0:0:0:
444,148,31388,1,4,3:0:0:0:
420,116,31471,1,4,3:0:0:0:
408,76,31555,1,4,3:0:0:0:
416,36,31638,6,0,L|324:48,1,90,0|0,1:0|0:0,0:0:0:0:
12,96,32138,1,4,3:0:0:0:
42,114,32221,1,4,3:0:0:0:
75,128,32304,1,4,3:0:0:0:
110,137,32387,1,4,3:0:0:0:
146,141,32471,1,4,3:0:0:0:
182,145,32554,1,4,3:0:0:0:
217,153,32637,1,4,3:0:0:0:
344,144,32805,6,0,B|400:132|452:112|452:112|422:146|408:180,1,180,4|0,0:0|0:0,0:0:0:0:
344,292,33305,5,8,0:0:0:0:
204,264,33471,1,0,0:0:0:0:
344,172,33638,1,8,0:0:0:0:
356,368,33805,1,0,0:0:0:0:
176,336,33971,2,2,P|152:320|136:304,1,45
136,220,34138,2,0,P|152:204|171:192,1,45,2|0,0:0|0:0,0:0:0:0:
255,159,34305,6,0,P|299:159|343:171,1,90,4|0,0:0|0:0,0:0:0:0:
484,60,34638,2,0,P|445:82|401:93,1,90,8|0,0:0|0:0,0:0:0:0:
276,68,34971,1,0,0:0:0:0:
343,171,35138,1,0,0:0:0:0:
172,108,35305,2,0,P|124:112|76:128,1,90,8|0,0:0|0:0,0:0:0:0:
28,256,35638,2,0,P|76:252|124:236,1,90
220,192,35971,5,8,0:0:0:0:
276,324,36138,1,0,0:0:0:0:
105,338,36305,2,0,P|131:301|147:260,1,90
320,168,36638,2,0,P|259:105|172:108,1,180,8|0,0:0|0:0,0:0:0:0:
76,160,37138,5,4,0:0:0:0:
220,192,37305,2,0,P|240:232|284:264,1,90,8|0,0:0|0:0,0:0:0:0:
416,148,37638,2,0,P|348:84|268:92,1,180,0|8,0:0|0:0,0:0:0:0:
144,239,38138,2,0,P|132:196|136:152,1,90
232,44,38471,5,0,0:0:0:0:
360,116,38638,1,8,0:0:0:0:
232,184,38805,1,0,0:0:0:0:
336,29,38971,2,0,P|344:76|360:120,1,90
128,278,39305,2,0,P|140:236|136:164,1,90,8|0,0:0|0:0,0:0:0:0:
116,48,39638,6,0,B|184:60|220:84|220:84|256:68|312:60,1,180,4|8,0:0|0:0,0:0:0:0:
392,40,40138,1,0,0:0:0:0:
272,152,40305,2,0,P|230:164|176:184,1,90
376,280,40638,2,0,P|418:264|461:252,1,90,8|0,0:0|0:0,0:0:0:0:
376,120,40971,1,0,0:0:0:0:
272,152,41138,1,0,0:0:0:0:
184,216,41305,2,0,P|140:198|88:192,1,90,8|0,0:0|0:0,0:0:0:0:
220,62,41638,2,0,P|308:61|375:119,1,180,0|8,0:0|0:0,0:0:0:0:
420,256,42138,1,0,0:0:0:0:
272,152,42305,6,0,P|176:148|124:32,1,225,8|0,0:0|0:0,0:0:0:0:
102,227,42805,2,0,P|153:145|279:158,1,225,8|0,0:0|0:0,0:0:0:0:
122,42,43305,2,0,P|166:127|92:230,1,225,8|0,0:0|0:0,0:0:0:0:
32,268,43805,5,0,1:0:0:0:
116,332,43971,1,0,1:0:0:0:
220,296,44138,1,8,0:0:0:0:
328,304,44305,1,8,0:0:0:0:
432,324,44471,1,0,0:0:0:0:
500,176,44638,2,0,P|456:181|400:196,1,90,8|0,0:0|0:0,0:0:0:0:
324,216,44971,6,0,L|248:204,1,67.5000025749208,4|0,0:0|0:0,0:0:0:0:
148,192,45305,2,0,L|116:204,3,22.5000008583069,2|2|2|2,0:0|0:0|0:0|0:0,0:0:0:0:
312,92,45805,1,2,0:0:0:0:
312,92,46138,1,2,0:0:0:0:
268,160,46305,1,2,0:0:0:0:
224,228,46471,1,0,0:0:0:0:
180,292,46638,1,2,0:0:0:0:
144,220,46805,1,0,0:0:0:0:
224,228,46971,1,2,0:0:0:0:
304,236,47138,2,0,L|340:240,3,22.5000008583069,2|2|2|2,0:0|0:0|0:0|0:0,0:0:0:0:
192,152,47471,1,0,0:0:0:0:
112,144,47638,6,0,L|44:136,1,67.5000025749208,2|0,0:0|0:0,0:0:0:0:
24,60,47971,2,0,L|-12:56,3,22.5000008583069,2|0|2|0,0:0|0:0|0:0|0:0,0:0:0:0:
100,68,48305,1,0,0:0:0:0:
192,152,48471,1,2,0:0:0:0:
192,152,48805,1,0,0:0:0:0:
272,132,48971,1,2,0:0:0:0:
352,144,49138,1,0,0:0:0:0:
372,152,49221,1,0,0:0:0:0:
392,160,49305,6,0,L|464:184,1,67.5000025749208,2|0,0:0|0:0,0:0:0:0:
496,112,49638,1,0,0:0:0:0:
472,264,49805,2,0,L|480:296,3,22.5000008583069,2|2|2|2,0:0|0:0|0:0|0:0,0:0:0:0:
396,216,50138,1,0,0:0:0:0:
320,252,50305,6,0,P|252:256|188:280,1,135.000005149842,6|0,0:0|0:0,0:0:0:0:
278,378,50805,2,0,P|308:317|319:249,1,135.000005149842,2|0,0:0|0:0,0:0:0:0:
189,278,51305,2,0,P|226:334|278:378,1,135.000005149842,2|0,0:0|0:0,0:0:0:0:
319,251,51805,1,2,0:0:0:0:
319,251,51888,1,0,0:0:0:0:
319,251,51971,1,2,0:0:0:0:
460,192,52138,1,0,0:0:0:0:
360,148,52305,1,2,0:0:0:0:
284,324,52471,1,0,0:0:0:0:
284,176,52638,2,0,P|284:128|308:80,1,90,8|0,0:0|0:0,0:0:0:0:
452,52,52971,5,2,0:0:0:0:
452,96,53054,1,0,0:0:0:0:
435,137,53137,1,0,0:0:0:0:
408,172,53221,1,0,0:0:0:0:
372,200,53305,1,2,0:0:0:0:
328,212,53388,1,0,0:0:0:0:
280,212,53471,1,0,0:0:0:0:
236,196,53554,1,0,0:0:0:0:
200,168,53638,6,0,P|180:152|152:120,1,45,2|0,0:0|0:0,0:0:0:0:
19,80,53805,2,0,P|42:80|64:84,1,45
224,47,53971,2,0,P|204:59|184:69,1,45,2|0,0:0|0:0,0:0:0:0:
75,188,54138,2,0,P|85:167|95:147,1,45
111,0,54305,6,0,P|117:21|120:44,1,45,2|0,0:0|0:0,0:0:0:0:
76,188,54471,2,0,P|116:200|168:220,1,90,8|0,0:0|0:0,0:0:0:0:
350,292,54805,1,8,0:0:0:0:
350,292,54971,6,0,P|386:235|420:176,1,135.000005149842
420,176,55471,6,0,P|372:156|312:116,1,107.999996704102,4|0,0:0|0:0,0:0:0:0:
248,48,55805,1,4,0:3:0:0:
57,56,55971,2,0,P|144:116|160:228,1,215.999993408203,8|4,0:0|0:3,0:0:0:0:
120,368,56471,1,0,0:3:0:0:
0,320,56638,1,8,0:0:0:0:
162,219,56805,6,0,P|188:112|276:52,1,215.999993408203,4|4,0:3|0:3,0:0:0:0:
393,206,57305,2,0,P|341:191|288:184,1,107.999996704102,8|0,0:0|0:0,0:0:0:0:
160,172,57638,1,4,0:3:0:0:
20,216,57805,1,4,0:3:0:0:
56,56,57971,1,8,0:0:0:0:
195,272,58138,2,0,P|255:187|224:88,1,215.999993408203,4|4,0:0|0:3,0:0:0:0:
38,193,58638,2,0,P|88:180|144:172,1,107.999996704102,8|0,0:0|0:0,0:0:0:0:
272,180,58971,5,4,0:3:0:0:
392,232,59138,1,4,0:3:0:0:
196,272,59305,1,8,1:2:0:0:
432,312,59471,2,0,B|468:296|484:252|484:252|456:116,1,215.999993408203,4|4,0:0|0:3,0:0:0:0:
356,40,59971,2,0,P|336:84|328:152,1,107.999996704102,8|0,0:0|0:0,0:0:0:0:
216,248,60305,1,4,0:3:0:0:
120,96,60471,1,4,0:3:0:0:
327,142,60638,1,8,0:0:0:0:
136,304,60805,6,0,P|236:332|312:256,1,215.999993408203,4|4,0:0|0:3,0:0:0:0:
368,56,61305,2,0,P|400:104|440:144,1,107.999996704102,8|0,0:0|0:0,0:0:0:0:
508,248,61638,1,4,0:3:0:0:
368,188,61805,1,4,0:3:0:0:
300,348,61971,1,8,0:0:0:0:
208,160,62138,6,0,P|120:156|36:248,1,215.999993408203,4|4,0:3|0:3,0:0:0:0:
254,324,62638,2,0,P|209:294|160:272,1,107.999996704102,8|0,0:0|0:0,0:0:0:0:
380,356,62971,1,4,0:3:0:0:
344,232,63138,1,4,0:3:0:0:
344,104,63305,1,8,0:0:0:0:
452,252,63471,6,0,L|248:220,1,202.500007724762,4|0,0:3|0:0,0:0:0:0:
144,204,63805,5,4,0:3:0:0:
344,104,63971,2,0,P|396:88|464:56,1,107.999996704102,8|0,0:0|0:0,0:0:0:0:
452,252,64305,1,4,0:3:0:0:
284,292,64471,2,0,P|232:308|164:340,1,107.999996704102,4|8,0:3|0:0,0:0:0:0:
36,132,64805,2,0,P|108:156|200:168,1,161.999995056153,4|0,0:3|0:0,0:0:0:0:
244,264,65138,6,0,P|268:250|294:228,1,53.9999983520508,2|0,0:0|0:0,0:0:0:0:
396,232,65305,2,0,P|400:203|400:169,1,53.9999983520508,2|0,0:0|0:0,0:0:0:0:
484,108,65471,2,0,P|462:89|432:72,1,53.9999983520508,2|0,0:0|0:0,0:0:0:0:
344,24,65638,5,0,0:0:0:0:
290,27,65721,1,0,0:0:0:0:
244,52,65805,1,8,0:0:0:0:
212,94,65888,1,0,0:0:0:0:
202,148,65971,1,8,0:0:0:0:
221,201,66055,1,0,0:0:0:0:
260,238,66138,6,0,P|352:285|464:277,1,215.999993408203,4|4,0:0|0:3,0:0:0:0:
492,120,66638,2,0,P|436:116|372:132,1,107.999996704102,8|0,0:0|0:0,0:0:0:0:
268,184,66971,1,0,0:0:0:0:
164,108,67138,1,4,0:3:0:0:
284,56,67305,1,8,0:0:0:0:
360,236,67471,6,0,P|276:276|164:224,1,215.999993408203,4|4,0:3|0:3,0:0:0:0:
48,152,67971,2,0,P|76:116|112:36,1,107.999996704102,8|0,0:0|0:0,0:0:0:0:
228,24,68305,1,4,0:3:0:0:
348,92,68471,1,4,0:3:0:0:
148,156,68638,1,8,0:0:0:0:
376,16,68805,2,0,P|432:88|364:176,1,215.999993408203,4|0,0:0|0:0,0:0:0:0:
236,168,69305,1,8,0:0:0:0:
124,100,69471,1,4,0:0:0:0:
148,256,69638,6,0,P|196:284|260:296,1,107.999996704102,0|4,0:0|0:3,0:0:0:0:
372,264,69971,1,8,0:0:0:0:
504,96,70138,2,0,P|408:40|300:40,1,215.999993408203,4|4,0:0|0:3,0:0:0:0:
176,44,70638,5,4,0:3:0:0:
312,148,70805,1,4,0:0:0:0:
80,80,70971,1,8,0:0:0:0:
244,196,71138,2,0,L|294:235,1,53.9999983520508,8|0,0:0|0:0,0:0:0:0:
176,320,71305,2,0,L|215:370,1,53.9999983520508,8|8,0:3|0:3,0:0:0:0:
139,215,71471,6,4,B|96:138|108:80|108:80|176:44,1,215.999993408203,4|4,0:0|0:3,0:3:0:0:
332,56,71971,2,0,P|288:88|244:124,1,107.999996704102,8|0,0:0|0:0,0:0:0:0:
144,204,72305,1,4,0:3:0:0:
84,320,72471,1,4,0:3:0:0:
200,376,72638,1,8,0:0:0:0:
260,260,72805,2,0,P|336:224|416:204,1,161.999995056153,4|0,0:3|0:0,0:0:0:0:
488,192,73138,5,4,0:3:0:0:
348,132,73305,1,8,0:0:0:0:
224,44,73471,2,0,P|172:36|108:16,1,107.999996704102,0|4,0:0|0:3,0:0:0:0:
20,88,73805,5,4,0:3:0:0:
120,168,73971,1,8,0:0:0:0:
188,280,74138,2,0,P|280:288|344:232,1,161.999995056153,4|0,0:0|0:0,0:0:0:0:
244,188,74471,5,0,0:0:0:0:
344,108,74637,1,8,0:0:0:0:
448,32,74804,2,0,P|468:88|472:140,1,107.999996704102,0|8,0:0|0:0,0:0:0:0:
408,272,75138,5,0,0:0:0:0:
200,332,75305,1,0,0:0:0:0:
0,184,75471,6,0,L|36:26,1,161.999995056153,0|0,1:0|0:0,0:0:0:0:
140,124,75805,2,0,L|103:281,1,161.999995056153,4|0,1:0|0:0,0:0:0:0:
200,332,76138,2,0,L|212:280,1,53.9999983520508
232,172,76305,5,4,0:3:0:0:
268,132,76388,1,4,0:3:0:0:
272,76,76472,1,4,0:3:0:0:
238,32,76555,1,4,0:3:0:0:
184,20,76639,1,4,0:3:0:0:
152,64,76722,1,4,0:3:0:0:
168,116,76805,1,4,0:0:0:0:
256,192,76971,12,0,78305,0:0:0:0:
