osu file format v14

[General]
AudioFilename: audio.mp3
AudioLeadIn: 0
PreviewTime: -1
Countdown: 0
SampleSet: Normal
StackLeniency: 0.7
Mode: 0
LetterboxInBreaks: 0
WidescreenStoryboard: 0

[Editor]
Bookmarks: 200463
DistanceSpacing: 1.5
BeatDivisor: 4
GridSize: 4
TimelineZoom: 1.7

[Metadata]
Title:Sentence cord
TitleUnicode:Sentence cord
Artist:Asterisk
ArtistUnicode:Asterisk
Creator:Dassssho
Version:Code Zero
Source:Asterisk works 3
Tags:Asterisk
BeatmapID:1531372
BeatmapSetID:725271

[Difficulty]
HPDrainRate:5
CircleSize:4
OverallDifficulty:7.7
ApproachRate:9.5
SliderMultiplier:1.7
SliderTickRate:1

[Events]
//Background and Video events
0,0,"AST3JK.jpg",0,0
//Break Periods
2,10634,16092
2,165006,180320
//Storyboard Layer 0 (Background)
//Storyboard Layer 1 (Fail)
//Storyboard Layer 2 (Pass)
//Storyboard Layer 3 (Foreground)
//Storyboard Layer 4 (Overlay)
//Storyboard Sound Samples

[TimingPoints]
8463.59297798912,342.857142857143,4,1,2,50,1,0
16606,-100,4,1,2,50,0,0
22006,-100,4,2,1,30,0,0
24235,-133.333333333333,4,2,1,30,0,0
43863,-100,4,2,1,100,0,0
50806,-50,4,2,1,100,0,0
51492,-66.6666666666667,4,2,1,100,0,0
52435,-100,4,2,1,100,0,0
56377,-200,4,2,1,100,0,0
59892,-66.6666666666667,4,2,1,100,0,0
61661,-133.333333333333,4,2,1,100,0,0
66577,-100,4,2,1,100,0,0
82177,-200,4,2,1,100,0,0
87920,-100,4,1,2,70,0,0
98806,-66.6666666666667,4,1,2,100,0,1
107206,-133.333333333333,4,1,2,100,0,1
109263,-66.6666666666667,4,1,2,100,0,1
118091,-200,4,1,2,50,0,0
120234,-200,4,1,2,20,0,0
120406,-200,4,1,2,40,0,0
120576,-200,4,1,2,80,0,0
120830,-66.6666666666667,4,1,2,100,0,1
121262,-66.6666666666667,4,2,5,50,0,1
121520,-66.6666666666667,4,1,2,100,0,1
132577,-200,4,1,2,100,0,0
133263,-66.6666666666667,4,1,2,100,0,1
137376,-66.6666666666667,4,1,2,100,0,0
142863,-66.6666666666667,4,2,0,100,0,1
159231,-100,4,1,2,100,0,1
164807,-100,4,1,2,100,0,0
180920,-133.333333333333,4,1,2,100,0,0
186749,-100,4,1,2,50,0,0
197635,-66.6666666666667,4,1,2,100,0,1
201319,-50,4,1,2,100,0,1
201491,-40,4,1,2,100,0,1
201662,-33.3333333333333,4,1,2,100,0,1
201835,-50,4,1,2,100,0,1
203806,-50,4,1,2,100,0,1
205863,-66.6666666666667,4,1,2,100,0,1
206805,-50,4,1,2,100,0,1
206976,-40,4,1,2,100,0,1
207147,-33.3333333333333,4,1,2,100,0,1
208692,34.2857142857143,4,1,2,100,1,1
209035,342.857142857143,4,1,2,100,1,1
210062,-33.3333333333333,4,1,2,100,0,1
210406,-66.6666666666667,4,1,2,100,0,1
211435,-50,4,1,2,100,0,1
214176,-66.6666666666667,4,1,2,100,0,1
215548,-40,4,1,2,100,0,1
216061,-33.3333333333333,4,1,2,100,0,1
216919,-133.333333333333,4,1,2,100,0,0
220005,-33.3333333333333,4,1,2,100,0,1
221376,-50,4,1,2,100,0,1
222062,-33.3333333333333,4,1,2,100,0,1
222320,-66.6666666666667,4,1,2,100,0,1
226519,-25,4,1,2,100,0,1
227205,-66.6666666666667,4,1,2,100,0,1
230634,-33.3333333333333,4,1,2,100,0,1
231319,-66.6666666666667,4,1,2,100,0,1
241606,-66.6666666666667,4,1,2,100,0,0
257977,-50,4,1,2,100,0,0
271091,-200,4,1,2,100,0,0
285149,-250,4,1,2,100,0,1

[HitObjects]
256,192,8120,5,0,0:0:0:0:
104,200,8463,2,0,B|104:72|104:72|160:96,1,170,0|0,0:3|0:3,0:3:0:0:
369,295,8977,2,0,B|408:312|408:312|408:184,1,170,0|0,0:3|0:3,0:3:0:0:
408,108,9492,2,0,P|384:68|336:116,1,127.5
336,116,9835,2,0,B|240:120|224:152|224:164,1,127.5
220,168,10177,2,0,B|152:168|108:184|96:192,1,127.5
152,232,16692,6,0,B|184:140|236:132|236:132|264:184,1,170,4|8,0:0|0:0,0:0:0:0:
332,296,17377,1,0,0:0:0:0:
376,248,17549,2,0,L|288:248,1,85,4|8,0:0|0:0,0:0:0:0:
256,252,17892,2,14,B|256:184|256:140|256:196|256:240|252:188|256:144|252:196|260:196|252:192|256:148|256:188|256:248|252:184|256:136|260:188|256:252|256:184|256:132|256:132|260:192|256:256|256:256|256:68,1,425,0|0,0:0|0:0,0:0:0:0:
400,80,19092,5,0,0:0:0:0:
404,84,19435,2,0,P|404:184|340:244,1,170,4|8,0:0|0:0,0:0:0:0:
360,233,19949,2,0,P|410:166|404:84,1,170,0|4,0:0|0:0,0:0:0:0:
403,83,20463,2,0,P|356:52|296:100,1,127.5,8|0,0:0|0:0,0:0:0:0:
300,164,20806,2,0,P|351:196|402:164,1,127.5,6|0,0:3|0:3,0:3:0:0:
404,128,21149,2,0,B|312:128|312:128|292:176,1,127.5
256,192,22177,5,0,0:0:0:0:
388,104,22863,1,0,0:0:0:0:
388,104,23206,1,0,0:0:0:0:
300,108,23549,1,0,0:0:0:0:
116,184,24577,1,0,0:0:0:0:
116,184,24749,1,0,0:0:0:0:
116,184,24920,2,0,P|120:136|160:120,1,85
368,80,26120,2,0,B|400:104|388:136|384:136,2,63.7500024318696
212,72,26806,1,0,0:0:0:0:
256,192,27149,5,0,0:0:0:0:
256,192,27320,1,0,0:0:0:0:
256,192,27492,1,0,0:0:0:0:
384,264,27835,2,0,P|256:328|104:256,1,318.750012159348
256,192,29720,5,0,0:0:0:0:
98,72,30063,2,0,B|146:208|146:208|278:188,1,255.000009727478
256,192,33149,5,2,0:0:0:0:
128,88,33835,1,0,0:0:0:0:
256,88,34177,1,0,0:0:0:0:
392,88,34520,2,2,B|392:192|392:192|252:192|252:192|252:228,1,255.000009727478,2|0,0:0|0:0,0:0:0:0:
256,336,35549,1,0,0:0:0:0:
256,336,35720,1,0,0:0:0:0:
256,336,35892,2,0,B|104:336|104:336|104:228,1,255.000009727478
92,76,37263,5,0,0:0:0:0:
92,76,37435,1,0,0:0:0:0:
256,68,37777,1,0,0:0:0:0:
416,88,38292,1,0,0:0:0:0:
416,88,38463,1,0,0:0:0:0:
256,104,38977,2,0,B|224:192|248:312|248:312|196:268,1,255.000009727478
260,308,40692,5,0,0:0:0:0:
176,228,40863,1,0,0:0:0:0:
256,144,41035,2,0,L|352:232,1,127.500004863739,8|2,0:0|0:0,0:0:0:0:
352,232,42749,1,0,0:0:0:0:
100,88,44120,5,0,0:0:0:0:
100,88,44463,1,0,0:0:0:0:
100,88,44806,2,0,P|184:80|232:148,1,170
132,176,45492,2,0,B|140:236|168:296|244:344|324:340|400:292,1,340
389,298,46349,1,0,0:0:0:0:
256,192,47206,5,0,0:0:0:0:
256,192,47549,1,0,0:0:0:0:
256,192,47892,1,0,0:0:0:0:
256,192,48235,1,0,0:0:0:0:
388,96,48577,5,0,0:0:0:0:
388,96,48749,1,0,0:0:0:0:
100,312,49263,5,0,0:0:0:0:
100,312,49435,1,0,0:0:0:0:
96,72,49949,1,0,0:0:0:0:
256,192,50292,2,0,B|224:232|224:232|260:248,2,85
120,304,50977,2,0,B|72:288|72:288|96:364|96:364|140:264|140:264|168:344|168:344|124:308|124:308|128:308,1,340,4|0,0:0|0:0,0:0:0:0:
364,312,51663,2,0,B|381:300|381:300|324:332|324:332|348:256|348:256|400:348|400:348|424:276|424:276|385:296,1,382.500014591218,4|0,0:0|0:0,0:0:0:0:
256,192,52692,2,4,B|232:176|232:176|232:216|232:216|276:176|276:176|276:216|276:216|232:216|232:216|232:176|232:176|276:176|276:176|276:216|276:216|248:192,1,340,4|0,0:0|0:0,0:0:0:0:
256,192,53720,1,4,0:0:0:0:
252,192,55092,5,0,0:0:0:0:
124,80,55435,5,0,0:0:0:0:
252,192,55777,5,0,0:0:0:0:
124,80,56120,5,0,0:0:0:0:
176,64,56292,5,0,0:0:0:0:
232,84,56463,6,0,B|168:60|168:60|120:80|120:80|128:88,1,127.5
124,80,57320,1,0,0:0:0:0:
256,160,57835,5,0,0:0:0:0:
224,216,58177,1,0,0:0:0:0:
288,216,58520,1,0,0:0:0:0:
256,192,58863,1,0,0:0:0:0:
80,264,59206,5,0,0:0:0:0:
148,352,59377,1,0,0:0:0:0:
248,296,59549,1,0,0:0:0:0:
176,196,59720,1,0,0:0:0:0:
160,272,60063,2,0,B|160:248|160:248|196:252|196:252|196:280|196:280|160:304|160:304|124:284|124:284|124:252|124:252|176:248|176:248,1,255.000009727478
388,320,60920,5,0,0:0:0:0:
380,232,61263,1,0,0:0:0:0:
340,172,61435,1,0,0:0:0:0:
284,128,61606,1,0,0:0:0:0:
228,96,61949,2,0,L|288:132,3,63.7500024318696
284,128,62635,2,0,L|216:88,3,63.7500024318696
256,192,63663,12,0,64692,0:0:0:0:
76,104,66063,5,4,0:0:0:0:
84,248,66749,1,0,0:0:0:0:
140,304,66920,1,0,0:0:0:0:
248,340,67263,2,0,B|344:332|400:288|400:168,1,255
252,192,68463,5,0,0:0:0:0:
252,192,68806,2,0,B|264:140|372:140|392:200,1,170
390,195,69320,2,0,B|378:245|270:245|252:190,1,170
256,168,69835,1,0,0:0:0:0:
256,88,70092,1,0,0:0:0:0:
248,84,70177,2,0,B|152:88|156:160|164:176,1,127.5
236,184,70520,2,0,B|329:187|325:259|321:256,1,127.5
232,268,70863,2,0,B|138:271|142:343|240:348,1,170
256,336,71377,5,0,0:0:0:0:
336,332,71549,1,0,0:0:0:0:
24,192,72063,1,0,0:0:0:0:
440,48,72577,2,0,B|404:84|404:84|480:84|480:84|440:40,2,170
440,52,74120,1,0,0:0:0:0:
440,52,74292,1,0,0:0:0:0:
440,52,74806,1,0,0:0:0:0:
440,52,75320,2,0,B|380:152|284:212|168:268,1,340
56,48,77035,5,4,0:0:0:0:
128,160,77720,1,0,0:0:0:0:
220,160,77892,1,0,0:0:0:0:
312,160,78235,2,0,B|272:260|152:260|120:152,1,255
256,192,79435,5,0,0:0:0:0:
344,192,79777,1,0,0:0:0:0:
172,192,80120,1,0,0:0:0:0:
172,192,80292,1,0,0:0:0:0:
256,112,80806,1,0,0:0:0:0:
200,192,81063,1,0,0:0:0:0:
208,208,81149,1,0,0:0:0:0:
308,228,81406,1,0,0:0:0:0:
304,248,81492,1,0,0:0:0:0:
220,296,81749,1,0,0:0:0:0:
232,312,81835,1,0,0:0:0:0:
256,376,82177,5,0,0:0:0:0:
256,376,82520,2,0,P|304:360|364:252,1,170,4|0,0:0|0:0,0:0:0:0:
364,268,83377,1,0,0:0:0:0:
364,268,83720,2,0,P|256:244|256:154,1,212.5,4|0,0:0|0:0,0:0:0:0:
253,158,84749,1,0,0:0:0:0:
253,158,85092,2,0,P|155:169|142:267,1,212.5,4|0,0:0|0:0,0:0:0:0:
148,272,86120,1,0,0:0:0:0:
256,192,86635,12,0,87663,0:0:0:0:
100,104,88006,5,4,0:0:0:0:
128,284,88349,1,4,0:0:0:0:
408,96,88692,1,4,0:0:0:0:
328,300,89035,1,4,0:0:0:0:
204,96,89377,1,4,0:0:0:0:
424,224,89720,1,4,0:0:0:0:
168,312,90063,1,4,0:0:0:0:
104,100,90406,1,4,0:0:0:0:
256,328,90749,5,4,0:0:0:0:
236,56,91092,1,4,0:0:0:0:
128,324,91435,1,4,0:0:0:0:
340,56,91777,1,4,0:0:0:0:
344,324,92120,1,4,0:0:0:0:
96,192,92463,1,4,0:0:0:0:
436,192,92806,1,4,0:0:0:0:
256,192,93149,1,4,0:0:0:0:
172,32,93492,6,4,P|136:72|196:116,2,127.5,6|4|4,0:0|0:0|0:0,0:0:0:0:
336,92,94177,2,4,P|377:133|341:179,2,127.5,6|4|4,0:0|0:0|0:0,0:0:0:0:
180,172,94863,2,6,P|144:212|204:256,2,127.5,6|6|6,0:0|0:0|0:0,0:0:0:0:
332,248,95549,2,4,P|373:289|337:335,2,127.5,6|4|4,0:0|0:0|0:0,0:0:0:0:
252,320,96235,5,10,0:0:0:0:
132,200,96406,1,4,0:0:0:0:
132,200,96492,1,4,0:0:0:0:
132,200,96577,1,4,0:0:0:0:
256,64,96749,1,10,0:0:0:0:
360,196,96920,1,4,0:0:0:0:
360,196,97006,1,4,0:0:0:0:
360,192,97092,1,4,0:0:0:0:
256,192,97263,5,10,0:0:0:0:
116,192,97435,1,4,0:0:0:0:
364,104,97606,1,4,0:0:0:0:
216,324,97777,1,4,0:0:0:0:
188,60,97949,1,4,0:0:0:0:
348,268,98120,1,4,0:0:0:0:
84,268,98292,1,4,0:0:0:0:
120,244,98377,1,4,0:0:0:0:
148,212,98463,1,4,0:0:0:0:
148,168,98549,1,4,0:0:0:0:
148,124,98635,1,8,0:0:0:0:
400,68,98977,6,0,B|352:68|352:68|380:84|380:84|360:96|360:96|372:104|372:104|360:116|360:116|368:124|368:124|360:132|360:132|368:140|368:140|364:152|364:152|364:232,1,255.000009727478,4|8,0:0|0:0,0:0:0:0:
140,320,99663,1,0,0:0:0:0:
140,316,99835,1,4,0:0:0:0:
336,236,100006,1,8,0:0:0:0:
336,236,100177,1,0,0:0:0:0:
120,84,100349,1,4,0:0:0:0:
120,84,100435,1,0,0:0:0:0:
120,84,100520,1,0,0:0:0:0:
256,72,100692,2,0,B|280:136|280:136|232:172,1,127.500004863739,8|0,0:0|0:0,0:0:0:0:
180,72,101035,5,0,0:0:0:0:
128,280,101206,1,4,0:0:0:0:
340,204,101377,1,8,0:0:0:0:
340,204,101463,1,0,0:0:0:0:
340,204,101549,1,0,0:0:0:0:
96,26,101720,6,2,B|144:26|144:26|116:42|116:42|136:54|136:54|124:62|124:62|136:74|136:74|128:82|128:82|136:90|136:90|128:98|128:98|132:110|132:110|132:183,1,255.000009727478,6|8,0:0|0:0,0:0:0:0:
320,136,102406,2,2,L|324:168,3,21.2500008106232,2|2|2|2,0:0|0:0|0:0|0:0,0:0:0:0:
184,184,102577,2,2,L|181:205,3,21.2500008106232,6|2|2|2,0:0|0:0|0:0|0:0,0:0:0:0:
324,268,102749,2,2,L|326:289,3,21.2500008106232,10|2|2|2,0:0|0:0|0:0|0:0,0:0:0:0:
180,316,102920,2,2,L|177:337,3,21.2500008106232
256,308,103092,5,4,0:0:0:0:
256,308,103263,1,0,0:0:0:0:
104,192,103435,1,8,0:0:0:0:
400,192,103606,1,0,0:0:0:0:
256,192,103777,1,0,0:0:0:0:
256,48,103949,1,4,0:0:0:0:
268,60,104035,1,0,0:0:0:0:
256,72,104120,1,8,0:0:0:0:
256,308,104292,1,0,0:0:0:0:
412,220,104463,6,6,B|412:172|412:172|395:200|395:200|384:180|384:180|376:192|376:192|363:180|363:180|356:188|356:188|348:180|348:180|340:187|340:187|328:184|328:184|255:184,1,255.000009727478,6|8,0:0|0:0,0:0:0:0:
143,344,105149,2,4,P|174:310|159:267,1,95.6250036478044,0|0,0:0|0:0,0:0:0:0:
159,267,105320,2,0,P|127:227|167:179,1,95.6250036478044,4|0,0:0|0:0,0:0:0:0:
168,184,105492,2,0,P|200:144|160:96,1,95.6250036478044,8|0,0:0|0:0,0:0:0:0:
152,108,105663,2,0,P|120:68|160:20,1,95.6250036478044
192,24,105835,2,0,L|188:56,3,21.2500008106232,4|0|0|0,0:0|0:0|0:0|0:0,0:0:0:0:
308,76,106006,2,0,L|312:108,3,21.2500008106232
168,148,106177,2,0,L|164:180,3,21.2500008106232,8|0|0|0,0:0|0:0|0:0|0:0,0:0:0:0:
304,200,106349,2,0,L|308:232,3,21.2500008106232
320,300,106520,6,0,L|268:344,3,63.7500024318696,0|0|4|0,0:0|0:0|0:0|0:0,0:0:0:0:
120,224,106863,2,0,L|196:188,3,63.7500024318696,8|0|0|0,0:0|0:0|0:0|0:0,0:0:0:0:
180,192,107206,6,4,P|232:208|300:176,1,127.500004863739,4|8,0:0|0:0,0:0:0:0:
304,176,107720,2,4,P|372:168|368:196,1,127.500004863739,0|4,0:0|0:0,0:0:0:0:
328,264,108235,2,0,B|304:304|304:304|276:256,1,95.6250036478044,8|0,0:0|0:0,0:0:0:0:
279,261,108577,2,0,B|256:308|256:308|227:253,1,95.6250036478044,4|0,0:0|0:0,0:0:0:0:
235,269,108920,2,0,B|212:316|212:316|176:264,1,95.6250036478044,8|0,0:0|0:0,0:0:0:0:
184,272,109263,5,0,0:0:0:0:
116,192,109435,1,4,0:0:0:0:
256,68,109606,1,8,0:0:0:0:
384,192,109777,1,0,0:0:0:0:
152,292,109949,6,4,B|152:340|152:340|168:312|168:312|180:332|180:332|188:320|188:320|200:332|200:332|208:323|208:323|216:332|216:332|224:324|224:324|236:328|236:328|309:328,1,255.000009727478,4|8,0:0|0:0,0:0:0:0:
120,104,110635,1,0,0:0:0:0:
196,240,110806,1,4,0:0:0:0:
260,128,110977,1,8,0:0:0:0:
348,244,111149,1,0,0:0:0:0:
404,92,111320,1,4,0:0:0:0:
404,92,111406,1,0,0:0:0:0:
404,92,111492,1,0,0:0:0:0:
156,96,111663,2,0,P|220:148|284:168,1,127.500004863739,8|0,0:0|0:0,0:0:0:0:
348,244,112006,2,0,P|284:296|220:316,1,127.500004863739,0|4,0:0|0:0,0:0:0:0:
256,192,112349,5,8,0:0:0:0:
256,192,112435,1,0,0:0:0:0:
256,192,112520,1,0,0:0:0:0:
341,55,112692,6,4,B|374:88|374:88|343:80|343:80|349:103|349:103|335:100|335:100|335:117|335:117|324:117|324:117|324:128|324:128|312:128|312:128|307:139|307:139|255:191,1,255.000009727478,4|8,0:0|0:0,0:0:0:0:
208,328,113377,6,0,B|196:292|196:292|220:252,1,63.7500024318696
316,248,113549,2,0,B|328:212|328:212|304:172,1,63.7500024318696,4|0,0:0|0:0,0:0:0:0:
136,176,113720,2,0,B|124:140|124:140|148:100,1,63.7500024318696,8|0,0:0|0:0,0:0:0:0:
348,108,113892,2,0,B|360:72|360:72|336:32,1,63.7500024318696
144,56,114063,5,4,0:0:0:0:
152,64,114235,1,0,0:0:0:0:
352,184,114406,1,8,0:0:0:0:
340,200,114577,1,0,0:0:0:0:
168,308,114749,1,0,0:0:0:0:
344,312,114920,1,4,0:0:0:0:
304,280,115006,1,0,0:0:0:0:
272,240,115092,1,8,0:0:0:0:
256,192,115177,1,0,0:0:0:0:
256,140,115263,1,0,0:0:0:0:
72,296,115435,6,0,B|105:329|105:329|97:298|97:298|120:304|120:304|117:290|117:290|134:290|134:290|134:279|134:279|145:279|145:279|145:267|145:267|156:262|156:262|208:210,1,255.000009727478,4|8,0:0|0:0,0:0:0:0:
400,316,116120,5,0,0:0:0:0:
240,252,116292,1,4,0:0:0:0:
364,184,116463,1,8,0:0:0:0:
200,104,116635,1,0,0:0:0:0:
64,96,116806,2,0,L|68:120,1,15.9375006079674,4|0,0:0|0:0,0:0:0:0:
96,236,116977,2,0,L|116:244,2,15.9375006079674
232,312,117149,2,0,L|256:308,3,15.9375006079674,8|0|0|0,0:0|0:0|0:0|0:0,0:0:0:0:
376,264,117320,2,0,L|384:236,3,15.9375006079674
376,84,117492,5,0,0:0:0:0:
352,64,117577,1,0,0:0:0:0:
320,56,117663,1,4,0:0:0:0:
288,68,117749,1,0,0:0:0:0:
256,108,117835,1,8,0:0:0:0:
224,148,117920,1,0,0:0:0:0:
168,168,118006,1,0,0:0:0:0:
112,140,118092,1,0,0:0:0:0:
64,84,118177,6,4,P|104:60|144:80,1,85,4|0,0:0|0:0,0:0:0:0:
216,168,118692,2,0,P|248:184|320:168,1,106.25
400,80,119206,2,0,B|416:108|416:108|400:136,1,63.75
272,184,119549,2,0,B|256:212|256:212|272:240,1,63.75
400,272,119892,2,0,B|416:312|416:312|384:328,1,63.75
152,320,120235,6,0,L|140:300,1,21.25
156,104,120406,2,0,L|184:88,1,21.25
360,100,120577,2,0,L|380:128,1,21.25
368,316,120749,2,0,L|336:336,1,21.25
256,188,120920,5,0,0:0:0:0:
256,188,121006,1,0,0:0:0:0:
256,188,121092,1,0,0:0:0:0:
80,100,121263,2,0,B|120:96|120:96|92:116|92:116|112:112|112:112|100:124|100:124|112:132|112:152,1,127.500004863739,4|0,0:0|0:0,0:0:0:0:
384,316,121606,5,0,0:0:0:0:
384,316,121777,1,4,0:0:0:0:
252,316,121949,1,8,0:0:0:0:
144,244,122120,1,0,0:0:0:0:
144,88,122292,1,4,0:0:0:0:
144,88,122377,1,0,0:0:0:0:
144,88,122463,1,0,0:0:0:0:
344,104,122635,2,0,L|328:140,3,31.8750012159348,8|0|0|0,0:0|0:0|0:0|0:0,0:0:0:0:
192,72,122977,5,0,0:0:0:0:
124,236,123149,1,4,0:0:0:0:
372,256,123320,1,8,0:0:0:0:
372,256,123406,1,0,0:0:0:0:
372,256,123492,1,0,0:0:0:0:
256,192,123663,6,0,L|256:220,12,21.2500008106232,4|0|0|0|0|0|0|0|0|0|0|0|8,0:0|0:0|0:0|0:0|0:0|0:0|0:0|0:0|0:0|0:0|0:0|0:0|0:0,0:0:0:0:
188,68,124349,2,0,L|200:100,1,31.8750012159348
360,152,124520,2,0,L|344:188,2,31.8750012159348,4|0|0,0:0|0:0|0:0,0:0:0:0:
200,208,124692,2,0,L|224:236,2,31.8750012159348,8|0|0,0:0|0:0|0:0,0:0:0:0:
288,312,124863,2,0,L|264:344,2,31.8750012159348
152,336,125035,5,4,0:0:0:0:
180,116,125206,1,0,0:0:0:0:
292,304,125377,1,8,0:0:0:0:
72,208,125549,1,0,0:0:0:0:
296,160,125720,1,0,0:0:0:0:
128,80,125892,1,4,0:0:0:0:
128,80,125977,1,0,0:0:0:0:
128,80,126063,6,0,B|116:124|116:124|168:112|168:112|148:172,1,127.500004863739,8|0,0:0|0:0,0:0:0:0:
360,276,126406,6,0,L|340:320,7,31.8750012159348,4|0|0|0|0|0|0|0,0:0|0:0|0:0|0:0|0:0|0:0|0:0|0:0,0:0:0:0:
340,320,126749,2,0,P|260:316|292:244,1,127.500004863739,8|0,0:0|0:0,0:0:0:0:
328,112,127092,1,0,0:0:0:0:
328,112,127263,1,4,0:0:0:0:
128,240,127435,1,8,0:0:0:0:
128,240,127606,1,0,0:0:0:0:
352,320,127777,2,0,L|372:288,2,31.8750012159348,4|0|0,0:0|0:0|0:0,0:0:0:0:
404,176,127949,2,0,P|376:136|372:132,2,31.8750012159348
276,52,128120,2,0,L|240:64,2,31.8750012159348,8|0|0,0:0|0:0|0:0,0:0:0:0:
108,128,128292,2,0,L|132:168,2,31.8750012159348
152,312,128463,2,0,L|220:288,3,63.7500024318696,0|0|4|0,0:0|0:0|0:0|0:0,0:0:0:0:
240,280,128806,1,8,0:0:0:0:
272,260,128892,1,0,0:0:0:0:
300,220,128977,1,0,0:0:0:0:
312,168,129063,1,0,0:0:0:0:
312,112,129149,6,4,B|312:63|312:63|296:92|296:92|284:72|284:72|276:83|276:83|264:72|264:72|256:80|256:80|248:72|248:72|240:79|240:79|227:76|227:76|155:76,1,255.000009727478,4|8,0:0|0:0,0:0:0:0:
88,140,129835,2,0,B|112:116|112:116|144:148,1,63.7500024318696
164,256,130006,2,0,B|196:276|196:276|216:252,1,63.7500024318696,4|0,0:0|0:0,0:0:0:0:
248,132,130177,2,0,B|272:108|272:108|300:140,1,63.7500024318696,8|0,0:0|0:0,0:0:0:0:
332,272,130349,2,0,B|356:292|356:292|384:268,1,63.7500024318696
388,128,130520,6,0,B|436:128|436:128|408:144|408:144|428:156|428:156|416:164|416:164|428:176|428:176|419:184|419:184|428:192|428:192|420:200|420:200|424:212|424:212|424:285,1,255.000009727478
136,276,131206,6,0,B|88:276|88:276|116:260|116:260|96:247|96:247|108:240|108:240|96:228|96:228|104:220|104:220|96:212|96:212|104:204|104:204|99:192|99:192|100:119,1,255.000009727478
128,88,131892,6,0,L|148:84,1,21.2500008106232,6|0,0:0|0:0,0:0:0:0:
240,84,132063,2,0,L|272:96,1,31.8750012159348,6|0,0:0|0:0,0:0:0:0:
368,168,132235,2,0,L|372:216,1,42.5000016212464,6|0,0:0|0:0,0:0:0:0:
232,312,132406,2,0,L|172:284,1,63.7500024318696,6|0,0:0|0:0,0:0:0:0:
224,160,132577,6,0,L|240:188,3,21.25
332,276,132920,2,0,L|336:268,3,5.3125
404,196,133092,2,0,L|404:188,3,5.3125
344,80,133263,5,4,0:0:0:0:
344,80,133349,1,0,0:0:0:0:
344,80,133435,1,0,0:0:0:0:
208,72,133606,2,0,B|144:80|144:80|152:144,1,127.500004863739,8|0,0:0|0:0,0:0:0:0:
312,204,133949,2,0,B|376:212|376:212|368:276,1,127.500004863739,0|4,0:0|0:0,0:0:0:0:
180,324,134292,1,8,0:0:0:0:
180,324,134377,1,0,0:0:0:0:
180,324,134463,1,0,0:0:0:0:
180,324,134635,6,0,B|132:324|132:324|159:308|159:308|140:295|140:295|152:288|152:288|140:276|140:276|148:267|148:267|140:260|140:260|147:252|147:252|144:239|144:239|144:167,1,255.000009727478,4|8,0:0|0:0,0:0:0:0:
92,84,135320,2,0,B|92:76|92:76|108:80,2,15.9375006079674
232,120,135492,2,0,B|232:128|232:128|216:124,2,15.9375006079674,4|0|0,0:0|0:0|0:0,0:0:0:0:
216,256,135663,2,0,B|208:257|208:257|208:249,2,15.9375006079674,8|0|0,0:0|0:0|0:0,0:0:0:0:
352,256,135835,2,0,B|352:264|352:264|359:262,2,15.9375006079674
380,128,136006,5,4,0:0:0:0:
312,260,136177,1,0,0:0:0:0:
264,96,136349,1,8,0:0:0:0:
200,276,136520,1,0,0:0:0:0:
128,72,136692,1,0,0:0:0:0:
88,312,136863,1,4,0:0:0:0:
88,312,136949,1,0,0:0:0:0:
88,312,137035,1,8,0:0:0:0:
256,192,137206,2,8,L|304:148,1,63.7500024318696
376,80,137377,5,4,0:0:0:0:
376,80,137720,1,4,0:0:0:0:
384,328,138063,5,4,0:0:0:0:
384,328,138406,1,4,0:0:0:0:
116,324,138749,5,4,0:0:0:0:
124,304,138920,5,4,0:0:0:0:
116,324,139092,1,4,0:0:0:0:
136,324,139263,1,4,0:0:0:0:
116,80,139435,5,4,0:0:0:0:
128,80,139606,1,4,0:0:0:0:
116,80,139777,1,4,0:0:0:0:
112,96,139949,1,4,0:0:0:0:
256,192,140120,5,8,0:0:0:0:
376,96,140292,1,4,0:0:0:0:
376,96,140377,1,4,0:0:0:0:
376,96,140463,1,4,0:0:0:0:
256,192,140635,1,8,0:0:0:0:
364,308,140806,1,4,0:0:0:0:
364,308,140892,1,4,0:0:0:0:
364,308,140977,1,4,0:0:0:0:
256,192,141149,5,12,0:0:0:0:
132,104,141320,1,4,0:0:0:0:
260,196,141492,1,8,0:0:0:0:
136,312,141663,1,4,0:0:0:0:
260,196,141835,1,8,0:0:0:0:
364,308,142006,1,4,0:0:0:0:
384,88,142177,1,4,0:0:0:0:
396,120,142263,1,4,0:0:0:0:
400,152,142349,1,4,0:0:0:0:
400,184,142435,1,4,0:0:0:0:
396,216,142520,1,8,0:0:0:0:
340,316,142692,1,8,0:0:0:0:
128,296,142863,5,4,0:0:0:0:
172,96,143035,1,0,0:0:0:0:
276,296,143206,1,8,0:0:0:0:
352,112,143377,1,0,0:0:0:0:
352,112,143463,1,0,0:0:0:0:
352,112,143549,1,0,0:0:0:0:
420,232,143720,1,0,0:0:0:0:
200,116,143892,1,8,0:0:0:0:
312,291,144063,1,0,0:0:0:0:
120,272,144235,5,0,0:0:0:0:
124,124,144406,2,0,P|168:72|232:80,1,127.500004863739,0|8,0:0|0:0,0:0:0:0:
389,158,144749,1,0,0:0:0:0:
385,186,144835,1,0,0:0:0:0:
369,218,144920,2,0,P|297:226|261:270,1,127.500004863739
178,324,145263,2,8,P|126:280|128:220,1,127.500004863739,8|0,0:0|0:0,0:0:0:0:
133,95,145606,5,0,0:0:0:0:
267,283,145777,1,0,0:0:0:0:
344,112,145949,2,0,B|312:180|264:160|228:132|252:88,1,127.500004863739,8|0,0:0|0:0,0:0:0:0:
220,96,146206,1,0,0:0:0:0:
188,116,146292,1,0,0:0:0:0:
156,276,146463,1,0,0:0:0:0:
84,112,146635,1,8,0:0:0:0:
268,216,146806,1,0,0:0:0:0:
309,184,146977,5,0,0:0:0:0:
137,256,147149,1,0,0:0:0:0:
173,87,147320,1,8,0:0:0:0:
380,228,147492,1,0,0:0:0:0:
364,256,147577,1,0,0:0:0:0:
344,280,147663,1,0,0:0:0:0:
316,296,147749,1,0,0:0:0:0:
288,308,147835,1,0,0:0:0:0:
263,173,148006,1,8,0:0:0:0:
125,279,148177,1,0,0:0:0:0:
160,108,148349,5,0,0:0:0:0:
321,49,148520,1,0,0:0:0:0:
422,189,148692,1,8,0:0:0:0:
260,136,148863,2,0,L|240:196,1,63.7500024318696
212,283,149035,1,0,0:0:0:0:
380,100,149206,1,0,0:0:0:0:
343,296,149377,1,8,0:0:0:0:
256,96,149549,1,0,0:0:0:0:
196,264,149720,5,0,0:0:0:0:
132,96,149892,1,0,0:0:0:0:
92,280,150063,1,8,0:0:0:0:
196,184,150235,1,0,0:0:0:0:
232,184,150320,1,0,0:0:0:0:
272,184,150406,1,0,0:0:0:0:
312,184,150492,1,0,0:0:0:0:
348,184,150577,1,0,0:0:0:0:
404,96,150749,1,8,0:0:0:0:
408,292,150920,1,0,0:0:0:0:
268,192,151092,5,0,0:0:0:0:
140,88,151263,1,0,0:0:0:0:
268,192,151435,1,8,0:0:0:0:
129,315,151606,1,0,0:0:0:0:
129,315,151692,1,0,0:0:0:0:
129,315,151777,2,0,P|213:323|289:279,1,127.500004863739
364,264,152120,1,8,0:0:0:0:
364,264,152292,1,0,0:0:0:0:
154,177,152463,5,0,0:0:0:0:
357,133,152635,1,0,0:0:0:0:
226,284,152806,1,8,0:0:0:0:
236,61,152977,1,0,0:0:0:0:
357,259,153149,1,0,0:0:0:0:
122,176,153320,1,0,0:0:0:0:
373,123,153492,1,8,0:0:0:0:
219,324,153663,1,0,0:0:0:0:
392,104,153835,5,4,0:0:0:0:
392,104,154006,1,0,0:0:0:0:
332,264,154177,1,8,0:0:0:0:
256,184,154349,1,0,0:0:0:0:
256,184,154435,1,0,0:0:0:0:
256,184,154520,1,0,0:0:0:0:
120,104,154692,1,0,0:0:0:0:
120,288,154863,1,8,0:0:0:0:
256,332,155035,1,0,0:0:0:0:
400,268,155206,5,0,0:0:0:0:
400,136,155377,1,0,0:0:0:0:
291,56,155549,1,8,0:0:0:0:
146,74,155720,1,0,0:0:0:0:
114,110,155806,1,0,0:0:0:0:
110,158,155892,1,0,0:0:0:0:
155,304,156063,1,0,0:0:0:0:
256,189,156235,1,8,0:0:0:0:
356,296,156406,1,0,0:0:0:0:
370,93,156577,5,0,0:0:0:0:
256,189,156749,1,0,0:0:0:0:
121,98,156920,1,8,0:0:0:0:
124,281,157092,2,0,B|156:305|156:305|188:265,2,63.7500024318696
256,189,157435,1,0,0:0:0:0:
365,282,157606,1,8,0:0:0:0:
336,88,157777,1,0,0:0:0:0:
256,189,157949,5,0,0:0:0:0:
124,92,158120,1,0,0:0:0:0:
122,249,158292,1,8,0:0:0:0:
256,308,158463,2,0,L|312:272,1,63.7500024318696
389,202,158635,2,0,L|365:130,1,63.7500024318696
316,62,158806,1,0,0:0:0:0:
136,96,158977,1,8,0:0:0:0:
256,192,159149,1,0,0:0:0:0:
360,308,159320,6,0,L|320:336,3,42.5,4|0|0|0,0:0|0:0|0:0|0:0,0:0:0:0:
192,328,159663,2,0,L|144:288,3,42.5,4|0|0|0,0:0|0:0|0:0|0:0,0:0:0:0:
116,168,160006,2,0,L|144:132,1,42.5,4|0,0:0|0:0,0:0:0:0:
228,80,160177,2,0,L|280:80,1,42.5
360,120,160349,2,0,L|384:164,1,42.5,4|0,0:0|0:0,0:0:0:0:
360,280,160520,2,0,L|312:296,1,42.5
228,312,160692,5,4,0:0:0:0:
188,300,160777,1,0,0:0:0:0:
152,276,160863,1,0,0:0:0:0:
132,240,160949,1,0,0:0:0:0:
120,200,161035,1,4,0:0:0:0:
120,156,161120,1,0,0:0:0:0:
140,120,161206,1,0,0:0:0:0:
172,92,161292,1,0,0:0:0:0:
212,80,161377,5,4,0:0:0:0:
252,88,161463,1,0,0:0:0:0:
288,112,161549,1,0,0:0:0:0:
300,152,161635,1,0,0:0:0:0:
268,180,161720,1,4,0:0:0:0:
224,184,161806,1,0,0:0:0:0:
196,216,161892,1,0,0:0:0:0:
224,248,161977,1,0,0:0:0:0:
256,276,162063,6,0,L|304:296,3,42.5,4|0|4|0,0:0|0:0|0:0|0:0,0:0:0:0:
400,188,162406,2,0,L|400:136,3,42.5,4|0|4|0,0:0|0:0|0:0|0:0,0:0:0:0:
388,84,162749,1,4,0:0:0:0:
352,60,162835,1,0,0:0:0:0:
312,48,162920,1,4,0:0:0:0:
268,48,163006,1,0,0:0:0:0:
228,56,163092,1,4,0:0:0:0:
204,92,163177,1,0,0:0:0:0:
204,136,163263,1,4,0:0:0:0:
172,164,163349,1,0,0:0:0:0:
113,167,163435,6,4,L|93:215,1,42.5
183,323,163606,2,4,L|231:323,1,42.5
345,258,163777,2,4,L|381:214,1,42.5
384,104,163949,2,4,L|324:72,1,42.5
224,52,164120,5,4,0:0:0:0:
156,100,164206,1,4,0:0:0:0:
184,180,164292,1,4,0:0:0:0:
268,180,164377,1,4,0:0:0:0:
296,100,164463,1,8,0:0:0:0:
224,120,164806,5,0,0:0:0:0:
256,192,180920,5,0,0:0:0:0:
256,192,181263,2,0,B|208:152|192:80|192:80|180:152|136:196,1,255.000009727478
141,190,182120,1,0,0:0:0:0:
141,190,182463,2,0,B|166:225|141:263|141:263|233:259|248:180|248:180|263:242|306:273,1,318.750012159348
248,266,183492,1,0,0:0:0:0:
248,266,183835,2,0,B|324:284|344:244|344:244|300:188|300:188|348:160|344:108|288:108|264:136|288:164|288:164|312:160,1,318.750012159348
284,159,184863,1,0,0:0:0:0:
256,192,185206,12,0,186406,0:0:0:0:
256,188,186749,5,4,0:0:0:0:
380,96,187092,1,4,0:0:0:0:
376,304,187435,1,4,0:0:0:0:
136,304,187777,1,4,0:0:0:0:
136,92,188120,1,4,0:0:0:0:
256,188,188463,1,4,0:0:0:0:
256,88,188806,1,4,0:0:0:0:
256,288,189149,1,4,0:0:0:0:
372,88,189492,5,4,0:0:0:0:
132,84,189835,1,4,0:0:0:0:
376,292,190177,1,4,0:0:0:0:
136,292,190520,1,4,0:0:0:0:
256,188,190863,1,4,0:0:0:0:
352,88,191206,1,4,0:0:0:0:
140,88,191549,1,4,0:0:0:0:
256,280,191892,1,4,0:0:0:0:
364,80,192235,5,4,0:0:0:0:
364,80,192492,2,4,P|280:80|240:140,1,127.5
180,200,192920,5,4,0:0:0:0:
180,200,193177,6,4,P|272:208|304:244,1,127.5
360,292,193606,5,4,0:0:0:0:
360,292,193863,2,4,P|276:320|232:376,1,127.5
136,348,194292,5,4,0:0:0:0:
136,348,194549,2,4,P|80:280|88:216,1,127.5
120,96,194977,5,8,0:0:0:0:
256,272,195149,1,4,0:0:0:0:
256,272,195235,1,4,0:0:0:0:
256,272,195320,1,4,0:0:0:0:
368,92,195492,1,8,0:0:0:0:
256,272,195663,1,4,0:0:0:0:
256,272,195749,1,4,0:0:0:0:
256,272,195835,1,4,0:0:0:0:
252,92,196006,5,8,0:0:0:0:
136,268,196177,1,4,0:0:0:0:
252,92,196349,1,4,0:0:0:0:
368,272,196520,1,4,0:0:0:0:
252,88,196692,1,4,0:0:0:0:
256,272,196863,1,4,0:0:0:0:
120,192,197035,5,4,0:0:0:0:
176,132,197120,1,4,0:0:0:0:
252,92,197206,1,4,0:0:0:0:
328,132,197292,1,4,0:0:0:0:
384,196,197377,5,8,0:0:0:0:
256,276,197720,6,0,B|236:272|256:240|292:276|256:312|240:292|240:260|272:260|272:292|248:292|256:276|256:276|256:232|256:232|236:224|236:224|256:216|256:216|256:192|256:192|256:184|256:184|268:172|268:172|256:160|256:160|256:104,1,255.000009727478,4|8,0:0|0:0,0:0:0:0:
104,72,198406,5,0,0:0:0:0:
104,72,198492,1,0,0:0:0:0:
108,76,198577,2,0,L|108:148,1,63.7500024318696
108,320,198749,1,0,0:0:0:0:
108,320,198835,1,0,0:0:0:0:
112,324,198920,6,0,L|112:248,1,63.7500024318696
208,72,199092,1,0,0:0:0:0:
208,72,199177,1,0,0:0:0:0:
212,80,199263,6,0,L|212:164,1,63.7500024318696
219,307,199435,1,0,0:0:0:0:
231,321,199520,1,0,0:0:0:0:
222,330,199606,1,0,0:0:0:0:
211,322,199692,1,0,0:0:0:0:
261,320,199777,1,0,0:0:0:0:
283,318,199863,1,0,0:0:0:0:
311,312,199949,1,0,0:0:0:0:
341,301,200035,5,0,0:0:0:0:
364,288,200120,1,0,0:0:0:0:
384,264,200206,1,0,0:0:0:0:
400,228,200292,1,0,0:0:0:0:
404,184,200377,1,0,0:0:0:0:
404,132,200463,2,0,P|403:70|401:132,1,191.250007295609
404,132,200806,6,0,L|265:132,1,127.500004863739
101,101,201149,2,0,P|95:152|137:193,1,63.7500024318696
100,201,201320,6,0,P|118:140|98:94,1,85
101,101,201492,6,0,P|86:154|117:220,1,106.25
100,201,201663,6,0,P|126:138|96:93,1,127.500004863739
346,117,201835,1,0,0:0:0:0:
143,269,202006,1,0,0:0:0:0:
225,46,202177,1,0,0:0:0:0:
281,295,202349,1,0,0:0:0:0:
93,192,202520,1,0,0:0:0:0:
351,121,202692,1,0,0:0:0:0:
351,121,202777,1,0,0:0:0:0:
351,121,202863,2,0,B|319:189|319:189|347:191|347:191|297:299,1,170
87,312,203206,6,0,P|86:226|90:312,1,255
87,312,203549,6,0,L|261:312,1,170
358,57,203892,6,0,L|288:57,1,42.5
376,150,204063,2,0,L|299:167,1,42.5
405,242,204235,2,0,L|352:276,1,42.5
460,313,204406,2,0,L|419:365,1,42.5
254,347,204577,2,0,L|177:347,1,42.5
211,273,204749,2,0,L|145:249,1,42.5
172,178,204920,2,0,L|125:128,1,42.5
187,85,205092,2,0,L|187:24,1,42.5
391,64,205263,5,0,0:0:0:0:
377,56,205349,1,0,0:0:0:0:
391,40,205435,1,0,0:0:0:0:
406,57,205520,1,0,0:0:0:0:
389,95,205606,1,0,0:0:0:0:
375,137,205692,1,0,0:0:0:0:
345,178,205777,1,0,0:0:0:0:
284,215,205863,1,0,0:0:0:0:
213,226,205949,2,0,P|177:276|210:224,1,191.250007295609
213,226,206292,6,0,L|97:148,1,127.500004863739
117,37,206635,2,0,P|87:95|109:106,1,63.7500024318696
185,201,206806,2,0,P|231:176|236:119,1,85
117,37,206977,2,0,P|62:69|63:147,1,106.25
183,200,207149,2,0,P|246:165|240:78,1,127.500004863739
117,37,207320,2,0,B|94:94|90:132|90:132|131:193|218:135|144:82|90:132|90:132|92:199|112:264,1,382.500014591218
111,276,207663,6,0,B|270:276|270:276|247:278|247:278|248:276|248:276|237:278|237:278|253:276|253:276|242:278|242:278|481:278,1,382.500014591218
283,65,208006,1,0,0:0:0:0:
258,318,208177,1,0,0:0:0:0:
133,174,208349,1,0,0:0:0:0:
408,218,208520,1,0,0:0:0:0:
105,298,208692,2,0,P|146:344|107:296,9,170
105,298,209035,6,0,L|195:214,1,85
334,90,209377,1,0,0:0:0:0:
97,187,209549,1,0,0:0:0:0:
336,272,209720,1,0,0:0:0:0:
243,45,209892,1,0,0:0:0:0:
156,303,210063,2,0,L|161:258,1,42.5
156,303,210149,6,0,L|113:328,1,42.5
156,303,210235,6,0,L|193:331,1,42.5
416,149,210406,2,0,L|300:77,1,127.500004863739
96,132,210749,2,0,L|241:239,1,127.500004863739
353,325,211092,1,0,0:0:0:0:
353,325,211177,1,0,0:0:0:0:
353,325,211263,1,0,0:0:0:0:
367,59,211435,6,0,P|438:106|376:47,1,255
367,59,211778,6,0,L|239:177,1,170
62,302,212120,2,0,L|91:227,1,42.5
228,293,212292,2,0,L|281:277,1,42.5
205,108,212463,2,0,L|210:64,1,42.5
397,174,212635,2,0,L|460:146,1,42.5
67,130,212806,5,0,0:0:0:0:
171,342,212977,1,0,0:0:0:0:
286,83,213149,5,0,0:0:0:0:
262,308,213320,1,0,0:0:0:0:
397,63,213492,6,0,P|469:148|451:210,1,170
413,226,213749,1,0,0:0:0:0:
376,261,213835,1,0,0:0:0:0:
331,285,213920,1,0,0:0:0:0:
280,290,214006,1,0,0:0:0:0:
82,93,214177,6,0,P|80:155|78:92,1,191.250007295609
82,93,214520,6,0,L|221:93,1,127.500004863739
433,135,214863,1,0,0:0:0:0:
365,59,215035,1,0,0:0:0:0:
74,273,215206,1,0,0:0:0:0:
184,294,215377,1,0,0:0:0:0:
87,55,215549,2,0,B|68:50|68:50|112:110|170:143|170:143|161:125,1,170
165,124,215720,6,0,B|157:106|157:106|223:141|264:194|264:194|252:190,1,170
252,190,215892,6,0,B|233:185|233:185|277:245|335:278|335:278|326:260,1,170
329,267,216063,6,0,B|321:249|321:249|387:284|428:337|428:337|416:333,1,170
273,344,216235,1,0,0:0:0:0:
243,320,216320,1,0,0:0:0:0:
226,285,216406,1,0,0:0:0:0:
216,247,216492,1,0,0:0:0:0:
303,206,216577,1,0,0:0:0:0:
317,170,216663,1,0,0:0:0:0:
317,131,216749,1,0,0:0:0:0:
312,92,216835,1,0,0:0:0:0:
307,54,216920,6,0,P|225:56|186:77,1,127.500004863739
94,170,217435,2,0,B|129:208|163:212|163:212|142:244|140:286,1,159.375006079674
237,321,217949,2,0,P|281:338|329:313,1,95.6250036478044
361,197,218292,2,0,L|397:106,1,95.6250036478044
248,114,218635,2,0,L|178:46,1,95.6250036478044
174,264,218977,5,0,0:0:0:0:
186,259,219063,1,0,0:0:0:0:
197,266,219149,1,0,0:0:0:0:
200,272,219235,1,0,0:0:0:0:
198,285,219320,1,0,0:0:0:0:
182,296,219406,1,0,0:0:0:0:
157,295,219492,1,0,0:0:0:0:
123,279,219577,1,0,0:0:0:0:
93,243,219663,1,0,0:0:0:0:
67,168,219749,1,0,0:0:0:0:
86,74,219835,1,0,0:0:0:0:
334,60,220006,6,2,B|382:60|382:60|354:76|354:76|374:88|374:88|362:96|362:96|374:108|374:108|366:116|366:116|374:124|374:124|366:132|366:132|370:144|370:144|370:217,1,255.000009727478,6|0,0:0|0:0,0:0:0:0:
134,298,220349,1,0,0:0:0:0:
228,331,220520,1,0,0:0:0:0:
156,84,220692,1,0,0:0:0:0:
247,44,220863,1,0,0:0:0:0:
403,181,221035,2,0,L|466:181,1,42.5000016212464
397,229,221120,2,0,L|457:259,1,42.5000016212464
362,267,221206,2,0,L|393:315,1,42.5000016212464
196,321,221377,6,0,P|118:303|102:168,1,170
288,163,221720,2,0,P|380:127|389:48,1,170
130,58,222063,2,0,L|84:72,1,42.5000016212464
121,110,222149,2,0,L|93:144,1,42.5000016212464
126,163,222235,2,0,L|113:208,1,42.5000016212464
344,317,222406,6,0,B|392:317|392:317|364:301|364:301|384:289|384:289|372:281|372:281|384:269|384:269|376:261|376:261|384:253|384:253|376:245|376:245|380:233|380:233|380:153,1,255.000009727478
65,98,223092,6,0,L|49:117,1,15.9375006079674
92,195,223263,2,0,L|88:226,1,21.2500008106232
211,298,223435,2,0,L|218:322,2,21.2500008106232
377,280,223606,2,0,L|399:278,3,21.2500008106232
93,138,223777,5,0,0:0:0:0:
382,84,223949,1,0,0:0:0:0:
283,303,224120,5,0,0:0:0:0:
178,43,224292,1,0,0:0:0:0:
407,170,224463,2,0,L|319:283,1,127.500004863739
283,303,224720,1,0,0:0:0:0:
228,322,224806,2,0,P|133:302|77:243,1,127.500004863739
396,100,225149,6,0,B|396:52|396:52|379:80|379:80|367:60|367:60|359:72|359:72|347:59|347:59|339:67|339:67|331:59|331:59|323:68|323:68|312:64|312:64|238:63,1,255.000009727478
80,179,225835,1,0,0:0:0:0:
279,175,226006,1,0,0:0:0:0:
167,342,226177,2,0,L|324:312,1,127.500004863739
80,179,226520,2,0,L|293:176,1,191.250007295609
279,175,226692,2,0,L|166:345,1,191.250007295609
167,342,226863,2,0,L|336:309,1,170
333,309,227035,2,0,L|167:342,1,170
99,268,227206,5,0,0:0:0:0:
155,276,227292,1,0,0:0:0:0:
209,258,227377,1,0,0:0:0:0:
248,216,227463,1,0,0:0:0:0:
249,114,227549,1,0,0:0:0:0:
279,65,227635,1,0,0:0:0:0:
334,53,227720,1,0,0:0:0:0:
387,73,227806,1,0,0:0:0:0:
442,162,227892,6,0,B|475:195|475:195|444:187|444:187|450:210|450:210|436:207|436:207|436:224|436:224|425:224|425:224|425:235|425:235|413:235|413:235|408:246|408:246|351:303,1,255.000009727478
102,330,228577,6,0,L|94:311,1,21.2500008106232
129,203,228749,2,0,L|124:164,1,21.2500008106232
250,102,228920,2,0,L|254:69,1,21.2500008106232
420,73,229092,2,0,L|435:50,1,21.2500008106232
411,325,229263,6,0,B|444:291|444:291|413:299|413:299|419:276|419:276|405:279|405:279|405:262|405:262|394:262|394:262|394:251|394:251|382:251|382:251|377:240|377:240|320:183,1,255.000009727478
101,59,229949,6,0,B|67:92|67:92|98:84|98:84|92:107|92:107|106:104|106:104|106:121|106:121|117:121|117:121|117:132|117:132|129:132|129:132|134:143|134:143|191:200,1,255.000009727478
186,195,230635,6,0,B|134:143|134:143|129:132|129:132|117:132|117:132|117:121|117:121|106:121|106:121|106:104|106:104|92:107|92:107|98:84|98:84|67:92|67:92|101:59,3,255.000009727478
362,51,231320,6,0,L|315:123,1,63.7500024318696
404,113,231492,6,0,L|345:135,1,63.7500024318696
341,311,231663,6,0,L|328:292,3,15.9375006079674
137,228,231835,6,0,L|154:210,3,15.9375006079674
226,68,232006,2,0,L|247:56,1,21.2500008106232
303,91,232092,2,0,L|329:86,1,21.2500008106232
366,139,232177,2,0,L|391:142,1,21.2500008106232
309,323,232349,2,0,P|230:271|225:197,1,127.500004863739
133,57,232692,2,0,P|76:135|99:184,1,127.500004863739
151,327,233035,1,0,0:0:0:0:
151,327,233121,1,0,0:0:0:0:
151,327,233207,1,0,0:0:0:0:
221,64,233377,6,0,B|269:64|269:64|241:80|241:80|261:92|261:92|249:100|249:100|261:112|261:112|253:120|253:120|261:128|261:128|253:136|253:136|257:148|257:148|257:221,1,255.000009727478
421,145,234063,6,0,B|388:130|388:130|344:152,1,63.7500024318696
373,246,234235,2,0,B|340:261|340:261|296:239,1,63.7500024318696
297,97,234406,2,0,B|264:82|264:82|220:104,1,63.7500024318696
203,264,234577,2,0,B|170:279|170:279|126:257,1,63.7500024318696
94,71,234749,1,0,0:0:0:0:
94,71,234920,5,0,0:0:0:0:
391,322,235092,1,0,0:0:0:0:
391,322,235263,5,0,0:0:0:0:
255,192,235435,1,0,0:0:0:0:
129,97,235606,1,0,0:0:0:0:
254,48,235692,1,0,0:0:0:0:
382,97,235777,1,0,0:0:0:0:
257,336,235949,2,0,L|174:315,1,63.7500024318696
96,268,236120,5,0,0:0:0:0:
110,290,236463,1,0,0:0:0:0:
243,66,236806,1,0,0:0:0:0:
259,83,237149,1,0,0:0:0:0:
422,209,237492,5,0,0:0:0:0:
415,233,237663,1,0,0:0:0:0:
408,257,237835,1,0,0:0:0:0:
401,281,238006,1,0,0:0:0:0:
150,294,238177,1,0,0:0:0:0:
144,269,238349,1,0,0:0:0:0:
138,244,238520,1,0,0:0:0:0:
132,218,238692,1,0,0:0:0:0:
301,53,238863,5,0,0:0:0:0:
195,337,239035,1,0,0:0:0:0:
195,337,239120,1,0,0:0:0:0:
195,337,239206,1,0,0:0:0:0:
181,37,239377,5,0,0:0:0:0:
313,325,239549,1,0,0:0:0:0:
313,325,239635,1,0,0:0:0:0:
313,325,239720,1,0,0:0:0:0:
359,45,239892,5,0,0:0:0:0:
92,322,240063,1,0,0:0:0:0:
99,42,240235,5,0,0:0:0:0:
435,325,240406,1,0,0:0:0:0:
271,26,240577,5,0,0:0:0:0:
227,363,240749,1,0,0:0:0:0:
90,265,240920,5,0,0:0:0:0:
165,229,241006,1,0,0:0:0:0:
240,193,241092,1,0,0:0:0:0:
314,158,241177,1,0,0:0:0:0:
389,123,241263,1,0,0:0:0:0:
65,60,241435,1,0,0:0:0:0:
177,334,241606,5,0,0:0:0:0:
285,87,241777,1,0,0:0:0:0:
83,177,241949,1,0,0:0:0:0:
391,261,242120,1,0,0:0:0:0:
391,261,242206,1,0,0:0:0:0:
391,261,242292,1,0,0:0:0:0:
203,59,242463,1,0,0:0:0:0:
148,324,242635,1,0,0:0:0:0:
410,166,242806,1,0,0:0:0:0:
126,119,242977,5,0,0:0:0:0:
224,357,243149,1,0,0:0:0:0:
316,172,243320,1,0,0:0:0:0:
70,302,243492,1,0,0:0:0:0:
131,288,243577,1,0,0:0:0:0:
185,254,243663,1,0,0:0:0:0:
220,201,243749,1,0,0:0:0:0:
237,140,243835,1,0,0:0:0:0:
106,65,244006,1,0,0:0:0:0:
190,343,244177,1,0,0:0:0:0:
381,107,244349,5,0,0:0:0:0:
163,170,244520,1,0,0:0:0:0:
338,288,244692,1,0,0:0:0:0:
267,64,244863,1,0,0:0:0:0:
267,64,244949,1,0,0:0:0:0:
267,64,245035,1,0,0:0:0:0:
139,243,245206,1,0,0:0:0:0:
338,288,245377,2,0,P|402:226|395:165,1,127.500004863739
124,67,245720,6,0,L|129:204,1,127.500004863739
273,349,246063,1,0,0:0:0:0:
396,181,246235,2,0,L|298:206,1,63.7500024318696
118,252,246406,1,0,0:0:0:0:
118,252,246492,1,0,0:0:0:0:
118,252,246577,1,0,0:0:0:0:
215,86,246749,1,0,0:0:0:0:
376,327,246920,1,0,0:0:0:0:
306,94,247092,6,0,L|409:216,1,127.500004863739
162,339,247435,2,0,L|202:212,1,127.500004863739
156,196,247692,1,0,0:0:0:0:
109,176,247777,2,0,L|157:58,1,127.500004863739
188,58,248035,1,0,0:0:0:0:
251,58,248120,1,0,0:0:0:0:
314,59,248206,1,0,0:0:0:0:
377,60,248292,1,0,0:0:0:0:
195,283,248463,5,0,0:0:0:0:
264,355,248635,1,0,0:0:0:0:
443,246,248806,1,0,0:0:0:0:
269,87,248977,1,0,0:0:0:0:
269,87,249063,1,0,0:0:0:0:
269,87,249149,1,0,0:0:0:0:
168,257,249320,1,0,0:0:0:0:
155,298,249406,1,0,0:0:0:0:
112,298,249492,1,0,0:0:0:0:
99,257,249577,1,0,0:0:0:0:
133,232,249663,1,0,0:0:0:0:
404,318,249835,5,0,0:0:0:0:
350,81,250006,1,0,0:0:0:0:
203,235,250177,1,0,0:0:0:0:
404,318,250349,1,0,0:0:0:0:
404,318,250435,1,0,0:0:0:0:
404,318,250520,1,0,0:0:0:0:
350,81,250692,1,0,0:0:0:0:
203,235,250863,1,0,0:0:0:0:
389,228,251035,1,0,0:0:0:0:
114,127,251206,5,0,0:0:0:0:
406,157,251377,1,0,0:0:0:0:
151,305,251549,1,0,0:0:0:0:
271,37,251720,1,0,0:0:0:0:
332,324,251892,1,0,0:0:0:0:
104,100,252063,1,0,0:0:0:0:
429,176,252235,1,0,0:0:0:0:
122,305,252406,1,0,0:0:0:0:
325,52,252577,5,0,0:0:0:0:
304,184,252749,1,0,0:0:0:0:
96,96,252920,1,0,0:0:0:0:
191,313,253092,1,0,0:0:0:0:
191,313,253177,1,0,0:0:0:0:
191,313,253263,2,0,P|282:308|362:341,1,127.500004863739
419,203,253606,2,0,P|436:133|411:62,1,127.500004863739
154,36,253949,5,0,0:0:0:0:
277,174,254120,1,0,0:0:0:0:
54,167,254292,1,0,0:0:0:0:
176,307,254463,1,0,0:0:0:0:
226,313,254549,1,0,0:0:0:0:
276,319,254635,1,0,0:0:0:0:
326,325,254720,1,0,0:0:0:0:
376,332,254806,1,0,0:0:0:0:
311,191,254977,1,0,0:0:0:0:
421,106,255149,1,0,0:0:0:0:
222,63,255320,5,0,0:0:0:0:
128,46,255492,1,0,0:0:0:0:
196,335,255663,1,0,0:0:0:0:
396,278,255835,1,0,0:0:0:0:
385,248,255920,1,0,0:0:0:0:
374,217,256006,1,0,0:0:0:0:
363,186,256092,1,0,0:0:0:0:
353,156,256177,1,0,0:0:0:0:
222,50,256349,1,0,0:0:0:0:
134,219,256520,1,0,0:0:0:0:
356,341,256692,5,0,0:0:0:0:
405,91,256863,1,0,0:0:0:0:
155,42,257035,1,0,0:0:0:0:
106,292,257206,1,0,0:0:0:0:
106,292,257292,1,0,0:0:0:0:
106,292,257377,1,0,0:0:0:0:
106,292,257463,1,0,0:0:0:0:
106,292,257549,1,0,0:0:0:0:
356,341,257720,1,0,0:0:0:0:
405,91,257892,1,0,0:0:0:0:
155,42,258063,6,0,L|96:112,3,85
125,213,258406,2,0,L|146:306,3,85
305,336,258749,1,0,0:0:0:0:
337,326,258835,1,0,0:0:0:0:
366,309,258920,1,0,0:0:0:0:
389,284,259006,1,0,0:0:0:0:
404,253,259092,1,0,0:0:0:0:
408,219,259177,1,0,0:0:0:0:
405,184,259263,1,0,0:0:0:0:
393,152,259349,1,0,0:0:0:0:
373,123,259435,5,0,0:0:0:0:
350,168,259520,1,0,0:0:0:0:
312,202,259606,1,0,0:0:0:0:
263,217,259692,1,0,0:0:0:0:
215,200,259777,1,0,0:0:0:0:
190,155,259863,1,0,0:0:0:0:
194,104,259949,1,0,0:0:0:0:
230,68,260035,1,0,0:0:0:0:
280,68,260120,5,0,0:0:0:0:
344,90,260206,1,0,0:0:0:0:
371,152,260292,1,0,0:0:0:0:
367,219,260377,1,0,0:0:0:0:
331,277,260463,1,0,0:0:0:0:
265,294,260549,1,0,0:0:0:0:
196,292,260635,1,0,0:0:0:0:
135,261,260720,1,0,0:0:0:0:
95,205,260806,6,0,L|193:162,1,85
436,105,260977,2,0,L|331:157,1,85
81,137,261149,2,0,L|176:140,1,85
465,171,261320,2,0,L|375:168,1,85
146,33,261492,2,0,L|215:117,1,85
434,307,261663,2,0,L|364:251,1,85
268,31,261835,2,0,L|288:127,1,85
271,353,262006,2,0,L|252:260,1,85
347,55,262177,5,0,0:0:0:0:
395,124,262263,1,0,0:0:0:0:
430,201,262349,1,0,0:0:0:0:
408,283,262435,1,0,0:0:0:0:
345,339,262520,1,0,0:0:0:0:
262,358,262606,1,0,0:0:0:0:
177,344,262692,1,0,0:0:0:0:
112,289,262777,1,0,0:0:0:0:
93,205,262863,1,0,0:0:0:0:
115,122,262949,1,0,0:0:0:0:
165,53,263035,1,0,0:0:0:0:
247,34,263120,1,0,0:0:0:0:
331,47,263206,1,0,0:0:0:0:
262,192,263549,5,0,0:0:0:0:
256,192,263635,12,0,269035,0:0:0:0:
342,70,271092,5,0,0:0:0:0:
342,70,271777,2,0,P|389:184|360:324,1,255
192,317,273149,5,0,0:0:0:0:
120,239,273492,1,0,0:0:0:0:
130,132,273835,1,0,0:0:0:0:
209,61,274177,1,0,0:0:0:0:
413,118,274520,2,0,B|430:130|430:130|369:84|369:84|372:141|321:191|321:191|325:109|255:61|255:61|154:61,1,467.5
192,162,276577,5,0,0:0:0:0:
314,196,276920,1,0,0:0:0:0:
351,317,277263,2,0,B|267:328|267:328|186:293|186:293|145:221,1,255
276,108,278635,6,0,P|355:91|410:168,2,170
142,294,281377,6,0,L|161:114,2,170
381,284,284120,5,0,0:0:0:0:
322,140,284463,5,0,0:0:0:0:
203,236,284806,5,0,0:0:0:0:
296,122,285149,6,0,B|226:290|226:290|181:276|120:182|211:49|266:-8|336:113|362:190|341:250|289:298,1,680
