osu file format v14

[General]
AudioFilename: audio.mp3
AudioLeadIn: 0
PreviewTime: 10355
Countdown: 0
SampleSet: Normal
StackLeniency: 0.7
Mode: 1
LetterboxInBreaks: 0
WidescreenStoryboard: 1

[Editor]
Bookmarks: 32294
DistanceSpacing: 2.5
BeatDivisor: 4
GridSize: 32
TimelineZoom: 2.4

[Metadata]
Title:Ren-chon no Drum 'n' Bass
TitleUnicode:れんちょんのドラムンベース
Artist:Asterisk
ArtistUnicode:Asterisk
Creator:Yui Funami
Version:hac's Oni
Source:のんのんびより
Tags:japanese anime dnb d'n'b d&b and non non biyori miyauchi renge miyu sakurada miyu_sakurada iamveryfat hac aiexander alexander koiwai kotori 小岩井ことり 宮内れんげ
BeatmapID:3912524
BeatmapSetID:1893090

[Difficulty]
HPDrainRate:6
CircleSize:2
OverallDifficulty:5.5
ApproachRate:0
SliderMultiplier:1.4
SliderTickRate:1

[Events]
//Background and Video events
0,0,"bg.jpg",0,30
//Break Periods
//Storyboard Layer 0 (Background)
//Storyboard Layer 1 (Fail)
//Storyboard Layer 2 (Pass)
//Storyboard Layer 3 (Foreground)
//Storyboard Layer 4 (Overlay)
//Storyboard Sound Samples

[TimingPoints]
8984,342.857142857143,4,1,0,70,1,0
10355,342.857142857143,4,1,0,70,1,0
32297,-100,4,1,0,80,0,1
42926,-100,4,1,0,80,0,0
43269,-100,4,1,0,80,0,1
54240,-100,4,1,0,60,0,0

[HitObjects]
224,256,8983,5,8,0:0:0:0:
224,64,9155,1,0,0:0:0:0:
32,64,9326,1,0,0:0:0:0:
32,192,9412,1,0,0:0:0:0:
160,192,9498,1,8,0:0:0:0:
32,320,9669,1,0,0:0:0:0:
32,256,9841,1,8,0:0:0:0:
224,128,10012,1,0,0:0:0:0:
224,192,10098,1,0,0:0:0:0:
32,128,10184,1,8,0:0:0:0:
224,320,10355,1,4,0:0:0:0:
96,192,10697,1,8,0:0:0:0:
384,320,10869,1,8,0:0:0:0:
224,256,11040,1,0,0:0:0:0:
32,256,11126,1,0,0:0:0:0:
384,256,11212,1,0,0:0:0:0:
384,192,11383,1,8,0:0:0:0:
384,320,11555,1,0,0:0:0:0:
32,64,11726,1,8,0:0:0:0:
224,320,12069,1,8,0:0:0:0:
160,192,12240,1,0,0:0:0:0:
224,192,12326,1,0,0:0:0:0:
224,128,12412,1,8,0:0:0:0:
224,64,12583,1,0,0:0:0:0:
32,192,12755,1,8,0:0:0:0:
32,256,12926,1,8,0:0:0:0:
32,128,13097,1,0,0:0:0:0:
32,320,13440,1,8,0:0:0:0:
96,192,13612,1,0,0:0:0:0:
224,256,13697,1,8,0:0:0:0:
224,320,13783,1,0,0:0:0:0:
224,64,13955,1,0,0:0:0:0:
32,64,14126,1,8,0:0:0:0:
32,128,14297,1,0,0:0:0:0:
224,128,14469,1,8,0:0:0:0:
32,192,14812,1,8,0:0:0:0:
160,192,14983,1,0,0:0:0:0:
224,320,15069,1,0,0:0:0:0:
384,320,15155,1,8,0:0:0:0:
384,256,15326,1,0,0:0:0:0:
384,192,15497,1,8,0:0:0:0:
32,320,15840,1,8,0:0:0:0:
96,192,16183,1,8,0:0:0:0:
224,192,16355,1,0,0:0:0:0:
224,256,16526,1,8,0:0:0:0:
384,320,16612,1,8,0:0:0:0:
160,192,16697,1,0,0:0:0:0:
224,128,16869,1,8,0:0:0:0:
32,128,17040,1,8,0:0:0:0:
224,64,17212,1,0,0:0:0:0:
224,192,17555,1,8,0:0:0:0:
32,64,17726,1,0,0:0:0:0:
139,216,17812,1,0,0:0:0:0:
384,64,17897,1,0,0:0:0:0:
96,192,18069,1,8,0:0:0:0:
32,256,18240,1,0,0:0:0:0:
224,256,18412,1,0,0:0:0:0:
384,320,18583,1,8,0:0:0:0:
32,320,18926,1,8,0:0:0:0:
160,192,19097,1,8,0:0:0:0:
224,64,19269,1,0,0:0:0:0:
32,192,19440,1,0,0:0:0:0:
384,256,19612,1,8,0:0:0:0:
32,320,19955,1,12,0:0:0:0:
224,320,20297,1,0,0:0:0:0:
32,256,20469,1,8,0:0:0:0:
160,192,20555,1,8,0:0:0:0:
96,192,20640,1,0,0:0:0:0:
224,192,20812,1,0,0:0:0:0:
32,192,20983,1,8,0:0:0:0:
384,320,21155,1,0,0:0:0:0:
224,256,21240,1,0,0:0:0:0:
384,64,21326,1,12,0:0:0:0:
224,128,21669,1,8,0:0:0:0:
384,256,21840,1,8,0:0:0:0:
32,64,22012,1,0,0:0:0:0:
224,64,22097,1,8,0:0:0:0:
32,320,22183,1,0,0:0:0:0:
32,256,22355,1,8,0:0:0:0:
224,192,22526,1,0,0:0:0:0:
160,192,22697,1,8,0:0:0:0:
96,192,23040,1,8,0:0:0:0:
224,256,23212,1,8,0:0:0:0:
32,128,23383,1,0,0:0:0:0:
384,320,23555,1,0,0:0:0:0:
224,320,23726,1,8,0:0:0:0:
224,128,24069,1,4,0:0:0:0:
224,64,24412,1,8,0:0:0:0:
32,320,24583,1,0,0:0:0:0:
32,64,24669,1,0,0:0:0:0:
32,192,24755,1,8,0:0:0:0:
32,128,24926,1,0,0:0:0:0:
224,256,25097,1,0,0:0:0:0:
224,192,25269,1,8,0:0:0:0:
96,192,25440,1,0,0:0:0:0:
224,320,25783,1,8,0:0:0:0:
384,320,25955,1,8,0:0:0:0:
32,192,26126,1,0,0:0:0:0:
32,320,26297,1,0,0:0:0:0:
224,64,26469,1,8,0:0:0:0:
224,256,26812,1,8,0:0:0:0:
32,128,26897,1,8,0:0:0:0:
32,256,26983,1,0,0:0:0:0:
224,128,27069,1,0,0:0:0:0:
32,128,27155,1,8,0:0:0:0:
32,192,27326,1,0,0:0:0:0:
384,192,27497,1,8,0:0:0:0:
32,64,27583,1,8,0:0:0:0:
32,128,27669,1,8,0:0:0:0:
32,256,27840,1,0,0:0:0:0:
384,64,28012,1,8,0:0:0:0:
32,320,28183,1,8,0:0:0:0:
224,192,28269,1,0,0:0:0:0:
384,320,28355,1,8,0:0:0:0:
224,320,28440,1,8,0:0:0:0:
224,64,28526,1,0,0:0:0:0:
224,128,28697,1,0,0:0:0:0:
224,256,28869,1,8,0:0:0:0:
224,320,28955,1,8,0:0:0:0:
384,256,29040,1,0,0:0:0:0:
32,320,29212,1,8,0:0:0:0:
32,64,29383,1,0,0:0:0:0:
32,128,29555,1,8,0:0:0:0:
384,192,29897,1,8,0:0:0:0:
32,256,29983,1,8,0:0:0:0:
32,320,30069,1,0,0:0:0:0:
32,256,30155,1,0,0:0:0:0:
32,64,30240,1,8,0:0:0:0:
32,192,30412,1,0,0:0:0:0:
32,64,30583,1,8,0:0:0:0:
32,128,30669,1,8,0:0:0:0:
32,192,30755,1,0,0:0:0:0:
384,320,30926,1,8,0:0:0:0:
384,64,31097,1,0,0:0:0:0:
224,64,31269,1,8,0:0:0:0:
224,192,31440,1,0,0:0:0:0:
32,256,31526,1,0,0:0:0:0:
32,320,31612,1,0,0:0:0:0:
32,64,31783,1,8,0:0:0:0:
224,256,31955,1,8,0:0:0:0:
96,192,32126,1,0,0:0:0:0:
160,192,32212,1,0,0:0:0:0:
224,320,32297,1,12,0:0:0:0:
224,128,32640,1,8,0:0:0:0:
384,320,32983,1,0,0:0:0:0:
224,320,33155,1,0,0:0:0:0:
384,192,33326,1,8,0:0:0:0:
32,320,33497,1,0,0:0:0:0:
32,256,33583,1,8,0:0:0:0:
384,64,33669,1,8,0:0:0:0:
224,192,33840,1,0,0:0:0:0:
32,64,34012,1,8,0:0:0:0:
224,64,34183,1,0,0:0:0:0:
224,256,34269,1,0,0:0:0:0:
384,192,34355,1,8,0:0:0:0:
224,128,34526,1,0,0:0:0:0:
32,192,34697,1,8,0:0:0:0:
224,320,34869,1,0,0:0:0:0:
384,64,35040,1,8,0:0:0:0:
384,320,35383,1,8,0:0:0:0:
224,192,35555,1,0,0:0:0:0:
224,64,35640,1,0,0:0:0:0:
32,64,35726,1,0,0:0:0:0:
32,128,35897,1,0,0:0:0:0:
224,128,36069,1,8,0:0:0:0:
224,256,36240,1,8,0:0:0:0:
32,192,36412,1,0,0:0:0:0:
224,320,36755,1,8,0:0:0:0:
224,320,36926,1,0,0:0:0:0:
32,320,37012,1,0,0:0:0:0:
384,256,37097,1,8,0:0:0:0:
224,320,37269,1,0,0:0:0:0:
96,192,37440,1,8,0:0:0:0:
160,192,37612,1,0,0:0:0:0:
224,64,37783,1,8,0:0:0:0:
224,256,38126,1,8,0:0:0:0:
32,128,38297,1,8,0:0:0:0:
32,192,38383,1,0,0:0:0:0:
224,192,38469,1,8,0:0:0:0:
32,256,38640,1,0,0:0:0:0:
32,320,38812,1,8,0:0:0:0:
224,320,38983,1,0,0:0:0:0:
224,256,39069,1,0,0:0:0:0:
224,192,39155,1,8,0:0:0:0:
384,192,39326,1,0,0:0:0:0:
384,64,39497,1,8,0:0:0:0:
32,64,39669,1,0,0:0:0:0:
224,64,39755,1,8,0:0:0:0:
224,128,39840,1,0,0:0:0:0:
224,256,40012,1,0,0:0:0:0:
32,64,40183,1,8,0:0:0:0:
32,64,40269,1,8,0:0:0:0:
224,320,40355,1,0,0:0:0:0:
224,256,40526,1,8,0:0:0:0:
32,256,40869,1,8,0:0:0:0:
32,192,41040,1,0,0:0:0:0:
384,320,41126,1,0,0:0:0:0:
32,320,41212,1,8,0:0:0:0:
224,192,41383,1,0,0:0:0:0:
96,192,41555,1,8,0:0:0:0:
160,192,41640,1,8,0:0:0:0:
224,128,41726,1,0,0:0:0:0:
224,64,41897,1,8,0:0:0:0:
32,256,42240,1,8,0:0:0:0:
224,128,42412,1,0,0:0:0:0:
32,64,42497,1,0,0:0:0:0:
224,320,42583,1,8,0:0:0:0:
224,256,42755,1,0,0:0:0:0:
384,192,42926,1,8,0:0:0:0:
224,320,43097,1,8,0:0:0:0:
224,320,43269,1,4,0:0:0:0:
224,128,43612,1,8,0:0:0:0:
384,320,43955,1,0,0:0:0:0:
224,320,44126,1,0,0:0:0:0:
384,192,44297,1,8,0:0:0:0:
32,320,44469,1,0,0:0:0:0:
32,256,44555,1,0,0:0:0:0:
384,64,44640,1,8,0:0:0:0:
224,192,44812,1,0,0:0:0:0:
32,64,44983,1,8,0:0:0:0:
224,64,45155,1,0,0:0:0:0:
224,256,45240,1,0,0:0:0:0:
384,192,45326,1,0,0:0:0:0:
224,128,45497,1,0,0:0:0:0:
32,192,45669,1,8,0:0:0:0:
224,320,45840,1,0,0:0:0:0:
384,64,46012,1,8,0:0:0:0:
384,320,46355,1,8,0:0:0:0:
224,192,46526,1,0,0:0:0:0:
224,64,46612,1,8,0:0:0:0:
32,64,46697,1,0,0:0:0:0:
32,128,46869,1,0,0:0:0:0:
224,128,47040,1,8,0:0:0:0:
224,256,47212,1,8,0:0:0:0:
32,192,47383,1,0,0:0:0:0:
224,320,47726,1,8,0:0:0:0:
224,320,47897,1,0,0:0:0:0:
32,320,47983,1,0,0:0:0:0:
384,256,48069,1,8,0:0:0:0:
224,320,48240,1,0,0:0:0:0:
96,192,48412,1,8,0:0:0:0:
160,192,48583,1,0,0:0:0:0:
224,256,48755,1,8,0:0:0:0:
32,128,48840,1,8,0:0:0:0:
32,256,48926,1,0,0:0:0:0:
224,128,49012,1,0,0:0:0:0:
32,128,49097,1,8,0:0:0:0:
32,192,49269,1,0,0:0:0:0:
384,192,49440,1,8,0:0:0:0:
32,64,49526,1,8,0:0:0:0:
32,128,49612,1,8,0:0:0:0:
32,256,49783,1,0,0:0:0:0:
384,64,49955,1,8,0:0:0:0:
32,320,50126,1,8,0:0:0:0:
224,192,50212,1,0,0:0:0:0:
384,320,50297,1,8,0:0:0:0:
224,320,50383,1,8,0:0:0:0:
224,64,50469,1,0,0:0:0:0:
224,128,50640,1,0,0:0:0:0:
224,256,50812,1,8,0:0:0:0:
224,320,50897,1,8,0:0:0:0:
384,256,50983,1,0,0:0:0:0:
32,320,51155,1,8,0:0:0:0:
32,64,51326,1,0,0:0:0:0:
32,128,51497,1,8,0:0:0:0:
384,192,51840,1,8,0:0:0:0:
32,256,51926,1,8,0:0:0:0:
32,320,52012,1,0,0:0:0:0:
32,256,52097,1,0,0:0:0:0:
32,64,52183,1,8,0:0:0:0:
32,192,52355,1,0,0:0:0:0:
32,64,52526,1,8,0:0:0:0:
32,128,52612,1,8,0:0:0:0:
32,192,52697,1,0,0:0:0:0:
384,320,52869,1,8,0:0:0:0:
384,64,53040,1,8,0:0:0:0:
224,64,53212,1,0,0:0:0:0:
32,256,53297,1,0,0:0:0:0:
224,192,53383,1,8,0:0:0:0:
32,320,53555,1,0,0:0:0:0:
32,64,53726,1,8,0:0:0:0:
224,64,53812,1,0,0:0:0:0:
224,256,53897,1,8,0:0:0:0:
96,192,54069,1,0,0:0:0:0:
224,320,54240,1,8,0:0:0:0:
