osu file format v14

[General]
AudioFilename: audio.mp3
AudioLeadIn: 0
PreviewTime: 10355
Countdown: 0
SampleSet: Normal
StackLeniency: 0.7
Mode: 1
LetterboxInBreaks: 0
WidescreenStoryboard: 1

[Editor]
DistanceSpacing: 2.6
BeatDivisor: 2
GridSize: 32
TimelineZoom: 0.9000002

[Metadata]
Title:Ren-chon no Drum 'n' Bass
TitleUnicode:れんちょんのドラムンベース
Artist:Asterisk
ArtistUnicode:Asterisk
Creator:Yui Funami
Version:Futsuu
Source:のんのんびより
Tags:japanese anime dnb d'n'b d&b and non non biyori miyauchi renge miyu sakurada miyu_sakurada iamveryfat hac aiexander alexander koiwai kotori 小岩井ことり 宮内れんげ
BeatmapID:3901311
BeatmapSetID:1893090

[Difficulty]
HPDrainRate:8
CircleSize:2
OverallDifficulty:4
ApproachRate:10
SliderMultiplier:1.4
SliderTickRate:1

[Events]
//Background and Video events
0,0,"bg.jpg",0,30
//Break Periods
//Storyboard Layer 0 (Background)
//Storyboard Layer 1 (Fail)
//Storyboard Layer 2 (Pass)
//Storyboard Layer 3 (Foreground)
//Storyboard Layer 4 (Overlay)
//Storyboard Sound Samples

[TimingPoints]
8984,342.857142857143,4,1,0,70,1,0
10355,342.857142857143,4,1,0,70,1,0
32297,-100,4,1,0,80,0,1
42926,-100,4,1,0,80,0,0
43269,-100,4,1,0,80,0,1
54240,-100,4,1,0,60,0,0

[HitObjects]
163,238,8983,5,12,0:0:0:0:
174,244,9326,1,0,0:0:0:0:
188,256,9498,1,8,0:0:0:0:
41,364,9669,1,0,0:0:0:0:
191,262,10012,1,0,0:0:0:0:
176,253,10355,1,12,0:0:0:0:
182,249,10697,1,0,0:0:0:0:
176,253,11040,1,8,0:0:0:0:
186,258,11212,1,0,0:0:0:0:
182,249,11383,1,8,0:0:0:0:
186,258,11726,1,8,0:0:0:0:
186,258,12069,1,0,0:0:0:0:
170,264,12240,1,0,0:0:0:0:
169,263,12412,1,8,0:0:0:0:
169,263,12755,1,8,0:0:0:0:
171,261,13097,1,0,0:0:0:0:
169,263,13440,1,8,0:0:0:0:
171,261,13612,1,0,0:0:0:0:
163,253,13783,1,8,0:0:0:0:
171,261,14126,1,8,0:0:0:0:
161,269,14469,1,0,0:0:0:0:
203,265,14812,1,8,0:0:0:0:
225,317,15497,1,8,0:0:0:0:
163,253,15840,1,0,0:0:0:0:
163,254,16183,1,8,0:0:0:0:
163,254,16355,1,0,0:0:0:0:
152,254,16526,1,8,0:0:0:0:
151,257,16869,1,8,0:0:0:0:
151,257,17212,1,0,0:0:0:0:
152,254,17555,1,8,0:0:0:0:
170,264,17897,1,0,0:0:0:0:
151,257,18069,1,0,0:0:0:0:
151,257,18240,1,8,0:0:0:0:
151,257,18583,1,0,0:0:0:0:
151,257,18926,1,8,0:0:0:0:
84,280,19097,1,0,0:0:0:0:
88,255,19269,1,8,0:0:0:0:
151,257,19612,1,0,0:0:0:0:
167,258,19955,1,8,0:0:0:0:
167,258,20126,1,0,0:0:0:0:
167,256,20297,1,8,0:0:0:0:
97,257,20469,1,8,0:0:0:0:
151,257,20640,1,0,0:0:0:0:
164,263,21326,1,4,0:0:0:0:
24,241,21669,1,8,0:0:0:0:
160,276,22012,1,0,0:0:0:0:
176,260,22183,1,0,0:0:0:0:
174,260,22355,1,8,0:0:0:0:
167,258,22697,1,0,0:0:0:0:
176,260,23040,1,8,0:0:0:0:
492,79,23383,1,0,0:0:0:0:
334,168,23555,1,8,0:0:0:0:
178,262,23726,1,0,0:0:0:0:
168,271,24069,1,8,0:0:0:0:
29,218,24412,1,0,0:0:0:0:
171,266,24755,1,8,0:0:0:0:
3,316,24926,1,0,0:0:0:0:
168,271,25097,1,0,0:0:0:0:
162,276,25440,1,8,0:0:0:0:
429,28,25783,1,0,0:0:0:0:
162,286,26469,1,8,0:0:0:0:
162,287,26812,1,0,0:0:0:0:
154,277,27155,1,0,0:0:0:0:
152,276,27326,1,8,0:0:0:0:
151,275,27497,1,0,0:0:0:0:
157,281,27840,1,8,0:0:0:0:
156,290,28183,1,8,0:0:0:0:
156,290,28355,1,0,0:0:0:0:
156,290,28526,1,8,0:0:0:0:
159,294,28869,1,8,0:0:0:0:
164,299,29212,1,0,0:0:0:0:
168,300,29555,1,8,0:0:0:0:
168,300,29897,1,8,0:0:0:0:
162,287,30069,1,0,0:0:0:0:
156,290,30240,1,8,0:0:0:0:
162,290,30583,1,8,0:0:0:0:
156,288,30926,1,8,0:0:0:0:
156,290,31097,1,0,0:0:0:0:
156,290,31269,1,8,0:0:0:0:
10,179,31440,1,0,0:0:0:0:
146,289,31612,1,0,0:0:0:0:
181,289,32297,1,12,0:0:0:0:
178,273,32640,1,0,0:0:0:0:
351,217,32983,1,8,0:0:0:0:
178,273,33155,1,0,0:0:0:0:
179,275,33326,1,8,0:0:0:0:
179,282,33669,1,8,0:0:0:0:
179,288,34012,1,8,0:0:0:0:
179,288,34183,1,0,0:0:0:0:
178,293,34355,1,0,0:0:0:0:
178,293,34697,1,8,0:0:0:0:
157,298,35040,1,8,0:0:0:0:
157,302,35212,1,8,0:0:0:0:
178,285,35383,1,0,0:0:0:0:
179,288,35726,1,8,0:0:0:0:
179,288,36069,1,0,0:0:0:0:
178,285,36412,1,8,0:0:0:0:
175,292,37097,1,8,0:0:0:0:
172,292,37440,1,8,0:0:0:0:
49,161,37612,1,8,0:0:0:0:
179,288,37783,1,0,0:0:0:0:
185,288,38126,1,0,0:0:0:0:
179,288,38297,1,8,0:0:0:0:
179,288,38469,1,0,0:0:0:0:
179,288,38812,1,0,0:0:0:0:
185,288,39155,1,8,0:0:0:0:
95,129,39326,1,0,0:0:0:0:
248,228,39497,1,8,0:0:0:0:
248,228,39840,1,8,0:0:0:0:
271,266,40526,1,8,0:0:0:0:
271,266,40869,1,0,0:0:0:0:
97,295,41040,1,8,0:0:0:0:
232,292,41212,1,0,0:0:0:0:
232,292,41555,1,8,0:0:0:0:
232,292,41897,1,0,0:0:0:0:
180,298,42069,1,0,0:0:0:0:
173,290,42240,1,8,0:0:0:0:
285,287,42583,1,0,0:0:0:0:
137,287,42926,1,8,0:0:0:0:
181,289,43269,1,12,0:0:0:0:
178,273,43612,1,0,0:0:0:0:
351,217,43955,1,8,0:0:0:0:
178,273,44126,1,0,0:0:0:0:
179,275,44297,1,8,0:0:0:0:
179,282,44640,1,8,0:0:0:0:
179,288,44983,1,8,0:0:0:0:
179,288,45155,1,0,0:0:0:0:
178,293,45326,1,0,0:0:0:0:
178,293,45669,1,8,0:0:0:0:
157,298,46012,1,8,0:0:0:0:
157,302,46183,1,8,0:0:0:0:
178,285,46355,1,0,0:0:0:0:
179,288,46697,1,8,0:0:0:0:
179,288,47040,1,0,0:0:0:0:
178,285,47383,1,8,0:0:0:0:
172,292,48069,1,8,0:0:0:0:
178,285,48412,1,8,0:0:0:0:
178,285,48583,1,0,0:0:0:0:
179,288,48755,1,0,0:0:0:0:
185,288,49097,1,0,0:0:0:0:
179,288,49269,1,0,0:0:0:0:
176,275,49440,1,8,0:0:0:0:
179,288,49783,1,0,0:0:0:0:
185,288,50126,1,8,0:0:0:0:
158,287,50469,1,8,0:0:0:0:
185,288,50640,1,0,0:0:0:0:
156,319,50812,1,8,0:0:0:0:
184,292,51155,1,0,0:0:0:0:
180,274,51497,1,8,0:0:0:0:
92,271,51840,1,0,0:0:0:0:
155,281,52183,1,8,0:0:0:0:
180,298,52526,1,0,0:0:0:0:
180,298,52697,1,8,0:0:0:0:
180,298,52869,1,0,0:0:0:0:
173,290,53212,1,8,0:0:0:0:
8,369,53383,1,0,0:0:0:0:
176,285,53555,1,0,0:0:0:0:
170,298,53726,1,0,0:0:0:0:
170,298,53897,1,8,0:0:0:0:
171,297,54240,1,12,0:0:0:0:
