osu file format v14

[General]
AudioFilename: audio.mp3
AudioLeadIn: 0
PreviewTime: 99051
Countdown: 0
SampleSet: Normal
StackLeniency: 0.7
Mode: 1
LetterboxInBreaks: 0
WidescreenStoryboard: 0

[Editor]
Bookmarks: 1680,23623,45566,56537,78480,89451,100423,111394,122366,133337,144309,166251,188194,199166,210137,221109,231137,232080,243051,254023,275966,296537
DistanceSpacing: 1
BeatDivisor: 4
GridSize: 32
TimelineZoom: 2.7

[Metadata]
Title:Rain
TitleUnicode:Rain
Artist:Asterisk
ArtistUnicode:Asterisk
Creator:gaston_2199
Version:Raindrop
Source:
Tags:dnb drum and bass electro makina works 3 three
BeatmapID:1204254
BeatmapSetID:568250

[Difficulty]
HPDrainRate:5
CircleSize:2
OverallDifficulty:7
ApproachRate:0
SliderMultiplier:1.4
SliderTickRate:1

[Events]
//Background and Video events
0,0,"BG.jpg",0,50
//Break Periods
//Storyboard Layer 0 (Background)
//Storyboard Layer 1 (Fail)
//Storyboard Layer 2 (Pass)
//Storyboard Layer 3 (Foreground)
//Storyboard Sound Samples

[TimingPoints]
309,342.857142857143,4,1,0,80,1,0
1680,-111.111111111111,4,1,0,70,0,0
23623,-100,4,1,0,80,0,0
45566,-111.111111111111,4,1,0,70,0,0
56537,-100,4,1,0,60,0,0
78480,-100,4,1,0,70,0,0
89451,-100,4,1,0,75,0,0
94937,-100,4,1,0,77,0,0
96309,-100,4,1,0,80,0,0
97680,-100,4,1,0,70,0,0
98366,-100,4,1,0,60,0,0
99051,-103.092783505155,4,1,0,80,0,0
99223,-105.263157894737,4,1,0,80,0,0
99394,-108.695652173913,4,1,0,80,0,0
99480,-111.111111111111,4,1,0,80,0,0
99651,-114.942528735632,4,1,0,80,0,0
99737,-117.647058823529,4,1,0,80,0,0
99909,-121.951219512195,4,1,0,80,0,0
99994,-125,4,1,0,80,0,0
100166,-129.87012987013,4,1,0,80,0,0
100251,-133.333333333333,4,1,0,80,0,0
100423,-100,4,1,0,90,0,1
120994,-103.092783505155,4,1,0,90,0,0
121166,-105.263157894737,4,1,0,90,0,0
121337,-108.695652173913,4,1,0,80,0,0
121423,-111.111111111111,4,1,0,80,0,0
121594,-114.942528735632,4,1,0,60,0,0
121680,-117.647058823529,4,1,0,60,0,0
121851,-121.951219512195,4,1,0,40,0,0
121937,-125,4,1,0,40,0,0
122109,-129.87012987013,4,1,0,20,0,0
122194,-133.333333333333,4,1,0,20,0,0
122366,-100,4,1,0,100,0,1
142937,-103.092783505155,4,1,0,90,0,0
143109,-105.263157894737,4,1,0,90,0,0
143280,-108.695652173913,4,1,0,80,0,0
143366,-111.111111111111,4,1,0,80,0,0
143537,-114.942528735632,4,1,0,60,0,0
143623,-117.647058823529,4,1,0,60,0,0
143794,-121.951219512195,4,1,0,40,0,0
143880,-125,4,1,0,40,0,0
144051,-129.87012987013,4,1,0,20,0,0
144137,-133.333333333333,4,1,0,20,0,0
144308,-100,4,1,0,80,0,0
166251,-125,4,1,0,60,0,0
188194,-111.111111111111,4,1,0,70,0,0
198823,-105.263157894737,4,1,0,70,0,0
199166,-100,4,1,0,75,0,0
204651,-100,4,1,0,77,0,0
206023,-100,4,1,0,80,0,0
207394,-100,4,1,0,70,0,0
208080,-100,4,1,0,60,0,0
208766,-103.092783505155,4,1,0,80,0,0
208937,-105.263157894737,4,1,0,80,0,0
209108,-108.695652173913,4,1,0,80,0,0
209194,-111.111111111111,4,1,0,80,0,0
209365,-114.942528735632,4,1,0,80,0,0
209451,-117.647058823529,4,1,0,80,0,0
209623,-121.951219512195,4,1,0,80,0,0
209708,-125,4,1,0,80,0,0
209880,-129.87012987013,4,1,0,80,0,0
209965,-133.333333333333,4,1,0,80,0,0
210137,-100,4,1,0,90,0,1
230709,-103.092783505155,4,1,0,90,0,0
230880,-105.263157894737,4,1,0,90,0,0
231051,-108.695652173913,4,1,0,80,0,0
231137,-111.111111111111,4,1,0,80,0,0
231308,-114.942528735632,4,1,0,60,0,0
231394,-117.647058823529,4,1,0,60,0,0
231565,-121.951219512195,4,1,0,40,0,0
231651,-125,4,1,0,40,0,0
231823,-129.87012987013,4,1,0,20,0,0
231908,-133.333333333333,4,1,0,20,0,0
232080,-100,4,1,0,100,0,1
252651,-103.092783505155,4,1,0,90,0,0
252823,-105.263157894737,4,1,0,90,0,0
252994,-108.695652173913,4,1,0,80,0,0
253080,-111.111111111111,4,1,0,80,0,0
253251,-114.942528735632,4,1,0,60,0,0
253337,-117.647058823529,4,1,0,60,0,0
253508,-121.951219512195,4,1,0,40,0,0
253594,-125,4,1,0,40,0,0
253765,-129.87012987013,4,1,0,20,0,0
253851,-133.333333333333,4,1,0,20,0,0
254023,-100,4,1,0,80,0,0
275966,-111.111111111111,4,1,0,70,0,0
297223,-117.647058823529,4,1,0,65,0,0
297480,-120.481927710843,4,1,0,65,0,0
297737,-123.456790123457,4,1,0,65,0,0
297909,-125,4,1,0,50,0,0
298166,-128.205128205128,4,1,0,50,0,0
298423,-131.578947368421,4,1,0,50,0,0
298594,-133.333333333333,4,1,0,45,0,0
298851,-136.986301369863,4,1,0,45,0,0
299109,-140.845070422535,4,1,0,45,0,0
299280,-142.857142857143,4,1,0,30,0,0
299537,-147.058823529412,4,1,0,30,0,0
299794,-151.515151515152,4,1,0,30,0,0
299966,-153.846153846154,4,1,0,15,0,0
300223,-158.730158730159,4,1,0,15,0,0
300480,-163.934426229508,4,1,0,15,0,0
300651,-166.666666666667,4,1,0,5,0,0

[HitObjects]
256,192,480,12,0,1509,0:0:0:0:
256,192,1680,5,4,0:0:0:0:
256,192,1851,5,0,0:0:0:0:
256,192,2023,1,8,0:0:0:0:
256,192,2194,1,0,0:0:0:0:
256,192,2537,1,0,0:0:0:0:
256,192,2709,1,8,0:0:0:0:
256,192,2880,1,0,0:0:0:0:
256,192,3051,1,0,0:0:0:0:
256,192,3394,1,8,0:0:0:0:
256,192,3566,1,0,0:0:0:0:
256,192,3909,1,0,0:0:0:0:
256,192,4080,1,8,0:0:0:0:
256,192,4423,1,0,0:0:0:0:
256,192,4766,1,8,0:0:0:0:
256,192,5109,1,0,0:0:0:0:
256,192,5451,1,8,0:0:0:0:
256,192,5794,1,0,0:0:0:0:
256,192,6137,1,8,0:0:0:0:
256,192,6480,1,0,0:0:0:0:
256,192,6737,1,8,0:0:0:0:
256,192,6823,1,0,0:0:0:0:
256,192,6994,1,8,0:0:0:0:
256,192,7337,1,0,0:0:0:0:
256,192,7509,1,8,0:0:0:0:
256,192,7680,1,0,0:0:0:0:
256,192,8023,1,0,0:0:0:0:
256,192,8194,1,8,0:0:0:0:
256,192,8366,1,0,0:0:0:0:
256,192,8537,1,0,0:0:0:0:
256,192,8880,1,8,0:0:0:0:
256,192,9051,1,0,0:0:0:0:
256,192,9394,1,0,0:0:0:0:
256,192,9566,1,8,0:0:0:0:
256,192,9909,1,0,0:0:0:0:
256,192,10251,1,8,0:0:0:0:
256,192,10594,1,0,0:0:0:0:
256,192,10937,1,8,0:0:0:0:
256,192,11280,1,0,0:0:0:0:
256,192,11623,1,8,0:0:0:0:
256,192,11966,1,0,0:0:0:0:
256,192,12223,1,8,0:0:0:0:
256,192,12309,1,0,0:0:0:0:
256,192,12480,1,8,0:0:0:0:
256,192,12651,1,4,0:0:0:0:
256,192,12823,1,0,0:0:0:0:
256,192,12994,1,8,0:0:0:0:
256,192,13166,1,8,0:0:0:0:
256,192,13509,1,0,0:0:0:0:
256,192,13680,1,8,0:0:0:0:
256,192,13851,1,8,0:0:0:0:
256,192,14023,1,0,0:0:0:0:
256,192,14366,1,8,0:0:0:0:
256,192,14537,1,0,0:0:0:0:
256,192,14880,1,0,0:0:0:0:
256,192,15051,1,8,0:0:0:0:
256,192,15394,1,4,0:0:0:0:
256,192,15737,1,8,0:0:0:0:
256,192,16080,1,0,0:0:0:0:
256,192,16423,1,8,0:0:0:0:
256,192,16766,1,0,0:0:0:0:
256,192,17109,1,8,0:0:0:0:
256,192,17451,1,0,0:0:0:0:
256,192,17709,1,8,0:0:0:0:
256,192,17794,1,0,0:0:0:0:
256,192,17966,1,8,0:0:0:0:
256,192,18137,1,4,0:0:0:0:
256,192,18309,1,0,0:0:0:0:
256,192,18480,1,8,0:0:0:0:
256,192,18651,1,8,0:0:0:0:
256,192,18994,1,0,0:0:0:0:
256,192,19166,1,8,0:0:0:0:
256,192,19337,1,8,0:0:0:0:
256,192,19509,1,4,0:0:0:0:
256,192,19851,1,8,0:0:0:0:
256,192,20023,1,0,0:0:0:0:
256,192,20366,1,0,0:0:0:0:
256,192,20537,1,8,0:0:0:0:
256,192,20880,1,4,0:0:0:0:
256,192,21223,1,8,0:0:0:0:
256,192,21566,1,4,0:0:0:0:
256,192,21909,1,8,0:0:0:0:
256,192,22251,1,4,0:0:0:0:
256,192,23623,1,4,0:0:0:0:
256,192,23794,1,0,0:0:0:0:
256,192,23880,1,0,0:0:0:0:
256,192,23966,1,8,0:0:0:0:
256,192,24137,1,8,0:0:0:0:
256,192,24309,1,0,0:0:0:0:
256,192,24480,1,0,0:0:0:0:
256,192,24566,1,0,0:0:0:0:
256,192,24651,1,8,0:0:0:0:
256,192,24823,1,0,0:0:0:0:
256,192,24994,1,8,0:0:0:0:
256,192,25080,1,0,0:0:0:0:
256,192,25166,1,0,0:0:0:0:
256,192,25337,1,8,0:0:0:0:
256,192,25509,1,0,0:0:0:0:
256,192,25594,1,0,0:0:0:0:
256,192,25680,1,0,0:0:0:0:
256,192,25851,1,0,0:0:0:0:
256,192,26023,1,8,0:0:0:0:
256,192,26194,1,0,0:0:0:0:
256,192,26366,1,0,0:0:0:0:
256,192,26537,1,0,0:0:0:0:
256,192,26623,1,0,0:0:0:0:
256,192,26709,1,8,0:0:0:0:
256,192,26880,1,0,0:0:0:0:
256,192,27051,1,0,0:0:0:0:
256,192,27223,1,0,0:0:0:0:
256,192,27309,1,0,0:0:0:0:
256,192,27394,1,8,0:0:0:0:
256,192,27566,1,0,0:0:0:0:
256,192,27737,1,0,0:0:0:0:
256,192,27909,1,0,0:0:0:0:
256,192,27994,1,0,0:0:0:0:
256,192,28080,1,8,0:0:0:0:
256,192,28251,1,0,0:0:0:0:
256,192,28423,1,8,0:0:0:0:
256,192,28594,1,0,0:0:0:0:
256,192,28680,1,8,0:0:0:0:
256,192,28766,1,0,0:0:0:0:
256,192,28937,1,8,0:0:0:0:
256,192,29109,1,0,0:0:0:0:
256,192,29280,1,0,0:0:0:0:
256,192,29366,1,0,0:0:0:0:
256,192,29451,1,8,0:0:0:0:
256,192,29623,1,8,0:0:0:0:
256,192,29794,1,0,0:0:0:0:
256,192,29966,1,0,0:0:0:0:
256,192,30051,1,0,0:0:0:0:
256,192,30137,1,8,0:0:0:0:
256,192,30309,1,0,0:0:0:0:
256,192,30480,1,8,0:0:0:0:
256,192,30566,1,8,0:0:0:0:
256,192,30651,1,0,0:0:0:0:
256,192,30823,1,8,0:0:0:0:
256,192,30994,1,0,0:0:0:0:
256,192,31080,1,0,0:0:0:0:
256,192,31166,1,0,0:0:0:0:
256,192,31337,1,0,0:0:0:0:
256,192,31509,1,8,0:0:0:0:
256,192,31680,1,0,0:0:0:0:
256,192,31851,1,0,0:0:0:0:
256,192,32023,1,0,0:0:0:0:
256,192,32109,1,0,0:0:0:0:
256,192,32194,1,8,0:0:0:0:
256,192,32366,1,0,0:0:0:0:
256,192,32537,1,0,0:0:0:0:
256,192,32709,1,0,0:0:0:0:
256,192,32794,1,0,0:0:0:0:
256,192,32880,1,8,0:0:0:0:
256,192,33051,1,0,0:0:0:0:
256,192,33223,1,0,0:0:0:0:
256,192,33394,1,0,0:0:0:0:
256,192,33480,1,0,0:0:0:0:
256,192,33566,1,8,0:0:0:0:
256,192,33737,1,0,0:0:0:0:
256,192,33909,1,8,0:0:0:0:
256,192,34080,1,0,0:0:0:0:
256,192,34166,1,8,0:0:0:0:
256,192,34251,1,0,0:0:0:0:
256,192,34423,1,8,0:0:0:0:
256,192,34594,1,4,0:0:0:0:
256,192,34766,1,0,0:0:0:0:
256,192,34851,1,0,0:0:0:0:
256,192,34937,1,8,0:0:0:0:
256,192,35023,1,0,0:0:0:0:
256,192,35109,1,8,0:0:0:0:
256,192,35280,1,0,0:0:0:0:
256,192,35451,1,0,0:0:0:0:
256,192,35537,1,0,0:0:0:0:
256,192,35623,1,8,0:0:0:0:
256,192,35794,1,0,0:0:0:0:
256,192,35966,1,8,0:0:0:0:
256,192,36051,1,0,0:0:0:0:
256,192,36137,1,0,0:0:0:0:
256,192,36223,1,0,0:0:0:0:
256,192,36309,1,8,0:0:0:0:
256,192,36480,1,0,0:0:0:0:
256,192,36566,1,0,0:0:0:0:
256,192,36651,1,0,0:0:0:0:
256,192,36823,1,0,0:0:0:0:
256,192,36994,1,8,0:0:0:0:
256,192,37166,1,0,0:0:0:0:
256,192,37337,1,4,0:0:0:0:
256,192,37509,1,0,0:0:0:0:
256,192,37594,1,0,0:0:0:0:
256,192,37680,1,8,0:0:0:0:
256,192,37851,1,0,0:0:0:0:
256,192,38023,1,0,0:0:0:0:
256,192,38194,1,0,0:0:0:0:
256,192,38280,1,0,0:0:0:0:
256,192,38366,1,8,0:0:0:0:
256,192,38537,1,0,0:0:0:0:
256,192,38709,1,0,0:0:0:0:
256,192,38880,1,0,0:0:0:0:
256,192,38966,1,0,0:0:0:0:
256,192,39051,1,8,0:0:0:0:
256,192,39223,1,0,0:0:0:0:
256,192,39394,1,8,0:0:0:0:
256,192,39566,1,0,0:0:0:0:
256,192,39651,1,8,0:0:0:0:
256,192,39737,1,0,0:0:0:0:
256,192,39909,1,8,0:0:0:0:
256,192,40080,1,4,0:0:0:0:
256,192,40251,1,0,0:0:0:0:
256,192,40337,1,0,0:0:0:0:
256,192,40423,1,8,0:0:0:0:
256,192,40594,1,0,0:0:0:0:
256,192,40766,1,8,0:0:0:0:
256,192,40937,1,0,0:0:0:0:
256,192,41109,1,8,0:0:0:0:
256,192,41194,1,8,0:0:0:0:
256,192,41280,1,0,0:0:0:0:
256,192,41451,1,4,0:0:0:0:
256,192,41623,1,0,0:0:0:0:
256,192,41709,1,0,0:0:0:0:
256,192,41794,1,8,0:0:0:0:
256,192,41966,1,0,0:0:0:0:
256,192,42137,1,8,0:0:0:0:
256,192,42309,1,0,0:0:0:0:
256,192,42480,1,8,0:0:0:0:
256,192,42566,1,8,0:0:0:0:
256,192,42651,1,0,0:0:0:0:
256,192,42823,1,0,0:0:0:0:
256,192,42909,1,0,0:0:0:0:
256,192,42994,1,0,0:0:0:0:
256,192,43080,1,0,0:0:0:0:
256,192,43166,1,8,0:0:0:0:
256,192,43251,1,8,0:0:0:0:
256,192,43337,1,8,0:0:0:0:
256,192,43423,1,8,0:0:0:0:
256,192,43509,1,0,0:0:0:0:
256,192,43594,1,0,0:0:0:0:
256,192,43680,1,0,0:0:0:0:
256,192,43766,1,0,0:0:0:0:
256,192,43851,1,8,0:0:0:0:
256,192,43937,1,8,0:0:0:0:
256,192,44023,1,8,0:0:0:0:
256,192,44109,1,8,0:0:0:0:
256,192,44194,1,0,0:0:0:0:
256,192,45566,1,4,0:0:0:0:
256,192,45737,1,0,0:0:0:0:
256,192,45909,1,8,0:0:0:0:
256,192,46080,1,0,0:0:0:0:
256,192,46423,1,0,0:0:0:0:
256,192,46594,1,8,0:0:0:0:
256,192,46766,1,0,0:0:0:0:
256,192,46937,1,0,0:0:0:0:
256,192,47280,1,8,0:0:0:0:
256,192,47451,1,0,0:0:0:0:
256,192,48480,1,0,0:0:0:0:
256,192,48823,1,0,0:0:0:0:
256,192,49166,1,0,0:0:0:0:
256,192,49509,1,0,0:0:0:0:
256,192,49851,1,8,0:0:0:0:
256,192,50194,1,8,0:0:0:0:
256,192,50537,1,8,0:0:0:0:
256,192,50880,1,8,0:0:0:0:
256,192,51223,1,0,0:0:0:0:
256,192,51394,1,8,0:0:0:0:
256,192,51566,1,0,0:0:0:0:
256,192,51909,1,0,0:0:0:0:
256,192,52080,1,8,0:0:0:0:
256,192,52251,1,0,0:0:0:0:
256,192,52423,1,0,0:0:0:0:
256,192,52766,1,8,0:0:0:0:
256,192,52937,1,0,0:0:0:0:
256,192,53966,1,0,0:0:0:0:
256,192,54309,1,0,0:0:0:0:
256,192,54651,1,0,0:0:0:0:
256,192,54994,1,0,0:0:0:0:
256,192,55166,12,0,56366,0:0:0:0:
256,192,56537,5,4,0:0:0:0:
256,192,56709,5,0,0:0:0:0:
256,192,56880,1,8,0:0:0:0:
256,192,57051,1,0,0:0:0:0:
256,192,57394,1,0,0:0:0:0:
256,192,57566,1,8,0:0:0:0:
256,192,57737,1,0,0:0:0:0:
256,192,57909,1,0,0:0:0:0:
256,192,58251,1,8,0:0:0:0:
256,192,58423,1,0,0:0:0:0:
256,192,58766,1,0,0:0:0:0:
256,192,58937,1,8,0:0:0:0:
256,192,59280,1,0,0:0:0:0:
256,192,59451,1,0,0:0:0:0:
256,192,59623,1,8,0:0:0:0:
256,192,59794,1,0,0:0:0:0:
256,192,60137,1,0,0:0:0:0:
256,192,60309,1,8,0:0:0:0:
256,192,60480,1,8,0:0:0:0:
256,192,60651,1,0,0:0:0:0:
256,192,60823,1,8,0:0:0:0:
256,192,61166,1,0,0:0:0:0:
256,192,61509,1,8,0:0:0:0:
256,192,61680,1,0,0:0:0:0:
256,192,62023,1,8,0:0:0:0:
256,192,62194,1,0,0:0:0:0:
256,192,62366,1,8,0:0:0:0:
256,192,62537,1,8,0:0:0:0:
256,192,62880,1,0,0:0:0:0:
256,192,63051,1,8,0:0:0:0:
256,192,63223,1,0,0:0:0:0:
256,192,63394,1,0,0:0:0:0:
256,192,63737,1,8,0:0:0:0:
256,192,63909,1,0,0:0:0:0:
256,192,64251,1,0,0:0:0:0:
256,192,64423,1,8,0:0:0:0:
256,192,64766,1,0,0:0:0:0:
256,192,64937,1,0,0:0:0:0:
256,192,65109,1,8,0:0:0:0:
256,192,65280,1,0,0:0:0:0:
256,192,65623,1,0,0:0:0:0:
256,192,65794,1,8,0:0:0:0:
256,192,65966,1,0,0:0:0:0:
256,192,66137,1,0,0:0:0:0:
256,192,66309,1,8,0:0:0:0:
256,192,66651,1,0,0:0:0:0:
256,192,66994,1,0,0:0:0:0:
256,192,67166,1,8,0:0:0:0:
256,192,67509,1,0,0:0:0:0:
256,192,67680,1,0,0:0:0:0:
256,192,67851,1,8,0:0:0:0:
256,192,68023,1,0,0:0:0:0:
256,192,68366,1,0,0:0:0:0:
256,192,68537,1,8,0:0:0:0:
256,192,68709,1,0,0:0:0:0:
256,192,68880,1,0,0:0:0:0:
256,192,69223,1,8,0:0:0:0:
256,192,69394,1,0,0:0:0:0:
256,192,69737,1,0,0:0:0:0:
256,192,69909,1,8,0:0:0:0:
256,192,70251,1,0,0:0:0:0:
256,192,70423,1,0,0:0:0:0:
256,192,70594,1,8,0:0:0:0:
256,192,70766,1,0,0:0:0:0:
256,192,71109,1,0,0:0:0:0:
256,192,71280,1,8,0:0:0:0:
256,192,71451,1,8,0:0:0:0:
256,192,71623,1,0,0:0:0:0:
256,192,71794,1,8,0:0:0:0:
256,192,72137,1,0,0:0:0:0:
256,192,72480,1,8,0:0:0:0:
256,192,72651,1,0,0:0:0:0:
256,192,72994,1,8,0:0:0:0:
256,192,73166,1,0,0:0:0:0:
256,192,73337,1,8,0:0:0:0:
256,192,73509,1,8,0:0:0:0:
256,192,73851,1,0,0:0:0:0:
256,192,74023,1,8,0:0:0:0:
256,192,74194,1,0,0:0:0:0:
256,192,74366,1,0,0:0:0:0:
256,192,74709,1,8,0:0:0:0:
256,192,74880,1,0,0:0:0:0:
256,192,75051,1,8,0:0:0:0:
256,192,75394,1,8,0:0:0:0:
256,192,75566,1,8,0:0:0:0:
256,192,75737,1,0,0:0:0:0:
256,192,76080,1,8,0:0:0:0:
256,192,76251,1,0,0:0:0:0:
256,192,76594,1,0,0:0:0:0:
256,192,76766,1,8,0:0:0:0:
256,192,76937,1,8,0:0:0:0:
256,192,77109,1,0,0:0:0:0:
256,192,77794,1,0,0:0:0:0:
256,192,78480,5,4,0:0:0:0:
256,192,78651,1,0,0:0:0:0:
256,192,78737,1,0,0:0:0:0:
256,192,78823,1,8,0:0:0:0:
256,192,78994,1,0,0:0:0:0:
256,192,79166,1,8,0:0:0:0:
256,192,79337,1,0,0:0:0:0:
256,192,79423,1,8,0:0:0:0:
256,192,79594,1,0,0:0:0:0:
256,192,79680,1,8,0:0:0:0:
256,192,79851,1,0,0:0:0:0:
256,192,80023,1,8,0:0:0:0:
256,192,80109,1,8,0:0:0:0:
256,192,80194,1,0,0:0:0:0:
256,192,80366,1,0,0:0:0:0:
256,192,80451,1,8,0:0:0:0:
256,192,80537,1,0,0:0:0:0:
256,192,80709,1,8,0:0:0:0:
256,192,80794,1,0,0:0:0:0:
256,192,80966,1,8,0:0:0:0:
256,192,81051,1,0,0:0:0:0:
256,192,81223,1,8,0:0:0:0:
256,192,81394,1,0,0:0:0:0:
256,192,81480,1,0,0:0:0:0:
256,192,81566,1,8,0:0:0:0:
256,192,81737,1,0,0:0:0:0:
256,192,81909,1,8,0:0:0:0:
256,192,82080,1,0,0:0:0:0:
256,192,82166,1,8,0:0:0:0:
256,192,82337,1,0,0:0:0:0:
256,192,82423,1,0,0:0:0:0:
256,192,82594,1,0,0:0:0:0:
256,192,82766,1,8,0:0:0:0:
256,192,82937,1,0,0:0:0:0:
256,192,83023,1,8,0:0:0:0:
256,192,83109,1,0,0:0:0:0:
256,192,83280,1,8,0:0:0:0:
256,192,83451,1,0,0:0:0:0:
256,192,83537,1,8,0:0:0:0:
256,192,83709,1,0,0:0:0:0:
256,192,83794,1,8,0:0:0:0:
256,192,83966,1,0,0:0:0:0:
256,192,84137,1,0,0:0:0:0:
256,192,84223,1,0,0:0:0:0:
256,192,84309,1,8,0:0:0:0:
256,192,84480,1,0,0:0:0:0:
256,192,84651,1,8,0:0:0:0:
256,192,84823,1,0,0:0:0:0:
256,192,84909,1,8,0:0:0:0:
256,192,85080,1,0,0:0:0:0:
256,192,85166,1,8,0:0:0:0:
256,192,85337,1,0,0:0:0:0:
256,192,85509,1,8,0:0:0:0:
256,192,85594,1,8,0:0:0:0:
256,192,85680,1,0,0:0:0:0:
256,192,85851,1,0,0:0:0:0:
256,192,85937,1,8,0:0:0:0:
256,192,86023,1,0,0:0:0:0:
256,192,86194,1,8,0:0:0:0:
256,192,86280,1,0,0:0:0:0:
256,192,86451,1,8,0:0:0:0:
256,192,86537,1,0,0:0:0:0:
256,192,86709,1,8,0:0:0:0:
256,192,86880,1,0,0:0:0:0:
256,192,86966,1,0,0:0:0:0:
256,192,87051,1,8,0:0:0:0:
256,192,87223,1,0,0:0:0:0:
256,192,87394,1,8,0:0:0:0:
256,192,87566,1,0,0:0:0:0:
256,192,87651,1,8,0:0:0:0:
256,192,87823,1,0,0:0:0:0:
256,192,87909,5,0,0:0:0:0:
256,192,88080,1,0,0:0:0:0:
256,192,88251,1,8,0:0:0:0:
256,192,88423,1,0,0:0:0:0:
256,192,88509,1,8,0:0:0:0:
256,192,88594,1,0,0:0:0:0:
256,192,88766,1,8,0:0:0:0:
256,192,88937,1,0,0:0:0:0:
256,192,89023,1,8,0:0:0:0:
256,192,89194,1,0,0:0:0:0:
256,192,89280,1,8,0:0:0:0:
256,192,89451,1,4,0:0:0:0:
256,192,89623,1,0,0:0:0:0:
256,192,89709,1,0,0:0:0:0:
256,192,89794,1,8,0:0:0:0:
256,192,89966,1,0,0:0:0:0:
256,192,90137,1,8,0:0:0:0:
256,192,90309,1,0,0:0:0:0:
256,192,90394,1,8,0:0:0:0:
256,192,90566,1,0,0:0:0:0:
256,192,90651,1,8,0:0:0:0:
256,192,90823,1,0,0:0:0:0:
256,192,90994,1,8,0:0:0:0:
256,192,91080,1,8,0:0:0:0:
256,192,91166,1,0,0:0:0:0:
256,192,91337,1,0,0:0:0:0:
256,192,91423,1,8,0:0:0:0:
256,192,91509,1,0,0:0:0:0:
256,192,91680,1,8,0:0:0:0:
256,192,91766,1,0,0:0:0:0:
256,192,91937,1,8,0:0:0:0:
256,192,92023,1,0,0:0:0:0:
256,192,92194,1,12,0:0:0:0:
256,192,92366,1,0,0:0:0:0:
256,192,92451,1,0,0:0:0:0:
256,192,92537,1,8,0:0:0:0:
256,192,92709,1,0,0:0:0:0:
256,192,92880,1,8,0:0:0:0:
256,192,93051,1,0,0:0:0:0:
256,192,93137,1,8,0:0:0:0:
256,192,93223,1,8,0:0:0:0:
256,192,93309,1,0,0:0:0:0:
256,192,93394,1,8,0:0:0:0:
256,192,93566,1,0,0:0:0:0:
256,192,93737,1,8,0:0:0:0:
256,192,93823,1,8,0:0:0:0:
256,192,93909,1,0,0:0:0:0:
256,192,94080,1,0,0:0:0:0:
256,192,94166,1,8,0:0:0:0:
256,192,94251,1,0,0:0:0:0:
256,192,94423,1,8,0:0:0:0:
256,192,94509,1,0,0:0:0:0:
256,192,94594,1,0,0:0:0:0:
256,192,94680,1,8,0:0:0:0:
256,192,94766,1,0,0:0:0:0:
256,192,94937,1,4,0:0:0:0:
256,192,95109,1,0,0:0:0:0:
256,192,95194,1,0,0:0:0:0:
256,192,95280,1,8,0:0:0:0:
256,192,95366,1,0,0:0:0:0:
256,192,95451,1,8,0:0:0:0:
256,192,95537,1,0,0:0:0:0:
256,192,95623,1,8,0:0:0:0:
256,192,95709,1,8,0:0:0:0:
256,192,95794,1,0,0:0:0:0:
256,192,95880,1,8,0:0:0:0:
256,192,95966,1,0,0:0:0:0:
256,192,96051,1,0,0:0:0:0:
256,192,96137,1,8,0:0:0:0:
256,192,96309,1,12,0:0:0:0:
256,192,96480,1,0,0:0:0:0:
256,192,96566,1,0,0:0:0:0:
256,192,96651,1,8,0:0:0:0:
256,192,96737,1,0,0:0:0:0:
256,192,96823,1,8,0:0:0:0:
256,192,96909,1,0,0:0:0:0:
256,192,96994,1,8,0:0:0:0:
256,192,97080,1,8,0:0:0:0:
256,192,97166,1,0,0:0:0:0:
256,192,97251,1,8,0:0:0:0:
256,192,97337,1,0,0:0:0:0:
256,192,97423,1,0,0:0:0:0:
256,192,97509,1,8,0:0:0:0:
256,192,97594,1,0,0:0:0:0:
256,192,97680,1,8,0:0:0:0:
256,192,97766,1,8,0:0:0:0:
256,192,97851,1,0,0:0:0:0:
256,192,97937,1,0,0:0:0:0:
256,192,98023,1,8,0:0:0:0:
256,192,98109,1,0,0:0:0:0:
256,192,98194,1,8,0:0:0:0:
256,192,98280,1,0,0:0:0:0:
256,192,98366,1,8,0:0:0:0:
256,192,98451,1,8,0:0:0:0:
256,192,98537,1,0,0:0:0:0:
256,192,98623,1,0,0:0:0:0:
256,192,98709,1,8,0:0:0:0:
256,192,98794,1,0,0:0:0:0:
256,192,98880,1,8,0:0:0:0:
256,192,99051,1,4,0:0:0:0:
256,192,99223,1,8,0:0:0:0:
256,192,99394,1,0,0:0:0:0:
256,192,99480,1,8,0:0:0:0:
256,192,99651,1,0,0:0:0:0:
256,192,99737,1,8,0:0:0:0:
256,192,99909,1,0,0:0:0:0:
256,192,99994,1,8,0:0:0:0:
256,192,100166,1,0,0:0:0:0:
256,192,100251,1,8,0:0:0:0:
256,192,100423,5,12,0:0:0:0:
256,192,100594,1,0,0:0:0:0:
256,192,100680,1,0,0:0:0:0:
256,192,100766,1,8,0:0:0:0:
256,192,100937,1,0,0:0:0:0:
256,192,101109,1,8,0:0:0:0:
256,192,101280,1,0,0:0:0:0:
256,192,101366,1,8,0:0:0:0:
256,192,101451,1,8,0:0:0:0:
256,192,101537,1,0,0:0:0:0:
256,192,101623,1,8,0:0:0:0:
256,192,101794,1,0,0:0:0:0:
256,192,101966,1,8,0:0:0:0:
256,192,102051,1,8,0:0:0:0:
256,192,102137,1,0,0:0:0:0:
256,192,102309,1,0,0:0:0:0:
256,192,102394,1,8,0:0:0:0:
256,192,102480,1,0,0:0:0:0:
256,192,102651,1,8,0:0:0:0:
256,192,102737,1,0,0:0:0:0:
256,192,102823,1,0,0:0:0:0:
256,192,102909,1,8,0:0:0:0:
256,192,102994,1,0,0:0:0:0:
256,192,103166,1,8,0:0:0:0:
256,192,103337,1,0,0:0:0:0:
256,192,103423,1,0,0:0:0:0:
256,192,103509,1,8,0:0:0:0:
256,192,103680,1,0,0:0:0:0:
256,192,103851,1,8,0:0:0:0:
256,192,104023,1,0,0:0:0:0:
256,192,104109,1,8,0:0:0:0:
256,192,104194,1,8,0:0:0:0:
256,192,104280,1,0,0:0:0:0:
256,192,104366,1,0,0:0:0:0:
256,192,104537,1,0,0:0:0:0:
256,192,104709,1,8,0:0:0:0:
256,192,104794,1,8,0:0:0:0:
256,192,104880,1,0,0:0:0:0:
256,192,104966,1,8,0:0:0:0:
256,192,105051,1,0,0:0:0:0:
256,192,105223,1,8,0:0:0:0:
256,192,105394,1,0,0:0:0:0:
256,192,105480,1,8,0:0:0:0:
256,192,105566,1,0,0:0:0:0:
256,192,105651,1,0,0:0:0:0:
256,192,105737,1,8,0:0:0:0:
256,192,105909,1,0,0:0:0:0:
256,192,106080,1,0,0:0:0:0:
256,192,106166,1,0,0:0:0:0:
256,192,106251,1,8,0:0:0:0:
256,192,106423,1,0,0:0:0:0:
256,192,106594,1,8,0:0:0:0:
256,192,106766,1,0,0:0:0:0:
256,192,106851,1,8,0:0:0:0:
256,192,106937,1,8,0:0:0:0:
256,192,107023,1,0,0:0:0:0:
256,192,107109,1,8,0:0:0:0:
256,192,107280,1,0,0:0:0:0:
256,192,107451,1,8,0:0:0:0:
256,192,107537,1,8,0:0:0:0:
256,192,107623,1,0,0:0:0:0:
256,192,107794,1,0,0:0:0:0:
256,192,107880,1,8,0:0:0:0:
256,192,107966,1,0,0:0:0:0:
256,192,108051,1,0,0:0:0:0:
256,192,108137,1,8,0:0:0:0:
256,192,108309,1,0,0:0:0:0:
256,192,108394,1,8,0:0:0:0:
256,192,108480,1,0,0:0:0:0:
256,192,108651,1,8,0:0:0:0:
256,192,108823,1,0,0:0:0:0:
256,192,108909,1,0,0:0:0:0:
256,192,108994,1,8,0:0:0:0:
256,192,109166,1,0,0:0:0:0:
256,192,109337,1,8,0:0:0:0:
256,192,109509,1,0,0:0:0:0:
256,192,109594,1,8,0:0:0:0:
256,192,109680,1,8,0:0:0:0:
256,192,109766,1,0,0:0:0:0:
256,192,109851,5,0,0:0:0:0:
256,192,110023,1,0,0:0:0:0:
256,192,110194,1,8,0:0:0:0:
256,192,110280,1,0,0:0:0:0:
256,192,110366,1,0,0:0:0:0:
256,192,110451,1,8,0:0:0:0:
256,192,110537,1,8,0:0:0:0:
256,192,110709,1,8,0:0:0:0:
256,192,110880,1,0,0:0:0:0:
256,192,110966,1,8,0:0:0:0:
256,192,111051,1,8,0:0:0:0:
256,192,111137,1,0,0:0:0:0:
256,192,111223,1,8,0:0:0:0:
256,192,111394,1,4,0:0:0:0:
256,192,111566,5,0,0:0:0:0:
256,192,111651,1,0,0:0:0:0:
256,192,111737,1,8,0:0:0:0:
256,192,111909,1,0,0:0:0:0:
256,192,112080,1,8,0:0:0:0:
256,192,112251,1,0,0:0:0:0:
256,192,112337,1,8,0:0:0:0:
256,192,112423,1,8,0:0:0:0:
256,192,112509,1,0,0:0:0:0:
256,192,112594,1,8,0:0:0:0:
256,192,112680,1,0,0:0:0:0:
256,192,112766,1,0,0:0:0:0:
256,192,112937,1,8,0:0:0:0:
256,192,113023,1,8,0:0:0:0:
256,192,113109,1,0,0:0:0:0:
256,192,113280,1,0,0:0:0:0:
256,192,113366,1,8,0:0:0:0:
256,192,113451,1,0,0:0:0:0:
256,192,113537,1,0,0:0:0:0:
256,192,113623,1,8,0:0:0:0:
256,192,113709,1,8,0:0:0:0:
256,192,113794,1,0,0:0:0:0:
256,192,113880,1,8,0:0:0:0:
256,192,113966,1,0,0:0:0:0:
256,192,114137,1,12,0:0:0:0:
256,192,114309,1,0,0:0:0:0:
256,192,114394,1,0,0:0:0:0:
256,192,114480,1,8,0:0:0:0:
256,192,114651,1,0,0:0:0:0:
256,192,114823,1,8,0:0:0:0:
256,192,114909,1,0,0:0:0:0:
256,192,114994,1,0,0:0:0:0:
256,192,115080,1,8,0:0:0:0:
256,192,115166,5,8,0:0:0:0:
256,192,115251,1,0,0:0:0:0:
256,192,115337,1,8,0:0:0:0:
256,192,115509,1,0,0:0:0:0:
256,192,115680,1,8,0:0:0:0:
256,192,115766,1,8,0:0:0:0:
256,192,115851,1,0,0:0:0:0:
256,192,115937,1,8,0:0:0:0:
256,192,116023,1,0,0:0:0:0:
256,192,116109,1,0,0:0:0:0:
256,192,116194,1,8,0:0:0:0:
256,192,116366,1,0,0:0:0:0:
256,192,116451,1,8,0:0:0:0:
256,192,116537,1,0,0:0:0:0:
256,192,116623,1,0,0:0:0:0:
256,192,116709,1,8,0:0:0:0:
256,192,116880,5,4,0:0:0:0:
256,192,117051,1,0,0:0:0:0:
256,192,117137,1,0,0:0:0:0:
256,192,117223,1,8,0:0:0:0:
256,192,117309,1,0,0:0:0:0:
256,192,117394,1,8,0:0:0:0:
256,192,117480,1,0,0:0:0:0:
256,192,117566,1,8,0:0:0:0:
256,192,117651,1,8,0:0:0:0:
256,192,117737,1,0,0:0:0:0:
256,192,117823,1,8,0:0:0:0:
256,192,117909,1,0,0:0:0:0:
256,192,117994,1,0,0:0:0:0:
256,192,118080,1,8,0:0:0:0:
256,192,118251,1,12,0:0:0:0:
256,192,118423,1,0,0:0:0:0:
256,192,118509,1,8,0:0:0:0:
256,192,118594,1,0,0:0:0:0:
256,192,118680,1,0,0:0:0:0:
256,192,118766,1,8,0:0:0:0:
256,192,118851,1,0,0:0:0:0:
256,192,118937,1,8,0:0:0:0:
256,192,119023,1,8,0:0:0:0:
256,192,119109,1,0,0:0:0:0:
256,192,119194,1,8,0:0:0:0:
256,192,119280,1,0,0:0:0:0:
256,192,119366,1,0,0:0:0:0:
256,192,119451,1,8,0:0:0:0:
256,192,119537,1,0,0:0:0:0:
256,192,119623,1,8,0:0:0:0:
256,192,119709,1,8,0:0:0:0:
256,192,119794,1,0,0:0:0:0:
256,192,119880,1,8,0:0:0:0:
256,192,119966,1,0,0:0:0:0:
256,192,120051,1,0,0:0:0:0:
256,192,120137,1,8,0:0:0:0:
256,192,120223,1,0,0:0:0:0:
256,192,120309,1,8,0:0:0:0:
256,192,120394,1,8,0:0:0:0:
256,192,120480,1,0,0:0:0:0:
256,192,120566,1,8,0:0:0:0:
256,192,120651,1,0,0:0:0:0:
256,192,120737,1,0,0:0:0:0:
256,192,120823,1,8,0:0:0:0:
256,192,120994,1,4,0:0:0:0:
256,192,121166,1,8,0:0:0:0:
256,192,121337,1,0,0:0:0:0:
256,192,121423,1,8,0:0:0:0:
256,192,121594,1,0,0:0:0:0:
256,192,121680,1,8,0:0:0:0:
256,192,121851,1,0,0:0:0:0:
256,192,121937,1,8,0:0:0:0:
256,192,122109,1,0,0:0:0:0:
256,192,122194,1,8,0:0:0:0:
256,192,122366,1,12,0:0:0:0:
256,192,122537,1,0,0:0:0:0:
256,192,122623,1,0,0:0:0:0:
256,192,122709,1,8,0:0:0:0:
256,192,122880,1,0,0:0:0:0:
256,192,123051,1,8,0:0:0:0:
256,192,123137,1,0,0:0:0:0:
256,192,123223,1,0,0:0:0:0:
256,192,123309,1,0,0:0:0:0:
256,192,123394,1,8,0:0:0:0:
256,192,123566,1,0,0:0:0:0:
256,192,123737,1,8,0:0:0:0:
256,192,123823,1,8,0:0:0:0:
256,192,123909,1,0,0:0:0:0:
256,192,123994,5,0,0:0:0:0:
256,192,124080,1,8,0:0:0:0:
256,192,124251,1,0,0:0:0:0:
256,192,124423,1,8,0:0:0:0:
256,192,124509,1,0,0:0:0:0:
256,192,124594,1,0,0:0:0:0:
256,192,124680,1,0,0:0:0:0:
256,192,124766,1,8,0:0:0:0:
256,192,124937,1,0,0:0:0:0:
256,192,125109,1,8,0:0:0:0:
256,192,125194,1,8,0:0:0:0:
256,192,125280,1,8,0:0:0:0:
256,192,125366,1,0,0:0:0:0:
256,192,125451,1,8,0:0:0:0:
256,192,125623,1,0,0:0:0:0:
256,192,125794,1,8,0:0:0:0:
256,192,125880,1,0,0:0:0:0:
256,192,125966,1,0,0:0:0:0:
256,192,126051,1,0,0:0:0:0:
256,192,126137,1,8,0:0:0:0:
256,192,126309,1,0,0:0:0:0:
256,192,126480,1,8,0:0:0:0:
256,192,126566,1,8,0:0:0:0:
256,192,126651,1,0,0:0:0:0:
256,192,126737,1,0,0:0:0:0:
256,192,126823,1,8,0:0:0:0:
256,192,126994,1,0,0:0:0:0:
256,192,127166,1,8,0:0:0:0:
256,192,127251,1,8,0:0:0:0:
256,192,127337,1,0,0:0:0:0:
256,192,127423,1,8,0:0:0:0:
256,192,127509,1,0,0:0:0:0:
256,192,127594,1,0,0:0:0:0:
256,192,127680,1,8,0:0:0:0:
256,192,127766,1,0,0:0:0:0:
256,192,127851,1,8,0:0:0:0:
256,192,127937,1,8,0:0:0:0:
256,192,128023,1,0,0:0:0:0:
256,192,128194,1,8,0:0:0:0:
256,192,128366,1,0,0:0:0:0:
256,192,128537,1,8,0:0:0:0:
256,192,128623,1,0,0:0:0:0:
256,192,128709,1,0,0:0:0:0:
256,192,128794,1,0,0:0:0:0:
256,192,128880,1,8,0:0:0:0:
256,192,129051,1,0,0:0:0:0:
256,192,129223,1,8,0:0:0:0:
256,192,129309,1,8,0:0:0:0:
256,192,129394,1,0,0:0:0:0:
256,192,129480,1,0,0:0:0:0:
256,192,129566,1,8,0:0:0:0:
256,192,129737,1,0,0:0:0:0:
256,192,129909,1,8,0:0:0:0:
256,192,129994,1,8,0:0:0:0:
256,192,130080,1,0,0:0:0:0:
256,192,130166,1,8,0:0:0:0:
256,192,130251,1,0,0:0:0:0:
256,192,130337,1,0,0:0:0:0:
256,192,130423,1,8,0:0:0:0:
256,192,130509,1,0,0:0:0:0:
256,192,130594,1,8,0:0:0:0:
256,192,130680,1,8,0:0:0:0:
256,192,130766,1,0,0:0:0:0:
256,192,130937,1,8,0:0:0:0:
256,192,131109,1,8,0:0:0:0:
256,192,131194,1,0,0:0:0:0:
256,192,131280,1,8,0:0:0:0:
256,192,131366,1,0,0:0:0:0:
256,192,131451,1,0,0:0:0:0:
256,192,131537,1,0,0:0:0:0:
256,192,131623,1,8,0:0:0:0:
256,192,131794,1,0,0:0:0:0:
256,192,131966,1,8,0:0:0:0:
256,192,132051,1,8,0:0:0:0:
256,192,132137,1,0,0:0:0:0:
256,192,132309,1,8,0:0:0:0:
256,192,132480,1,8,0:0:0:0:
256,192,132566,1,0,0:0:0:0:
256,192,132651,1,8,0:0:0:0:
256,192,132737,1,8,0:0:0:0:
256,192,132823,1,0,0:0:0:0:
256,192,132909,1,0,0:0:0:0:
256,192,132994,1,8,0:0:0:0:
256,192,133080,1,0,0:0:0:0:
256,192,133166,1,8,0:0:0:0:
256,192,133337,1,4,0:0:0:0:
256,192,133509,1,8,0:0:0:0:
256,192,133680,1,0,0:0:0:0:
256,192,133766,1,8,0:0:0:0:
256,192,133851,1,0,0:0:0:0:
256,192,133937,1,0,0:0:0:0:
256,192,134023,1,8,0:0:0:0:
256,192,134194,1,8,0:0:0:0:
256,192,134280,1,8,0:0:0:0:
256,192,134366,1,0,0:0:0:0:
256,192,134537,1,8,0:0:0:0:
256,192,134709,1,0,0:0:0:0:
256,192,134880,1,8,0:0:0:0:
256,192,135051,1,0,0:0:0:0:
256,192,135137,1,8,0:0:0:0:
256,192,135223,1,0,0:0:0:0:
256,192,135309,1,0,0:0:0:0:
256,192,135394,1,8,0:0:0:0:
256,192,135566,1,8,0:0:0:0:
256,192,135651,1,8,0:0:0:0:
256,192,135737,1,0,0:0:0:0:
256,192,135909,1,8,0:0:0:0:
256,192,136080,1,4,0:0:0:0:
256,192,136251,1,8,0:0:0:0:
256,192,136423,1,0,0:0:0:0:
256,192,136509,1,8,0:0:0:0:
256,192,136594,1,8,0:0:0:0:
256,192,136680,1,0,0:0:0:0:
256,192,136766,1,8,0:0:0:0:
256,192,136937,1,8,0:0:0:0:
256,192,137023,1,0,0:0:0:0:
256,192,137109,1,0,0:0:0:0:
256,192,137280,1,8,0:0:0:0:
256,192,137451,1,0,0:0:0:0:
256,192,137623,1,8,0:0:0:0:
256,192,137794,1,0,0:0:0:0:
256,192,137880,1,8,0:0:0:0:
256,192,137966,1,8,0:0:0:0:
256,192,138051,1,0,0:0:0:0:
256,192,138137,1,8,0:0:0:0:
256,192,138309,1,8,0:0:0:0:
256,192,138394,1,0,0:0:0:0:
256,192,138480,1,0,0:0:0:0:
256,192,138651,1,8,0:0:0:0:
256,192,138823,1,4,0:0:0:0:
256,192,138994,1,0,0:0:0:0:
256,192,139080,1,0,0:0:0:0:
256,192,139166,1,8,0:0:0:0:
256,192,139337,1,0,0:0:0:0:
256,192,139509,1,8,0:0:0:0:
256,192,139680,1,0,0:0:0:0:
256,192,139851,1,8,0:0:0:0:
256,192,139937,1,8,0:0:0:0:
256,192,140023,1,0,0:0:0:0:
256,192,140194,1,12,0:0:0:0:
256,192,140366,1,0,0:0:0:0:
256,192,140451,1,0,0:0:0:0:
256,192,140537,1,8,0:0:0:0:
256,192,140709,1,0,0:0:0:0:
256,192,140880,1,8,0:0:0:0:
256,192,141051,1,0,0:0:0:0:
256,192,141223,1,8,0:0:0:0:
256,192,141309,1,8,0:0:0:0:
256,192,141394,1,0,0:0:0:0:
256,192,141566,1,0,0:0:0:0:
256,192,141651,1,8,0:0:0:0:
256,192,141737,1,0,0:0:0:0:
256,192,141823,1,0,0:0:0:0:
256,192,141909,1,8,0:0:0:0:
256,192,141994,1,0,0:0:0:0:
256,192,142080,1,8,0:0:0:0:
256,192,142166,1,8,0:0:0:0:
256,192,142251,1,0,0:0:0:0:
256,192,142337,1,8,0:0:0:0:
256,192,142423,1,0,0:0:0:0:
256,192,142509,1,0,0:0:0:0:
256,192,142594,1,8,0:0:0:0:
256,192,142680,1,0,0:0:0:0:
256,192,142766,1,8,0:0:0:0:
256,192,142937,1,4,0:0:0:0:
256,192,143109,1,8,0:0:0:0:
256,192,143280,1,0,0:0:0:0:
256,192,143366,1,8,0:0:0:0:
256,192,143537,1,0,0:0:0:0:
256,192,143623,1,8,0:0:0:0:
256,192,143794,1,0,0:0:0:0:
256,192,143880,1,8,0:0:0:0:
256,192,144051,1,0,0:0:0:0:
256,192,144137,1,8,0:0:0:0:
256,192,144309,1,4,0:0:0:0:
256,192,144480,1,0,0:0:0:0:
256,192,144566,1,0,0:0:0:0:
256,192,144651,1,8,0:0:0:0:
256,192,144823,1,8,0:0:0:0:
256,192,144994,1,0,0:0:0:0:
256,192,145166,1,0,0:0:0:0:
256,192,145251,1,0,0:0:0:0:
256,192,145337,1,8,0:0:0:0:
256,192,145509,1,0,0:0:0:0:
256,192,145680,1,8,0:0:0:0:
256,192,145766,1,0,0:0:0:0:
256,192,145851,1,0,0:0:0:0:
256,192,146023,1,8,0:0:0:0:
256,192,146194,1,0,0:0:0:0:
256,192,146280,1,0,0:0:0:0:
256,192,146366,1,0,0:0:0:0:
256,192,146537,1,0,0:0:0:0:
256,192,146709,1,8,0:0:0:0:
256,192,146880,1,0,0:0:0:0:
256,192,147051,1,0,0:0:0:0:
256,192,147223,1,0,0:0:0:0:
256,192,147309,1,0,0:0:0:0:
256,192,147394,1,8,0:0:0:0:
256,192,147566,1,0,0:0:0:0:
256,192,147737,1,0,0:0:0:0:
256,192,147909,1,0,0:0:0:0:
256,192,147994,1,0,0:0:0:0:
256,192,148080,1,8,0:0:0:0:
256,192,148251,1,0,0:0:0:0:
256,192,148423,1,0,0:0:0:0:
256,192,148594,1,0,0:0:0:0:
256,192,148680,1,0,0:0:0:0:
256,192,148766,1,8,0:0:0:0:
256,192,148937,1,0,0:0:0:0:
256,192,149109,1,8,0:0:0:0:
256,192,149280,1,0,0:0:0:0:
256,192,149366,1,8,0:0:0:0:
256,192,149451,1,0,0:0:0:0:
256,192,149623,1,8,0:0:0:0:
256,192,149794,1,0,0:0:0:0:
256,192,149966,1,0,0:0:0:0:
256,192,150051,1,0,0:0:0:0:
256,192,150137,1,8,0:0:0:0:
256,192,150309,1,8,0:0:0:0:
256,192,150480,1,0,0:0:0:0:
256,192,150651,1,0,0:0:0:0:
256,192,150737,1,0,0:0:0:0:
256,192,150823,1,8,0:0:0:0:
256,192,150994,1,0,0:0:0:0:
256,192,151166,1,8,0:0:0:0:
256,192,151251,1,8,0:0:0:0:
256,192,151337,1,0,0:0:0:0:
256,192,151509,1,8,0:0:0:0:
256,192,151680,1,0,0:0:0:0:
256,192,151766,1,0,0:0:0:0:
256,192,151851,1,0,0:0:0:0:
256,192,152023,1,0,0:0:0:0:
256,192,152194,1,8,0:0:0:0:
256,192,152366,1,0,0:0:0:0:
256,192,152537,1,0,0:0:0:0:
256,192,152709,1,0,0:0:0:0:
256,192,152794,1,0,0:0:0:0:
256,192,152880,1,8,0:0:0:0:
256,192,153051,1,0,0:0:0:0:
256,192,153223,1,0,0:0:0:0:
256,192,153394,1,0,0:0:0:0:
256,192,153480,1,0,0:0:0:0:
256,192,153566,1,8,0:0:0:0:
256,192,153737,1,0,0:0:0:0:
256,192,153909,1,0,0:0:0:0:
256,192,154080,1,0,0:0:0:0:
256,192,154166,1,0,0:0:0:0:
256,192,154251,1,8,0:0:0:0:
256,192,154423,1,0,0:0:0:0:
256,192,154594,1,8,0:0:0:0:
256,192,154766,1,0,0:0:0:0:
256,192,154851,1,8,0:0:0:0:
256,192,154937,1,0,0:0:0:0:
256,192,155109,1,8,0:0:0:0:
256,192,155280,1,4,0:0:0:0:
256,192,155451,1,0,0:0:0:0:
256,192,155537,1,0,0:0:0:0:
256,192,155623,1,8,0:0:0:0:
256,192,155709,1,0,0:0:0:0:
256,192,155794,1,8,0:0:0:0:
256,192,155966,1,0,0:0:0:0:
256,192,156137,1,0,0:0:0:0:
256,192,156223,1,0,0:0:0:0:
256,192,156309,1,8,0:0:0:0:
256,192,156480,1,0,0:0:0:0:
256,192,156651,1,8,0:0:0:0:
256,192,156737,1,0,0:0:0:0:
256,192,156823,1,0,0:0:0:0:
256,192,156909,1,0,0:0:0:0:
256,192,156994,1,8,0:0:0:0:
256,192,157166,1,0,0:0:0:0:
256,192,157251,1,0,0:0:0:0:
256,192,157337,1,0,0:0:0:0:
256,192,157509,1,0,0:0:0:0:
256,192,157680,1,8,0:0:0:0:
256,192,157851,1,0,0:0:0:0:
256,192,158023,1,4,0:0:0:0:
256,192,158194,1,0,0:0:0:0:
256,192,158280,1,0,0:0:0:0:
256,192,158366,1,8,0:0:0:0:
256,192,158537,1,0,0:0:0:0:
256,192,158709,1,0,0:0:0:0:
256,192,158880,1,0,0:0:0:0:
256,192,158966,1,0,0:0:0:0:
256,192,159051,1,8,0:0:0:0:
256,192,159223,5,0,0:0:0:0:
256,192,159394,1,0,0:0:0:0:
256,192,159566,1,0,0:0:0:0:
256,192,159651,1,0,0:0:0:0:
256,192,159737,1,8,0:0:0:0:
256,192,159909,1,0,0:0:0:0:
256,192,160080,1,8,0:0:0:0:
256,192,160251,1,0,0:0:0:0:
256,192,160337,1,8,0:0:0:0:
256,192,160423,1,0,0:0:0:0:
256,192,160594,1,8,0:0:0:0:
256,192,160766,1,4,0:0:0:0:
256,192,160937,5,0,0:0:0:0:
256,192,161023,1,0,0:0:0:0:
256,192,161109,1,8,0:0:0:0:
256,192,161280,1,0,0:0:0:0:
256,192,161451,1,8,0:0:0:0:
256,192,161623,1,0,0:0:0:0:
256,192,161794,1,8,0:0:0:0:
256,192,161880,1,8,0:0:0:0:
256,192,161966,1,0,0:0:0:0:
256,192,162137,1,4,0:0:0:0:
256,192,162309,1,0,0:0:0:0:
256,192,162394,1,0,0:0:0:0:
256,192,162480,1,8,0:0:0:0:
256,192,162651,1,0,0:0:0:0:
256,192,162823,1,8,0:0:0:0:
256,192,162994,1,0,0:0:0:0:
256,192,163166,1,8,0:0:0:0:
256,192,163251,1,8,0:0:0:0:
256,192,163337,1,0,0:0:0:0:
256,192,163509,1,0,0:0:0:0:
256,192,163594,1,0,0:0:0:0:
256,192,163680,1,0,0:0:0:0:
256,192,163766,1,0,0:0:0:0:
256,192,163851,1,8,0:0:0:0:
256,192,163937,1,8,0:0:0:0:
256,192,164023,1,8,0:0:0:0:
256,192,164109,1,8,0:0:0:0:
256,192,164194,1,0,0:0:0:0:
256,192,164280,1,0,0:0:0:0:
256,192,164366,1,0,0:0:0:0:
256,192,164451,5,0,0:0:0:0:
256,192,164537,1,8,0:0:0:0:
256,192,164623,1,8,0:0:0:0:
256,192,164709,1,8,0:0:0:0:
256,192,164794,1,8,0:0:0:0:
256,192,164880,1,0,0:0:0:0:
256,192,166251,5,4,0:0:0:0:
256,192,167623,1,8,0:0:0:0:
256,192,168994,1,0,0:0:0:0:
256,192,170366,1,0,0:0:0:0:
256,192,171051,1,8,0:0:0:0:
256,192,171309,1,0,0:0:0:0:
256,192,171566,1,0,0:0:0:0:
256,192,171737,1,8,0:0:0:0:
256,192,173109,1,0,0:0:0:0:
256,192,173794,1,8,0:0:0:0:
256,192,174051,1,0,0:0:0:0:
256,192,174309,1,8,0:0:0:0:
256,192,174480,1,8,0:0:0:0:
256,192,174994,1,0,0:0:0:0:
256,192,175166,1,0,0:0:0:0:
256,192,175851,1,8,0:0:0:0:
256,192,176366,1,0,0:0:0:0:
256,192,176537,1,8,0:0:0:0:
256,192,177223,1,0,0:0:0:0:
256,192,178594,1,8,0:0:0:0:
256,192,179966,1,0,0:0:0:0:
256,192,181337,1,0,0:0:0:0:
256,192,182023,1,8,0:0:0:0:
256,192,182280,1,0,0:0:0:0:
256,192,182537,1,0,0:0:0:0:
256,192,182709,1,8,0:0:0:0:
256,192,184080,1,8,0:0:0:0:
256,192,185451,1,0,0:0:0:0:
256,192,186137,1,8,0:0:0:0:
256,192,186394,1,8,0:0:0:0:
256,192,186651,1,0,0:0:0:0:
256,192,186823,1,8,0:0:0:0:
256,192,188194,1,4,0:0:0:0:
256,192,188709,1,0,0:0:0:0:
256,192,188880,1,8,0:0:0:0:
256,192,189223,1,8,0:0:0:0:
256,192,189394,1,0,0:0:0:0:
256,192,189737,1,0,0:0:0:0:
256,192,190080,1,0,0:0:0:0:
256,192,190251,1,8,0:0:0:0:
256,192,190937,1,0,0:0:0:0:
256,192,191451,1,0,0:0:0:0:
256,192,191623,1,8,0:0:0:0:
256,192,191966,1,0,0:0:0:0:
256,192,192137,1,0,0:0:0:0:
256,192,192480,1,0,0:0:0:0:
256,192,192823,1,8,0:0:0:0:
256,192,192994,1,0,0:0:0:0:
256,192,193337,1,8,0:0:0:0:
256,192,193680,1,0,0:0:0:0:
256,192,194194,1,0,0:0:0:0:
256,192,194366,1,8,0:0:0:0:
256,192,194709,1,8,0:0:0:0:
256,192,194880,1,0,0:0:0:0:
256,192,195223,1,0,0:0:0:0:
256,192,195566,1,0,0:0:0:0:
256,192,195737,1,8,0:0:0:0:
256,192,196423,1,0,0:0:0:0:
256,192,196937,1,0,0:0:0:0:
256,192,197109,1,8,0:0:0:0:
256,192,197451,1,0,0:0:0:0:
256,192,197623,1,0,0:0:0:0:
256,192,197966,1,0,0:0:0:0:
256,192,198309,1,8,0:0:0:0:
256,192,198480,1,0,0:0:0:0:
256,192,198823,5,8,0:0:0:0:
256,192,199166,1,4,0:0:0:0:
256,192,199337,1,0,0:0:0:0:
256,192,199423,1,0,0:0:0:0:
256,192,199509,1,8,0:0:0:0:
256,192,199680,1,0,0:0:0:0:
256,192,199851,1,8,0:0:0:0:
256,192,200023,1,0,0:0:0:0:
256,192,200109,1,8,0:0:0:0:
256,192,200280,1,0,0:0:0:0:
256,192,200366,1,8,0:0:0:0:
256,192,200537,1,0,0:0:0:0:
256,192,200709,1,8,0:0:0:0:
256,192,200794,1,8,0:0:0:0:
256,192,200880,1,0,0:0:0:0:
256,192,201051,1,0,0:0:0:0:
256,192,201137,1,8,0:0:0:0:
256,192,201223,1,0,0:0:0:0:
256,192,201394,1,8,0:0:0:0:
256,192,201480,1,0,0:0:0:0:
256,192,201651,1,8,0:0:0:0:
256,192,201737,1,0,0:0:0:0:
256,192,201909,1,12,0:0:0:0:
256,192,202080,1,0,0:0:0:0:
256,192,202166,1,0,0:0:0:0:
256,192,202251,1,8,0:0:0:0:
256,192,202423,1,0,0:0:0:0:
256,192,202594,1,8,0:0:0:0:
256,192,202766,1,0,0:0:0:0:
256,192,202851,1,8,0:0:0:0:
256,192,202937,1,8,0:0:0:0:
256,192,203023,5,0,0:0:0:0:
256,192,203109,1,8,0:0:0:0:
256,192,203280,1,0,0:0:0:0:
256,192,203451,1,8,0:0:0:0:
256,192,203537,1,8,0:0:0:0:
256,192,203623,1,0,0:0:0:0:
256,192,203794,1,0,0:0:0:0:
256,192,203880,1,8,0:0:0:0:
256,192,203966,1,0,0:0:0:0:
256,192,204137,1,8,0:0:0:0:
256,192,204223,1,0,0:0:0:0:
256,192,204309,1,0,0:0:0:0:
256,192,204394,1,8,0:0:0:0:
256,192,204480,1,0,0:0:0:0:
256,192,204651,1,4,0:0:0:0:
256,192,204823,1,0,0:0:0:0:
256,192,204909,1,0,0:0:0:0:
256,192,204994,1,8,0:0:0:0:
256,192,205080,1,0,0:0:0:0:
256,192,205166,1,8,0:0:0:0:
256,192,205251,1,0,0:0:0:0:
256,192,205337,1,8,0:0:0:0:
256,192,205423,1,8,0:0:0:0:
256,192,205509,1,0,0:0:0:0:
256,192,205594,1,8,0:0:0:0:
256,192,205680,1,0,0:0:0:0:
256,192,205766,1,0,0:0:0:0:
256,192,205851,1,8,0:0:0:0:
256,192,206023,1,12,0:0:0:0:
256,192,206194,1,0,0:0:0:0:
256,192,206280,1,0,0:0:0:0:
256,192,206366,1,8,0:0:0:0:
256,192,206451,1,0,0:0:0:0:
256,192,206537,1,8,0:0:0:0:
256,192,206623,1,0,0:0:0:0:
256,192,206709,1,8,0:0:0:0:
256,192,206794,1,8,0:0:0:0:
256,192,206880,1,0,0:0:0:0:
256,192,206966,1,8,0:0:0:0:
256,192,207051,1,0,0:0:0:0:
256,192,207137,1,0,0:0:0:0:
256,192,207223,1,8,0:0:0:0:
256,192,207309,1,0,0:0:0:0:
256,192,207394,1,8,0:0:0:0:
256,192,207480,1,8,0:0:0:0:
256,192,207566,1,0,0:0:0:0:
256,192,207651,1,0,0:0:0:0:
256,192,207737,1,8,0:0:0:0:
256,192,207823,1,0,0:0:0:0:
256,192,207909,1,8,0:0:0:0:
256,192,207994,1,0,0:0:0:0:
256,192,208080,1,8,0:0:0:0:
256,192,208166,1,8,0:0:0:0:
256,192,208251,1,0,0:0:0:0:
256,192,208337,1,0,0:0:0:0:
256,192,208423,1,8,0:0:0:0:
256,192,208509,1,0,0:0:0:0:
256,192,208594,1,8,0:0:0:0:
256,192,208766,1,4,0:0:0:0:
256,192,208937,1,8,0:0:0:0:
256,192,209109,1,0,0:0:0:0:
256,192,209194,1,8,0:0:0:0:
256,192,209366,1,0,0:0:0:0:
256,192,209451,1,8,0:0:0:0:
256,192,209623,1,0,0:0:0:0:
256,192,209709,1,8,0:0:0:0:
256,192,209880,1,0,0:0:0:0:
256,192,209966,1,8,0:0:0:0:
256,192,210137,1,12,0:0:0:0:
256,192,210309,1,0,0:0:0:0:
256,192,210394,1,0,0:0:0:0:
256,192,210480,1,8,0:0:0:0:
256,192,210651,1,0,0:0:0:0:
256,192,210823,1,8,0:0:0:0:
256,192,210994,1,0,0:0:0:0:
256,192,211080,1,8,0:0:0:0:
256,192,211166,1,8,0:0:0:0:
256,192,211251,1,0,0:0:0:0:
256,192,211337,1,8,0:0:0:0:
256,192,211509,1,0,0:0:0:0:
256,192,211680,1,8,0:0:0:0:
256,192,211766,1,8,0:0:0:0:
256,192,211851,1,0,0:0:0:0:
256,192,212023,1,0,0:0:0:0:
256,192,212109,1,8,0:0:0:0:
256,192,212194,1,0,0:0:0:0:
256,192,212366,1,8,0:0:0:0:
256,192,212451,1,0,0:0:0:0:
256,192,212537,1,0,0:0:0:0:
256,192,212623,1,8,0:0:0:0:
256,192,212709,1,0,0:0:0:0:
256,192,212880,1,8,0:0:0:0:
256,192,213051,1,0,0:0:0:0:
256,192,213137,1,0,0:0:0:0:
256,192,213223,1,8,0:0:0:0:
256,192,213394,1,0,0:0:0:0:
256,192,213566,1,8,0:0:0:0:
256,192,213737,1,0,0:0:0:0:
256,192,213823,1,8,0:0:0:0:
256,192,213909,1,8,0:0:0:0:
256,192,213994,1,0,0:0:0:0:
256,192,214080,1,0,0:0:0:0:
256,192,214251,1,0,0:0:0:0:
256,192,214423,1,8,0:0:0:0:
256,192,214509,1,8,0:0:0:0:
256,192,214594,1,0,0:0:0:0:
256,192,214680,1,8,0:0:0:0:
256,192,214766,1,8,0:0:0:0:
256,192,214937,1,8,0:0:0:0:
256,192,215109,1,0,0:0:0:0:
256,192,215194,1,8,0:0:0:0:
256,192,215280,1,0,0:0:0:0:
256,192,215366,1,0,0:0:0:0:
256,192,215451,1,8,0:0:0:0:
256,192,215623,1,0,0:0:0:0:
256,192,215794,1,0,0:0:0:0:
256,192,215880,1,0,0:0:0:0:
256,192,215966,1,8,0:0:0:0:
256,192,216137,1,0,0:0:0:0:
256,192,216309,1,8,0:0:0:0:
256,192,216480,1,0,0:0:0:0:
256,192,216566,1,8,0:0:0:0:
256,192,216651,1,8,0:0:0:0:
256,192,216737,1,0,0:0:0:0:
256,192,216823,1,8,0:0:0:0:
256,192,216994,1,0,0:0:0:0:
256,192,217166,1,8,0:0:0:0:
256,192,217251,1,8,0:0:0:0:
256,192,217337,1,0,0:0:0:0:
256,192,217509,1,0,0:0:0:0:
256,192,217594,1,8,0:0:0:0:
256,192,217680,1,0,0:0:0:0:
256,192,217766,1,0,0:0:0:0:
256,192,217851,1,8,0:0:0:0:
256,192,218023,1,0,0:0:0:0:
256,192,218109,1,8,0:0:0:0:
256,192,218194,1,0,0:0:0:0:
256,192,218366,1,8,0:0:0:0:
256,192,218537,1,0,0:0:0:0:
256,192,218623,1,0,0:0:0:0:
256,192,218709,1,8,0:0:0:0:
256,192,218880,1,0,0:0:0:0:
256,192,219051,1,8,0:0:0:0:
256,192,219223,1,0,0:0:0:0:
256,192,219309,1,8,0:0:0:0:
256,192,219394,1,8,0:0:0:0:
256,192,219480,1,0,0:0:0:0:
256,192,219566,1,0,0:0:0:0:
256,192,219737,1,0,0:0:0:0:
256,192,219909,1,8,0:0:0:0:
256,192,219994,1,0,0:0:0:0:
256,192,220080,1,0,0:0:0:0:
256,192,220166,1,8,0:0:0:0:
256,192,220251,1,8,0:0:0:0:
256,192,220423,1,8,0:0:0:0:
256,192,220594,1,0,0:0:0:0:
256,192,220680,1,8,0:0:0:0:
256,192,220766,1,8,0:0:0:0:
256,192,220851,1,0,0:0:0:0:
256,192,220937,1,8,0:0:0:0:
256,192,221109,1,4,0:0:0:0:
256,192,221280,1,0,0:0:0:0:
256,192,221366,1,0,0:0:0:0:
256,192,221451,1,8,0:0:0:0:
256,192,221623,1,0,0:0:0:0:
256,192,221794,1,8,0:0:0:0:
256,192,221966,1,0,0:0:0:0:
256,192,222051,1,8,0:0:0:0:
256,192,222137,1,8,0:0:0:0:
256,192,222223,1,0,0:0:0:0:
256,192,222309,1,8,0:0:0:0:
256,192,222394,1,8,0:0:0:0:
256,192,222480,1,0,0:0:0:0:
256,192,222651,1,8,0:0:0:0:
256,192,222737,1,8,0:0:0:0:
256,192,222823,1,0,0:0:0:0:
256,192,222994,1,0,0:0:0:0:
256,192,223080,1,8,0:0:0:0:
256,192,223166,1,8,0:0:0:0:
256,192,223251,1,0,0:0:0:0:
256,192,223337,1,8,0:0:0:0:
256,192,223423,1,8,0:0:0:0:
256,192,223509,1,0,0:0:0:0:
256,192,223594,1,8,0:0:0:0:
256,192,223680,1,0,0:0:0:0:
256,192,223851,1,12,0:0:0:0:
256,192,224023,1,0,0:0:0:0:
256,192,224109,1,0,0:0:0:0:
256,192,224194,1,8,0:0:0:0:
256,192,224366,1,0,0:0:0:0:
256,192,224537,1,8,0:0:0:0:
256,192,224623,1,0,0:0:0:0:
256,192,224709,1,0,0:0:0:0:
256,192,224794,1,8,0:0:0:0:
256,192,224880,5,8,0:0:0:0:
256,192,224966,1,0,0:0:0:0:
256,192,225051,1,8,0:0:0:0:
256,192,225223,1,0,0:0:0:0:
256,192,225394,1,8,0:0:0:0:
256,192,225480,1,8,0:0:0:0:
256,192,225566,1,0,0:0:0:0:
256,192,225651,1,8,0:0:0:0:
256,192,225737,1,8,0:0:0:0:
256,192,225823,1,0,0:0:0:0:
256,192,225909,1,8,0:0:0:0:
256,192,226080,1,0,0:0:0:0:
256,192,226166,1,8,0:0:0:0:
256,192,226251,1,0,0:0:0:0:
256,192,226337,1,0,0:0:0:0:
256,192,226423,1,8,0:0:0:0:
256,192,226594,5,4,0:0:0:0:
256,192,226766,1,0,0:0:0:0:
256,192,226851,1,0,0:0:0:0:
256,192,226937,1,8,0:0:0:0:
256,192,227023,1,0,0:0:0:0:
256,192,227109,1,8,0:0:0:0:
256,192,227194,1,0,0:0:0:0:
256,192,227280,1,8,0:0:0:0:
256,192,227366,1,8,0:0:0:0:
256,192,227451,1,0,0:0:0:0:
256,192,227537,1,8,0:0:0:0:
256,192,227623,1,0,0:0:0:0:
256,192,227709,1,0,0:0:0:0:
256,192,227794,1,8,0:0:0:0:
256,192,227966,1,12,0:0:0:0:
256,192,228137,1,0,0:0:0:0:
256,192,228223,1,8,0:0:0:0:
256,192,228309,1,0,0:0:0:0:
256,192,228394,1,0,0:0:0:0:
256,192,228480,1,8,0:0:0:0:
256,192,228566,1,0,0:0:0:0:
256,192,228651,1,8,0:0:0:0:
256,192,228737,1,8,0:0:0:0:
256,192,228823,1,0,0:0:0:0:
256,192,228909,1,8,0:0:0:0:
256,192,228994,1,0,0:0:0:0:
256,192,229080,1,0,0:0:0:0:
256,192,229166,1,8,0:0:0:0:
256,192,229251,1,0,0:0:0:0:
256,192,229337,1,8,0:0:0:0:
256,192,229423,1,8,0:0:0:0:
256,192,229509,1,0,0:0:0:0:
256,192,229594,1,8,0:0:0:0:
256,192,229680,1,0,0:0:0:0:
256,192,229766,1,0,0:0:0:0:
256,192,229851,1,8,0:0:0:0:
256,192,229937,1,0,0:0:0:0:
256,192,230023,1,8,0:0:0:0:
256,192,230109,1,8,0:0:0:0:
256,192,230194,1,0,0:0:0:0:
256,192,230280,1,8,0:0:0:0:
256,192,230366,1,0,0:0:0:0:
256,192,230451,1,0,0:0:0:0:
256,192,230537,1,8,0:0:0:0:
256,192,230709,1,4,0:0:0:0:
256,192,230880,1,8,0:0:0:0:
256,192,231052,1,0,0:0:0:0:
256,192,231137,1,8,0:0:0:0:
256,192,231309,1,0,0:0:0:0:
256,192,231394,1,8,0:0:0:0:
256,192,231566,1,0,0:0:0:0:
256,192,231651,1,8,0:0:0:0:
256,192,231823,1,0,0:0:0:0:
256,192,231909,1,8,0:0:0:0:
256,192,232080,1,12,0:0:0:0:
256,192,232251,1,0,0:0:0:0:
256,192,232337,1,0,0:0:0:0:
256,192,232423,1,8,0:0:0:0:
256,192,232594,1,0,0:0:0:0:
256,192,232766,1,8,0:0:0:0:
256,192,232851,1,0,0:0:0:0:
256,192,232937,1,0,0:0:0:0:
256,192,233023,1,0,0:0:0:0:
256,192,233109,1,8,0:0:0:0:
256,192,233280,1,0,0:0:0:0:
256,192,233451,1,8,0:0:0:0:
256,192,233537,1,8,0:0:0:0:
256,192,233623,1,8,0:0:0:0:
256,192,233709,1,0,0:0:0:0:
256,192,233794,1,8,0:0:0:0:
256,192,233966,1,0,0:0:0:0:
256,192,234137,1,8,0:0:0:0:
256,192,234223,1,0,0:0:0:0:
256,192,234309,1,0,0:0:0:0:
256,192,234394,1,0,0:0:0:0:
256,192,234480,1,8,0:0:0:0:
256,192,234651,1,0,0:0:0:0:
256,192,234823,1,8,0:0:0:0:
256,192,234909,1,8,0:0:0:0:
256,192,234994,1,0,0:0:0:0:
256,192,235080,1,0,0:0:0:0:
256,192,235166,1,8,0:0:0:0:
256,192,235337,1,0,0:0:0:0:
256,192,235509,1,8,0:0:0:0:
256,192,235594,1,0,0:0:0:0:
256,192,235680,1,0,0:0:0:0:
256,192,235766,1,0,0:0:0:0:
256,192,235851,1,8,0:0:0:0:
256,192,236023,1,0,0:0:0:0:
256,192,236194,1,8,0:0:0:0:
256,192,236280,1,8,0:0:0:0:
256,192,236366,1,0,0:0:0:0:
256,192,236451,1,0,0:0:0:0:
256,192,236537,1,8,0:0:0:0:
256,192,236709,1,0,0:0:0:0:
256,192,236880,1,8,0:0:0:0:
256,192,236966,1,8,0:0:0:0:
256,192,237051,1,0,0:0:0:0:
256,192,237137,1,8,0:0:0:0:
256,192,237223,1,0,0:0:0:0:
256,192,237309,1,0,0:0:0:0:
256,192,237394,1,8,0:0:0:0:
256,192,237480,1,0,0:0:0:0:
256,192,237566,1,8,0:0:0:0:
256,192,237651,1,8,0:0:0:0:
256,192,237737,1,0,0:0:0:0:
256,192,237909,1,8,0:0:0:0:
256,192,238080,1,0,0:0:0:0:
256,192,238251,1,8,0:0:0:0:
256,192,238337,1,0,0:0:0:0:
256,192,238423,1,0,0:0:0:0:
256,192,238509,1,0,0:0:0:0:
256,192,238594,1,8,0:0:0:0:
256,192,238766,1,0,0:0:0:0:
256,192,238937,1,8,0:0:0:0:
256,192,239023,1,8,0:0:0:0:
256,192,239109,1,0,0:0:0:0:
256,192,239194,1,0,0:0:0:0:
256,192,239280,1,8,0:0:0:0:
256,192,239451,1,0,0:0:0:0:
256,192,239623,1,8,0:0:0:0:
256,192,239709,1,8,0:0:0:0:
256,192,239794,1,0,0:0:0:0:
256,192,239880,1,8,0:0:0:0:
256,192,239966,1,0,0:0:0:0:
256,192,240051,1,0,0:0:0:0:
256,192,240137,1,8,0:0:0:0:
256,192,240223,1,0,0:0:0:0:
256,192,240309,1,8,0:0:0:0:
256,192,240394,1,8,0:0:0:0:
256,192,240480,1,0,0:0:0:0:
256,192,240651,1,8,0:0:0:0:
256,192,240823,1,8,0:0:0:0:
256,192,240909,1,0,0:0:0:0:
256,192,240994,1,8,0:0:0:0:
256,192,241080,1,0,0:0:0:0:
256,192,241166,1,0,0:0:0:0:
256,192,241251,1,0,0:0:0:0:
256,192,241337,1,8,0:0:0:0:
256,192,241509,1,0,0:0:0:0:
256,192,241680,1,8,0:0:0:0:
256,192,241766,1,8,0:0:0:0:
256,192,241851,1,0,0:0:0:0:
256,192,242023,1,8,0:0:0:0:
256,192,242194,1,8,0:0:0:0:
256,192,242280,1,0,0:0:0:0:
256,192,242366,1,8,0:0:0:0:
256,192,242451,1,8,0:0:0:0:
256,192,242537,1,0,0:0:0:0:
256,192,242623,1,0,0:0:0:0:
256,192,242709,1,8,0:0:0:0:
256,192,242794,1,0,0:0:0:0:
256,192,242880,1,8,0:0:0:0:
256,192,243051,1,4,0:0:0:0:
256,192,243223,1,8,0:0:0:0:
256,192,243394,1,0,0:0:0:0:
256,192,243480,1,8,0:0:0:0:
256,192,243566,1,8,0:0:0:0:
256,192,243651,1,0,0:0:0:0:
256,192,243737,1,8,0:0:0:0:
256,192,243909,1,8,0:0:0:0:
256,192,243994,1,8,0:0:0:0:
256,192,244080,1,0,0:0:0:0:
256,192,244251,1,8,0:0:0:0:
256,192,244423,1,0,0:0:0:0:
256,192,244594,1,8,0:0:0:0:
256,192,244766,1,0,0:0:0:0:
256,192,244851,1,8,0:0:0:0:
256,192,244937,1,8,0:0:0:0:
256,192,245023,1,0,0:0:0:0:
256,192,245109,1,8,0:0:0:0:
256,192,245280,1,8,0:0:0:0:
256,192,245366,1,8,0:0:0:0:
256,192,245451,1,0,0:0:0:0:
256,192,245623,1,8,0:0:0:0:
256,192,245794,1,4,0:0:0:0:
256,192,245966,1,8,0:0:0:0:
256,192,246137,1,0,0:0:0:0:
256,192,246223,1,8,0:0:0:0:
256,192,246309,1,0,0:0:0:0:
256,192,246394,1,0,0:0:0:0:
256,192,246480,1,8,0:0:0:0:
256,192,246651,1,8,0:0:0:0:
256,192,246737,1,8,0:0:0:0:
256,192,246823,1,0,0:0:0:0:
256,192,246994,1,8,0:0:0:0:
256,192,247166,1,0,0:0:0:0:
256,192,247337,1,8,0:0:0:0:
256,192,247509,1,0,0:0:0:0:
256,192,247594,1,8,0:0:0:0:
256,192,247680,1,0,0:0:0:0:
256,192,247766,1,0,0:0:0:0:
256,192,247851,1,8,0:0:0:0:
256,192,248023,1,8,0:0:0:0:
256,192,248109,1,8,0:0:0:0:
256,192,248194,1,0,0:0:0:0:
256,192,248366,1,8,0:0:0:0:
256,192,248537,1,4,0:0:0:0:
256,192,248709,1,0,0:0:0:0:
256,192,248794,1,0,0:0:0:0:
256,192,248880,1,8,0:0:0:0:
256,192,249051,1,0,0:0:0:0:
256,192,249223,1,8,0:0:0:0:
256,192,249394,1,0,0:0:0:0:
256,192,249566,1,8,0:0:0:0:
256,192,249651,1,8,0:0:0:0:
256,192,249737,1,0,0:0:0:0:
256,192,249909,1,12,0:0:0:0:
256,192,250080,1,0,0:0:0:0:
256,192,250166,1,0,0:0:0:0:
256,192,250251,1,8,0:0:0:0:
256,192,250423,1,0,0:0:0:0:
256,192,250594,1,8,0:0:0:0:
256,192,250766,1,0,0:0:0:0:
256,192,250937,1,8,0:0:0:0:
256,192,251023,5,8,0:0:0:0:
256,192,251109,1,0,0:0:0:0:
256,192,251280,1,0,0:0:0:0:
256,192,251366,1,8,0:0:0:0:
256,192,251451,1,0,0:0:0:0:
256,192,251537,1,0,0:0:0:0:
256,192,251623,1,8,0:0:0:0:
256,192,251709,1,0,0:0:0:0:
256,192,251794,1,8,0:0:0:0:
256,192,251880,1,8,0:0:0:0:
256,192,251966,1,0,0:0:0:0:
256,192,252051,1,8,0:0:0:0:
256,192,252137,1,0,0:0:0:0:
256,192,252223,1,0,0:0:0:0:
256,192,252309,1,8,0:0:0:0:
256,192,252394,1,0,0:0:0:0:
256,192,252480,1,8,0:0:0:0:
256,192,252651,1,4,0:0:0:0:
256,192,252823,1,8,0:0:0:0:
256,192,252994,1,0,0:0:0:0:
256,192,253080,1,8,0:0:0:0:
256,192,253251,1,0,0:0:0:0:
256,192,253337,1,8,0:0:0:0:
256,192,253509,1,0,0:0:0:0:
256,192,253594,1,8,0:0:0:0:
256,192,253766,1,0,0:0:0:0:
256,192,253851,1,8,0:0:0:0:
256,192,254023,1,4,0:0:0:0:
256,192,254194,1,0,0:0:0:0:
256,192,254280,1,0,0:0:0:0:
256,192,254366,1,8,0:0:0:0:
256,192,254537,1,8,0:0:0:0:
256,192,254709,1,0,0:0:0:0:
256,192,254880,1,0,0:0:0:0:
256,192,254966,1,0,0:0:0:0:
256,192,255051,1,8,0:0:0:0:
256,192,255223,1,0,0:0:0:0:
256,192,255394,1,8,0:0:0:0:
256,192,255480,1,0,0:0:0:0:
256,192,255566,1,0,0:0:0:0:
256,192,255737,1,8,0:0:0:0:
256,192,255909,1,0,0:0:0:0:
256,192,255994,1,0,0:0:0:0:
256,192,256080,1,0,0:0:0:0:
256,192,256251,1,0,0:0:0:0:
256,192,256423,1,8,0:0:0:0:
256,192,256594,1,0,0:0:0:0:
256,192,256766,1,0,0:0:0:0:
256,192,256937,1,0,0:0:0:0:
256,192,257023,1,0,0:0:0:0:
256,192,257109,1,8,0:0:0:0:
256,192,257280,1,0,0:0:0:0:
256,192,257451,1,0,0:0:0:0:
256,192,257623,1,0,0:0:0:0:
256,192,257709,1,0,0:0:0:0:
256,192,257794,1,8,0:0:0:0:
256,192,257966,1,0,0:0:0:0:
256,192,258137,1,0,0:0:0:0:
256,192,258309,1,0,0:0:0:0:
256,192,258394,1,0,0:0:0:0:
256,192,258480,1,8,0:0:0:0:
256,192,258651,1,0,0:0:0:0:
256,192,258823,1,8,0:0:0:0:
256,192,258994,1,0,0:0:0:0:
256,192,259080,1,8,0:0:0:0:
256,192,259166,1,0,0:0:0:0:
256,192,259337,1,8,0:0:0:0:
256,192,259509,1,0,0:0:0:0:
256,192,259680,1,0,0:0:0:0:
256,192,259766,1,0,0:0:0:0:
256,192,259851,1,8,0:0:0:0:
256,192,260023,1,8,0:0:0:0:
256,192,260194,1,0,0:0:0:0:
256,192,260366,1,0,0:0:0:0:
256,192,260451,1,0,0:0:0:0:
256,192,260537,1,8,0:0:0:0:
256,192,260709,1,0,0:0:0:0:
256,192,260880,1,8,0:0:0:0:
256,192,260966,1,8,0:0:0:0:
256,192,261051,1,0,0:0:0:0:
256,192,261223,1,8,0:0:0:0:
256,192,261394,1,0,0:0:0:0:
256,192,261480,1,0,0:0:0:0:
256,192,261566,1,0,0:0:0:0:
256,192,261737,1,0,0:0:0:0:
256,192,261909,1,8,0:0:0:0:
256,192,262080,1,0,0:0:0:0:
256,192,262251,1,0,0:0:0:0:
256,192,262423,1,0,0:0:0:0:
256,192,262509,1,0,0:0:0:0:
256,192,262594,1,8,0:0:0:0:
256,192,262766,1,0,0:0:0:0:
256,192,262937,1,0,0:0:0:0:
256,192,263109,1,0,0:0:0:0:
256,192,263194,1,0,0:0:0:0:
256,192,263280,1,8,0:0:0:0:
256,192,263451,1,0,0:0:0:0:
256,192,263623,1,0,0:0:0:0:
256,192,263794,1,0,0:0:0:0:
256,192,263880,1,0,0:0:0:0:
256,192,263966,1,8,0:0:0:0:
256,192,264137,1,0,0:0:0:0:
256,192,264309,1,8,0:0:0:0:
256,192,264480,1,0,0:0:0:0:
256,192,264566,1,8,0:0:0:0:
256,192,264651,1,0,0:0:0:0:
256,192,264823,1,8,0:0:0:0:
256,192,264994,1,4,0:0:0:0:
256,192,265166,1,0,0:0:0:0:
256,192,265251,1,0,0:0:0:0:
256,192,265337,1,8,0:0:0:0:
256,192,265423,1,0,0:0:0:0:
256,192,265509,1,8,0:0:0:0:
256,192,265680,1,0,0:0:0:0:
256,192,265851,1,0,0:0:0:0:
256,192,265937,1,0,0:0:0:0:
256,192,266023,1,8,0:0:0:0:
256,192,266194,1,0,0:0:0:0:
256,192,266366,1,8,0:0:0:0:
256,192,266451,1,0,0:0:0:0:
256,192,266537,1,0,0:0:0:0:
256,192,266623,1,0,0:0:0:0:
256,192,266709,1,8,0:0:0:0:
256,192,266880,1,0,0:0:0:0:
256,192,266966,1,0,0:0:0:0:
256,192,267051,1,0,0:0:0:0:
256,192,267223,1,0,0:0:0:0:
256,192,267394,1,8,0:0:0:0:
256,192,267566,1,0,0:0:0:0:
256,192,267737,1,4,0:0:0:0:
256,192,267909,1,0,0:0:0:0:
256,192,267994,1,0,0:0:0:0:
256,192,268080,1,8,0:0:0:0:
256,192,268251,1,0,0:0:0:0:
256,192,268423,1,0,0:0:0:0:
256,192,268594,1,0,0:0:0:0:
256,192,268680,1,0,0:0:0:0:
256,192,268766,1,8,0:0:0:0:
256,192,268937,5,0,0:0:0:0:
256,192,269109,1,0,0:0:0:0:
256,192,269280,1,0,0:0:0:0:
256,192,269366,1,0,0:0:0:0:
256,192,269451,1,8,0:0:0:0:
256,192,269623,1,0,0:0:0:0:
256,192,269794,1,8,0:0:0:0:
256,192,269966,1,0,0:0:0:0:
256,192,270051,1,8,0:0:0:0:
256,192,270137,1,0,0:0:0:0:
256,192,270309,1,8,0:0:0:0:
256,192,270480,1,4,0:0:0:0:
256,192,270651,5,0,0:0:0:0:
256,192,270737,1,0,0:0:0:0:
256,192,270823,1,8,0:0:0:0:
256,192,270994,1,0,0:0:0:0:
256,192,271166,1,8,0:0:0:0:
256,192,271337,1,0,0:0:0:0:
256,192,271509,1,8,0:0:0:0:
256,192,271594,1,8,0:0:0:0:
256,192,271680,1,0,0:0:0:0:
256,192,271851,1,4,0:0:0:0:
256,192,272023,1,0,0:0:0:0:
256,192,272109,1,0,0:0:0:0:
256,192,272194,1,8,0:0:0:0:
256,192,272366,1,0,0:0:0:0:
256,192,272537,1,8,0:0:0:0:
256,192,272709,1,0,0:0:0:0:
256,192,272880,1,8,0:0:0:0:
256,192,272966,1,8,0:0:0:0:
256,192,273051,1,0,0:0:0:0:
256,192,273223,1,0,0:0:0:0:
256,192,273309,1,0,0:0:0:0:
256,192,273394,1,0,0:0:0:0:
256,192,273480,1,0,0:0:0:0:
256,192,273566,1,8,0:0:0:0:
256,192,273651,1,8,0:0:0:0:
256,192,273737,1,8,0:0:0:0:
256,192,273823,1,8,0:0:0:0:
256,192,273909,1,0,0:0:0:0:
256,192,273994,1,0,0:0:0:0:
256,192,274080,1,0,0:0:0:0:
256,192,274166,1,0,0:0:0:0:
256,192,274251,5,8,0:0:0:0:
256,192,274337,1,8,0:0:0:0:
256,192,274423,1,8,0:0:0:0:
256,192,274509,1,8,0:0:0:0:
256,192,274594,1,0,0:0:0:0:
256,192,275966,5,4,0:0:0:0:
256,192,276137,5,0,0:0:0:0:
256,192,276309,1,8,0:0:0:0:
256,192,276480,1,0,0:0:0:0:
256,192,276823,1,0,0:0:0:0:
256,192,276994,1,8,0:0:0:0:
256,192,277166,1,0,0:0:0:0:
256,192,277337,1,0,0:0:0:0:
256,192,277680,1,8,0:0:0:0:
256,192,277851,1,0,0:0:0:0:
256,192,278194,1,0,0:0:0:0:
256,192,278366,1,8,0:0:0:0:
256,192,278709,1,0,0:0:0:0:
256,192,279051,1,8,0:0:0:0:
256,192,279394,1,0,0:0:0:0:
256,192,279737,1,8,0:0:0:0:
256,192,280080,1,0,0:0:0:0:
256,192,280423,1,8,0:0:0:0:
256,192,280766,1,0,0:0:0:0:
256,192,281023,1,8,0:0:0:0:
256,192,281109,1,0,0:0:0:0:
256,192,281280,1,8,0:0:0:0:
256,192,281623,1,0,0:0:0:0:
256,192,281794,1,8,0:0:0:0:
256,192,281966,1,0,0:0:0:0:
256,192,282309,1,0,0:0:0:0:
256,192,282480,1,8,0:0:0:0:
256,192,282651,1,0,0:0:0:0:
256,192,282823,1,0,0:0:0:0:
256,192,283166,1,8,0:0:0:0:
256,192,283337,1,0,0:0:0:0:
256,192,283680,1,0,0:0:0:0:
256,192,283851,1,8,0:0:0:0:
256,192,284194,1,0,0:0:0:0:
256,192,284537,1,8,0:0:0:0:
256,192,284880,1,0,0:0:0:0:
256,192,285223,1,8,0:0:0:0:
256,192,285566,1,0,0:0:0:0:
256,192,285909,1,8,0:0:0:0:
256,192,286251,1,0,0:0:0:0:
256,192,286509,1,8,0:0:0:0:
256,192,286594,1,0,0:0:0:0:
256,192,286766,1,8,0:0:0:0:
256,192,286937,1,4,0:0:0:0:
256,192,287109,1,0,0:0:0:0:
256,192,287280,1,8,0:0:0:0:
256,192,287451,1,8,0:0:0:0:
256,192,287794,1,0,0:0:0:0:
256,192,287966,1,8,0:0:0:0:
256,192,288137,1,8,0:0:0:0:
256,192,288309,1,0,0:0:0:0:
256,192,288651,1,8,0:0:0:0:
256,192,288823,1,0,0:0:0:0:
256,192,289166,1,0,0:0:0:0:
256,192,289337,1,8,0:0:0:0:
256,192,289680,1,4,0:0:0:0:
256,192,290023,1,8,0:0:0:0:
256,192,290366,1,0,0:0:0:0:
256,192,290709,1,8,0:0:0:0:
256,192,291051,1,0,0:0:0:0:
256,192,291394,1,8,0:0:0:0:
256,192,291737,1,0,0:0:0:0:
256,192,291994,1,8,0:0:0:0:
256,192,292080,1,0,0:0:0:0:
256,192,292251,1,8,0:0:0:0:
256,192,292423,1,4,0:0:0:0:
256,192,292594,1,0,0:0:0:0:
256,192,292766,1,8,0:0:0:0:
256,192,292937,1,8,0:0:0:0:
256,192,293280,1,0,0:0:0:0:
256,192,293451,1,8,0:0:0:0:
256,192,293623,1,8,0:0:0:0:
256,192,293794,1,4,0:0:0:0:
256,192,294137,1,8,0:0:0:0:
256,192,294309,1,0,0:0:0:0:
256,192,294651,1,0,0:0:0:0:
256,192,294823,1,8,0:0:0:0:
256,192,295166,1,4,0:0:0:0:
256,192,295509,5,8,0:0:0:0:
256,192,295851,1,4,0:0:0:0:
256,192,296194,1,8,0:0:0:0:
256,192,296537,1,4,0:0:0:0:
256,192,297223,1,8,0:0:0:0:
256,192,297480,1,0,0:0:0:0:
256,192,297737,1,0,0:0:0:0:
256,192,297909,1,8,0:0:0:0:
256,192,298166,1,0,0:0:0:0:
256,192,298423,1,0,0:0:0:0:
256,192,298594,1,8,0:0:0:0:
256,192,298851,1,0,0:0:0:0:
256,192,299109,1,0,0:0:0:0:
256,192,299280,1,8,0:0:0:0:
256,192,299537,1,0,0:0:0:0:
256,192,299794,1,0,0:0:0:0:
256,192,299966,1,8,0:0:0:0:
256,192,300223,1,0,0:0:0:0:
256,192,300480,1,0,0:0:0:0:
256,192,300651,1,8,0:0:0:0:
