osu file format v14

[General]
AudioFilename: audio.mp3
AudioLeadIn: 0
PreviewTime: 131565
Countdown: 0
SampleSet: None
StackLeniency: 0.2
Mode: 0
LetterboxInBreaks: 0
WidescreenStoryboard: 1

[Editor]
Bookmarks: 11223,22194,33165,44137,66080,77051,88023,98994,109965,131908,142880,153851,175794,186765,197737,208708,219680,230651,252594,274537
DistanceSpacing: 0.4
BeatDivisor: 4
GridSize: 4
TimelineZoom: 1.400002

[Metadata]
Title:Irony (Asterisk DnB Remix)
TitleUnicode:Irony (Asterisk DnB Remix)
Artist:Asterisk
ArtistUnicode:Asterisk
Creator:Kagami Yuki
Version:Spring Roll's Easy
Source:
Tags:
BeatmapID:1481144
BeatmapSetID:694064

[Difficulty]
HPDrainRate:7
CircleSize:4.2
OverallDifficulty:8
ApproachRate:9.3
SliderMultiplier:2
SliderTickRate:1

[Events]
//Background and Video events
0,0,"05 (1).jpg",0,0
//Break Periods
2,175994,185869
//Storyboard Layer 0 (Background)
//Storyboard Layer 1 (Fail)
//Storyboard Layer 2 (Pass)
//Storyboard Layer 3 (Foreground)
//Storyboard Sound Samples

[TimingPoints]
251,685.714285714286,4,2,0,60,1,0
10708,-66.6666666666667,4,2,0,60,0,0
11223,342.857142857143,4,2,0,60,1,0
20823,-200,4,2,0,60,0,0
21680,-66.6666666666667,4,2,0,60,0,0
22194,-100,4,2,0,60,0,0
24937,-133.333333333333,4,2,0,60,0,0
25623,-200,4,2,0,60,0,0
31965,-100,4,2,0,60,0,0
44137,-133.333333333333,4,2,0,60,0,0
55108,-200,4,2,0,60,0,0
60251,-100,4,2,0,60,0,0
60594,-200,4,2,0,5,0,0
63337,-1000,4,2,0,5,0,0
64537,-200,4,2,0,5,0,0
66080,-100,4,2,0,60,0,0
72080,-133.333333333333,4,2,0,60,0,0
72594,-100,4,2,0,60,0,0
88023,-100,4,2,0,60,0,0
88108,-133.333333333333,4,2,0,60,0,1
93851,-200,4,2,0,60,0,1
94880,-133.333333333333,4,2,0,60,0,1
104823,-100,4,2,0,60,0,1
105851,-133.333333333333,4,2,0,60,0,1
109965,-100,4,2,0,60,0,0
113565,-133.333333333333,4,2,0,60,0,0
114765,-200,4,2,0,60,0,0
115108,-100,4,2,0,60,0,0
119737,-200,4,2,0,60,0,0
120251,-100,4,2,0,60,0,0
127794,-100,4,2,0,60,0,0
128137,-100,4,2,0,50,0,0
128480,-100,4,2,0,40,0,0
128823,-100,4,2,0,30,0,0
129165,-100,4,2,0,60,0,0
130365,-200,4,2,0,60,0,0
131908,-100,4,2,0,60,0,0
154194,-133.333333333333,4,2,0,60,0,0
156594,-153.846153846154,4,2,0,60,0,0
157965,-200,4,2,0,60,0,0
158651,-100,4,2,0,60,0,0
159680,-200,4,2,0,60,0,0
160708,-133.333333333333,4,2,0,60,0,0
161737,-200,4,2,0,60,0,0
162080,-100,4,2,0,60,0,0
163451,-133.333333333333,4,2,0,60,0,0
164137,-200,4,2,0,60,0,0
164480,-100,4,2,0,60,0,0
164823,-200,4,2,0,60,0,0
170308,-133.333333333333,4,2,0,60,0,0
170651,-200,4,2,0,60,0,0
171680,-133.333333333333,4,2,0,60,0,0
173051,-200,4,2,0,60,0,0
186423,-200,4,2,0,60,0,0
200480,-133.333333333333,4,2,0,60,0,0
203223,-100,4,2,0,60,0,0
208708,-66.6666666666667,4,2,0,60,0,1
230651,-66.6666666666667,4,2,0,60,0,0

[HitObjects]
149,131,251,6,0,P|155:177|144:211,1,50
130,324,593,2,0,P|124:278|135:244,1,50
236,237,936,2,0,P|190:243|156:232,1,50
43,218,1279,2,0,P|89:212|123:223,1,50
369,193,1622,5,0,0:0:0:0:
162,141,1793,1,0,0:0:0:0:
244,87,1965,2,0,P|246:55|245:20,1,50
241,172,2308,2,0,P|272:174|308:173,1,50
162,141,2651,2,0,P|130:138|95:140,1,50
79,227,2993,6,0,P|102:291|159:296,1,100
208,264,3508,1,0,0:0:0:0:
260,332,3679,2,0,P|300:334|349:276,1,100
363,210,4193,1,0,0:0:0:0:
199,161,4365,6,0,L|194:221,1,50
281,98,4708,2,0,L|284:156,1,50
273,350,5051,2,0,L|269:289,1,50
357,303,5393,2,0,L|357:238,1,50
465,158,5736,6,0,P|435:155|400:95,1,100
125,204,6422,2,0,P|155:207|190:267,1,100
336,131,7108,6,0,L|337:27,1,100
221,238,7793,2,0,L|217:333,1,75
216,344,8136,1,0,0:0:0:0:
112,347,8479,5,0,0:0:0:0:
171,155,8822,1,0,0:0:0:0:
85,353,9165,1,0,0:0:0:0:
65,180,9508,1,0,0:0:0:0:
323,346,9851,5,0,0:0:0:0:
426,115,10193,1,0,0:0:0:0:
355,344,10536,1,0,0:0:0:0:
302,206,10708,1,0,0:0:0:0:
430,298,10879,2,0,L|508:292,1,75.0000028610231
394,165,11222,6,0,L|384:332,1,150.000005722046
270,303,11737,1,0,0:0:0:0:
226,115,11908,2,0,P|272:154|293:228,1,100
150,319,12251,2,0,P|151:268|186:214,1,100
347,312,12594,6,0,L|241:303,1,100
27,231,12937,2,0,L|149:220,1,100
427,189,13280,1,0,0:0:0:0:
427,189,13451,1,0,0:0:0:0:
323,131,13623,2,0,L|195:142,1,100
92,118,13965,6,0,P|56:185|92:304,1,200
223,336,14480,1,0,0:0:0:0:
328,271,14651,2,0,P|342:226|329:162,1,100
273,88,14994,1,0,0:0:0:0:
179,241,15165,1,0,0:0:0:0:
335,176,15337,5,0,0:0:0:0:
335,176,15508,1,0,0:0:0:0:
133,162,15680,2,0,B|156:222|139:289|139:289|173:224,1,200
190,220,16365,2,0,L|71:234,1,100
314,205,16708,5,0,0:0:0:0:
314,205,16880,1,0,0:0:0:0:
302,302,17051,1,0,0:0:0:0:
302,302,17223,1,0,0:0:0:0:
405,331,17394,1,0,0:0:0:0:
405,331,17565,1,0,0:0:0:0:
448,238,17737,1,0,0:0:0:0:
448,238,17908,1,0,0:0:0:0:
352,132,18080,5,0,0:0:0:0:
288,212,18251,1,0,0:0:0:0:
208,132,18423,1,0,0:0:0:0:
144,212,18594,1,0,0:0:0:0:
356,144,18765,1,0,0:0:0:0:
292,224,18936,1,0,0:0:0:0:
212,144,19108,1,0,0:0:0:0:
148,224,19279,1,0,0:0:0:0:
288,328,19451,5,0,0:0:0:0:
288,328,19537,1,0,0:0:0:0:
288,328,19623,1,0,0:0:0:0:
288,328,19708,1,0,0:0:0:0:
368,336,19794,2,0,L|380:284,3,50
420,284,20137,1,0,0:0:0:0:
372,244,20223,1,0,0:0:0:0:
356,186,20308,1,0,0:0:0:0:
370,127,20394,1,0,0:0:0:0:
438,80,20480,1,0,0:0:0:0:
372,117,20565,1,0,0:0:0:0:
297,97,20651,2,0,P|268:89|236:63,1,50
220,0,20823,6,0,L|213:118,1,100
126,103,21337,2,0,L|136:181,1,75
232,191,21680,6,0,L|219:268,1,75.0000028610231
135,315,21851,2,0,B|166:281|250:273|244:348|334:350|365:266,1,225.000008583069
472,314,22194,6,0,L|453:198,1,100
348,133,22537,2,0,P|333:178|333:241,1,100
341,247,22794,1,0,0:0:0:0:
350,267,22880,1,0,0:0:0:0:
211,173,23051,2,0,L|143:171,1,50
35,203,23223,2,0,L|84:204,1,50
153,309,23394,2,0,L|155:260,1,50
150,21,23566,6,0,P|164:49|168:75,1,50
255,46,23737,2,0,P|256:77|250:102,1,50
342,110,23909,2,0,P|331:139|315:160,1,50
396,203,24080,2,0,P|374:226|352:239,1,50
208,348,24251,6,0,P|204:325|211:293,1,50
141,290,24423,2,0,P|148:267|169:242,1,50
108,207,24594,2,0,P|124:190|155:178,1,50
117,119,24765,2,0,P|139:112|172:116,1,50
403,102,24937,6,0,L|403:140,1,37.5000014305115
399,148,25108,2,0,L|399:186,1,37.5000014305115
402,194,25280,2,0,L|402:232,1,37.5000014305115
397,241,25451,2,0,L|397:279,1,37.5000014305115
130,254,25623,6,0,P|146:250|158:249,1,25
121,233,25794,2,0,P|138:232|150:232,1,25
117,212,25965,2,0,P|133:213|145:215,1,25
115,190,26137,2,0,P|131:193|142:198,1,25
306,174,26308,5,0,0:0:0:0:
312,187,26480,1,0,0:0:0:0:
310,201,26651,1,0,0:0:0:0:
301,213,26823,1,0,0:0:0:0:
286,216,26994,5,0,0:0:0:0:
270,215,27080,1,0,0:0:0:0:
255,214,27165,1,0,0:0:0:0:
239,213,27251,1,0,0:0:0:0:
223,212,27337,1,0,0:0:0:0:
72,203,27508,1,0,0:0:0:0:
156,46,27680,6,0,P|168:94|159:150,1,100
356,338,28194,1,0,0:0:0:0:
356,338,28365,2,0,P|344:290|353:234,1,100
390,86,28880,5,0,0:0:0:0:
390,86,29051,2,0,L|277:89,1,100
122,298,29565,1,0,0:0:0:0:
122,298,29736,2,0,L|235:295,1,100
256,192,30251,1,0,0:0:0:0:
192,140,30423,6,0,P|180:160|176:200,1,50
320,244,30765,2,0,P|332:224|336:184,1,50
201,256,31108,1,0,0:0:0:0:
286,84,31280,1,0,0:0:0:0:
320,244,31451,1,0,0:0:0:0:
224,151,31623,2,0,P|184:145|133:145,1,75
60,109,31965,6,0,P|72:179|59:264,1,150
127,316,32308,2,0,P|184:317|163:237,1,150
37,282,32651,2,0,P|33:314|34:335,1,50
99,194,32823,2,0,L|38:187,1,50
178,242,32994,2,0,L|239:249,1,50
283,161,33165,6,0,P|336:137|392:251,1,200
315,345,33680,1,0,0:0:0:0:
315,345,33765,1,0,0:0:0:0:
315,345,33851,1,0,0:0:0:0:
149,152,34023,6,0,L|157:95,1,50
85,214,34194,1,0,0:0:0:0:
264,166,34365,2,0,L|272:109,1,50
200,228,34536,1,0,0:0:0:0:
373,182,34708,6,0,L|381:125,1,50
309,244,34879,1,0,0:0:0:0:
149,152,35051,2,0,L|157:95,1,50
200,228,35223,1,0,0:0:0:0:
373,182,35394,2,0,L|381:125,1,50
309,244,35565,1,0,0:0:0:0:
149,152,35737,6,0,L|157:95,1,50
56,239,35908,1,0,0:0:0:0:
56,239,36080,2,0,L|119:235,1,50
253,309,36251,1,0,0:0:0:0:
253,309,36423,2,0,L|190:305,1,50
11,338,36594,5,0,0:0:0:0:
11,338,36766,2,0,L|74:334,1,50
227,203,36937,2,0,P|236:155|231:110,2,50
93,25,37280,6,0,L|92:205,1,150
91,220,37623,1,0,0:0:0:0:
349,166,37794,1,0,0:0:0:0:
427,228,37965,2,0,P|426:282|396:332,1,112.500004291535
255,351,38308,1,0,0:0:0:0:
222,326,38394,1,0,0:0:0:0:
182,319,38480,1,0,0:0:0:0:
144,331,38565,1,0,0:0:0:0:
115,359,38651,6,0,L|102:239,1,100
67,73,38994,1,0,0:0:0:0:
107,76,39080,1,0,0:0:0:0:
146,79,39165,1,0,0:0:0:0:
185,82,39251,1,0,0:0:0:0:
224,86,39337,2,0,L|232:195,1,100
424,243,39680,2,0,L|415:181,1,50
452,78,39851,2,0,L|459:127,1,50
493,339,40023,6,0,P|419:325|337:334,1,150
316,362,40365,1,0,0:0:0:0:
331,170,40537,1,0,0:0:0:0:
229,307,40708,2,0,P|178:327|73:304,1,150
139,324,41051,2,0,P|171:272|104:260,1,150
48,337,41394,6,0,L|48:232,1,100
50,69,41737,1,0,0:0:0:0:
202,236,41908,1,0,0:0:0:0:
343,49,42080,2,0,L|345:164,1,100
405,267,42423,1,0,0:0:0:0:
234,96,42594,1,0,0:0:0:0:
466,158,42765,5,0,0:0:0:0:
268,214,42937,1,0,0:0:0:0:
243,220,43023,1,0,0:0:0:0:
219,226,43108,1,0,0:0:0:0:
184,313,43280,1,0,0:0:0:0:
46,168,43451,1,0,0:0:0:0:
31,147,43537,1,0,0:0:0:0:
26,122,43623,1,0,0:0:0:0:
32,98,43708,1,0,0:0:0:0:
49,79,43794,2,0,L|-24:75,1,50
126,106,43965,2,0,L|175:108,1,50
290,57,44137,6,0,P|355:67|370:146,1,150.000005722046
301,209,44651,1,0,0:0:0:0:
126,106,44823,2,0,L|132:193,1,75.0000028610231
150,348,45165,1,0,0:0:0:0:
259,313,45337,6,0,B|329:313|329:313|350:304|350:304|423:307|423:307|397:333|356:320,1,225.000008583069
308,207,46023,1,0,0:0:0:0:
368,323,46194,1,0,0:0:0:0:
368,323,46365,1,0,0:0:0:0:
405,162,46537,1,0,0:0:0:0:
405,162,46708,1,0,0:0:0:0:
297,82,46880,6,0,L|147:87,1,150.000005722046
47,173,47394,2,0,P|33:232|95:295,1,150.000005722046
89,294,48080,5,0,0:0:0:0:
366,180,48423,2,0,L|353:308,1,112.500004291535
391,320,48765,2,0,P|310:293|259:307,1,112.500004291535
254,318,49108,1,0,0:0:0:0:
175,243,49280,2,0,L|184:159,1,75.0000028610231
306,37,49623,6,0,P|322:86|313:147,1,112.500004291535
269,178,49965,2,0,L|430:164,1,150.000005722046
202,94,50480,1,0,0:0:0:0:
183,226,50651,1,0,0:0:0:0:
107,143,50823,6,0,B|82:99|82:99|29:145|58:202,2,150.000005722046
155,293,51680,1,0,0:0:0:0:
155,293,51851,1,0,0:0:0:0:
201,117,52023,1,0,0:0:0:0:
201,117,52194,1,0,0:0:0:0:
305,181,52365,6,0,P|318:232|307:297,1,112.500004291535
273,313,52708,1,0,0:0:0:0:
435,224,52880,2,0,B|465:312|465:312|478:238,2,150.000005722046
448,216,53737,5,0,0:0:0:0:
476,92,53908,2,0,P|423:68|319:87,1,150.000005722046
289,153,54423,2,0,P|255:161|200:142,1,75.0000028610231
167,78,54765,1,0,0:0:0:0:
126,294,54937,1,0,0:0:0:0:
392,313,55108,6,0,P|409:270|406:208,1,100
399,216,55623,1,0,0:0:0:0:
356,122,55794,2,0,L|201:135,1,150
109,142,56480,6,0,L|113:225,1,75
38,224,56823,2,0,L|125:215,1,75
124,364,57165,2,0,L|120:281,1,75
195,282,57508,2,0,L|108:291,1,75
255,220,57851,6,0,P|278:259|249:355,1,150
91,347,58537,2,0,L|91:240,1,100
15,77,59051,6,0,P|60:88|125:87,1,100
221,26,59565,1,0,0:0:0:0:
272,101,59737,2,0,P|284:154|275:205,1,100
251,229,60251,2,0,L|254:295,1,50
253,278,60423,1,0,0:0:0:0:
197,346,60594,6,0,L|191:347,12,6.25
317,345,60937,2,0,L|323:346,12,6.25
146,253,61280,6,0,L|140:254,12,6.25
132,132,61623,2,0,L|126:131,12,6.25
174,28,61965,2,0,L|168:27,12,6.25
337,28,62308,6,0,L|343:27,12,6.25
389,134,62651,2,0,L|395:133,12,6.25
372,254,62994,2,0,L|378:255,12,6.25
256,100,63337,6,0,L|256:101,4,1.25
256,100,63508,6,0,L|256:101,4,1.25
256,100,63680,6,0,L|256:101,4,1.25
256,100,63851,6,0,L|256:101,4,1.25
256,100,64023,6,0,L|256:101,4,1.25
256,100,64194,6,0,L|256:101,4,1.25
256,100,64365,6,0,L|256:101,4,1.25
256,100,64537,6,0,B|240:161|171:62|244:16|337:67|326:133|219:136|255:205,1,250
252,226,65480,1,0,0:0:0:0:
252,253,65565,1,0,0:0:0:0:
253,280,65651,1,0,0:0:0:0:
254,307,65737,2,0,L|254:259,1,25
256,75,65908,2,0,L|256:100,1,25
462,209,66080,6,0,P|398:198|330:211,1,100
366,309,66423,1,0,0:0:0:0:
145,317,66594,2,0,P|124:264|124:165,1,150
136,136,66937,1,0,0:0:0:0:
198,228,67108,1,0,0:0:0:0:
33,242,67280,1,0,0:0:0:0:
53,101,67451,6,0,P|103:104|162:100,1,100
379,209,67794,2,0,P|329:206|270:210,1,100
154,299,68137,1,0,0:0:0:0:
154,299,68308,2,0,P|165:227|156:181,2,100
241,0,68823,6,0,L|253:117,1,100
275,337,69165,1,0,0:0:0:0:
417,308,69337,2,0,P|459:262|435:169,1,150
415,146,69680,1,0,0:0:0:0:
338,272,69851,1,0,0:0:0:0:
143,199,70023,6,0,L|258:191,1,100
415,146,70365,1,0,0:0:0:0:
239,285,70537,1,0,0:0:0:0:
179,82,70708,1,0,0:0:0:0:
328,175,70880,2,0,P|343:242|336:276,1,100
327,356,71137,1,0,0:0:0:0:
363,370,71223,2,0,P|413:338|434:290,1,100
512,140,71565,6,0,P|474:230|500:348,1,200
384,112,72080,6,0,P|344:148|286:251,1,150.000005722046
293,229,72594,1,0,0:0:0:0:
308,8,72765,6,0,B|277:-1|236:14|236:14|228:51|228:51|161:27|129:46,1,200
16,172,73280,1,0,0:0:0:0:
90,331,73451,2,0,P|137:320|204:336,1,100
282,201,73794,1,0,0:0:0:0:
215,339,73965,1,0,0:0:0:0:
163,147,74137,1,0,0:0:0:0:
310,325,74308,6,0,B|367:344|367:344|414:322|407:259,1,150
392,257,74651,1,0,0:0:0:0:
273,214,74823,2,0,L|264:111,1,100
147,246,75165,2,0,P|141:300|145:352,1,100
366,195,75508,1,0,0:0:0:0:
195,144,75680,6,0,L|85:159,1,100
4,172,76023,1,0,0:0:0:0:
156,302,76194,2,0,P|217:330|274:260,1,150
290,235,76537,2,0,L|292:291,1,50
344,338,76708,1,0,0:0:0:0:
364,337,76794,1,0,0:0:0:0:
384,336,76880,1,0,0:0:0:0:
403,335,76965,1,0,0:0:0:0:
446,348,77051,6,0,L|452:241,1,100
472,68,77394,1,0,0:0:0:0:
323,135,77565,2,0,P|256:143|159:134,1,150
161,97,77908,1,0,0:0:0:0:
202,235,78080,1,0,0:0:0:0:
250,49,78251,1,0,0:0:0:0:
51,91,78423,6,0,L|58:198,1,100
71,332,78765,1,0,0:0:0:0:
160,131,78937,1,0,0:0:0:0:
20,239,79108,2,0,L|125:236,1,100
31,137,79451,1,0,0:0:0:0:
199,311,79623,1,0,0:0:0:0:
309,200,79794,6,0,P|350:144|350:92,1,100
282,38,80137,1,0,0:0:0:0:
132,200,80308,2,0,B|160:180|206:173|206:173|224:204|224:204|286:185|336:210,1,200
496,264,80823,1,0,0:0:0:0:
328,376,80994,6,0,B|380:360|404:320|404:320|380:248|416:176,1,200
342,111,81508,1,0,0:0:0:0:
267,301,81680,1,0,0:0:0:0:
220,163,81851,1,0,0:0:0:0:
214,143,81937,1,0,0:0:0:0:
209,123,82023,1,0,0:0:0:0:
73,72,82194,2,0,L|147:64,1,50
252,86,82365,2,0,L|202:91,1,50
142,256,82537,6,0,L|120:154,1,100
29,251,82880,1,0,0:0:0:0:
114,359,83051,2,0,P|198:338|315:367,1,200
233,238,83565,1,0,0:0:0:0:
131,121,83737,6,0,P|184:129|249:113,1,100
339,79,84080,1,0,0:0:0:0:
233,238,84251,1,0,0:0:0:0:
245,121,84423,1,0,0:0:0:0:
332,229,84594,1,0,0:0:0:0:
344,244,84680,1,0,0:0:0:0:
356,259,84765,1,0,0:0:0:0:
368,274,84851,1,0,0:0:0:0:
381,289,84937,2,0,L|393:215,1,50
394,91,85108,2,0,L|385:140,1,50
231,291,85280,5,0,0:0:0:0:
137,155,85451,1,0,0:0:0:0:
206,288,85623,1,0,0:0:0:0:
275,108,85794,1,0,0:0:0:0:
98,240,85965,5,0,0:0:0:0:
322,313,86137,1,0,0:0:0:0:
76,251,86308,1,0,0:0:0:0:
371,173,86480,1,0,0:0:0:0:
211,213,86651,5,0,0:0:0:0:
256,101,86823,1,0,0:0:0:0:
262,82,86908,1,0,0:0:0:0:
268,63,86994,1,0,0:0:0:0:
310,268,87165,1,0,0:0:0:0:
130,164,87337,5,0,0:0:0:0:
99,162,87423,1,0,0:0:0:0:
69,161,87508,1,0,0:0:0:0:
38,160,87594,1,0,0:0:0:0:
7,159,87680,1,0,0:0:0:0:
372,104,87851,1,0,0:0:0:0:
373,124,87937,1,0,0:0:0:0:
374,143,88023,1,0,0:0:0:0:
374,143,88365,5,0,0:0:0:0:
374,143,88708,5,0,0:0:0:0:
323,231,88880,1,0,0:0:0:0:
272,112,89051,1,0,0:0:0:0:
272,112,89223,2,0,L|218:109,1,37.5000014305115
144,93,89394,5,0,0:0:0:0:
137,106,89480,1,0,0:0:0:0:
135,120,89565,1,0,0:0:0:0:
136,134,89651,1,0,0:0:0:0:
141,147,89737,1,0,0:0:0:0:
215,335,89908,1,0,0:0:0:0:
223,322,89994,1,0,0:0:0:0:
217,308,90080,5,0,0:0:0:0:
114,315,90251,2,0,L|73:315,2,37.5000014305115
225,229,90594,2,0,L|270:230,1,37.5000014305115
200,104,90765,6,0,P|199:129|201:150,1,37.5000014305115
287,65,90937,2,0,P|288:40|286:19,1,37.5000014305115
292,152,91108,1,0,0:0:0:0:
132,176,91280,1,0,0:0:0:0:
360,224,91451,5,0,0:0:0:0:
216,264,91623,2,0,P|211:304|216:346,1,75.0000028610231
304,308,91965,1,0,0:0:0:0:
304,308,92051,1,0,0:0:0:0:
304,308,92137,6,0,L|358:307,1,37.5000014305115
413,146,92308,2,0,L|413:194,1,37.5000014305115
330,216,92480,2,0,L|330:164,1,37.5000014305115
453,272,92651,2,0,L|403:270,1,37.5000014305115
203,263,92823,5,0,0:0:0:0:
406,366,92994,1,0,0:0:0:0:
406,366,93080,1,0,0:0:0:0:
406,366,93165,1,0,0:0:0:0:
508,178,93337,1,0,0:0:0:0:
88,296,93508,5,0,0:0:0:0:
88,296,93594,1,0,0:0:0:0:
88,296,93680,1,0,0:0:0:0:
154,135,93851,6,0,L|142:222,1,75
171,350,94194,1,0,0:0:0:0:
237,277,94365,1,0,0:0:0:0:
237,277,94451,1,0,0:0:0:0:
292,353,94623,1,0,0:0:0:0:
292,353,94708,1,0,0:0:0:0:
333,171,94880,5,0,0:0:0:0:
333,171,95051,1,0,0:0:0:0:
423,349,95223,1,0,0:0:0:0:
483,269,95394,1,0,0:0:0:0:
483,269,95480,1,0,0:0:0:0:
365,264,95651,5,0,0:0:0:0:
365,264,95737,1,0,0:0:0:0:
423,349,95908,1,0,0:0:0:0:
425,98,96080,1,0,0:0:0:0:
425,98,96165,1,0,0:0:0:0:
425,98,96251,6,0,L|423:186,1,75.0000028610231
341,172,96508,1,0,0:0:0:0:
316,134,96594,2,0,L|313:219,1,75.0000028610231
208,84,96937,5,0,0:0:0:0:
208,84,97108,1,0,0:0:0:0:
80,152,97280,2,0,L|128:144,1,37.5000014305115
220,188,97451,2,0,L|183:194,1,37.5000014305115
96,240,97623,5,0,0:0:0:0:
100,256,97708,1,0,0:0:0:0:
104,272,97794,1,0,0:0:0:0:
255,334,97965,2,0,L|248:291,1,37.5000014305115
320,218,98137,2,0,L|326:255,1,37.5000014305115
441,326,98308,5,0,0:0:0:0:
437,310,98394,1,0,0:0:0:0:
433,294,98479,1,0,0:0:0:0:
441,197,98651,2,0,L|445:157,1,37.5000014305115
376,82,98823,2,0,L|371:41,1,37.5000014305115
318,160,98994,5,0,0:0:0:0:
234,85,99165,1,0,0:0:0:0:
72,146,99337,1,0,0:0:0:0:
72,146,99423,1,0,0:0:0:0:
72,146,99508,1,0,0:0:0:0:
176,178,99680,5,0,0:0:0:0:
325,73,99851,1,0,0:0:0:0:
419,143,100023,2,0,L|414:221,1,75.0000028610231
427,303,100280,1,0,0:0:0:0:
466,283,100365,6,0,L|523:290,2,37.5000014305115
288,275,100708,2,0,L|285:319,1,37.5000014305115
188,292,100880,2,0,L|194:333,1,37.5000014305115
41,217,101051,5,0,0:0:0:0:
41,217,101223,1,0,0:0:0:0:
166,132,101394,2,0,L|170:170,1,37.5000014305115
287,115,101565,2,0,L|283:157,1,37.5000014305115
264,305,101737,5,0,0:0:0:0:
453,189,101908,1,0,0:0:0:0:
358,307,102080,1,0,0:0:0:0:
327,196,102251,2,0,L|367:195,1,37.5000014305115
468,310,102423,5,0,0:0:0:0:
228,208,102594,1,0,0:0:0:0:
340,100,102765,1,0,0:0:0:0:
138,143,102937,1,0,0:0:0:0:
123,141,103023,1,0,0:0:0:0:
108,139,103108,5,0,0:0:0:0:
93,137,103194,1,0,0:0:0:0:
55,120,103280,2,0,L|58:181,1,37.5000014305115
99,264,103451,2,0,L|97:226,1,37.5000014305115
155,67,103623,2,0,L|158:128,1,37.5000014305115
237,206,103794,6,0,L|180:206,1,37.5000014305115
342,177,103965,2,0,L|379:177,1,37.5000014305115
312,259,104137,2,0,L|312:316,1,37.5000014305115
262,131,104308,2,0,L|262:93,1,37.5000014305115
455,176,104480,5,0,0:0:0:0:
469,177,104565,1,0,0:0:0:0:
483,178,104651,1,0,0:0:0:0:
343,93,104823,6,0,B|411:94|411:94|396:114|396:114|426:88|488:99,1,150
476,97,105165,1,0,0:0:0:0:
367,178,105337,1,0,0:0:0:0:
367,178,105423,1,0,0:0:0:0:
263,37,105594,1,0,0:0:0:0:
263,37,105680,1,0,0:0:0:0:
185,124,105851,6,0,L|113:124,1,37.5000014305115
30,87,106023,2,0,L|67:87,1,37.5000014305115
79,168,106194,1,0,0:0:0:0:
150,35,106365,1,0,0:0:0:0:
150,35,106451,1,0,0:0:0:0:
162,228,106623,5,0,0:0:0:0:
162,228,106708,1,0,0:0:0:0:
231,98,106880,1,0,0:0:0:0:
358,176,107051,1,0,0:0:0:0:
358,176,107137,1,0,0:0:0:0:
358,176,107223,5,0,0:0:0:0:
430,46,107394,1,0,0:0:0:0:
431,60,107480,1,0,0:0:0:0:
432,74,107565,1,0,0:0:0:0:
309,30,107737,1,0,0:0:0:0:
444,192,107908,5,0,0:0:0:0:
351,57,108080,1,0,0:0:0:0:
291,254,108251,1,0,0:0:0:0:
221,65,108423,1,0,0:0:0:0:
55,154,108594,5,0,0:0:0:0:
241,180,108765,1,0,0:0:0:0:
106,49,108937,1,0,0:0:0:0:
139,235,109108,1,0,0:0:0:0:
54,169,109280,5,0,0:0:0:0:
240,195,109451,1,0,0:0:0:0:
105,64,109623,1,0,0:0:0:0:
138,250,109794,1,0,0:0:0:0:
220,80,109965,5,0,0:0:0:0:
220,80,110308,2,0,L|210:201,1,100
186,353,110651,1,0,0:0:0:0:
123,230,110823,2,0,P|119:184|87:138,1,100
16,239,111165,1,0,0:0:0:0:
76,332,111337,6,0,B|149:362|179:317|221:296|295:350,1,200
455,316,111851,1,0,0:0:0:0:
295,181,112023,2,0,L|286:284,1,100
261,190,112365,2,0,L|201:191,1,50
339,121,112537,2,0,L|388:120,1,50
243,83,112708,6,0,P|170:96|81:72,1,150
64,53,113051,2,0,L|68:124,1,50
92,335,113223,2,0,P|131:275|108:189,1,150
18,245,113565,2,0,P|65:238|77:237,1,37.5000014305115
176,327,113737,2,0,L|168:273,1,37.5000014305115
202,151,113908,2,0,L|207:188,1,37.5000014305115
179,207,114080,6,0,L|302:212,1,112.500004291535
289,198,114423,2,0,L|412:203,1,112.500004291535
433,178,114765,6,0,L|421:268,1,75
387,368,115108,6,0,P|368:345|361:310,1,50
302,254,115280,2,0,P|299:235|310:194,1,50
341,116,115451,2,0,P|353:81|376:62,1,50
458,49,115623,5,0,0:0:0:0:
458,49,115708,1,0,0:0:0:0:
458,49,115794,1,0,0:0:0:0:
359,140,115965,2,0,L|235:141,1,100
172,61,116308,1,0,0:0:0:0:
66,129,116480,2,0,P|50:211|64:259,1,100
162,350,116823,6,0,L|168:194,1,150
60,219,117165,2,0,L|164:213,1,100
352,202,117508,1,0,0:0:0:0:
150,228,117680,1,0,0:0:0:0:
238,109,117851,2,0,L|235:163,1,50
257,296,118023,2,0,L|259:246,1,50
372,64,118194,6,0,P|429:148|407:212,1,150
388,222,118537,2,0,L|388:279,1,50
300,345,118708,2,0,P|211:317|158:348,1,150
86,357,119051,2,0,L|89:286,1,50
16,219,119223,2,0,L|13:268,1,50
149,211,119394,2,0,L|152:140,1,50
74,30,119565,5,0,0:0:0:0:
74,30,119737,2,0,L|68:133,1,100
63,253,120251,1,0,0:0:0:0:
209,118,120423,1,0,0:0:0:0:
209,118,120508,1,0,0:0:0:0:
209,118,120594,1,0,0:0:0:0:
271,250,120765,1,0,0:0:0:0:
271,250,120851,1,0,0:0:0:0:
271,250,120937,5,0,0:0:0:0:
384,144,121108,1,0,0:0:0:0:
384,144,121280,2,0,L|376:252,1,100
123,166,121623,2,0,P|233:143|292:168,1,150
289,174,121965,1,0,0:0:0:0:
168,296,122137,1,0,0:0:0:0:
28,249,122308,6,0,P|7:186|16:133,1,100
348,46,122651,2,0,P|369:105|367:147,1,100
144,141,122994,2,0,P|145:91|164:46,1,100
502,153,123337,2,0,P|502:203|483:249,1,100
264,333,123680,5,0,0:0:0:0:
264,333,123851,2,0,L|256:222,1,100
235,57,124194,1,0,0:0:0:0:
135,177,124365,2,0,P|124:234|129:281,1,100
407,276,124708,1,0,0:0:0:0:
400,175,124880,6,0,L|232:183,1,150
204,203,125223,2,0,L|209:131,1,50
252,284,125394,2,0,L|248:333,1,50
313,132,125565,2,0,L|318:60,1,50
350,269,125737,1,0,0:0:0:0:
369,271,125823,1,0,0:0:0:0:
388,273,125908,1,0,0:0:0:0:
407,275,125994,1,0,0:0:0:0:
446,298,126080,2,0,L|451:190,1,100
421,93,126423,6,0,P|356:75|273:95,1,150
276,92,126766,6,0,P|290:123|273:91,1,150
271,90,127109,6,0,L|115:82,1,150
121,82,127452,6,0,P|153:151|128:217,1,150
66,345,127794,6,0,L|82:289,3,50
186,329,128136,6,0,L|185:299,6,25
299,303,128479,6,0,L|295:281,12,12.5
391,259,128822,6,0,L|387:247,12,12.5
424,82,129165,6,0,L|422:132,1,50
255,225,129337,2,0,L|258:163,1,50
271,50,129508,2,0,L|329:72,1,50
511,235,129680,2,0,L|453:248,1,50
111,146,129851,6,0,L|163:128,1,50
358,297,130023,2,0,L|353:347,1,50
91,343,130194,2,0,L|99:286,1,50
252,72,130365,6,0,B|218:135|325:138|336:204|243:255|170:209|239:110|255:171,1,250
255,187,131308,1,0,0:0:0:0:
255,204,131394,1,0,0:0:0:0:
255,221,131480,1,0,0:0:0:0:
255,238,131565,2,0,L|255:269,1,25
255,97,131737,2,0,L|255:72,1,25
167,172,131908,6,0,L|60:181,1,100
341,158,132251,1,0,0:0:0:0:
113,262,132423,2,0,P|104:313|115:361,1,100
327,274,132765,1,0,0:0:0:0:
212,351,132937,1,0,0:0:0:0:
386,346,133108,1,0,0:0:0:0:
222,267,133280,6,0,L|207:159,1,100
186,45,133623,1,0,0:0:0:0:
313,190,133794,1,0,0:0:0:0:
370,63,133965,1,0,0:0:0:0:
289,208,134137,1,0,0:0:0:0:
289,208,134223,1,0,0:0:0:0:
289,208,134308,1,0,0:0:0:0:
138,138,134480,1,0,0:0:0:0:
270,63,134651,6,0,L|383:63,1,100
473,125,134994,1,0,0:0:0:0:
384,242,135165,2,0,P|348:287|246:248,1,150
229,245,135508,2,0,L|225:318,1,50
279,157,135680,2,0,L|281:107,1,50
186,164,135851,6,0,P|136:129|47:163,1,150
26,139,136194,2,0,L|31:206,1,50
113,290,136365,2,0,L|109:240,1,50
119,44,136537,2,0,L|124:111,1,50
11,272,136708,1,0,0:0:0:0:
11,272,136794,1,0,0:0:0:0:
11,272,136880,1,0,0:0:0:0:
190,337,137051,2,0,P|238:326|293:338,1,100
431,259,137394,6,0,L|413:363,1,100
326,224,137737,2,0,L|335:169,1,50
402,119,137908,2,0,P|356:136|266:99,1,150
251,127,138251,2,0,P|203:101|111:127,1,150
39,105,138594,6,0,B|41:119|23:156|23:156|49:172|49:172|25:204|37:239,1,150
16,315,138937,2,0,L|104:302,1,50
134,263,139108,2,0,L|194:268,1,50
259,216,139280,2,0,P|223:287|267:351,1,150
340,345,139623,2,0,P|376:274|332:210,1,150
340,85,139965,6,0,L|333:138,1,50
262,103,140137,2,0,B|178:91|178:91|157:102|157:102|84:95,1,150
58,185,140480,2,0,L|69:239,1,50
53,314,140651,2,0,L|218:289,1,150
310,205,140994,6,0,L|304:261,1,50
367,359,141165,2,0,L|373:303,1,50
450,228,141337,2,0,P|474:161|415:97,1,150
359,67,141680,2,0,L|301:78,1,50
242,121,141851,2,0,L|186:111,1,50
138,52,142023,2,0,L|75:60,1,50
21,113,142194,1,0,0:0:0:0:
21,113,142280,1,0,0:0:0:0:
21,113,142365,1,0,0:0:0:0:
57,306,142537,2,0,P|73:273|77:246,1,50
99,142,142708,2,0,P|103:119|99:88,1,50
218,0,142880,6,0,P|188:87|225:163,1,150
232,169,143223,1,0,0:0:0:0:
433,91,143394,2,0,P|388:78|304:91,1,100
307,224,143737,1,0,0:0:0:0:
345,93,143908,1,0,0:0:0:0:
410,255,144080,1,0,0:0:0:0:
303,325,144251,6,0,P|249:335|195:320,1,100
166,202,144594,1,0,0:0:0:0:
96,333,144765,1,0,0:0:0:0:
55,157,144937,1,0,0:0:0:0:
55,157,145023,1,0,0:0:0:0:
55,157,145108,1,0,0:0:0:0:
179,54,145280,2,0,L|179:116,1,50
135,259,145451,2,0,L|136:203,1,50
240,179,145623,6,0,P|302:173|393:181,1,150
435,155,145965,2,0,L|426:228,1,50
487,78,146137,2,0,B|420:69|420:69|409:58|409:58|340:45,1,150
290,16,146480,2,0,P|309:76|292:177,1,150
380,175,146823,6,0,P|352:228|241:219,1,150
222,195,147165,2,0,L|221:266,1,50
134,339,147337,2,0,L|134:288,1,50
124,170,147508,1,0,0:0:0:0:
124,170,147594,1,0,0:0:0:0:
124,170,147680,1,0,0:0:0:0:
240,341,147851,1,0,0:0:0:0:
387,305,148023,2,0,P|398:244|387:209,1,100
382,79,148365,6,0,L|268:88,1,100
161,95,148708,1,0,0:0:0:0:
26,198,148880,2,0,P|20:146|34:95,1,100
161,95,149223,1,0,0:0:0:0:
190,254,149394,1,0,0:0:0:0:
250,137,149565,1,0,0:0:0:0:
91,278,149737,5,0,0:0:0:0:
293,232,149908,1,0,0:0:0:0:
293,232,149994,1,0,0:0:0:0:
293,232,150080,1,0,0:0:0:0:
112,184,150251,1,0,0:0:0:0:
313,314,150423,1,0,0:0:0:0:
98,281,150594,1,0,0:0:0:0:
378,223,150765,1,0,0:0:0:0:
33,152,150937,1,0,0:0:0:0:
320,65,151108,5,0,0:0:0:0:
320,65,151280,1,0,0:0:0:0:
197,210,151451,1,0,0:0:0:0:
220,88,151623,5,0,0:0:0:0:
220,88,151794,1,0,0:0:0:0:
311,280,151965,1,0,0:0:0:0:
117,195,152137,1,0,0:0:0:0:
324,174,152308,1,0,0:0:0:0:
92,293,152480,5,0,0:0:0:0:
209,185,152651,1,0,0:0:0:0:
209,185,152737,1,0,0:0:0:0:
209,185,152823,1,0,0:0:0:0:
321,340,152994,1,0,0:0:0:0:
418,166,153165,5,0,0:0:0:0:
418,166,153251,1,0,0:0:0:0:
418,166,153337,1,0,0:0:0:0:
418,166,153423,1,0,0:0:0:0:
418,166,153508,1,0,0:0:0:0:
512,246,153680,1,0,0:0:0:0:
408,316,153851,2,0,B|345:339|317:258|241:320,1,150
193,345,154194,6,0,P|167:293|167:222,1,112.500004291535
175,225,154537,2,0,L|49:231,1,112.500004291535
86,217,154880,2,0,L|198:211,1,112.500004291535
228,228,155223,6,0,P|239:180|218:113,1,112.500004291535
178,44,155565,2,0,P|226:55|293:34,1,112.500004291535
366,14,155908,2,0,P|355:62|376:129,1,112.500004291535
407,200,156251,2,0,P|359:189|292:210,1,112.500004291535
273,202,156594,6,0,L|273:308,1,97.4999955368044
299,329,156937,2,0,P|251:313|196:313,1,97.4999955368044
127,317,157280,2,0,P|163:312|210:268,1,97.4999955368044
134,238,157623,2,0,L|45:237,1,64.9999970245363
111,97,157965,6,0,L|199:98,1,75
199,120,158308,2,0,L|274:117,1,75
285,99,158651,6,0,P|338:57|394:135,1,150
302,228,158994,2,0,L|304:175,1,50
396,118,159165,2,0,L|396:173,1,50
319,309,159337,2,0,L|321:256,1,50
425,283,159508,2,0,L|425:338,1,50
326,254,159680,6,0,P|285:249|236:253,1,75
223,285,160023,2,0,L|214:203,1,75
139,259,160365,2,0,P|94:265|50:258,1,75
60,172,160708,6,0,L|96:52,1,112.500004291535
88,32,161051,2,0,L|124:152,1,112.500004291535
140,124,161394,2,0,P|208:132|268:124,1,112.500004291535
340,80,161737,6,0,L|328:156,1,75
424,240,162080,6,0,P|376:228|260:240,1,150
240,212,162423,2,0,L|248:368,1,150
216,340,162765,2,0,L|208:190,1,150
176,168,163108,2,0,P|252:144|336:160,1,150
344,172,163451,6,0,P|384:164|376:104,1,112.500004291535
344,40,163794,2,0,L|344:96,1,37.5000014305115
264,60,163965,2,0,L|268:104,1,37.5000014305115
100,104,164137,6,0,P|144:112|192:96,1,75
100,208,164480,6,0,L|164:200,1,50
248,224,164651,2,0,L|308:232,1,50
403,244,164823,6,0,P|443:196|441:169,1,75
341,155,165165,6,0,P|101:191|293:283,1,600
282,78,165508,6,0,P|234:84|185:67,1,100
185,67,165851,6,0,P|154:109|106:134,1,100
112,131,166194,6,0,P|119:185|109:232,1,100
109,229,166537,6,0,P|156:262|180:300,1,100
178,297,166880,6,0,P|223:286|285:297,1,100
453,287,167394,1,0,0:0:0:0:
370,305,167565,6,0,L|359:149,1,150
363,205,167908,2,0,L|359:147,1,50
280,24,168251,6,0,L|269:180,1,150
273,124,168594,2,0,L|269:182,1,50
127,275,168937,6,0,L|283:264,1,150
227,268,169280,2,0,L|285:264,1,50
165,180,169623,6,0,L|9:169,1,150
65,173,169966,2,0,L|7:169,1,50
163,77,170308,6,0,P|204:60|285:85,1,112.500004291535
358,48,170651,2,0,L|351:124,1,75
428,130,170994,2,0,P|422:172|432:220,1,75
332,220,171337,2,0,P|336:258|328:303,1,75
233,299,171680,6,0,B|183:287|183:287|146:299|99:291,1,112.500004291535
61,338,172023,2,0,P|22:322|23:229,1,112.500004291535
28,249,172365,2,0,L|39:137,1,112.500004291535
115,120,172708,2,0,L|159:117,1,37.5000014305115
56,57,172880,2,0,L|18:59,1,37.5000014305115
217,60,173051,6,0,P|352:87|116:206,1,700
255,196,173223,1,0,0:0:0:0:
315,65,173394,5,0,0:0:0:0:
255,196,173565,1,0,0:0:0:0:
387,132,173737,5,0,0:0:0:0:
255,196,173908,1,0,0:0:0:0:
400,229,174080,5,0,0:0:0:0:
255,196,174251,1,0,0:0:0:0:
348,311,174423,5,0,0:0:0:0:
255,196,174594,1,0,0:0:0:0:
255,342,174765,5,0,0:0:0:0:
255,196,174937,1,0,0:0:0:0:
165,307,175108,5,0,0:0:0:0:
147,288,175194,5,0,0:0:0:0:
133,267,175280,5,0,0:0:0:0:
123,244,175365,5,0,0:0:0:0:
117,220,175451,5,0,0:0:0:0:
194,140,175623,5,0,0:0:0:0:
203,139,175708,1,0,0:0:0:0:
213,139,175794,1,0,0:0:0:0:
128,256,186423,5,0,0:0:0:0:
208,240,186594,1,0,0:0:0:0:
288,224,186765,1,0,0:0:0:0:
96,112,187108,5,0,0:0:0:0:
96,112,187279,1,0,0:0:0:0:
192,96,187623,1,0,0:0:0:0:
288,80,187965,1,0,0:0:0:0:
384,64,188308,1,0,0:0:0:0:
288,96,188480,1,0,0:0:0:0:
192,128,188651,1,0,0:0:0:0:
96,160,188823,1,0,0:0:0:0:
96,160,189165,5,0,0:0:0:0:
128,240,189337,1,0,0:0:0:0:
96,320,189508,1,0,0:0:0:0:
16,192,189851,1,0,0:0:0:0:
16,192,190022,1,0,0:0:0:0:
192,304,190365,1,0,0:0:0:0:
272,208,190708,5,0,0:0:0:0:
368,320,191051,1,0,0:0:0:0:
448,288,191223,1,0,0:0:0:0:
464,208,191394,1,0,0:0:0:0:
416,144,191565,1,0,0:0:0:0:
416,144,191908,5,0,0:0:0:0:
336,176,192080,1,0,0:0:0:0:
256,208,192251,1,0,0:0:0:0:
256,208,192594,1,0,0:0:0:0:
272,128,192765,1,0,0:0:0:0:
272,128,193108,1,0,0:0:0:0:
272,128,193451,5,0,0:0:0:0:
336,336,193794,1,0,0:0:0:0:
240,320,193965,1,0,0:0:0:0:
144,304,194137,1,0,0:0:0:0:
144,304,194480,1,0,0:0:0:0:
224,288,194651,1,0,0:0:0:0:
304,272,194823,1,0,0:0:0:0:
384,256,194994,5,0,0:0:0:0:
384,256,195337,1,0,0:0:0:0:
208,224,195508,1,0,0:0:0:0:
208,224,195851,1,0,0:0:0:0:
352,160,196194,1,0,0:0:0:0:
352,160,196537,1,0,0:0:0:0:
240,128,196880,1,0,0:0:0:0:
288,64,197394,5,0,0:0:0:0:
240,128,197565,1,0,0:0:0:0:
192,192,197737,1,0,0:0:0:0:
112,176,198080,1,0,0:0:0:0:
192,192,198251,1,0,0:0:0:0:
400,224,198594,1,0,0:0:0:0:
274,294,198937,6,0,P|261:232|279:191,1,100
322,29,199451,2,0,P|331:74|326:91,1,50
179,105,199794,2,0,P|205:96|229:97,1,50
372,181,200137,1,0,0:0:0:0:
372,181,200308,1,0,0:0:0:0:
263,282,200480,6,0,P|203:300|123:270,1,150.000005722046
24,144,200994,2,0,P|92:106|163:141,1,150.000005722046
242,163,201508,2,0,P|291:174|326:163,1,75.0000028610231
338,82,201851,1,0,0:0:0:0:
416,255,202023,2,0,P|423:206|419:163,1,75.0000028610231
338,82,202365,1,0,0:0:0:0:
286,247,202537,2,0,P|279:296|283:339,1,75.0000028610231
390,363,202880,1,0,0:0:0:0:
489,311,203051,1,0,0:0:0:0:
394,233,203223,6,0,L|280:244,1,100
109,206,203565,1,0,0:0:0:0:
213,316,203737,1,0,0:0:0:0:
301,152,203908,2,0,P|311:101|292:49,1,100
149,48,204251,1,0,0:0:0:0:
321,72,204423,1,0,0:0:0:0:
143,157,204594,6,0,L|37:175,1,100
170,285,204937,1,0,0:0:0:0:
232,118,205108,1,0,0:0:0:0:
312,229,205280,2,0,B|328:271|328:271|316:337,1,100
170,285,205623,1,0,0:0:0:0:
326,214,205794,1,0,0:0:0:0:
164,182,205965,6,0,L|59:173,1,100
270,126,206308,2,0,L|374:112,1,100
182,106,206651,2,0,P|181:30|189:-1,1,100
268,223,206994,2,0,B|278:279|278:279|264:335,1,100
150,335,207337,5,0,0:0:0:0:
369,141,207508,1,0,0:0:0:0:
167,181,207680,1,0,0:0:0:0:
417,318,207851,1,0,0:0:0:0:
262,255,208023,1,0,0:0:0:0:
277,242,208108,1,0,0:0:0:0:
292,229,208194,1,0,0:0:0:0:
308,216,208280,1,0,0:0:0:0:
289,185,208365,2,0,L|294:259,1,50
187,348,208537,2,0,L|182:274,1,50
80,124,208708,6,0,B|72:188|112:224|112:224|64:256|64:256|84:296|72:340,1,225.000008583069
183,298,209051,2,0,P|279:310|239:198,1,225.000008583069
182,131,209394,2,0,B|332:123|332:123|313:134|313:134|421:127,1,225.000008583069
466,117,209737,1,0,0:0:0:0:
464,246,209908,1,0,0:0:0:0:
465,276,209994,1,0,0:0:0:0:
467,305,210080,6,0,L|382:301,1,75.0000028610231
270,321,210251,2,0,L|275:239,1,75.0000028610231
346,75,210423,2,0,L|341:149,1,75.0000028610231
160,230,210594,2,0,L|165:148,1,75.0000028610231
215,48,210765,2,0,L|129:54,1,75.0000028610231
336,83,210937,2,0,L|410:77,1,75.0000028610231
250,152,211108,2,0,P|240:185|244:231,1,75.0000028610231
317,349,211280,2,0,P|327:316|323:270,1,75.0000028610231
411,195,211451,6,0,L|332:187,1,75.0000028610231
235,237,211623,2,0,L|152:243,1,75.0000028610231
73,198,211794,1,0,0:0:0:0:
338,171,211965,1,0,0:0:0:0:
116,116,212137,1,0,0:0:0:0:
253,255,212308,2,0,B|288:246|288:246|326:276|326:276|357:246|429:257,1,150.000005722046
311,64,212651,5,0,0:0:0:0:
320,92,212737,1,0,0:0:0:0:
332,119,212823,2,0,L|255:114,1,75.0000028610231
146,149,212994,2,0,L|151:72,1,75.0000028610231
208,224,213165,2,0,L|203:301,1,75.0000028610231
3,214,213337,2,0,L|77:218,1,75.0000028610231
339,209,213508,2,0,P|357:172|351:128,1,75.0000028610231
279,17,213680,2,0,P|261:54|267:98,1,75.0000028610231
165,186,213851,2,0,L|267:181,1,75.0000028610231
413,205,214023,2,0,L|311:210,1,75.0000028610231
90,258,214194,5,0,0:0:0:0:
60,263,214280,1,0,0:0:0:0:
31,270,214365,1,0,0:0:0:0:
220,314,214537,2,0,P|244:356|249:274,1,225.000008583069
209,315,214880,1,0,0:0:0:0:
386,283,215051,1,0,0:0:0:0:
416,280,215137,1,0,0:0:0:0:
261,172,215308,1,0,0:0:0:0:
230,170,215394,1,0,0:0:0:0:
121,279,215565,6,0,L|131:201,1,75.0000028610231
35,104,215737,2,0,L|25:178,1,75.0000028610231
0,339,215908,1,0,0:0:0:0:
224,323,216080,1,0,0:0:0:0:
228,292,216165,1,0,0:0:0:0:
289,121,216337,1,0,0:0:0:0:
294,150,216423,1,0,0:0:0:0:
338,348,216594,1,0,0:0:0:0:
451,268,216765,1,0,0:0:0:0:
463,240,216851,1,0,0:0:0:0:
459,210,216937,6,0,L|297:187,1,150.000005722046
233,176,217194,1,0,0:0:0:0:
237,219,217280,2,0,L|149:207,1,75.0000028610231
63,126,217451,2,0,L|61:214,1,75.0000028610231
181,45,217623,2,0,L|174:121,1,75.0000028610231
311,171,217794,2,0,L|305:83,1,75.0000028610231
425,107,217965,2,0,L|408:24,1,75.0000028610231
418,207,218137,5,0,0:0:0:0:
447,212,218223,1,0,0:0:0:0:
476,218,218308,1,0,0:0:0:0:
341,301,218480,1,0,0:0:0:0:
312,308,218565,1,0,0:0:0:0:
282,315,218651,1,0,0:0:0:0:
203,209,218823,1,0,0:0:0:0:
92,320,218994,5,0,0:0:0:0:
71,298,219080,1,0,0:0:0:0:
60,270,219165,1,0,0:0:0:0:
61,239,219251,1,0,0:0:0:0:
73,211,219337,1,0,0:0:0:0:
183,93,219508,1,0,0:0:0:0:
282,208,219680,6,0,P|289:278|242:343,1,150.000005722046
326,111,220023,2,0,P|386:155|399:321,1,225.000008583069
302,326,220365,2,0,B|259:329|220:290|220:290|181:324|181:324|128:282|81:306,1,225.000008583069
13,314,220708,2,0,B|0:253|0:253|48:221|43:156,1,150.000005722046
17,104,220965,1,0,0:0:0:0:
46,75,221051,6,0,L|124:83,1,75.0000028610231
283,168,221223,2,0,L|208:160,1,75.0000028610231
119,282,221394,2,0,L|127:204,1,75.0000028610231
229,1,221565,2,0,L|221:79,1,75.0000028610231
267,347,221737,2,0,L|275:269,1,75.0000028610231
392,103,221908,2,0,L|384:177,1,75.0000028610231
465,297,222080,2,0,P|428:299|380:285,1,75.0000028610231
196,155,222251,2,0,P|233:153|281:167,1,75.0000028610231
392,103,222423,6,0,L|384:177,1,75.0000028610231
267,347,222594,2,0,L|275:269,1,75.0000028610231
286,67,222765,1,0,0:0:0:0:
371,335,222937,1,0,0:0:0:0:
197,155,223108,1,0,0:0:0:0:
86,183,223280,2,0,B|62:266|62:266|100:317,1,150.000005722046
277,289,223623,1,0,0:0:0:0:
306,287,223708,1,0,0:0:0:0:
347,307,223794,6,0,L|340:217,1,75.0000028610231
257,101,223965,2,0,L|264:191,1,75.0000028610231
195,359,224137,2,0,L|188:269,1,75.0000028610231
53,208,224308,2,0,P|87:193|155:196,1,75.0000028610231
417,168,224480,1,0,0:0:0:0:
481,307,224651,2,0,P|447:317|396:304,1,75.0000028610231
304,180,224823,2,0,L|298:256,1,75.0000028610231
183,358,224994,2,0,L|188:283,1,75.0000028610231
213,46,225165,5,0,0:0:0:0:
211,76,225251,1,0,0:0:0:0:
209,106,225337,1,0,0:0:0:0:
349,84,225508,2,0,P|374:48|360:117,1,225.000008583069
325,38,225851,1,0,0:0:0:0:
359,223,226023,1,0,0:0:0:0:
366,251,226108,1,0,0:0:0:0:
221,215,226280,1,0,0:0:0:0:
226,185,226365,1,0,0:0:0:0:
261,81,226537,6,0,L|182:87,1,75.0000028610231
35,160,226708,2,0,L|114:154,1,75.0000028610231
65,59,226880,1,0,0:0:0:0:
54,260,227051,1,0,0:0:0:0:
55,290,227137,1,0,0:0:0:0:
211,271,227308,1,0,0:0:0:0:
214,300,227394,1,0,0:0:0:0:
139,162,227565,1,0,0:0:0:0:
283,82,227737,5,0,0:0:0:0:
313,80,227823,1,0,0:0:0:0:
342,78,227908,1,0,0:0:0:0:
408,206,228080,1,0,0:0:0:0:
379,208,228165,1,0,0:0:0:0:
349,210,228251,1,0,0:0:0:0:
453,116,228423,1,0,0:0:0:0:
435,298,228594,5,0,0:0:0:0:
263,154,228765,1,0,0:0:0:0:
432,102,228937,1,0,0:0:0:0:
459,277,229108,1,0,0:0:0:0:
253,195,229280,5,0,0:0:0:0:
311,84,229451,1,0,0:0:0:0:
311,53,229537,1,0,0:0:0:0:
311,22,229623,1,0,0:0:0:0:
143,161,229794,1,0,0:0:0:0:
365,180,229965,5,0,0:0:0:0:
196,252,230137,1,0,0:0:0:0:
193,281,230223,1,0,0:0:0:0:
190,310,230308,1,0,0:0:0:0:
308,279,230480,2,0,L|312:361,1,75.0000028610231
339,267,230651,2,0,L|343:349,1,75.0000028610231
