osu file format v14

[General]
AudioFilename: audio.mp3
AudioLeadIn: 0
PreviewTime: 152325
Countdown: 0
SampleSet: Normal
StackLeniency: 0.7
Mode: 1
LetterboxInBreaks: 0
WidescreenStoryboard: 1

[Editor]
Bookmarks: 326,10992,21659,32659,53659,64319,74986,85986,96319,106986,130986,141653,153653,164319,175319,185653,196319,206986,217653,228319,240319,250986,261986,272319,282986,293486,304319,314986
DistanceSpacing: 0.6
BeatDivisor: 4
GridSize: 32
TimelineZoom: 2.2

[Metadata]
Title:Finder(Extended Mix)
TitleUnicode:Finder(Extended Mix)
Artist:Asterisk
ArtistUnicode:Asterisk
Creator:gaston_2199
Version:Oni
Source:
Tags:dnb drum and bass works 2 two
BeatmapID:2328493
BeatmapSetID:647482

[Difficulty]
HPDrainRate:5
CircleSize:2
OverallDifficulty:6
ApproachRate:10
SliderMultiplier:1.4
SliderTickRate:1

[Events]
//Background and Video events
0,0,"BG.jpg",0,-100
//Break Periods
2,43192,51875
2,109859,130542
2,217859,227875
//Storyboard Layer 0 (Background)
//Storyboard Layer 1 (Fail)
//Storyboard Layer 2 (Pass)
//Storyboard Layer 3 (Foreground)
//Storyboard Layer 4 (Overlay)
//Storyboard Sound Samples

[TimingPoints]
326,333.333333333333,4,1,0,80,1,0
21325,-71.4285714285714,4,1,0,80,0,0
21659,-100,4,1,0,80,0,0
64325,-100,4,1,0,90,0,1
84325,-100,4,1,0,80,0,0
85992,-100,4,1,0,90,0,1
106992,-100,4,1,0,80,0,0
153325,-71.4285714285714,4,1,0,80,0,0
153659,-100,4,1,0,90,0,1
173659,-100,4,1,0,80,0,0
175325,-100,4,1,0,90,0,1
196325,-100,4,1,0,80,0,0
239992,-71.4285714285714,4,1,0,80,0,0
240325,-100,4,1,0,90,0,1
260325,-100,4,1,0,80,0,0
261992,-100,4,1,0,90,0,1
282992,-100,4,1,0,80,0,0

[HitObjects]
256,192,326,5,4,0:0:0:0:
256,192,492,1,8,0:0:0:0:
256,192,659,1,8,0:0:0:0:
288,224,742,1,8,0:0:0:0:
256,192,825,1,0,0:0:0:0:
256,192,992,1,8,0:0:0:0:
256,192,1159,1,8,0:0:0:0:
256,192,1325,1,0,0:0:0:0:
256,192,1492,1,8,0:0:0:0:
256,192,1825,1,8,0:0:0:0:
256,192,1992,1,8,0:0:0:0:
256,192,2159,1,0,0:0:0:0:
288,224,2242,1,0,0:0:0:0:
256,192,2325,1,8,0:0:0:0:
256,192,2492,1,8,0:0:0:0:
256,192,2659,1,0,0:0:0:0:
256,192,2825,1,8,0:0:0:0:
256,192,2992,1,0,0:0:0:0:
256,192,3325,1,8,0:0:0:0:
288,224,3659,1,0,0:0:0:0:
288,224,3909,1,8,0:0:0:0:
288,224,3992,1,0,0:0:0:0:
288,224,4075,1,0,0:0:0:0:
288,224,4159,1,8,0:0:0:0:
288,224,4325,1,0,0:0:0:0:
288,224,4409,1,0,0:0:0:0:
288,224,4492,1,0,0:0:0:0:
288,224,4659,1,8,0:0:0:0:
288,224,4825,1,0,0:0:0:0:
288,224,4992,1,8,0:0:0:0:
288,224,5159,1,8,0:0:0:0:
288,224,5325,1,0,0:0:0:0:
256,192,5659,1,0,0:0:0:0:
256,192,5825,1,8,0:0:0:0:
256,192,5992,1,8,0:0:0:0:
288,224,6075,1,8,0:0:0:0:
256,192,6159,1,0,0:0:0:0:
256,192,6325,1,8,0:0:0:0:
256,192,6492,1,8,0:0:0:0:
256,192,6659,1,0,0:0:0:0:
256,192,6825,1,8,0:0:0:0:
256,192,7159,1,8,0:0:0:0:
256,192,7325,1,8,0:0:0:0:
256,192,7492,1,0,0:0:0:0:
288,224,7575,1,0,0:0:0:0:
256,192,7659,1,8,0:0:0:0:
256,192,7825,1,8,0:0:0:0:
256,192,7992,1,0,0:0:0:0:
256,192,8159,1,8,0:0:0:0:
256,192,8325,1,0,0:0:0:0:
256,192,8659,1,8,0:0:0:0:
288,224,8992,1,0,0:0:0:0:
288,224,9242,1,8,0:0:0:0:
288,224,9325,1,0,0:0:0:0:
288,224,9409,1,0,0:0:0:0:
288,224,9492,1,8,0:0:0:0:
288,224,9659,1,0,0:0:0:0:
288,224,9742,1,0,0:0:0:0:
288,224,9825,1,0,0:0:0:0:
288,224,9992,1,8,0:0:0:0:
288,224,10159,1,0,0:0:0:0:
256,192,10992,1,0,0:0:0:0:
256,192,11159,1,0,0:0:0:0:
256,192,11325,1,12,0:0:0:0:
256,192,11659,1,8,0:0:0:0:
256,192,11825,1,8,0:0:0:0:
256,192,11992,1,0,0:0:0:0:
256,192,12159,1,8,0:0:0:0:
256,192,12492,1,8,0:0:0:0:
256,192,12659,1,8,0:0:0:0:
256,192,12825,1,0,0:0:0:0:
288,224,12909,1,0,0:0:0:0:
256,192,12992,1,8,0:0:0:0:
256,192,13159,1,8,0:0:0:0:
256,192,13325,1,0,0:0:0:0:
256,192,13492,1,8,0:0:0:0:
256,192,13659,1,4,0:0:0:0:
256,192,13992,1,8,0:0:0:0:
288,224,14325,1,0,0:0:0:0:
288,224,14575,1,8,0:0:0:0:
288,224,14659,1,0,0:0:0:0:
288,224,14742,1,0,0:0:0:0:
288,224,14825,1,8,0:0:0:0:
288,224,14992,1,0,0:0:0:0:
288,224,15075,1,0,0:0:0:0:
288,224,15159,1,0,0:0:0:0:
288,224,15325,1,8,0:0:0:0:
288,224,15492,1,0,0:0:0:0:
288,224,15659,1,8,0:0:0:0:
288,224,15825,1,8,0:0:0:0:
288,224,15992,1,0,0:0:0:0:
256,192,16325,1,4,0:0:0:0:
256,192,16492,1,8,0:0:0:0:
256,192,16659,1,8,0:0:0:0:
288,224,16742,1,8,0:0:0:0:
256,192,16825,1,0,0:0:0:0:
256,192,16992,1,8,0:0:0:0:
256,192,17159,1,8,0:0:0:0:
256,192,17325,1,0,0:0:0:0:
256,192,17492,1,8,0:0:0:0:
256,160,17659,1,4,0:0:0:0:
256,192,17825,1,8,0:0:0:0:
256,192,17992,1,8,0:0:0:0:
256,192,18159,1,0,0:0:0:0:
288,224,18242,1,0,0:0:0:0:
256,192,18325,1,8,0:0:0:0:
256,192,18492,1,8,0:0:0:0:
256,192,18659,1,0,0:0:0:0:
256,192,18992,1,12,0:0:0:0:
256,160,19159,1,0,0:0:0:0:
256,160,19242,1,0,0:0:0:0:
256,192,19325,1,8,0:0:0:0:
256,160,19492,1,0,0:0:0:0:
288,224,19659,1,12,0:0:0:0:
288,224,19825,1,0,0:0:0:0:
288,224,19909,1,0,0:0:0:0:
288,224,19992,1,8,0:0:0:0:
288,192,20075,1,0,0:0:0:0:
288,224,20159,1,0,0:0:0:0:
224,160,20325,2,0,L|288:160,10,35
288,160,21325,1,12,0:0:0:0:
256,160,21659,1,4,0:0:0:0:
256,160,21992,1,8,0:0:0:0:
256,160,22159,1,0,0:0:0:0:
256,128,22242,1,0,0:0:0:0:
256,160,22325,1,8,0:0:0:0:
256,160,22492,1,0,0:0:0:0:
256,160,22659,1,8,0:0:0:0:
256,160,22825,1,8,0:0:0:0:
256,160,22992,1,0,0:0:0:0:
256,160,23159,1,8,0:0:0:0:
256,160,23242,1,0,0:0:0:0:
256,160,23325,1,8,0:0:0:0:
256,160,23492,1,0,0:0:0:0:
256,160,23659,1,8,0:0:0:0:
256,160,23742,1,8,0:0:0:0:
256,160,23909,1,0,0:0:0:0:
256,160,23992,1,8,0:0:0:0:
256,160,24159,1,0,0:0:0:0:
256,160,24325,1,8,0:0:0:0:
256,160,24659,1,8,0:0:0:0:
256,160,24825,1,0,0:0:0:0:
256,160,24909,1,0,0:0:0:0:
256,160,24992,1,8,0:0:0:0:
256,160,25159,1,0,0:0:0:0:
256,160,25325,1,8,0:0:0:0:
256,96,25409,1,0,0:0:0:0:
256,160,25492,1,8,0:0:0:0:
256,160,25659,1,0,0:0:0:0:
256,128,25825,1,8,0:0:0:0:
256,128,25992,1,0,0:0:0:0:
256,128,26159,1,8,0:0:0:0:
256,128,26492,1,0,0:0:0:0:
256,128,26659,1,8,0:0:0:0:
256,128,26825,1,8,0:0:0:0:
256,128,26992,1,0,0:0:0:0:
256,160,27325,1,8,0:0:0:0:
256,160,27492,1,0,0:0:0:0:
256,160,27575,1,0,0:0:0:0:
256,160,27659,1,8,0:0:0:0:
256,160,27825,1,0,0:0:0:0:
256,160,27992,1,8,0:0:0:0:
256,160,28159,1,8,0:0:0:0:
256,160,28325,1,0,0:0:0:0:
256,160,28492,1,8,0:0:0:0:
256,160,28575,1,0,0:0:0:0:
256,160,28659,1,8,0:0:0:0:
256,160,28825,1,0,0:0:0:0:
256,160,28992,1,8,0:0:0:0:
256,160,29075,1,8,0:0:0:0:
256,160,29242,1,0,0:0:0:0:
256,160,29325,1,8,0:0:0:0:
256,160,29492,1,0,0:0:0:0:
256,160,29659,1,8,0:0:0:0:
256,160,29992,1,8,0:0:0:0:
256,160,30159,1,0,0:0:0:0:
256,160,30242,1,0,0:0:0:0:
256,160,30325,1,8,0:0:0:0:
256,160,30492,1,0,0:0:0:0:
256,160,30659,1,8,0:0:0:0:
256,96,30742,1,0,0:0:0:0:
256,160,30825,1,8,0:0:0:0:
256,160,30992,1,0,0:0:0:0:
256,160,31325,1,8,0:0:0:0:
256,160,31492,1,0,0:0:0:0:
256,160,31659,1,8,0:0:0:0:
256,160,31742,1,0,0:0:0:0:
256,160,31825,1,8,0:0:0:0:
256,160,31992,1,0,0:0:0:0:
256,128,32159,1,8,0:0:0:0:
256,128,32325,1,0,0:0:0:0:
256,160,32659,1,12,0:0:0:0:
256,160,32825,1,0,0:0:0:0:
256,128,32909,1,0,0:0:0:0:
256,160,32992,1,8,0:0:0:0:
256,160,33159,1,0,0:0:0:0:
256,160,33325,1,8,0:0:0:0:
256,160,33492,1,8,0:0:0:0:
256,160,33659,1,0,0:0:0:0:
256,160,33825,1,8,0:0:0:0:
256,160,33909,1,0,0:0:0:0:
256,160,33992,1,8,0:0:0:0:
256,160,34159,1,0,0:0:0:0:
256,160,34325,1,8,0:0:0:0:
256,160,34409,1,8,0:0:0:0:
256,160,34575,1,0,0:0:0:0:
256,160,34659,1,8,0:0:0:0:
256,160,34825,1,0,0:0:0:0:
256,160,34992,1,12,0:0:0:0:
256,160,35325,1,8,0:0:0:0:
256,160,35492,1,0,0:0:0:0:
256,160,35575,1,0,0:0:0:0:
256,160,35659,1,8,0:0:0:0:
256,160,35825,1,0,0:0:0:0:
256,160,35992,1,8,0:0:0:0:
256,96,36075,1,0,0:0:0:0:
256,160,36159,1,8,0:0:0:0:
256,160,36325,1,0,0:0:0:0:
256,128,36492,1,8,0:0:0:0:
256,128,36659,1,0,0:0:0:0:
256,128,36825,1,8,0:0:0:0:
256,128,37159,1,0,0:0:0:0:
256,128,37325,1,8,0:0:0:0:
256,128,37492,1,8,0:0:0:0:
256,128,37659,1,4,0:0:0:0:
256,160,37992,1,8,0:0:0:0:
256,160,38159,1,0,0:0:0:0:
256,160,38242,1,0,0:0:0:0:
256,160,38325,1,8,0:0:0:0:
256,160,38492,1,0,0:0:0:0:
256,160,38659,1,8,0:0:0:0:
256,160,38825,1,8,0:0:0:0:
256,160,38992,1,4,0:0:0:0:
256,160,39159,1,8,0:0:0:0:
256,160,39242,1,0,0:0:0:0:
256,160,39325,1,8,0:0:0:0:
256,160,39492,1,0,0:0:0:0:
256,160,39659,1,8,0:0:0:0:
256,160,39742,1,8,0:0:0:0:
256,160,39909,1,0,0:0:0:0:
256,160,39992,1,8,0:0:0:0:
256,160,40159,1,0,0:0:0:0:
256,160,40325,1,8,0:0:0:0:
256,96,40409,1,0,0:0:0:0:
256,96,40492,1,0,0:0:0:0:
256,96,40575,1,0,0:0:0:0:
256,160,40659,1,8,0:0:0:0:
256,160,40825,1,0,0:0:0:0:
256,160,40909,1,0,0:0:0:0:
256,160,40992,1,8,0:0:0:0:
256,160,41159,1,0,0:0:0:0:
256,160,41325,1,8,0:0:0:0:
256,96,41409,1,0,0:0:0:0:
256,160,41492,1,8,0:0:0:0:
256,160,41659,1,4,0:0:0:0:
256,160,41992,1,8,0:0:0:0:
256,160,42325,1,8,0:0:0:0:
256,160,42492,1,0,0:0:0:0:
256,160,42659,1,8,0:0:0:0:
256,128,42992,1,4,0:0:0:0:
256,192,52325,5,12,0:0:0:0:
256,192,53659,1,4,0:0:0:0:
224,160,53992,1,8,0:0:0:0:
224,160,54159,1,8,0:0:0:0:
224,160,54325,1,0,0:0:0:0:
224,160,54659,1,8,0:0:0:0:
224,160,54992,1,0,0:0:0:0:
224,160,55325,1,8,0:0:0:0:
224,160,55492,1,0,0:0:0:0:
224,160,55659,1,8,0:0:0:0:
224,160,55992,1,8,0:0:0:0:
224,160,56159,1,8,0:0:0:0:
224,160,56325,1,0,0:0:0:0:
224,160,56659,1,8,0:0:0:0:
224,160,56825,1,0,0:0:0:0:
224,160,56992,1,8,0:0:0:0:
224,160,57159,1,0,0:0:0:0:
224,160,57325,1,8,0:0:0:0:
224,160,57659,1,0,0:0:0:0:
224,160,57825,1,8,0:0:0:0:
224,160,57992,1,0,0:0:0:0:
224,160,58075,1,0,0:0:0:0:
224,160,58159,1,8,0:0:0:0:
224,160,58325,1,0,0:0:0:0:
224,160,58492,1,8,0:0:0:0:
224,160,58659,1,8,0:0:0:0:
224,160,58742,1,8,0:0:0:0:
224,160,58825,1,8,0:0:0:0:
224,160,58992,1,4,0:0:0:0:
256,96,59325,1,8,0:0:0:0:
256,96,59492,1,0,0:0:0:0:
256,96,59575,1,0,0:0:0:0:
256,96,59659,1,8,0:0:0:0:
256,96,59825,1,0,0:0:0:0:
256,96,59992,1,8,0:0:0:0:
256,96,60159,1,8,0:0:0:0:
256,96,60325,1,4,0:0:0:0:
256,96,60492,1,8,0:0:0:0:
256,96,60659,1,8,0:0:0:0:
256,96,60742,1,8,0:0:0:0:
256,96,60825,1,0,0:0:0:0:
256,96,60992,1,0,0:0:0:0:
256,96,61159,1,8,0:0:0:0:
256,96,61325,1,0,0:0:0:0:
256,96,61492,1,0,0:0:0:0:
256,96,61659,1,8,0:0:0:0:
256,96,61742,1,8,0:0:0:0:
256,96,61825,1,0,0:0:0:0:
256,96,61992,1,8,0:0:0:0:
256,96,62159,1,0,0:0:0:0:
256,96,62325,1,8,0:0:0:0:
256,96,62409,1,8,0:0:0:0:
256,96,62492,1,0,0:0:0:0:
256,96,62575,1,0,0:0:0:0:
256,96,62659,1,8,0:0:0:0:
256,96,62742,1,0,0:0:0:0:
256,96,62825,1,0,0:0:0:0:
256,96,62992,1,8,0:0:0:0:
256,96,63325,1,8,0:0:0:0:
256,96,63492,1,0,0:0:0:0:
256,96,63575,1,8,0:0:0:0:
256,96,63659,1,0,0:0:0:0:
256,96,63825,1,0,0:0:0:0:
256,96,63992,1,12,0:0:0:0:
224,64,64325,1,4,0:0:0:0:
256,96,64659,1,8,0:0:0:0:
256,96,64825,1,0,0:0:0:0:
256,96,64909,1,0,0:0:0:0:
256,96,64992,1,8,0:0:0:0:
256,96,65159,1,0,0:0:0:0:
256,96,65325,1,8,0:0:0:0:
256,96,65492,1,8,0:0:0:0:
256,96,65575,1,8,0:0:0:0:
256,96,65659,1,0,0:0:0:0:
256,96,65825,1,8,0:0:0:0:
256,96,65992,1,0,0:0:0:0:
256,96,66159,1,8,0:0:0:0:
288,96,66492,1,0,0:0:0:0:
288,96,66659,1,8,0:0:0:0:
288,96,66825,1,8,0:0:0:0:
288,96,66992,1,0,0:0:0:0:
288,96,67325,1,8,0:0:0:0:
288,96,67492,1,0,0:0:0:0:
288,96,67659,1,8,0:0:0:0:
288,96,67742,1,0,0:0:0:0:
256,96,67825,1,0,0:0:0:0:
256,96,67992,1,8,0:0:0:0:
256,96,68159,1,8,0:0:0:0:
256,96,68242,1,8,0:0:0:0:
256,96,68325,1,8,0:0:0:0:
256,96,68492,1,8,0:0:0:0:
256,96,68659,1,0,0:0:0:0:
256,96,68825,1,8,0:0:0:0:
256,96,69159,1,8,0:0:0:0:
256,96,69325,1,8,0:0:0:0:
256,96,69492,1,8,0:0:0:0:
256,96,69659,1,0,0:0:0:0:
256,96,69992,1,8,0:0:0:0:
256,96,70159,1,0,0:0:0:0:
256,96,70242,1,0,0:0:0:0:
256,96,70325,1,8,0:0:0:0:
256,96,70492,1,0,0:0:0:0:
256,96,70659,1,8,0:0:0:0:
256,96,70825,1,8,0:0:0:0:
256,96,70909,1,8,0:0:0:0:
256,96,70992,1,0,0:0:0:0:
256,96,71159,1,8,0:0:0:0:
256,96,71325,1,0,0:0:0:0:
256,96,71492,1,8,0:0:0:0:
288,96,71825,1,0,0:0:0:0:
288,96,71992,1,8,0:0:0:0:
288,96,72159,1,8,0:0:0:0:
288,96,72325,1,0,0:0:0:0:
288,96,72659,1,8,0:0:0:0:
288,96,72825,1,0,0:0:0:0:
288,96,72992,1,8,0:0:0:0:
288,96,73075,1,0,0:0:0:0:
256,96,73159,1,0,0:0:0:0:
256,96,73325,1,8,0:0:0:0:
256,96,73492,1,8,0:0:0:0:
256,96,73659,1,4,0:0:0:0:
256,96,73992,1,0,0:0:0:0:
256,96,74159,1,8,0:0:0:0:
256,96,74325,1,0,0:0:0:0:
256,96,74492,1,8,0:0:0:0:
256,96,74575,1,0,0:0:0:0:
256,96,74659,1,8,0:0:0:0:
256,96,74825,1,8,0:0:0:0:
256,96,74992,1,4,0:0:0:0:
256,96,75325,1,8,0:0:0:0:
256,96,75409,1,0,0:0:0:0:
256,96,75575,1,0,0:0:0:0:
256,96,75659,1,8,0:0:0:0:
256,96,75825,1,0,0:0:0:0:
256,96,75992,1,8,0:0:0:0:
256,96,76159,1,8,0:0:0:0:
256,96,76325,1,0,0:0:0:0:
256,96,76492,1,8,0:0:0:0:
256,96,76659,1,0,0:0:0:0:
256,96,76742,1,8,0:0:0:0:
256,96,76909,1,8,0:0:0:0:
256,96,76992,1,0,0:0:0:0:
256,96,77159,1,0,0:0:0:0:
269,96,77325,1,8,0:0:0:0:
256,96,77492,1,8,0:0:0:0:
256,96,77659,1,4,0:0:0:0:
256,96,77992,1,8,0:0:0:0:
256,96,78075,1,8,0:0:0:0:
256,96,78242,1,0,0:0:0:0:
256,96,78325,1,8,0:0:0:0:
256,96,78492,1,0,0:0:0:0:
256,96,78659,1,8,0:0:0:0:
256,96,78825,1,8,0:0:0:0:
256,96,78992,1,0,0:0:0:0:
256,96,79159,1,8,0:0:0:0:
256,96,79325,1,0,0:0:0:0:
256,96,79409,1,0,0:0:0:0:
256,96,79575,1,8,0:0:0:0:
256,96,79659,1,0,0:0:0:0:
256,64,79825,1,0,0:0:0:0:
256,64,79992,1,8,0:0:0:0:
256,64,80159,1,8,0:0:0:0:
256,64,80325,1,4,0:0:0:0:
256,64,80492,1,4,0:0:0:0:
256,64,80659,1,8,0:0:0:0:
256,64,80992,1,4,0:0:0:0:
256,64,81159,1,4,0:0:0:0:
256,64,81325,1,8,0:0:0:0:
256,64,81659,1,0,0:0:0:0:
256,64,81909,1,0,0:0:0:0:
256,64,82159,1,0,0:0:0:0:
256,64,82325,1,0,0:0:0:0:
256,64,82409,1,0,0:0:0:0:
256,64,82492,1,0,0:0:0:0:
256,64,82575,1,0,0:0:0:0:
256,64,82659,1,8,0:0:0:0:
256,64,82825,1,8,0:0:0:0:
256,64,82909,1,0,0:0:0:0:
256,64,82992,1,8,0:0:0:0:
256,64,83159,1,8,0:0:0:0:
256,64,83325,1,8,0:0:0:0:
256,64,83492,1,8,0:0:0:0:
256,64,83659,1,8,0:0:0:0:
256,64,83742,1,0,0:0:0:0:
256,64,83825,1,8,0:0:0:0:
256,64,83909,1,8,0:0:0:0:
256,64,83992,1,0,0:0:0:0:
256,64,84159,1,8,0:0:0:0:
256,64,84325,1,4,0:0:0:0:
256,128,84659,1,8,0:0:0:0:
256,128,84825,1,0,0:0:0:0:
256,128,84909,1,8,0:0:0:0:
256,128,84992,1,0,0:0:0:0:
256,128,85159,1,0,0:0:0:0:
256,128,85325,1,8,0:0:0:0:
256,128,85492,1,8,0:0:0:0:
256,128,85659,1,0,0:0:0:0:
256,128,85825,1,0,0:0:0:0:
256,128,85992,1,12,0:0:0:0:
256,128,86325,1,8,0:0:0:0:
256,128,86492,1,0,0:0:0:0:
256,128,86659,1,8,0:0:0:0:
256,128,86742,1,8,0:0:0:0:
256,128,86825,1,8,0:0:0:0:
256,128,86992,1,0,0:0:0:0:
256,128,87159,1,0,0:0:0:0:
256,128,87242,1,8,0:0:0:0:
256,128,87325,1,0,0:0:0:0:
256,128,87492,1,8,0:0:0:0:
256,128,87659,1,0,0:0:0:0:
256,128,87825,1,0,0:0:0:0:
256,128,87992,1,8,0:0:0:0:
256,128,88159,1,8,0:0:0:0:
256,128,88242,1,8,0:0:0:0:
256,128,88325,1,0,0:0:0:0:
256,128,88659,1,8,0:0:0:0:
256,128,88825,1,0,0:0:0:0:
256,128,88992,1,8,0:0:0:0:
256,128,89075,1,0,0:0:0:0:
256,128,89159,1,8,0:0:0:0:
256,128,89325,1,8,0:0:0:0:
256,128,89492,1,0,0:0:0:0:
256,128,89659,1,0,0:0:0:0:
256,128,89742,1,0,0:0:0:0:
256,128,89825,1,8,0:0:0:0:
256,128,89992,1,0,0:0:0:0:
256,128,90159,1,8,0:0:0:0:
256,128,90325,1,8,0:0:0:0:
256,128,90492,1,0,0:0:0:0:
256,128,90659,1,8,0:0:0:0:
256,128,90742,1,8,0:0:0:0:
256,128,90825,1,8,0:0:0:0:
256,128,90992,1,0,0:0:0:0:
288,128,91325,1,8,0:0:0:0:
288,128,91492,1,0,0:0:0:0:
288,128,91575,1,0,0:0:0:0:
288,128,91659,1,8,0:0:0:0:
288,128,91825,1,0,0:0:0:0:
288,128,91992,1,8,0:0:0:0:
288,128,92159,1,0,0:0:0:0:
288,128,92492,1,0,0:0:0:0:
288,128,92575,1,0,0:0:0:0:
288,128,92659,1,8,0:0:0:0:
288,128,92825,1,8,0:0:0:0:
288,128,92992,1,0,0:0:0:0:
288,128,93159,1,8,0:0:0:0:
288,128,93325,1,8,0:0:0:0:
288,128,93409,1,0,0:0:0:0:
288,128,93492,1,0,0:0:0:0:
288,128,93659,1,8,0:0:0:0:
288,128,93825,1,0,0:0:0:0:
288,128,93992,1,8,0:0:0:0:
288,128,94325,1,8,0:0:0:0:
288,128,94492,1,0,0:0:0:0:
288,128,94575,1,0,0:0:0:0:
288,128,94659,1,8,0:0:0:0:
288,128,94825,1,0,0:0:0:0:
288,128,94992,1,8,0:0:0:0:
288,128,95325,1,8,0:0:0:0:
288,128,95492,1,0,0:0:0:0:
288,128,95659,1,0,0:0:0:0:
288,128,95825,1,0,0:0:0:0:
288,128,95992,1,8,0:0:0:0:
288,128,96325,1,4,0:0:0:0:
288,128,96659,1,8,0:0:0:0:
288,128,96825,1,0,0:0:0:0:
288,128,96992,1,8,0:0:0:0:
288,128,97159,1,0,0:0:0:0:
288,128,97325,1,8,0:0:0:0:
288,128,97409,1,8,0:0:0:0:
288,128,97492,1,8,0:0:0:0:
288,128,97659,1,0,0:0:0:0:
288,128,97992,1,8,0:0:0:0:
288,128,98159,1,0,0:0:0:0:
288,128,98325,1,8,0:0:0:0:
288,128,98492,1,0,0:0:0:0:
288,128,98659,1,8,0:0:0:0:
288,128,98742,1,8,0:0:0:0:
288,128,98825,1,8,0:0:0:0:
288,128,98992,1,0,0:0:0:0:
288,128,99159,1,0,0:0:0:0:
288,128,99242,1,8,0:0:0:0:
288,128,99325,1,0,0:0:0:0:
288,128,99492,1,0,0:0:0:0:
288,128,99659,1,8,0:0:0:0:
288,128,99825,1,0,0:0:0:0:
288,128,99992,1,8,0:0:0:0:
288,128,100075,1,8,0:0:0:0:
288,128,100159,1,0,0:0:0:0:
288,128,100492,1,0,0:0:0:0:
288,128,100575,1,0,0:0:0:0:
288,128,100659,1,8,0:0:0:0:
288,128,100825,1,0,0:0:0:0:
288,128,100992,1,8,0:0:0:0:
288,128,101159,1,0,0:0:0:0:
288,128,101325,1,8,0:0:0:0:
288,128,101409,1,8,0:0:0:0:
288,128,101492,1,8,0:0:0:0:
289,117,101659,1,4,0:0:0:0:
288,128,101825,1,8,0:0:0:0:
288,128,101992,1,8,0:0:0:0:
288,128,102159,1,0,0:0:0:0:
288,128,102325,1,8,0:0:0:0:
288,128,102492,1,0,0:0:0:0:
289,117,102659,1,8,0:0:0:0:
288,128,102825,1,8,0:0:0:0:
288,128,102992,1,0,0:0:0:0:
288,128,103159,1,8,0:0:0:0:
288,128,103325,1,8,0:0:0:0:
288,128,103492,1,0,0:0:0:0:
289,117,103659,1,8,0:0:0:0:
288,128,103825,1,0,0:0:0:0:
288,128,103992,1,8,0:0:0:0:
288,128,104159,1,8,0:0:0:0:
288,128,104325,1,4,0:0:0:0:
288,96,104492,1,8,0:0:0:0:
288,96,104575,1,0,0:0:0:0:
288,96,104659,1,8,0:0:0:0:
288,96,104825,1,0,0:0:0:0:
288,96,104992,1,8,0:0:0:0:
288,96,105075,1,0,0:0:0:0:
288,96,105159,1,0,0:0:0:0:
288,96,105242,1,0,0:0:0:0:
288,96,105325,1,8,0:0:0:0:
288,96,105492,1,8,0:0:0:0:
288,96,105659,1,4,0:0:0:0:
288,96,105992,1,8,0:0:0:0:
288,96,106159,1,0,0:0:0:0:
288,96,106325,1,0,0:0:0:0:
288,96,106409,1,8,0:0:0:0:
288,96,106492,1,8,0:0:0:0:
288,32,106575,1,0,0:0:0:0:
288,96,106659,1,8,0:0:0:0:
288,96,106825,1,8,0:0:0:0:
288,96,106992,1,4,0:0:0:0:
288,64,109659,1,12,0:0:0:0:
192,64,130992,5,4,0:0:0:0:
192,64,131492,1,8,0:0:0:0:
192,64,132325,1,0,0:0:0:0:
224,64,132992,1,8,0:0:0:0:
224,64,133659,1,0,0:0:0:0:
224,64,134159,1,8,0:0:0:0:
224,64,134659,1,0,0:0:0:0:
192,64,135659,1,0,0:0:0:0:
224,64,136325,1,8,0:0:0:0:
192,64,136825,1,8,0:0:0:0:
192,64,137659,1,0,0:0:0:0:
192,64,138325,1,8,0:0:0:0:
192,64,138659,1,8,0:0:0:0:
192,64,138992,1,0,0:0:0:0:
192,64,140325,1,8,0:0:0:0:
192,64,140992,1,0,0:0:0:0:
192,64,141075,1,8,0:0:0:0:
192,64,141159,1,0,0:0:0:0:
192,64,141242,1,0,0:0:0:0:
192,64,141325,1,8,0:0:0:0:
192,64,141492,1,8,0:0:0:0:
192,64,141659,1,0,0:0:0:0:
192,64,141992,1,8,0:0:0:0:
192,64,142242,1,0,0:0:0:0:
192,64,142492,1,0,0:0:0:0:
192,64,142659,1,8,0:0:0:0:
192,64,142992,1,0,0:0:0:0:
192,64,143325,1,8,0:0:0:0:
192,64,143575,1,0,0:0:0:0:
224,64,143825,1,0,0:0:0:0:
224,64,143992,1,8,0:0:0:0:
224,64,144325,1,0,0:0:0:0:
224,64,144659,1,8,0:0:0:0:
224,64,144909,1,8,0:0:0:0:
224,64,144992,1,0,0:0:0:0:
224,64,145159,1,0,0:0:0:0:
224,64,145325,1,8,0:0:0:0:
224,64,145492,1,8,0:0:0:0:
224,64,145659,1,0,0:0:0:0:
224,64,145992,1,8,0:0:0:0:
224,64,146242,1,0,0:0:0:0:
224,64,146325,1,0,0:0:0:0:
224,64,146492,1,0,0:0:0:0:
224,64,146659,1,8,0:0:0:0:
224,64,146825,1,8,0:0:0:0:
224,64,146992,1,4,0:0:0:0:
256,32,147325,1,8,0:0:0:0:
256,32,147659,1,0,0:0:0:0:
256,32,147992,1,8,0:0:0:0:
256,32,148325,1,0,0:0:0:0:
256,32,148492,1,0,0:0:0:0:
256,32,148659,1,8,0:0:0:0:
256,32,148825,1,8,0:0:0:0:
256,32,148992,1,0,0:0:0:0:
256,32,149159,1,0,0:0:0:0:
256,32,149325,1,8,0:0:0:0:
256,32,149492,1,8,0:0:0:0:
256,32,149659,1,0,0:0:0:0:
256,32,149742,1,0,0:0:0:0:
256,32,149909,1,8,0:0:0:0:
256,32,150075,1,0,0:0:0:0:
256,32,150159,1,8,0:0:0:0:
256,64,150325,1,0,0:0:0:0:
256,32,150409,1,8,0:0:0:0:
256,32,150492,1,0,0:0:0:0:
256,32,150575,1,0,0:0:0:0:
256,32,150659,1,8,0:0:0:0:
256,32,150825,1,8,0:0:0:0:
256,32,150992,1,0,0:0:0:0:
256,32,151325,1,8,0:0:0:0:
256,32,151492,1,0,0:0:0:0:
256,32,151575,1,8,0:0:0:0:
247,30,151659,1,0,0:0:0:0:
256,32,151825,1,0,0:0:0:0:
256,32,151992,1,8,0:0:0:0:
256,32,152159,1,8,0:0:0:0:
256,32,152325,1,4,0:0:0:0:
256,32,153325,1,12,0:0:0:0:
256,32,153659,1,4,0:0:0:0:
288,32,153909,1,8,0:0:0:0:
288,32,153992,1,0,0:0:0:0:
288,32,154159,1,8,0:0:0:0:
288,32,154325,1,0,0:0:0:0:
256,160,154409,1,8,0:0:0:0:
288,32,154492,1,0,0:0:0:0:
288,32,154659,1,8,0:0:0:0:
288,32,154825,1,0,0:0:0:0:
288,32,154992,1,8,0:0:0:0:
288,32,155242,1,8,0:0:0:0:
288,32,155325,1,0,0:0:0:0:
288,32,155492,1,8,0:0:0:0:
288,32,155659,1,0,0:0:0:0:
256,160,155742,1,8,0:0:0:0:
288,32,155825,1,0,0:0:0:0:
288,32,155992,1,8,0:0:0:0:
288,32,156159,1,0,0:0:0:0:
288,32,156325,1,8,0:0:0:0:
256,160,156575,1,8,0:0:0:0:
256,160,156659,1,0,0:0:0:0:
256,160,156825,1,8,0:0:0:0:
256,160,156992,1,0,0:0:0:0:
256,160,157075,1,0,0:0:0:0:
256,160,157159,1,8,0:0:0:0:
256,160,157325,1,8,0:0:0:0:
256,160,157492,1,0,0:0:0:0:
256,160,157659,1,0,0:0:0:0:
256,160,157909,1,0,0:0:0:0:
256,160,157992,1,8,0:0:0:0:
256,160,158159,1,0,0:0:0:0:
256,160,158325,1,0,0:0:0:0:
256,171,158409,1,0,0:0:0:0:
256,160,158492,1,0,0:0:0:0:
256,160,158659,1,8,0:0:0:0:
256,160,158825,1,8,0:0:0:0:
256,32,158992,1,0,0:0:0:0:
288,32,159242,1,8,0:0:0:0:
288,32,159325,1,0,0:0:0:0:
288,32,159492,1,8,0:0:0:0:
288,32,159659,1,0,0:0:0:0:
256,160,159742,1,8,0:0:0:0:
288,32,159825,1,0,0:0:0:0:
288,32,159992,1,8,0:0:0:0:
288,32,160159,1,0,0:0:0:0:
288,32,160325,1,8,0:0:0:0:
288,32,160575,1,8,0:0:0:0:
288,32,160659,1,0,0:0:0:0:
288,32,160825,1,8,0:0:0:0:
288,32,160992,1,0,0:0:0:0:
256,160,161075,1,8,0:0:0:0:
288,32,161159,1,0,0:0:0:0:
288,32,161325,1,8,0:0:0:0:
288,32,161492,1,0,0:0:0:0:
288,32,161659,1,8,0:0:0:0:
256,160,161909,1,8,0:0:0:0:
256,160,161992,1,8,0:0:0:0:
256,160,162159,1,8,0:0:0:0:
256,160,162325,1,0,0:0:0:0:
256,160,162409,1,8,0:0:0:0:
256,160,162492,1,8,0:0:0:0:
256,160,162659,1,8,0:0:0:0:
256,160,162825,1,0,0:0:0:0:
256,160,162992,1,8,0:0:0:0:
256,160,163242,1,0,0:0:0:0:
256,160,163325,1,8,0:0:0:0:
256,160,163492,1,0,0:0:0:0:
256,160,163659,1,0,0:0:0:0:
256,171,163742,1,8,0:0:0:0:
256,160,163825,1,0,0:0:0:0:
224,96,163909,1,0,0:0:0:0:
256,160,163992,1,8,0:0:0:0:
256,160,164159,1,8,0:0:0:0:
256,32,164325,1,4,0:0:0:0:
288,32,164575,1,8,0:0:0:0:
288,32,164659,1,0,0:0:0:0:
288,32,164825,1,8,0:0:0:0:
288,32,164992,1,0,0:0:0:0:
256,160,165075,1,8,0:0:0:0:
288,32,165159,1,0,0:0:0:0:
288,32,165325,1,8,0:0:0:0:
288,32,165492,1,0,0:0:0:0:
288,32,165659,1,8,0:0:0:0:
288,32,165909,1,8,0:0:0:0:
288,32,165992,1,0,0:0:0:0:
288,32,166159,1,8,0:0:0:0:
288,32,166325,1,0,0:0:0:0:
256,160,166409,1,8,0:0:0:0:
288,32,166492,1,0,0:0:0:0:
288,32,166659,1,8,0:0:0:0:
288,32,166825,1,0,0:0:0:0:
288,32,166992,1,12,0:0:0:0:
256,160,167242,1,8,0:0:0:0:
288,96,167325,1,8,0:0:0:0:
256,160,167492,1,8,0:0:0:0:
256,160,167659,1,0,0:0:0:0:
256,160,167742,1,8,0:0:0:0:
256,160,167825,1,8,0:0:0:0:
256,160,167992,1,8,0:0:0:0:
256,160,168159,1,0,0:0:0:0:
256,160,168325,1,0,0:0:0:0:
256,160,168575,1,0,0:0:0:0:
256,160,168659,1,8,0:0:0:0:
256,160,168825,1,0,0:0:0:0:
256,160,168992,1,0,0:0:0:0:
256,171,169075,1,0,0:0:0:0:
256,160,169159,1,0,0:0:0:0:
256,160,169325,1,8,0:0:0:0:
256,160,169492,1,8,0:0:0:0:
256,32,169659,1,4,0:0:0:0:
288,32,169909,1,8,0:0:0:0:
288,32,169992,1,0,0:0:0:0:
288,32,170159,1,8,0:0:0:0:
288,32,170325,1,0,0:0:0:0:
256,160,170409,1,8,0:0:0:0:
288,32,170492,1,0,0:0:0:0:
288,32,170659,1,8,0:0:0:0:
288,32,170825,1,0,0:0:0:0:
288,32,170992,1,12,0:0:0:0:
288,32,171242,1,8,0:0:0:0:
288,32,171325,1,0,0:0:0:0:
288,32,171492,1,8,0:0:0:0:
288,32,171659,1,0,0:0:0:0:
256,160,171742,1,8,0:0:0:0:
288,32,171825,1,0,0:0:0:0:
288,32,171992,1,8,0:0:0:0:
288,32,172159,1,0,0:0:0:0:
288,32,172325,1,12,0:0:0:0:
256,160,172575,1,8,0:0:0:0:
256,160,172659,1,8,0:0:0:0:
256,160,172825,1,8,0:0:0:0:
256,160,172992,1,4,0:0:0:0:
288,96,173159,1,0,0:0:0:0:
288,96,173242,1,8,0:0:0:0:
256,160,173325,1,0,0:0:0:0:
256,64,173409,1,0,0:0:0:0:
256,160,173492,1,8,0:0:0:0:
256,160,173659,1,4,0:0:0:0:
256,160,173992,1,8,0:0:0:0:
256,160,174159,1,0,0:0:0:0:
256,160,174325,1,0,0:0:0:0:
256,171,174409,1,8,0:0:0:0:
256,160,174492,1,0,0:0:0:0:
256,160,174659,1,8,0:0:0:0:
256,160,174825,1,8,0:0:0:0:
256,160,174992,1,0,0:0:0:0:
256,128,175159,1,0,0:0:0:0:
256,128,175325,1,12,0:0:0:0:
288,32,175575,1,8,0:0:0:0:
256,160,175659,1,0,0:0:0:0:
288,32,175825,1,8,0:0:0:0:
288,32,175992,1,8,0:0:0:0:
256,64,176075,1,0,0:0:0:0:
288,32,176159,1,0,0:0:0:0:
288,32,176325,1,8,0:0:0:0:
288,32,176492,1,0,0:0:0:0:
288,32,176659,1,8,0:0:0:0:
288,32,176909,1,8,0:0:0:0:
288,32,176992,1,0,0:0:0:0:
288,32,177159,1,8,0:0:0:0:
288,32,177325,1,8,0:0:0:0:
288,32,177409,1,0,0:0:0:0:
288,32,177492,1,0,0:0:0:0:
288,32,177659,1,8,0:0:0:0:
256,32,177825,1,0,0:0:0:0:
256,160,177992,1,8,0:0:0:0:
224,32,178242,1,8,0:0:0:0:
256,160,178325,1,0,0:0:0:0:
256,160,178492,1,8,0:0:0:0:
256,160,178659,1,8,0:0:0:0:
224,32,178742,1,0,0:0:0:0:
256,160,178825,1,8,0:0:0:0:
256,160,178992,1,0,0:0:0:0:
224,32,179159,1,0,0:0:0:0:
256,160,179325,1,8,0:0:0:0:
224,32,179575,1,0,0:0:0:0:
256,160,179659,1,0,0:0:0:0:
256,160,179825,1,0,0:0:0:0:
256,160,179992,1,8,0:0:0:0:
256,160,180159,1,8,0:0:0:0:
256,32,180325,1,0,0:0:0:0:
288,32,180575,1,8,0:0:0:0:
256,160,180659,1,0,0:0:0:0:
288,32,180825,1,8,0:0:0:0:
288,32,180992,1,8,0:0:0:0:
256,64,181075,1,0,0:0:0:0:
288,32,181159,1,0,0:0:0:0:
288,32,181325,1,8,0:0:0:0:
288,32,181492,1,0,0:0:0:0:
288,32,181659,1,8,0:0:0:0:
288,32,181909,1,8,0:0:0:0:
288,32,181992,1,0,0:0:0:0:
288,32,182159,1,8,0:0:0:0:
288,32,182325,1,8,0:0:0:0:
288,32,182409,1,0,0:0:0:0:
288,32,182492,1,0,0:0:0:0:
288,32,182659,1,8,0:0:0:0:
256,32,182825,1,0,0:0:0:0:
256,160,182992,1,8,0:0:0:0:
224,32,183242,1,8,0:0:0:0:
256,160,183325,1,8,0:0:0:0:
256,160,183492,1,8,0:0:0:0:
256,160,183659,1,8,0:0:0:0:
224,32,183742,1,8,0:0:0:0:
256,160,183825,1,0,0:0:0:0:
256,160,183992,1,8,0:0:0:0:
224,32,184159,1,8,0:0:0:0:
256,160,184325,1,0,0:0:0:0:
224,32,184575,1,8,0:0:0:0:
256,160,184659,1,0,0:0:0:0:
224,32,184825,1,8,0:0:0:0:
224,32,184909,1,0,0:0:0:0:
224,32,184992,1,0,0:0:0:0:
224,32,185075,1,8,0:0:0:0:
256,160,185159,1,0,0:0:0:0:
256,32,185325,1,8,0:0:0:0:
256,32,185492,1,8,0:0:0:0:
192,32,185659,1,4,0:0:0:0:
288,32,185909,1,8,0:0:0:0:
256,160,185992,1,0,0:0:0:0:
288,32,186159,1,8,0:0:0:0:
288,32,186325,1,8,0:0:0:0:
256,64,186409,1,0,0:0:0:0:
288,32,186492,1,0,0:0:0:0:
256,32,186575,1,0,0:0:0:0:
288,32,186659,1,8,0:0:0:0:
288,32,186825,1,0,0:0:0:0:
288,32,186992,1,8,0:0:0:0:
288,64,187159,1,0,0:0:0:0:
288,32,187242,1,8,0:0:0:0:
288,32,187325,1,0,0:0:0:0:
288,32,187492,1,8,0:0:0:0:
288,32,187659,1,8,0:0:0:0:
288,32,187742,1,0,0:0:0:0:
288,32,187825,1,0,0:0:0:0:
256,32,187909,1,0,0:0:0:0:
288,32,187992,1,8,0:0:0:0:
256,32,188159,1,0,0:0:0:0:
256,160,188325,1,12,0:0:0:0:
224,32,188575,1,8,0:0:0:0:
256,160,188659,1,8,0:0:0:0:
256,160,188825,1,8,0:0:0:0:
256,160,188992,1,8,0:0:0:0:
224,32,189075,1,8,0:0:0:0:
256,160,189159,1,0,0:0:0:0:
256,32,189242,1,0,0:0:0:0:
256,160,189325,1,8,0:0:0:0:
224,32,189492,1,8,0:0:0:0:
256,160,189659,1,0,0:0:0:0:
256,32,189825,1,0,0:0:0:0:
224,32,189909,1,8,0:0:0:0:
256,160,189992,1,0,0:0:0:0:
256,160,190159,1,8,0:0:0:0:
256,128,190242,1,0,0:0:0:0:
256,64,190325,1,0,0:0:0:0:
256,32,190409,1,8,0:0:0:0:
256,160,190492,1,0,0:0:0:0:
256,32,190659,1,8,0:0:0:0:
256,64,190825,1,8,0:0:0:0:
256,64,190992,1,4,0:0:0:0:
256,64,191159,1,4,0:0:0:0:
256,64,191325,1,8,0:0:0:0:
256,64,191659,1,4,0:0:0:0:
256,64,191825,1,4,0:0:0:0:
256,64,191992,1,8,0:0:0:0:
256,64,192325,1,0,0:0:0:0:
256,64,192575,1,0,0:0:0:0:
256,64,192825,1,0,0:0:0:0:
256,64,192992,1,0,0:0:0:0:
256,64,193075,1,0,0:0:0:0:
256,64,193159,1,0,0:0:0:0:
256,64,193242,1,0,0:0:0:0:
256,64,193325,1,8,0:0:0:0:
256,64,193492,1,8,0:0:0:0:
256,64,193575,1,0,0:0:0:0:
256,64,193659,1,8,0:0:0:0:
256,64,193825,1,8,0:0:0:0:
256,64,193992,1,8,0:0:0:0:
256,64,194159,1,8,0:0:0:0:
256,64,194325,1,8,0:0:0:0:
256,64,194409,1,0,0:0:0:0:
256,64,194492,1,8,0:0:0:0:
256,64,194575,1,8,0:0:0:0:
256,64,194659,1,0,0:0:0:0:
256,64,194825,1,8,0:0:0:0:
256,64,194992,1,4,0:0:0:0:
256,128,195325,1,8,0:0:0:0:
256,128,195492,1,0,0:0:0:0:
256,128,195575,1,8,0:0:0:0:
256,128,195659,1,0,0:0:0:0:
256,128,195825,1,0,0:0:0:0:
256,128,195992,1,8,0:0:0:0:
256,128,196159,1,8,0:0:0:0:
256,128,196325,1,0,0:0:0:0:
256,128,196659,1,12,0:0:0:0:
256,192,196992,1,8,0:0:0:0:
256,192,197159,1,0,0:0:0:0:
256,192,197325,1,8,0:0:0:0:
256,192,197492,1,8,0:0:0:0:
256,192,197575,1,8,0:0:0:0:
256,192,197659,1,0,0:0:0:0:
256,192,197825,1,8,0:0:0:0:
256,192,197992,1,0,0:0:0:0:
256,192,198159,1,8,0:0:0:0:
256,192,198492,1,0,0:0:0:0:
256,192,198659,1,8,0:0:0:0:
256,192,198825,1,8,0:0:0:0:
256,192,198992,1,0,0:0:0:0:
288,192,199325,1,8,0:0:0:0:
288,192,199659,1,8,0:0:0:0:
288,192,199825,1,0,0:0:0:0:
288,192,199992,1,8,0:0:0:0:
288,192,200159,1,8,0:0:0:0:
288,192,200242,1,8,0:0:0:0:
288,192,200325,1,0,0:0:0:0:
256,96,200492,1,8,0:0:0:0:
256,96,200659,1,0,0:0:0:0:
256,96,200825,1,8,0:0:0:0:
256,96,201159,1,0,0:0:0:0:
256,96,201325,1,8,0:0:0:0:
256,96,201492,1,8,0:0:0:0:
256,96,201659,1,0,0:0:0:0:
288,192,201992,1,8,0:0:0:0:
288,192,202325,1,8,0:0:0:0:
288,192,202492,1,0,0:0:0:0:
288,192,202659,1,8,0:0:0:0:
288,192,202825,1,8,0:0:0:0:
288,192,202909,1,8,0:0:0:0:
288,192,202992,1,0,0:0:0:0:
256,96,203159,1,8,0:0:0:0:
256,96,203325,1,0,0:0:0:0:
256,96,203492,1,8,0:0:0:0:
256,96,203825,1,0,0:0:0:0:
256,96,203992,1,8,0:0:0:0:
256,96,204159,1,8,0:0:0:0:
256,96,204325,1,0,0:0:0:0:
288,192,204659,1,8,0:0:0:0:
288,192,204992,1,8,0:0:0:0:
288,192,205159,1,0,0:0:0:0:
288,192,205325,1,8,0:0:0:0:
288,192,205492,1,8,0:0:0:0:
288,192,205575,1,8,0:0:0:0:
288,192,205659,1,0,0:0:0:0:
256,96,205825,1,8,0:0:0:0:
256,96,205992,1,0,0:0:0:0:
256,96,206159,1,8,0:0:0:0:
256,96,206492,1,0,0:0:0:0:
256,96,206659,1,8,0:0:0:0:
256,96,206825,1,8,0:0:0:0:
256,96,206992,1,4,0:0:0:0:
256,96,207325,1,8,0:0:0:0:
256,96,207409,1,0,0:0:0:0:
256,96,207575,1,0,0:0:0:0:
256,96,207659,1,8,0:0:0:0:
256,96,207825,1,0,0:0:0:0:
256,96,207992,1,8,0:0:0:0:
256,96,208159,1,8,0:0:0:0:
256,96,208325,1,0,0:0:0:0:
256,96,208492,1,8,0:0:0:0:
256,96,208659,1,0,0:0:0:0:
256,96,208742,1,8,0:0:0:0:
256,96,208909,1,8,0:0:0:0:
256,96,208992,1,0,0:0:0:0:
256,96,209159,1,0,0:0:0:0:
269,96,209325,1,8,0:0:0:0:
256,96,209492,1,8,0:0:0:0:
256,96,209659,1,4,0:0:0:0:
256,96,209992,1,8,0:0:0:0:
256,96,210075,1,8,0:0:0:0:
256,96,210242,1,0,0:0:0:0:
256,96,210325,1,8,0:0:0:0:
256,96,210492,1,0,0:0:0:0:
256,96,210659,1,8,0:0:0:0:
256,96,210825,1,8,0:0:0:0:
256,96,210992,1,0,0:0:0:0:
256,96,211159,1,8,0:0:0:0:
256,96,211325,1,0,0:0:0:0:
256,96,211409,1,0,0:0:0:0:
256,96,211575,1,8,0:0:0:0:
256,96,211659,1,0,0:0:0:0:
256,64,211825,1,0,0:0:0:0:
256,64,211992,1,8,0:0:0:0:
256,64,212159,1,8,0:0:0:0:
256,192,212325,1,4,0:0:0:0:
256,96,212492,1,8,0:0:0:0:
256,96,212659,1,8,0:0:0:0:
256,96,212825,1,0,0:0:0:0:
256,96,212909,1,0,0:0:0:0:
256,96,212992,1,8,0:0:0:0:
256,96,213159,1,0,0:0:0:0:
256,96,213325,1,8,0:0:0:0:
256,96,213409,1,0,0:0:0:0:
256,96,213492,1,8,0:0:0:0:
256,96,213659,1,4,0:0:0:0:
256,96,213825,1,8,0:0:0:0:
256,96,213992,1,8,0:0:0:0:
256,96,214075,1,8,0:0:0:0:
256,96,214159,1,0,0:0:0:0:
256,96,214325,1,0,0:0:0:0:
256,96,214492,1,8,0:0:0:0:
256,96,214659,1,0,0:0:0:0:
256,96,214742,1,8,0:0:0:0:
256,96,214825,1,0,0:0:0:0:
256,96,214992,1,12,0:0:0:0:
256,96,215242,1,12,0:0:0:0:
256,96,215492,1,12,0:0:0:0:
256,96,215742,1,12,0:0:0:0:
256,96,215992,1,12,0:0:0:0:
256,96,216159,1,12,0:0:0:0:
256,96,216325,1,4,0:0:0:0:
288,96,216659,1,8,0:0:0:0:
288,96,216825,1,0,0:0:0:0:
288,96,216992,1,0,0:0:0:0:
288,96,217159,1,0,0:0:0:0:
288,96,217242,1,8,0:0:0:0:
288,96,217325,1,8,0:0:0:0:
288,96,217492,1,8,0:0:0:0:
288,96,217659,1,4,0:0:0:0:
256,64,228325,5,4,0:0:0:0:
256,64,228825,1,8,0:0:0:0:
256,64,229659,1,0,0:0:0:0:
256,64,230159,1,8,0:0:0:0:
256,64,230992,1,12,0:0:0:0:
256,64,231492,1,8,0:0:0:0:
256,64,232325,1,0,0:0:0:0:
256,64,232825,1,8,0:0:0:0:
256,64,233659,1,0,0:0:0:0:
256,64,233909,1,8,0:0:0:0:
256,64,234159,1,8,0:0:0:0:
256,64,234409,1,8,0:0:0:0:
256,64,234659,1,0,0:0:0:0:
256,64,234825,1,8,0:0:0:0:
256,64,234992,1,0,0:0:0:0:
256,64,235242,1,8,0:0:0:0:
256,64,235492,1,8,0:0:0:0:
256,64,235742,1,8,0:0:0:0:
256,64,235992,1,8,0:0:0:0:
256,64,236159,1,0,0:0:0:0:
256,64,236325,1,12,0:0:0:0:
256,64,236492,1,0,0:0:0:0:
256,64,236575,1,8,0:0:0:0:
256,192,236659,1,0,0:0:0:0:
256,192,236825,1,8,0:0:0:0:
256,192,236992,1,12,0:0:0:0:
256,192,237159,1,0,0:0:0:0:
256,192,237242,1,8,0:0:0:0:
256,192,237325,1,0,0:0:0:0:
256,96,237409,1,0,0:0:0:0:
256,96,237492,1,8,0:0:0:0:
256,96,237659,1,0,0:0:0:0:
256,96,237992,1,8,0:0:0:0:
256,96,238159,1,0,0:0:0:0:
256,96,238325,1,0,0:0:0:0:
256,96,238409,1,8,0:0:0:0:
256,96,238492,1,8,0:0:0:0:
256,96,238575,1,0,0:0:0:0:
256,96,238659,1,8,0:0:0:0:
256,96,238825,1,8,0:0:0:0:
256,96,238992,1,4,0:0:0:0:
256,96,239992,1,12,0:0:0:0:
256,32,240325,1,4,0:0:0:0:
288,32,240575,1,8,0:0:0:0:
288,32,240659,1,0,0:0:0:0:
288,32,240825,1,8,0:0:0:0:
288,32,240992,1,0,0:0:0:0:
256,160,241075,1,8,0:0:0:0:
288,32,241159,1,0,0:0:0:0:
288,32,241325,1,8,0:0:0:0:
288,32,241492,1,0,0:0:0:0:
288,32,241659,1,8,0:0:0:0:
288,32,241909,1,8,0:0:0:0:
288,32,241992,1,0,0:0:0:0:
288,32,242159,1,8,0:0:0:0:
288,32,242325,1,0,0:0:0:0:
256,160,242409,1,8,0:0:0:0:
288,32,242492,1,0,0:0:0:0:
288,32,242659,1,8,0:0:0:0:
288,32,242825,1,0,0:0:0:0:
288,32,242992,1,8,0:0:0:0:
256,160,243242,1,8,0:0:0:0:
256,160,243325,1,0,0:0:0:0:
256,160,243492,1,8,0:0:0:0:
256,160,243659,1,0,0:0:0:0:
256,160,243742,1,0,0:0:0:0:
256,160,243825,1,8,0:0:0:0:
256,160,243992,1,8,0:0:0:0:
256,160,244159,1,0,0:0:0:0:
256,160,244325,1,0,0:0:0:0:
256,160,244575,1,0,0:0:0:0:
256,160,244659,1,8,0:0:0:0:
256,160,244825,1,0,0:0:0:0:
256,160,244992,1,0,0:0:0:0:
256,171,245075,1,0,0:0:0:0:
256,160,245159,1,0,0:0:0:0:
256,160,245325,1,8,0:0:0:0:
256,160,245492,1,8,0:0:0:0:
256,32,245659,1,0,0:0:0:0:
288,32,245909,1,8,0:0:0:0:
288,32,245992,1,0,0:0:0:0:
288,32,246159,1,8,0:0:0:0:
288,32,246325,1,0,0:0:0:0:
256,160,246409,1,8,0:0:0:0:
288,32,246492,1,0,0:0:0:0:
288,32,246659,1,8,0:0:0:0:
288,32,246825,1,0,0:0:0:0:
288,32,246992,1,8,0:0:0:0:
288,32,247242,1,8,0:0:0:0:
288,32,247325,1,0,0:0:0:0:
288,32,247492,1,8,0:0:0:0:
288,32,247659,1,0,0:0:0:0:
256,160,247742,1,8,0:0:0:0:
288,32,247825,1,0,0:0:0:0:
288,32,247992,1,8,0:0:0:0:
288,32,248159,1,0,0:0:0:0:
288,32,248325,1,8,0:0:0:0:
256,160,248575,1,8,0:0:0:0:
256,160,248659,1,8,0:0:0:0:
256,160,248825,1,8,0:0:0:0:
256,160,248992,1,0,0:0:0:0:
256,160,249075,1,8,0:0:0:0:
256,160,249159,1,8,0:0:0:0:
256,160,249325,1,8,0:0:0:0:
256,160,249492,1,0,0:0:0:0:
256,160,249659,1,8,0:0:0:0:
256,160,249909,1,0,0:0:0:0:
256,160,249992,1,8,0:0:0:0:
256,160,250159,1,0,0:0:0:0:
256,160,250325,1,0,0:0:0:0:
256,171,250409,1,8,0:0:0:0:
256,160,250492,1,0,0:0:0:0:
224,96,250575,1,0,0:0:0:0:
256,160,250659,1,8,0:0:0:0:
256,160,250825,1,8,0:0:0:0:
256,32,250992,1,4,0:0:0:0:
288,32,251242,1,8,0:0:0:0:
288,32,251325,1,0,0:0:0:0:
288,32,251492,1,8,0:0:0:0:
288,32,251659,1,0,0:0:0:0:
256,160,251742,1,8,0:0:0:0:
288,32,251825,1,0,0:0:0:0:
288,32,251992,1,8,0:0:0:0:
288,32,252159,1,0,0:0:0:0:
288,32,252325,1,8,0:0:0:0:
288,32,252575,1,8,0:0:0:0:
288,32,252659,1,0,0:0:0:0:
288,32,252825,1,8,0:0:0:0:
288,32,252992,1,0,0:0:0:0:
256,160,253075,1,8,0:0:0:0:
288,32,253159,1,0,0:0:0:0:
288,32,253325,1,8,0:0:0:0:
288,32,253492,1,0,0:0:0:0:
288,32,253659,1,12,0:0:0:0:
256,160,253909,1,8,0:0:0:0:
288,96,253992,1,8,0:0:0:0:
256,160,254159,1,8,0:0:0:0:
256,160,254325,1,0,0:0:0:0:
256,160,254409,1,8,0:0:0:0:
256,160,254492,1,8,0:0:0:0:
256,160,254659,1,8,0:0:0:0:
256,160,254825,1,0,0:0:0:0:
256,160,254992,1,0,0:0:0:0:
256,160,255242,1,0,0:0:0:0:
256,160,255325,1,8,0:0:0:0:
256,160,255492,1,0,0:0:0:0:
256,160,255659,1,0,0:0:0:0:
256,171,255742,1,0,0:0:0:0:
256,160,255825,1,0,0:0:0:0:
256,160,255992,1,8,0:0:0:0:
256,160,256159,1,8,0:0:0:0:
256,32,256325,1,4,0:0:0:0:
288,32,256575,1,8,0:0:0:0:
288,32,256659,1,0,0:0:0:0:
288,32,256825,1,8,0:0:0:0:
288,32,256992,1,0,0:0:0:0:
256,160,257075,1,8,0:0:0:0:
288,32,257159,1,0,0:0:0:0:
288,32,257325,1,8,0:0:0:0:
288,32,257492,1,0,0:0:0:0:
288,32,257659,1,12,0:0:0:0:
288,32,257909,1,8,0:0:0:0:
288,32,257992,1,0,0:0:0:0:
288,32,258159,1,8,0:0:0:0:
288,32,258325,1,0,0:0:0:0:
256,160,258409,1,8,0:0:0:0:
288,32,258492,1,0,0:0:0:0:
288,32,258659,1,8,0:0:0:0:
288,32,258825,1,0,0:0:0:0:
288,32,258992,1,12,0:0:0:0:
256,160,259242,1,8,0:0:0:0:
256,160,259325,1,8,0:0:0:0:
256,160,259492,1,8,0:0:0:0:
256,160,259659,1,4,0:0:0:0:
288,96,259825,1,0,0:0:0:0:
288,96,259909,1,8,0:0:0:0:
256,160,259992,1,0,0:0:0:0:
256,64,260075,1,0,0:0:0:0:
256,160,260159,1,8,0:0:0:0:
256,160,260325,1,4,0:0:0:0:
256,160,260659,1,8,0:0:0:0:
256,160,260825,1,0,0:0:0:0:
256,160,260992,1,0,0:0:0:0:
256,171,261075,1,8,0:0:0:0:
256,160,261159,1,0,0:0:0:0:
256,160,261325,1,8,0:0:0:0:
256,160,261492,1,8,0:0:0:0:
256,160,261659,1,0,0:0:0:0:
256,128,261825,1,0,0:0:0:0:
256,128,261992,1,12,0:0:0:0:
288,32,262242,1,8,0:0:0:0:
256,160,262325,1,0,0:0:0:0:
288,32,262492,1,8,0:0:0:0:
288,32,262659,1,8,0:0:0:0:
256,64,262742,1,0,0:0:0:0:
288,32,262825,1,0,0:0:0:0:
288,32,262992,1,8,0:0:0:0:
288,32,263159,1,0,0:0:0:0:
288,32,263325,1,8,0:0:0:0:
288,32,263575,1,8,0:0:0:0:
288,32,263659,1,0,0:0:0:0:
288,32,263825,1,8,0:0:0:0:
288,32,263992,1,8,0:0:0:0:
288,32,264075,1,0,0:0:0:0:
288,32,264159,1,0,0:0:0:0:
288,32,264325,1,8,0:0:0:0:
256,32,264492,1,0,0:0:0:0:
256,160,264659,1,8,0:0:0:0:
224,32,264909,1,8,0:0:0:0:
256,160,264992,1,0,0:0:0:0:
256,160,265159,1,8,0:0:0:0:
256,160,265325,1,8,0:0:0:0:
224,32,265409,1,0,0:0:0:0:
256,160,265492,1,8,0:0:0:0:
256,160,265659,1,0,0:0:0:0:
224,32,265825,1,0,0:0:0:0:
256,160,265992,1,8,0:0:0:0:
224,32,266242,1,0,0:0:0:0:
256,160,266325,1,0,0:0:0:0:
256,160,266492,1,0,0:0:0:0:
256,160,266659,1,8,0:0:0:0:
256,160,266825,1,8,0:0:0:0:
256,32,266992,1,0,0:0:0:0:
288,32,267242,1,8,0:0:0:0:
256,160,267325,1,0,0:0:0:0:
288,32,267492,1,8,0:0:0:0:
288,32,267659,1,8,0:0:0:0:
256,64,267742,1,0,0:0:0:0:
288,32,267825,1,0,0:0:0:0:
288,32,267992,1,8,0:0:0:0:
288,32,268159,1,0,0:0:0:0:
288,32,268325,1,8,0:0:0:0:
288,32,268575,1,8,0:0:0:0:
288,32,268659,1,0,0:0:0:0:
288,32,268825,1,8,0:0:0:0:
288,32,268992,1,8,0:0:0:0:
288,32,269075,1,0,0:0:0:0:
288,32,269159,1,0,0:0:0:0:
288,32,269325,1,8,0:0:0:0:
256,32,269492,1,0,0:0:0:0:
256,160,269659,1,8,0:0:0:0:
224,32,269909,1,8,0:0:0:0:
256,160,269992,1,8,0:0:0:0:
256,160,270159,1,8,0:0:0:0:
256,160,270325,1,8,0:0:0:0:
224,32,270409,1,8,0:0:0:0:
256,160,270492,1,0,0:0:0:0:
256,160,270659,1,8,0:0:0:0:
224,32,270825,1,8,0:0:0:0:
256,160,270992,1,0,0:0:0:0:
224,32,271242,1,8,0:0:0:0:
256,160,271325,1,0,0:0:0:0:
224,32,271492,1,8,0:0:0:0:
224,32,271575,1,0,0:0:0:0:
224,32,271659,1,0,0:0:0:0:
224,32,271742,1,8,0:0:0:0:
256,160,271825,1,0,0:0:0:0:
256,32,271992,1,8,0:0:0:0:
256,32,272159,1,8,0:0:0:0:
192,32,272325,1,4,0:0:0:0:
288,32,272575,1,8,0:0:0:0:
256,160,272659,1,0,0:0:0:0:
288,32,272825,1,8,0:0:0:0:
288,32,272992,1,8,0:0:0:0:
256,64,273075,1,0,0:0:0:0:
288,32,273159,1,0,0:0:0:0:
256,32,273242,1,0,0:0:0:0:
288,32,273325,1,8,0:0:0:0:
288,32,273492,1,0,0:0:0:0:
288,32,273659,1,8,0:0:0:0:
288,64,273825,1,0,0:0:0:0:
288,32,273909,1,8,0:0:0:0:
288,32,273992,1,0,0:0:0:0:
288,32,274159,1,8,0:0:0:0:
288,32,274325,1,8,0:0:0:0:
288,32,274409,1,0,0:0:0:0:
288,32,274492,1,0,0:0:0:0:
256,32,274575,1,0,0:0:0:0:
288,32,274659,1,8,0:0:0:0:
256,32,274825,1,0,0:0:0:0:
256,160,274992,1,12,0:0:0:0:
224,32,275242,1,8,0:0:0:0:
256,160,275325,1,8,0:0:0:0:
256,160,275492,1,8,0:0:0:0:
256,160,275659,1,8,0:0:0:0:
224,32,275742,1,8,0:0:0:0:
256,160,275825,1,0,0:0:0:0:
256,32,275909,1,0,0:0:0:0:
256,160,275992,1,8,0:0:0:0:
224,32,276159,1,8,0:0:0:0:
256,160,276325,1,0,0:0:0:0:
256,32,276492,1,0,0:0:0:0:
224,32,276575,1,8,0:0:0:0:
256,160,276659,1,0,0:0:0:0:
256,160,276825,1,8,0:0:0:0:
256,128,276909,1,0,0:0:0:0:
256,64,276992,1,0,0:0:0:0:
256,32,277075,1,8,0:0:0:0:
256,160,277159,1,0,0:0:0:0:
256,32,277325,1,8,0:0:0:0:
256,64,277492,1,8,0:0:0:0:
256,64,277659,1,4,0:0:0:0:
256,64,277825,1,4,0:0:0:0:
256,64,277992,1,8,0:0:0:0:
256,64,278325,1,4,0:0:0:0:
256,64,278492,1,4,0:0:0:0:
256,64,278659,1,8,0:0:0:0:
256,64,278992,1,0,0:0:0:0:
256,64,279242,1,0,0:0:0:0:
256,64,279492,1,0,0:0:0:0:
256,64,279659,1,0,0:0:0:0:
256,64,279742,1,0,0:0:0:0:
256,64,279825,1,0,0:0:0:0:
256,64,279909,1,0,0:0:0:0:
256,64,279992,1,8,0:0:0:0:
256,64,280159,1,8,0:0:0:0:
256,64,280242,1,0,0:0:0:0:
256,64,280325,1,8,0:0:0:0:
256,64,280492,1,8,0:0:0:0:
256,64,280659,1,8,0:0:0:0:
256,64,280825,1,8,0:0:0:0:
256,64,280992,1,8,0:0:0:0:
256,64,281075,1,0,0:0:0:0:
256,64,281159,1,8,0:0:0:0:
256,64,281242,1,8,0:0:0:0:
256,64,281325,1,0,0:0:0:0:
256,160,281409,1,0,0:0:0:0:
256,64,281492,1,8,0:0:0:0:
256,64,281659,1,4,0:0:0:0:
256,128,281992,1,8,0:0:0:0:
256,128,282159,1,0,0:0:0:0:
256,128,282242,1,8,0:0:0:0:
256,128,282325,1,0,0:0:0:0:
256,128,282492,1,0,0:0:0:0:
256,128,282659,1,8,0:0:0:0:
256,128,282825,1,8,0:0:0:0:
256,128,282992,1,0,0:0:0:0:
256,160,283325,1,12,0:0:0:0:
256,128,283659,1,8,0:0:0:0:
256,128,283825,1,0,0:0:0:0:
256,128,283992,1,8,0:0:0:0:
256,128,284075,1,8,0:0:0:0:
256,128,284159,1,8,0:0:0:0:
256,128,284325,1,0,0:0:0:0:
256,128,284492,1,0,0:0:0:0:
256,128,284575,1,8,0:0:0:0:
256,128,284659,1,0,0:0:0:0:
256,128,284825,1,8,0:0:0:0:
256,128,284992,1,0,0:0:0:0:
256,128,285159,1,0,0:0:0:0:
256,128,285325,1,8,0:0:0:0:
256,128,285492,1,8,0:0:0:0:
256,128,285575,1,8,0:0:0:0:
256,128,285659,1,0,0:0:0:0:
256,128,285992,1,8,0:0:0:0:
256,128,286159,1,0,0:0:0:0:
256,128,286325,1,8,0:0:0:0:
256,128,286409,1,0,0:0:0:0:
256,128,286492,1,8,0:0:0:0:
256,128,286659,1,8,0:0:0:0:
256,128,286825,1,0,0:0:0:0:
256,128,286992,1,0,0:0:0:0:
256,128,287075,1,0,0:0:0:0:
256,128,287159,1,8,0:0:0:0:
256,128,287325,1,0,0:0:0:0:
256,128,287492,1,8,0:0:0:0:
256,128,287659,1,8,0:0:0:0:
256,128,287825,1,0,0:0:0:0:
256,128,287992,1,8,0:0:0:0:
256,128,288075,1,8,0:0:0:0:
256,128,288159,1,8,0:0:0:0:
288,96,288242,1,8,0:0:0:0:
256,128,288325,1,0,0:0:0:0:
288,128,288659,1,8,0:0:0:0:
288,128,288825,1,0,0:0:0:0:
288,128,288909,1,0,0:0:0:0:
288,128,288992,1,8,0:0:0:0:
288,128,289159,1,0,0:0:0:0:
288,128,289325,1,8,0:0:0:0:
288,128,289492,1,0,0:0:0:0:
288,128,289825,1,0,0:0:0:0:
288,128,289909,1,0,0:0:0:0:
288,128,289992,1,8,0:0:0:0:
288,128,290159,1,8,0:0:0:0:
288,128,290325,1,0,0:0:0:0:
288,128,290492,1,8,0:0:0:0:
288,128,290659,1,8,0:0:0:0:
288,128,290742,1,0,0:0:0:0:
288,128,290825,1,0,0:0:0:0:
288,128,290992,1,8,0:0:0:0:
288,128,291159,1,0,0:0:0:0:
288,128,291325,1,8,0:0:0:0:
288,96,291409,1,8,0:0:0:0:
288,96,291492,1,0,0:0:0:0:
288,128,291659,1,8,0:0:0:0:
288,128,291825,1,0,0:0:0:0:
288,128,291909,1,0,0:0:0:0:
288,128,291992,1,8,0:0:0:0:
288,128,292159,1,0,0:0:0:0:
288,128,292325,1,8,0:0:0:0:
288,96,292409,1,8,0:0:0:0:
288,96,292492,1,0,0:0:0:0:
288,96,292575,1,0,0:0:0:0:
288,128,292659,1,8,0:0:0:0:
288,128,292825,1,0,0:0:0:0:
288,96,292992,1,8,0:0:0:0:
288,128,293159,1,0,0:0:0:0:
288,128,293325,1,8,0:0:0:0:
288,96,293492,1,8,0:0:0:0:
288,128,293659,1,4,0:0:0:0:
288,128,293992,1,8,0:0:0:0:
288,128,294159,1,0,0:0:0:0:
288,128,294325,1,8,0:0:0:0:
288,128,294492,1,0,0:0:0:0:
288,128,294659,1,8,0:0:0:0:
288,128,294742,1,8,0:0:0:0:
288,128,294825,1,8,0:0:0:0:
288,128,294992,1,0,0:0:0:0:
288,128,295325,1,8,0:0:0:0:
288,128,295492,1,0,0:0:0:0:
288,128,295659,1,8,0:0:0:0:
288,128,295825,1,0,0:0:0:0:
288,128,295992,1,8,0:0:0:0:
288,128,296075,1,8,0:0:0:0:
288,128,296159,1,8,0:0:0:0:
288,128,296325,1,4,0:0:0:0:
288,128,296492,1,0,0:0:0:0:
288,128,296575,1,8,0:0:0:0:
288,128,296659,1,0,0:0:0:0:
288,128,296825,1,0,0:0:0:0:
288,128,296992,1,8,0:0:0:0:
288,128,297159,1,0,0:0:0:0:
288,128,297325,1,8,0:0:0:0:
288,128,297409,1,8,0:0:0:0:
288,128,297492,1,0,0:0:0:0:
288,128,297825,1,0,0:0:0:0:
288,128,297909,1,0,0:0:0:0:
288,128,297992,1,8,0:0:0:0:
288,128,298159,1,0,0:0:0:0:
288,128,298325,1,8,0:0:0:0:
288,128,298492,1,0,0:0:0:0:
288,128,298659,1,8,0:0:0:0:
288,128,298742,1,8,0:0:0:0:
288,128,298825,1,8,0:0:0:0:
289,117,298992,1,4,0:0:0:0:
288,128,299159,1,8,0:0:0:0:
288,128,299325,1,8,0:0:0:0:
320,96,299409,1,8,0:0:0:0:
288,128,299492,1,0,0:0:0:0:
288,128,299659,1,8,0:0:0:0:
288,128,299825,1,0,0:0:0:0:
289,117,299992,1,8,0:0:0:0:
320,96,300075,1,0,0:0:0:0:
288,128,300159,1,8,0:0:0:0:
288,128,300325,1,4,0:0:0:0:
288,128,300492,1,8,0:0:0:0:
288,128,300659,1,8,0:0:0:0:
320,96,300742,1,8,0:0:0:0:
288,128,300825,1,0,0:0:0:0:
289,117,300992,1,8,0:0:0:0:
288,128,301159,1,0,0:0:0:0:
288,128,301325,1,8,0:0:0:0:
320,96,301409,1,0,0:0:0:0:
288,128,301492,1,8,0:0:0:0:
288,128,301659,1,4,0:0:0:0:
288,96,301825,1,8,0:0:0:0:
288,96,301909,1,0,0:0:0:0:
288,96,301992,1,8,0:0:0:0:
288,96,302159,1,0,0:0:0:0:
288,96,302325,1,8,0:0:0:0:
288,96,302409,1,0,0:0:0:0:
288,96,302492,1,0,0:0:0:0:
288,96,302575,1,0,0:0:0:0:
288,96,302659,1,8,0:0:0:0:
224,96,302742,1,0,0:0:0:0:
288,96,302825,1,8,0:0:0:0:
288,96,302992,1,4,0:0:0:0:
288,96,303325,1,8,0:0:0:0:
288,96,303492,1,0,0:0:0:0:
288,96,303659,1,0,0:0:0:0:
288,96,303742,1,8,0:0:0:0:
288,96,303825,1,8,0:0:0:0:
288,32,303909,1,0,0:0:0:0:
288,96,303992,1,8,0:0:0:0:
288,96,304159,1,8,0:0:0:0:
288,96,304325,1,4,0:0:0:0:
320,96,304659,1,8,0:0:0:0:
288,96,304825,1,0,0:0:0:0:
288,96,304992,1,8,0:0:0:0:
288,96,305159,1,8,0:0:0:0:
288,96,305325,1,0,0:0:0:0:
288,96,305492,1,8,0:0:0:0:
288,96,305825,1,0,0:0:0:0:
288,96,305992,1,8,0:0:0:0:
288,96,306159,1,0,0:0:0:0:
288,96,306492,1,8,0:0:0:0:
288,96,306659,1,0,0:0:0:0:
288,96,306825,1,8,0:0:0:0:
288,96,307159,1,8,0:0:0:0:
288,96,307492,1,8,0:0:0:0:
288,96,307825,1,8,0:0:0:0:
288,96,308159,1,8,0:0:0:0:
288,96,308492,1,8,0:0:0:0:
288,96,308825,1,8,0:0:0:0:
288,96,309159,1,8,0:0:0:0:
288,96,309492,1,8,0:0:0:0:
288,96,309659,1,0,0:0:0:0:
288,96,309992,1,8,0:0:0:0:
288,96,310159,1,0,0:0:0:0:
288,96,310325,1,8,0:0:0:0:
288,96,310492,1,8,0:0:0:0:
288,96,310659,1,0,0:0:0:0:
288,96,310825,1,8,0:0:0:0:
288,96,311159,1,0,0:0:0:0:
288,96,311325,1,8,0:0:0:0:
288,96,311492,1,0,0:0:0:0:
288,96,311825,1,8,0:0:0:0:
288,96,311992,1,0,0:0:0:0:
288,96,312159,1,8,0:0:0:0:
288,64,312492,1,8,0:0:0:0:
288,64,312825,1,8,0:0:0:0:
288,64,313159,1,8,0:0:0:0:
288,64,313492,1,8,0:0:0:0:
288,64,313825,1,8,0:0:0:0:
288,64,314159,1,8,0:0:0:0:
288,64,314492,1,8,0:0:0:0:
288,64,314825,1,8,0:0:0:0:
288,64,314992,1,4,0:0:0:0:
256,96,315325,1,8,0:0:0:0:
256,96,315409,1,0,0:0:0:0:
256,96,315575,1,0,0:0:0:0:
256,96,315659,1,8,0:0:0:0:
256,96,315825,1,0,0:0:0:0:
256,96,315992,1,8,0:0:0:0:
256,96,316159,1,8,0:0:0:0:
256,96,316325,1,0,0:0:0:0:
256,96,316492,1,8,0:0:0:0:
256,96,316659,1,0,0:0:0:0:
256,96,316742,1,8,0:0:0:0:
256,96,316909,1,8,0:0:0:0:
256,96,316992,1,0,0:0:0:0:
256,96,317159,1,0,0:0:0:0:
269,96,317325,1,8,0:0:0:0:
256,96,317492,1,8,0:0:0:0:
256,96,317659,1,4,0:0:0:0:
256,96,317992,1,8,0:0:0:0:
256,96,318075,1,8,0:0:0:0:
256,96,318242,1,0,0:0:0:0:
256,96,318325,1,8,0:0:0:0:
256,96,318492,1,0,0:0:0:0:
256,96,318659,1,8,0:0:0:0:
256,96,318825,1,8,0:0:0:0:
256,96,318992,1,0,0:0:0:0:
256,96,319159,1,8,0:0:0:0:
256,96,319325,1,0,0:0:0:0:
256,96,319409,1,0,0:0:0:0:
256,96,319575,1,8,0:0:0:0:
256,96,319659,1,0,0:0:0:0:
256,64,319825,1,0,0:0:0:0:
256,64,319992,1,8,0:0:0:0:
256,64,320159,1,8,0:0:0:0:
256,64,320325,1,4,0:0:0:0:
224,64,320492,1,8,0:0:0:0:
224,64,320575,1,0,0:0:0:0:
224,64,320659,1,8,0:0:0:0:
224,64,320825,1,0,0:0:0:0:
224,64,320992,1,8,0:0:0:0:
224,64,321159,1,0,0:0:0:0:
224,64,321242,1,0,0:0:0:0:
224,64,321325,1,8,0:0:0:0:
224,64,321492,1,8,0:0:0:0:
224,64,321659,1,4,0:0:0:0:
224,64,321825,1,8,0:0:0:0:
224,64,321909,1,0,0:0:0:0:
224,64,321992,1,8,0:0:0:0:
224,64,322159,1,0,0:0:0:0:
224,64,322325,1,8,0:0:0:0:
224,64,322492,1,0,0:0:0:0:
224,64,322575,1,0,0:0:0:0:
224,64,322659,1,8,0:0:0:0:
224,64,322825,1,8,0:0:0:0:
224,64,322992,1,8,0:0:0:0:
224,64,323075,1,0,0:0:0:0:
224,64,323159,1,0,0:0:0:0:
224,64,323242,1,0,0:0:0:0:
224,64,323325,1,8,0:0:0:0:
224,64,323492,1,0,0:0:0:0:
256,192,323659,1,8,0:0:0:0:
256,192,323742,1,8,0:0:0:0:
256,192,323825,1,0,0:0:0:0:
256,192,323909,1,0,0:0:0:0:
256,192,323992,1,8,0:0:0:0:
256,192,324075,1,0,0:0:0:0:
256,192,324159,1,8,0:0:0:0:
256,192,324325,1,4,0:0:0:0:
224,96,324659,1,8,0:0:0:0:
224,96,324825,1,0,0:0:0:0:
224,96,324992,1,0,0:0:0:0:
224,96,325075,1,8,0:0:0:0:
224,96,325159,1,8,0:0:0:0:
224,96,325242,1,0,0:0:0:0:
224,96,325325,1,8,0:0:0:0:
224,96,325492,1,8,0:0:0:0:
224,96,325659,1,4,0:0:0:0:
256,96,327159,1,8,0:0:0:0:
256,96,327325,1,8,0:0:0:0:
256,96,327659,1,0,0:0:0:0:
256,96,327825,1,8,0:0:0:0:
256,96,327992,1,0,0:0:0:0:
256,96,328159,1,0,0:0:0:0:
256,96,328325,1,4,0:0:0:0:
