osu file format v14

[General]
AudioFilename: audio.mp3
AudioLeadIn: 0
PreviewTime: 85688
Countdown: 0
SampleSet: Normal
StackLeniency: 0.7
Mode: 1
LetterboxInBreaks: 0
WidescreenStoryboard: 1

[Editor]
DistanceSpacing: 1
BeatDivisor: 4
GridSize: 32
TimelineZoom: 2

[Metadata]
Title:Finder(Extended Mix)
TitleUnicode:Finder(Extended Mix)
Artist:Asterisk
ArtistUnicode:Asterisk
Creator:EdamaMe411
Version:komasy's Oni
Source:
Tags:tjbc komasy
BeatmapID:1356558
BeatmapSetID:639640

[Difficulty]
HPDrainRate:6
CircleSize:5
OverallDifficulty:6
ApproachRate:5
SliderMultiplier:1.4
SliderTickRate:2

[Events]
//Background and Video events
0,0,"Finder.png",0,-45
//Break Periods
//Storyboard Layer 0 (Background)
//Storyboard Layer 1 (Fail)
//Storyboard Layer 2 (Pass)
//Storyboard Layer 3 (Foreground)
//Storyboard Sound Samples

[TimingPoints]
355,333.333333333333,4,1,0,80,1,0
21604,-100,4,1,0,85,0,0
43188,-100,4,1,0,50,0,0
47771,-100,4,1,0,70,0,0
49688,-100,4,1,0,75,0,0
50938,-100,4,1,0,80,0,0
53604,-100,4,1,0,85,0,0
64271,-100,4,1,0,95,0,0
64354,-100,4,1,0,95,0,1
84354,-100,4,1,0,95,0,0
86021,-100,4,1,0,95,0,1
107021,-100,4,1,0,95,0,0

[HitObjects]
288,192,355,5,4,0:0:0:0:
416,224,688,1,0,0:0:0:0:
384,224,854,1,8,0:0:0:0:
288,160,1021,1,0,0:0:0:0:
288,160,1188,1,8,0:0:0:0:
288,160,1354,1,0,0:0:0:0:
256,192,1438,1,0,0:0:0:0:
256,64,1521,1,8,0:0:0:0:
288,128,1688,1,0,0:0:0:0:
352,224,2021,1,0,0:0:0:0:
352,224,2188,1,8,0:0:0:0:
288,128,2354,1,0,0:0:0:0:
288,160,2438,1,8,0:0:0:0:
320,224,2604,1,8,0:0:0:0:
352,224,2688,1,0,0:0:0:0:
384,288,2854,1,8,0:0:0:0:
288,128,3021,1,0,0:0:0:0:
352,224,3354,1,8,0:0:0:0:
288,128,3688,1,0,0:0:0:0:
256,160,3854,1,8,0:0:0:0:
352,256,3938,1,8,0:0:0:0:
352,224,4021,1,0,0:0:0:0:
352,288,4188,1,8,0:0:0:0:
288,128,4354,1,0,0:0:0:0:
352,288,4438,1,8,0:0:0:0:
352,288,4521,1,8,0:0:0:0:
352,224,4688,1,0,0:0:0:0:
288,256,4854,1,8,0:0:0:0:
288,128,5021,1,0,0:0:0:0:
416,224,5188,1,8,0:0:0:0:
352,96,5688,1,0,0:0:0:0:
416,224,6021,1,0,0:0:0:0:
320,192,6188,1,8,0:0:0:0:
288,160,6354,1,0,0:0:0:0:
288,160,6521,1,8,0:0:0:0:
288,160,6687,1,0,0:0:0:0:
256,192,6771,1,0,0:0:0:0:
256,64,6854,1,8,0:0:0:0:
288,128,7021,1,0,0:0:0:0:
352,224,7354,1,0,0:0:0:0:
352,224,7521,1,8,0:0:0:0:
288,128,7687,1,0,0:0:0:0:
288,160,7771,1,8,0:0:0:0:
320,224,7937,1,8,0:0:0:0:
352,224,8021,1,0,0:0:0:0:
384,288,8187,1,8,0:0:0:0:
288,128,8354,1,0,0:0:0:0:
352,224,8687,1,8,0:0:0:0:
288,128,9021,1,0,0:0:0:0:
256,160,9187,1,8,0:0:0:0:
352,256,9271,1,8,0:0:0:0:
352,224,9354,1,0,0:0:0:0:
352,288,9521,1,8,0:0:0:0:
288,128,9687,1,0,0:0:0:0:
352,288,9771,1,8,0:0:0:0:
352,288,9854,5,8,0:0:0:0:
352,224,10021,1,0,0:0:0:0:
288,256,10187,1,8,0:0:0:0:
32,224,11021,5,8,0:0:0:0:
96,224,11188,1,8,0:0:0:0:
160,224,11354,1,4,0:0:0:0:
224,128,11604,1,8,0:0:0:0:
256,128,11688,1,0,0:0:0:0:
320,96,11854,1,8,0:0:0:0:
256,128,12021,1,0,0:0:0:0:
288,128,12104,1,0,0:0:0:0:
288,96,12188,1,8,0:0:0:0:
256,160,12354,1,0,0:0:0:0:
288,192,12521,1,8,0:0:0:0:
288,192,12688,1,0,0:0:0:0:
320,128,12854,1,8,0:0:0:0:
320,128,12938,1,8,0:0:0:0:
128,160,13021,1,0,0:0:0:0:
160,160,13104,1,8,0:0:0:0:
224,128,13271,1,8,0:0:0:0:
256,96,13354,1,0,0:0:0:0:
320,96,13521,1,8,0:0:0:0:
128,160,13688,1,4,0:0:0:0:
224,160,14021,1,8,0:0:0:0:
128,160,14354,1,0,0:0:0:0:
192,160,14521,1,8,0:0:0:0:
288,96,14604,1,8,0:0:0:0:
256,96,14688,1,0,0:0:0:0:
256,96,14854,1,8,0:0:0:0:
128,160,15021,1,0,0:0:0:0:
256,96,15104,1,8,0:0:0:0:
256,96,15188,1,8,0:0:0:0:
256,96,15354,1,0,0:0:0:0:
256,96,15521,1,8,0:0:0:0:
128,160,15688,1,0,0:0:0:0:
160,160,15771,1,0,0:0:0:0:
192,160,15854,1,8,0:0:0:0:
384,32,16354,1,4,0:0:0:0:
352,96,16521,1,8,0:0:0:0:
320,160,16688,1,0,0:0:0:0:
288,192,16771,1,8,0:0:0:0:
288,224,16854,1,8,0:0:0:0:
288,224,17021,1,0,0:0:0:0:
288,224,17188,1,8,0:0:0:0:
288,224,17271,1,8,0:0:0:0:
288,224,17354,1,0,0:0:0:0:
288,224,17521,1,8,0:0:0:0:
288,160,17688,1,4,0:0:0:0:
352,128,17854,1,8,0:0:0:0:
416,96,18021,1,0,0:0:0:0:
384,96,18104,1,8,0:0:0:0:
384,128,18188,1,8,0:0:0:0:
320,128,18354,1,0,0:0:0:0:
256,160,18521,1,8,0:0:0:0:
416,160,19021,1,4,0:0:0:0:
352,160,19188,1,8,0:0:0:0:
352,160,19271,1,8,0:0:0:0:
352,160,19354,1,0,0:0:0:0:
352,160,19521,1,8,0:0:0:0:
352,160,19688,1,0,0:0:0:0:
352,128,19771,1,0,0:0:0:0:
384,128,19854,1,8,0:0:0:0:
448,128,19938,1,8,0:0:0:0:
416,128,20021,1,0,0:0:0:0:
384,160,20104,1,8,0:0:0:0:
448,128,20188,1,8,0:0:0:0:
448,128,20271,1,8,0:0:0:0:
416,128,20354,1,0,0:0:0:0:
32,288,21354,1,12,0:0:0:0:
160,224,21688,1,4,0:0:0:0:
288,160,22021,1,0,0:0:0:0:
320,160,22104,1,8,0:0:0:0:
352,128,22188,1,8,0:0:0:0:
288,160,22354,1,0,0:0:0:0:
352,128,22521,1,0,0:0:0:0:
352,128,22688,1,8,0:0:0:0:
288,64,22938,1,8,0:0:0:0:
352,128,23021,1,0,0:0:0:0:
288,192,23188,1,8,0:0:0:0:
288,192,23354,1,0,0:0:0:0:
256,224,23438,1,8,0:0:0:0:
256,224,23521,1,0,0:0:0:0:
320,192,23688,1,8,0:0:0:0:
320,224,23854,1,0,0:0:0:0:
320,224,23938,1,0,0:0:0:0:
320,224,24021,1,8,0:0:0:0:
256,96,24354,1,0,0:0:0:0:
256,128,24688,1,8,0:0:0:0:
320,96,24854,1,0,0:0:0:0:
288,128,25021,1,8,0:0:0:0:
288,128,25104,1,8,0:0:0:0:
288,128,25188,1,0,0:0:0:0:
352,160,25354,1,8,0:0:0:0:
288,192,25521,1,0,0:0:0:0:
288,192,25854,1,0,0:0:0:0:
288,192,26021,1,8,0:0:0:0:
320,128,26188,1,0,0:0:0:0:
352,96,26271,1,0,0:0:0:0:
352,96,26354,1,8,0:0:0:0:
320,128,26521,1,0,0:0:0:0:
320,192,26688,1,8,0:0:0:0:
320,192,26854,1,8,0:0:0:0:
160,224,27021,1,0,0:0:0:0:
288,160,27354,1,0,0:0:0:0:
320,160,27437,1,8,0:0:0:0:
352,128,27521,1,8,0:0:0:0:
288,160,27687,1,0,0:0:0:0:
352,128,27854,1,0,0:0:0:0:
352,128,28021,1,8,0:0:0:0:
288,64,28271,1,8,0:0:0:0:
352,128,28354,1,0,0:0:0:0:
288,192,28521,1,8,0:0:0:0:
288,192,28687,1,0,0:0:0:0:
256,224,28771,1,8,0:0:0:0:
256,224,28854,1,0,0:0:0:0:
320,192,29021,1,8,0:0:0:0:
320,224,29187,1,0,0:0:0:0:
320,224,29271,1,0,0:0:0:0:
320,224,29354,1,8,0:0:0:0:
288,192,29521,1,8,0:0:0:0:
256,96,29687,1,0,0:0:0:0:
256,128,30021,1,8,0:0:0:0:
320,96,30187,1,0,0:0:0:0:
288,128,30354,1,8,0:0:0:0:
288,128,30437,1,8,0:0:0:0:
288,128,30521,1,0,0:0:0:0:
352,160,30687,1,8,0:0:0:0:
256,160,30854,1,8,0:0:0:0:
352,128,31021,1,4,0:0:0:0:
448,32,31354,1,8,0:0:0:0:
320,160,31521,1,0,0:0:0:0:
320,160,31688,1,8,0:0:0:0:
320,160,31771,1,8,0:0:0:0:
320,160,31854,1,0,0:0:0:0:
320,160,32021,1,8,0:0:0:0:
352,96,32188,1,8,0:0:0:0:
320,288,32688,1,12,0:0:0:0:
288,160,33021,1,8,0:0:0:0:
320,224,33188,1,0,0:0:0:0:
288,32,33354,1,8,0:0:0:0:
288,64,33438,1,0,0:0:0:0:
288,96,33521,1,0,0:0:0:0:
288,160,33688,1,8,0:0:0:0:
320,192,33938,1,0,0:0:0:0:
288,32,34021,1,8,0:0:0:0:
288,96,34188,1,0,0:0:0:0:
288,160,34354,1,8,0:0:0:0:
320,192,34521,1,0,0:0:0:0:
288,160,34604,1,0,0:0:0:0:
288,32,34688,1,8,0:0:0:0:
320,192,34854,1,0,0:0:0:0:
288,160,35021,1,12,0:0:0:0:
288,32,35354,1,8,0:0:0:0:
256,96,35521,1,0,0:0:0:0:
288,160,35688,1,8,0:0:0:0:
256,160,35771,1,0,0:0:0:0:
256,160,35854,1,0,0:0:0:0:
288,32,36021,1,8,0:0:0:0:
256,96,36188,1,8,0:0:0:0:
224,160,36521,1,0,0:0:0:0:
288,32,36688,1,8,0:0:0:0:
288,64,36854,1,0,0:0:0:0:
256,128,36938,1,0,0:0:0:0:
288,160,37021,1,8,0:0:0:0:
224,160,37188,1,0,0:0:0:0:
288,0,37354,1,8,0:0:0:0:
288,32,37438,1,8,0:0:0:0:
288,64,37521,1,0,0:0:0:0:
288,128,37688,1,4,0:0:0:0:
320,96,37854,1,8,0:0:0:0:
352,64,38021,1,8,0:0:0:0:
384,128,38188,1,8,0:0:0:0:
384,64,38354,1,0,0:0:0:0:
384,64,38521,1,8,0:0:0:0:
384,64,38688,1,0,0:0:0:0:
352,96,38771,1,0,0:0:0:0:
384,64,38854,1,8,0:0:0:0:
384,64,39021,1,4,0:0:0:0:
384,64,39188,1,8,0:0:0:0:
384,64,39354,1,8,0:0:0:0:
352,128,39521,1,8,0:0:0:0:
384,64,39688,1,0,0:0:0:0:
384,64,39854,1,8,0:0:0:0:
352,96,39938,1,8,0:0:0:0:
416,128,40021,1,0,0:0:0:0:
352,96,40105,1,0,0:0:0:0:
384,64,40188,1,8,0:0:0:0:
384,64,40354,1,4,0:0:0:0:
352,0,40521,1,8,0:0:0:0:
352,32,40604,1,8,0:0:0:0:
224,64,40688,1,8,0:0:0:0:
288,64,40854,1,8,0:0:0:0:
224,64,41021,1,4,0:0:0:0:
288,64,41188,1,8,0:0:0:0:
288,64,41354,1,8,0:0:0:0:
320,64,41438,1,8,0:0:0:0:
352,64,41521,1,8,0:0:0:0:
352,96,41604,1,8,0:0:0:0:
352,128,41688,1,0,0:0:0:0:
384,160,42521,1,8,0:0:0:0:
352,192,42604,1,8,0:0:0:0:
384,160,42688,1,8,0:0:0:0:
352,192,42771,1,8,0:0:0:0:
384,160,42854,1,8,0:0:0:0:
416,224,43021,5,4,0:0:0:0:
256,192,43188,12,8,47688,0:0:0:0:
320,64,48021,5,8,0:0:0:0:
288,96,48104,5,8,0:0:0:0:
320,64,48188,1,8,0:0:0:0:
320,96,48271,1,8,0:0:0:0:
384,128,48688,1,8,0:0:0:0:
384,128,49021,1,0,0:0:0:0:
384,128,49354,1,8,0:0:0:0:
352,224,50021,1,8,0:0:0:0:
288,160,50354,1,0,0:0:0:0:
288,160,50688,1,8,0:0:0:0:
352,160,50854,1,0,0:0:0:0:
288,128,51021,1,8,0:0:0:0:
384,192,51354,5,8,0:0:0:0:
288,128,51688,1,8,0:0:0:0:
384,192,52021,1,8,0:0:0:0:
320,160,52354,5,4,0:0:0:0:
224,64,52688,1,8,0:0:0:0:
352,128,53021,1,8,0:0:0:0:
288,160,53688,1,4,0:0:0:0:
384,64,54021,1,8,0:0:0:0:
320,96,54354,1,0,0:0:0:0:
320,96,54521,1,0,0:0:0:0:
320,96,54688,1,8,0:0:0:0:
320,96,55021,1,0,0:0:0:0:
352,64,55354,1,8,0:0:0:0:
352,128,55521,1,8,0:0:0:0:
352,64,55688,1,0,0:0:0:0:
352,128,55854,1,0,0:0:0:0:
352,64,56021,1,8,0:0:0:0:
256,128,56354,1,0,0:0:0:0:
384,96,56688,1,8,0:0:0:0:
384,96,57021,1,0,0:0:0:0:
384,96,57188,1,0,0:0:0:0:
384,96,57354,1,8,0:0:0:0:
384,128,57688,1,0,0:0:0:0:
384,128,58021,1,8,0:0:0:0:
320,160,58188,1,8,0:0:0:0:
352,128,58354,1,0,0:0:0:0:
352,128,58521,1,0,0:0:0:0:
352,128,58688,1,8,0:0:0:0:
352,128,58771,1,8,0:0:0:0:
352,128,58854,1,8,0:0:0:0:
320,160,59021,1,4,0:0:0:0:
320,160,59354,1,8,0:0:0:0:
320,128,59688,1,0,0:0:0:0:
384,192,59854,1,0,0:0:0:0:
320,160,60021,1,8,0:0:0:0:
384,192,60188,1,8,0:0:0:0:
416,224,60354,1,4,0:0:0:0:
384,192,60521,1,8,0:0:0:0:
288,96,60854,1,8,0:0:0:0:
224,64,61021,1,0,0:0:0:0:
160,32,61188,1,8,0:0:0:0:
160,64,61271,1,8,0:0:0:0:
320,160,61354,1,8,0:0:0:0:
288,96,61521,1,8,0:0:0:0:
416,192,61688,5,4,0:0:0:0:
480,160,61854,1,8,0:0:0:0:
448,160,61938,1,8,0:0:0:0:
416,128,62021,1,0,0:0:0:0:
448,192,62188,1,8,0:0:0:0:
416,192,62354,1,4,0:0:0:0:
320,192,62521,1,8,0:0:0:0:
352,192,62604,1,8,0:0:0:0:
352,160,62688,1,0,0:0:0:0:
320,128,62771,1,0,0:0:0:0:
352,192,62854,1,8,0:0:0:0:
352,192,63021,1,4,0:0:0:0:
384,192,63688,5,8,0:0:0:0:
416,192,63771,1,0,0:0:0:0:
384,224,63854,1,0,0:0:0:0:
352,192,64021,5,12,0:0:0:0:
288,160,64354,5,4,0:0:0:0:
160,192,64688,1,8,0:0:0:0:
224,192,64854,1,0,0:0:0:0:
288,192,65021,1,8,0:0:0:0:
320,192,65104,1,0,0:0:0:0:
352,192,65188,1,0,0:0:0:0:
416,192,65354,1,8,0:0:0:0:
416,192,65521,1,0,0:0:0:0:
384,160,65604,1,0,0:0:0:0:
384,160,65688,1,0,0:0:0:0:
416,192,65854,1,0,0:0:0:0:
384,160,66021,1,8,0:0:0:0:
384,160,66188,1,0,0:0:0:0:
384,160,66271,1,0,0:0:0:0:
384,160,66354,1,8,0:0:0:0:
448,192,66521,1,0,0:0:0:0:
384,160,66688,1,8,0:0:0:0:
416,192,66854,1,8,0:0:0:0:
416,192,67021,1,0,0:0:0:0:
448,64,67354,1,8,0:0:0:0:
416,128,67521,1,0,0:0:0:0:
416,192,67688,1,8,0:0:0:0:
416,160,67771,1,0,0:0:0:0:
416,160,67854,1,0,0:0:0:0:
416,160,68021,1,8,0:0:0:0:
416,160,68188,1,8,0:0:0:0:
416,128,68354,1,0,0:0:0:0:
416,128,68521,1,8,0:0:0:0:
416,128,68604,1,8,0:0:0:0:
416,128,68688,1,0,0:0:0:0:
416,128,68854,1,8,0:0:0:0:
416,128,69021,1,0,0:0:0:0:
416,128,69104,1,8,0:0:0:0:
416,128,69188,1,8,0:0:0:0:
416,128,69271,1,8,0:0:0:0:
416,128,69354,1,0,0:0:0:0:
416,128,69521,1,8,0:0:0:0:
288,160,69688,5,0,0:0:0:0:
160,192,70022,1,8,0:0:0:0:
224,192,70188,1,0,0:0:0:0:
288,192,70355,1,8,0:0:0:0:
320,192,70438,1,0,0:0:0:0:
352,192,70522,1,0,0:0:0:0:
416,192,70688,1,8,0:0:0:0:
416,192,70855,1,0,0:0:0:0:
416,192,70938,1,0,0:0:0:0:
384,160,71021,1,0,0:0:0:0:
416,192,71188,1,0,0:0:0:0:
384,160,71355,1,8,0:0:0:0:
384,160,71522,1,0,0:0:0:0:
384,160,71605,1,8,0:0:0:0:
384,160,71688,1,8,0:0:0:0:
448,192,71855,1,0,0:0:0:0:
384,160,72022,1,8,0:0:0:0:
416,192,72188,1,8,0:0:0:0:
416,192,72355,1,0,0:0:0:0:
448,64,72688,1,8,0:0:0:0:
416,128,72855,1,0,0:0:0:0:
416,192,73022,1,8,0:0:0:0:
416,160,73105,1,0,0:0:0:0:
416,160,73188,1,0,0:0:0:0:
416,160,73355,1,8,0:0:0:0:
416,160,73522,1,8,0:0:0:0:
352,128,73688,1,4,0:0:0:0:
320,64,73854,1,8,0:0:0:0:
320,64,74188,1,8,0:0:0:0:
320,64,74521,1,8,0:0:0:0:
320,64,74688,1,8,0:0:0:0:
288,128,74854,1,8,0:0:0:0:
352,96,75021,1,4,0:0:0:0:
288,128,75188,1,8,0:0:0:0:
352,96,75354,1,0,0:0:0:0:
320,96,75438,1,8,0:0:0:0:
288,128,75604,1,8,0:0:0:0:
288,160,75688,1,0,0:0:0:0:
352,96,75854,1,0,0:0:0:0:
352,96,76021,1,8,0:0:0:0:
352,96,76188,1,8,0:0:0:0:
352,96,76354,1,0,0:0:0:0:
352,96,76521,1,8,0:0:0:0:
352,96,76688,1,0,0:0:0:0:
352,96,76771,1,8,0:0:0:0:
352,96,76938,1,8,0:0:0:0:
352,96,77021,1,0,0:0:0:0:
352,160,77188,1,8,0:0:0:0:
352,128,77271,1,8,0:0:0:0:
352,160,77354,1,0,0:0:0:0:
352,160,77521,1,8,0:0:0:0:
352,160,77688,1,4,0:0:0:0:
352,160,77854,1,8,0:0:0:0:
352,160,78021,1,0,0:0:0:0:
352,160,78104,1,8,0:0:0:0:
352,160,78271,1,8,0:0:0:0:
352,160,78354,1,0,0:0:0:0:
352,96,78521,1,0,0:0:0:0:
352,32,78688,1,8,0:0:0:0:
352,160,78854,1,8,0:0:0:0:
352,96,79021,1,0,0:0:0:0:
352,32,79188,1,8,0:0:0:0:
352,160,79354,1,0,0:0:0:0:
352,160,79438,1,8,0:0:0:0:
352,96,79604,1,8,0:0:0:0:
352,128,79688,1,0,0:0:0:0:
352,128,79854,1,0,0:0:0:0:
352,96,79938,1,0,0:0:0:0:
352,128,80021,1,8,0:0:0:0:
352,128,80188,1,8,0:0:0:0:
352,128,80354,1,4,0:0:0:0:
288,160,80521,1,4,0:0:0:0:
256,96,80688,1,8,0:0:0:0:
288,128,80771,1,8,0:0:0:0:
288,160,80854,1,8,0:0:0:0:
448,32,81021,1,4,0:0:0:0:
416,64,81188,1,4,0:0:0:0:
352,96,81354,1,8,0:0:0:0:
320,96,81438,1,8,0:0:0:0:
288,128,81521,1,8,0:0:0:0:
256,192,81688,1,4,0:0:0:0:
320,128,81938,1,4,0:0:0:0:
256,224,82188,1,4,0:0:0:0:
288,128,82354,1,0,0:0:0:0:
288,128,82438,1,0,0:0:0:0:
288,128,82521,1,0,0:0:0:0:
288,128,82604,1,0,0:0:0:0:
288,128,82688,1,8,0:0:0:0:
224,96,82854,1,8,0:0:0:0:
288,96,83021,1,4,0:0:0:0:
320,128,83188,1,4,0:0:0:0:
288,96,83354,1,4,0:0:0:0:
288,128,83521,1,4,0:0:0:0:
288,128,83688,1,8,0:0:0:0:
320,128,83771,1,8,0:0:0:0:
288,128,83854,1,8,0:0:0:0:
288,128,83938,1,8,0:0:0:0:
320,128,84021,1,0,0:0:0:0:
256,64,84104,1,0,0:0:0:0:
288,64,84188,1,8,0:0:0:0:
352,64,84354,1,4,0:0:0:0:
416,224,85188,1,8,0:0:0:0:
416,224,85271,1,8,0:0:0:0:
416,224,85354,1,8,0:0:0:0:
416,224,85521,1,8,0:0:0:0:
352,96,85688,1,0,0:0:0:0:
384,128,85854,1,0,0:0:0:0:
416,192,86021,1,12,0:0:0:0:
288,128,86354,1,0,0:0:0:0:
352,192,86521,1,0,0:0:0:0:
320,128,86604,1,0,0:0:0:0:
352,160,86688,1,8,0:0:0:0:
352,160,87021,1,0,0:0:0:0:
352,160,87188,1,8,0:0:0:0:
352,160,87271,1,8,0:0:0:0:
352,160,87354,1,0,0:0:0:0:
352,160,87521,1,8,0:0:0:0:
352,160,87688,1,0,0:0:0:0:
352,160,87771,1,8,0:0:0:0:
352,160,87854,1,0,0:0:0:0:
352,160,88021,1,8,0:0:0:0:
320,96,88188,1,8,0:0:0:0:
320,96,88271,1,8,0:0:0:0:
320,96,88354,1,0,0:0:0:0:
320,96,88521,1,8,0:0:0:0:
224,128,88688,1,0,0:0:0:0:
256,96,88771,1,0,0:0:0:0:
224,160,88854,1,8,0:0:0:0:
224,96,89021,1,0,0:0:0:0:
224,96,89188,1,8,0:0:0:0:
224,96,89271,1,0,0:0:0:0:
256,96,89354,1,8,0:0:0:0:
320,96,89521,1,8,0:0:0:0:
320,96,89688,1,0,0:0:0:0:
320,96,89771,1,0,0:0:0:0:
320,96,89854,1,8,0:0:0:0:
320,96,90021,1,0,0:0:0:0:
320,96,90104,1,0,0:0:0:0:
320,96,90188,1,8,0:0:0:0:
320,96,90271,1,8,0:0:0:0:
320,96,90354,1,0,0:0:0:0:
320,96,90521,1,0,0:0:0:0:
320,96,90688,1,8,0:0:0:0:
320,96,90771,1,8,0:0:0:0:
320,96,90854,1,8,0:0:0:0:
320,96,90938,1,8,0:0:0:0:
320,96,91021,1,0,0:0:0:0:
352,256,91354,1,0,0:0:0:0:
352,192,91521,1,8,0:0:0:0:
384,192,91604,1,8,0:0:0:0:
416,192,91688,1,0,0:0:0:0:
416,192,91854,1,8,0:0:0:0:
416,192,92021,1,0,0:0:0:0:
416,192,92104,1,0,0:0:0:0:
416,192,92188,1,8,0:0:0:0:
416,192,92354,1,0,0:0:0:0:
416,192,92521,1,8,0:0:0:0:
416,192,92604,1,8,0:0:0:0:
416,192,92688,1,0,0:0:0:0:
416,192,92771,1,0,0:0:0:0:
416,192,92854,1,8,0:0:0:0:
416,192,93021,1,0,0:0:0:0:
416,192,93188,1,0,0:0:0:0:
320,160,93271,1,0,0:0:0:0:
416,192,93354,1,8,0:0:0:0:
416,192,93521,1,0,0:0:0:0:
416,192,93688,1,12,0:0:0:0:
288,128,94021,1,12,0:0:0:0:
160,128,94354,1,12,0:0:0:0:
288,128,94688,1,12,0:0:0:0:
448,192,95021,1,4,0:0:0:0:
384,96,95271,1,0,0:0:0:0:
224,128,95354,1,8,0:0:0:0:
288,96,95521,1,0,0:0:0:0:
192,64,95688,1,8,0:0:0:0:
352,96,96354,1,4,0:0:0:0:
416,192,96687,1,8,0:0:0:0:
352,160,96854,1,0,0:0:0:0:
288,128,97020,1,0,0:0:0:0:
352,160,97104,1,0,0:0:0:0:
352,160,97187,1,8,0:0:0:0:
352,160,97354,1,8,0:0:0:0:
352,160,97687,1,0,0:0:0:0:
352,160,97854,1,8,0:0:0:0:
352,160,97937,1,8,0:0:0:0:
352,160,98020,1,0,0:0:0:0:
352,160,98187,1,8,0:0:0:0:
352,160,98354,1,0,0:0:0:0:
352,160,98437,1,8,0:0:0:0:
352,160,98520,1,0,0:0:0:0:
352,160,98687,1,8,0:0:0:0:
320,96,99020,1,0,0:0:0:0:
320,96,99187,1,8,0:0:0:0:
224,128,99354,1,0,0:0:0:0:
256,96,99437,1,0,0:0:0:0:
224,160,99520,1,8,0:0:0:0:
224,96,99687,1,0,0:0:0:0:
224,96,99854,1,8,0:0:0:0:
224,96,99937,1,0,0:0:0:0:
256,96,100020,1,8,0:0:0:0:
320,96,100187,1,8,0:0:0:0:
320,96,100354,1,0,0:0:0:0:
320,96,100437,1,0,0:0:0:0:
320,96,100520,1,8,0:0:0:0:
320,96,100687,1,0,0:0:0:0:
320,96,100854,1,8,0:0:0:0:
320,96,100937,1,8,0:0:0:0:
320,96,101020,1,0,0:0:0:0:
320,96,101187,1,8,0:0:0:0:
384,160,101271,1,8,0:0:0:0:
320,128,101354,1,0,0:0:0:0:
256,96,101521,1,8,0:0:0:0:
320,96,101687,1,4,0:0:0:0:
256,160,101938,1,8,0:0:0:0:
352,256,102020,1,0,0:0:0:0:
352,192,102187,1,0,0:0:0:0:
416,192,102354,1,0,0:0:0:0:
416,192,102520,1,8,0:0:0:0:
416,192,102604,1,8,0:0:0:0:
416,192,102687,1,0,0:0:0:0:
416,192,102854,1,0,0:0:0:0:
416,192,103020,1,0,0:0:0:0:
416,192,103187,1,8,0:0:0:0:
416,192,103271,1,8,0:0:0:0:
416,192,103354,1,0,0:0:0:0:
384,160,103438,1,8,0:0:0:0:
416,192,103521,1,0,0:0:0:0:
416,192,103687,1,0,0:0:0:0:
416,192,103854,1,8,0:0:0:0:
416,192,103938,1,8,0:0:0:0:
384,160,104020,1,0,0:0:0:0:
416,160,104104,1,8,0:0:0:0:
416,192,104187,1,0,0:0:0:0:
416,192,104354,1,12,0:0:0:0:
480,160,104604,1,0,0:0:0:0:
480,160,104687,1,8,0:0:0:0:
416,160,104854,1,0,0:0:0:0:
352,192,105020,1,8,0:0:0:0:
320,160,105104,1,0,0:0:0:0:
288,224,105187,1,0,0:0:0:0:
320,192,105271,1,0,0:0:0:0:
320,192,105354,1,8,0:0:0:0:
320,192,105520,1,0,0:0:0:0:
352,224,105687,1,12,0:0:0:0:
224,128,106020,1,12,0:0:0:0:
192,64,106354,1,12,0:0:0:0:
256,160,106604,1,8,0:0:0:0:
288,192,106688,1,8,0:0:0:0:
320,224,106771,1,8,0:0:0:0:
320,224,106854,1,8,0:0:0:0:
352,128,107021,1,4,0:0:0:0:
