osu file format v14

[General]
AudioFilename: audio.mp3
AudioLeadIn: 0
PreviewTime: 85688
Countdown: 0
SampleSet: Normal
StackLeniency: 0.7
Mode: 1
LetterboxInBreaks: 0
WidescreenStoryboard: 1

[Editor]
Bookmarks: 2979,5479,8312
DistanceSpacing: 1
BeatDivisor: 2
GridSize: 32
TimelineZoom: 0.6999999

[Metadata]
Title:Finder(Extended Mix)
TitleUnicode:Finder(Extended Mix)
Artist:Asterisk
ArtistUnicode:Asterisk
Creator:EdamaMe411
Version:Kantan
Source:
Tags:tjbc komasy
BeatmapID:1379761
BeatmapSetID:639640

[Difficulty]
HPDrainRate:8
CircleSize:5
OverallDifficulty:3
ApproachRate:5
SliderMultiplier:1.4
SliderTickRate:2

[Events]
//Background and Video events
0,0,"Finder.png",0,-45
//Break Periods
//Storyboard Layer 0 (Background)
//Storyboard Layer 1 (Fail)
//Storyboard Layer 2 (Pass)
//Storyboard Layer 3 (Foreground)
//Storyboard Sound Samples

[TimingPoints]
355,333.333333333333,4,1,0,80,1,0
43188,-100,4,1,0,50,0,0
51021,-100,4,1,0,60,0,0
51688,-100,4,1,0,70,0,0
52354,-100,4,1,0,80,0,0
64354,-100,4,1,0,90,0,1
84354,-100,4,1,0,90,0,0
86021,-100,4,1,0,90,0,1
107021,-100,4,1,0,80,0,0

[HitObjects]
288,192,355,5,4,0:0:0:0:
416,224,1022,1,8,0:0:0:0:
320,256,1688,1,8,0:0:0:0:
288,128,3021,1,0,0:0:0:0:
288,128,3688,1,0,0:0:0:0:
352,288,4354,1,8,0:0:0:0:
352,96,5688,1,0,0:0:0:0:
416,224,6354,1,8,0:0:0:0:
288,160,7021,1,8,0:0:0:0:
288,128,8354,1,0,0:0:0:0:
288,128,9021,1,0,0:0:0:0:
288,128,9687,1,0,0:0:0:0:
288,256,10354,1,8,0:0:0:0:
160,224,11354,1,4,0:0:0:0:
288,192,12021,1,8,0:0:0:0:
224,160,12688,1,8,0:0:0:0:
256,96,13354,1,8,0:0:0:0:
128,160,13688,1,0,0:0:0:0:
128,160,14354,1,0,0:0:0:0:
128,160,15021,1,0,0:0:0:0:
288,192,15688,1,8,0:0:0:0:
384,32,16354,1,4,0:0:0:0:
288,160,17688,1,4,0:0:0:0:
416,160,19021,1,4,0:0:0:0:
352,160,19688,1,8,0:0:0:0:
416,128,20354,1,0,0:0:0:0:
32,288,21354,1,8,0:0:0:0:
160,224,21688,1,4,0:0:0:0:
352,128,22354,1,8,0:0:0:0:
352,128,23021,1,0,0:0:0:0:
256,224,23354,1,0,0:0:0:0:
320,224,23688,1,0,0:0:0:0:
256,96,24354,1,0,0:0:0:0:
288,192,25688,1,0,0:0:0:0:
352,96,26354,1,8,0:0:0:0:
320,192,26688,1,8,0:0:0:0:
160,224,27021,1,0,0:0:0:0:
352,128,27688,1,8,0:0:0:0:
352,128,28354,1,0,0:0:0:0:
256,224,28688,1,0,0:0:0:0:
320,224,29021,1,0,0:0:0:0:
256,96,29687,1,0,0:0:0:0:
320,160,31021,1,4,0:0:0:0:
288,160,31688,1,8,0:0:0:0:
320,160,32021,1,8,0:0:0:0:
320,288,32688,1,12,0:0:0:0:
288,160,33354,1,8,0:0:0:0:
288,96,34021,1,8,0:0:0:0:
320,192,34354,1,0,0:0:0:0:
256,96,35021,1,4,0:0:0:0:
224,160,36354,1,0,0:0:0:0:
288,32,36688,1,0,0:0:0:0:
288,160,37021,1,8,0:0:0:0:
288,128,37688,1,4,0:0:0:0:
384,64,39021,1,4,0:0:0:0:
384,64,39688,1,8,0:0:0:0:
384,64,40354,1,4,0:0:0:0:
224,64,40688,1,8,0:0:0:0:
224,64,41021,1,4,0:0:0:0:
352,128,41688,1,8,0:0:0:0:
416,224,43021,5,4,0:0:0:0:
256,192,43188,12,8,47688,0:0:0:0:
384,128,49021,5,8,0:0:0:0:
320,224,50354,1,8,0:0:0:0:
288,128,51021,1,0,0:0:0:0:
288,128,51688,1,0,0:0:0:0:
320,160,52354,5,4,0:0:0:0:
288,160,53688,1,4,0:0:0:0:
320,96,54354,1,8,0:0:0:0:
320,96,55021,1,0,0:0:0:0:
352,64,56354,1,0,0:0:0:0:
384,96,57021,1,8,0:0:0:0:
384,128,57688,1,8,0:0:0:0:
352,128,58021,1,8,0:0:0:0:
320,192,58354,1,8,0:0:0:0:
320,160,59021,1,4,0:0:0:0:
320,128,59688,1,8,0:0:0:0:
416,224,60354,1,0,0:0:0:0:
384,192,60688,1,0,0:0:0:0:
384,192,61021,1,8,0:0:0:0:
416,192,61688,5,4,0:0:0:0:
416,192,62354,1,0,0:0:0:0:
352,160,62688,1,0,0:0:0:0:
352,192,63021,1,8,0:0:0:0:
352,192,64021,5,12,0:0:0:0:
288,160,64354,5,4,0:0:0:0:
288,192,65021,1,8,0:0:0:0:
384,160,65688,1,0,0:0:0:0:
384,160,66021,1,0,0:0:0:0:
448,192,66354,1,8,0:0:0:0:
416,192,67021,1,0,0:0:0:0:
352,160,67688,1,8,0:0:0:0:
416,128,68354,1,0,0:0:0:0:
384,160,69021,1,8,0:0:0:0:
416,128,69354,1,8,0:0:0:0:
288,160,69688,5,0,0:0:0:0:
288,192,70355,1,8,0:0:0:0:
384,160,71021,1,0,0:0:0:0:
384,160,71355,1,0,0:0:0:0:
448,192,71688,1,8,0:0:0:0:
416,192,72355,1,0,0:0:0:0:
320,128,73021,1,8,0:0:0:0:
352,128,73688,1,4,0:0:0:0:
352,96,75021,1,4,0:0:0:0:
288,160,75688,1,8,0:0:0:0:
352,96,76354,1,0,0:0:0:0:
352,96,76688,1,0,0:0:0:0:
352,96,77021,1,8,0:0:0:0:
352,160,77688,1,0,0:0:0:0:
352,96,78354,1,8,0:0:0:0:
352,96,79021,1,0,0:0:0:0:
352,160,80021,1,8,0:0:0:0:
352,128,80354,1,4,0:0:0:0:
448,32,81021,1,4,0:0:0:0:
256,192,81688,1,4,0:0:0:0:
256,192,82354,1,4,0:0:0:0:
256,128,82688,1,4,0:0:0:0:
288,96,83021,1,4,0:0:0:0:
288,128,83688,1,8,0:0:0:0:
352,64,84354,1,0,0:0:0:0:
352,96,85688,1,0,0:0:0:0:
416,192,86021,1,12,0:0:0:0:
352,160,86688,1,8,0:0:0:0:
352,160,87021,1,0,0:0:0:0:
352,160,87354,1,8,0:0:0:0:
352,160,88021,1,8,0:0:0:0:
320,96,88354,1,0,0:0:0:0:
224,96,89021,1,8,0:0:0:0:
320,96,89688,1,0,0:0:0:0:
320,96,90021,1,0,0:0:0:0:
320,96,90354,1,8,0:0:0:0:
320,96,91021,1,0,0:0:0:0:
320,192,91688,1,8,0:0:0:0:
416,192,92354,1,8,0:0:0:0:
416,192,92688,1,8,0:0:0:0:
416,192,93021,1,0,0:0:0:0:
416,192,93688,1,0,0:0:0:0:
288,128,94021,1,0,0:0:0:0:
160,128,94354,1,0,0:0:0:0:
448,192,95021,1,4,0:0:0:0:
352,96,96354,1,0,0:0:0:0:
416,192,96687,1,0,0:0:0:0:
288,128,97020,1,0,0:0:0:0:
352,160,97687,1,8,0:0:0:0:
352,160,98020,1,8,0:0:0:0:
352,160,98354,1,8,0:0:0:0:
320,96,99021,1,0,0:0:0:0:
224,160,99688,1,8,0:0:0:0:
256,192,100354,1,0,0:0:0:0:
320,96,100688,1,0,0:0:0:0:
320,96,101021,1,8,0:0:0:0:
320,192,101688,1,12,0:0:0:0:
352,192,102354,1,0,0:0:0:0:
416,192,103020,1,8,0:0:0:0:
416,192,103354,1,8,0:0:0:0:
416,160,103688,1,0,0:0:0:0:
416,192,104354,1,12,0:0:0:0:
352,192,105020,1,8,0:0:0:0:
352,224,105687,1,8,0:0:0:0:
320,192,106021,1,8,0:0:0:0:
192,64,106354,1,8,0:0:0:0:
352,128,107021,1,4,0:0:0:0:
